osu file format v14

[General]
AudioFilename: audio.mp3
AudioLeadIn: 0
PreviewTime:25822
Countdown: 0
SampleSet: Soft
StackLeniency: 0.3
Mode: 0
LetterboxInBreaks: 0
WidescreenStoryboard: 1

[Editor]
Bookmarks:2645,25817,66641,99994,138013,159399
DistanceSpacing: 1.4
BeatDivisor: 4
GridSize: 8
TimelineZoom: 1.300001

[Metadata]
Title:Juvenile
TitleUnicode:Juvenile
Artist:technoplanet
ArtistUnicode:technoplanet
Creator:Astronic
Version:Hard
Source:Lanota
Tags:owc 2020 qualifier nm2 streams electronic piano artcore instrumental badgraph badgraph_
BeatmapID:2659370
BeatmapSetID:1280204

[Difficulty]
HPDrainRate:4
CircleSize:3.3
OverallDifficulty:6
ApproachRate:8
SliderMultiplier:1.2
SliderTickRate:1

[Events]
//Background and Video events
0,0,"bg.jpg",0,0
//Break Periods
//Storyboard Layer 0 (Background)
//Storyboard Layer 1 (Fail)
//Storyboard Layer 2 (Pass)
//Storyboard Layer 3 (Foreground)
//Storyboard Layer 4 (Overlay)
//Storyboard Sound Samples

[TimingPoints]
2645,645.161290322581,4,2,33,50,1,0
14257,-111.111111111111,4,2,33,50,0,0
25199,309.278350515464,4,2,1,65,1,0
25199,-111.111111111111,4,2,1,65,0,0
25250,-111.111111111111,4,2,2,65,0,0
25302,-111.111111111111,4,2,3,65,0,0
25353,-111.111111111111,4,2,4,65,0,0
25405,-111.111111111111,4,2,5,65,0,0
25457,-111.111111111111,4,2,6,65,0,0
25508,-111.111111111111,4,2,7,65,0,0
25560,-111.111111111111,4,2,8,65,0,0
25612,-111.111111111111,4,2,9,65,0,0
25662,-111.111111111111,4,2,10,65,0,0
25817,309.278350515464,4,2,13,85,1,1
25817,-90.9090909090909,4,2,13,85,0,1
28136,-90.9090909090909,4,2,10,85,0,1
28291,-90.9090909090909,4,2,6,85,0,1
28600,-90.9090909090909,4,2,3,85,0,1
29528,-90.9090909090909,4,2,6,85,0,1
29837,-90.9090909090909,4,2,1,85,0,1
30610,-90.9090909090909,4,2,5,85,0,1
30765,-90.9090909090909,4,2,3,85,0,1
33085,-90.9090909090909,4,2,10,85,0,1
33239,-90.9090909090909,4,2,6,85,0,1
33548,-90.9090909090909,4,2,1,85,0,1
34322,-90.9090909090909,4,2,11,85,0,1
34476,-90.9090909090909,4,2,6,85,0,1
34785,-90.9090909090909,4,2,13,85,0,1
35713,-90.9090909090909,4,2,10,85,0,1
38033,-90.9090909090909,4,2,14,85,0,1
38188,-90.9090909090909,4,2,10,85,0,1
39270,-90.9090909090909,4,2,15,85,0,1
39425,-90.9090909090909,4,2,13,85,0,1
40507,-90.9090909090909,4,2,16,85,0,1
40662,-90.9090909090909,4,2,13,85,0,1
41899,-90.9090909090909,4,2,17,85,0,1
41976,-90.9090909090909,4,2,18,85,0,1
42054,-90.9090909090909,4,2,19,85,0,1
42285,-90.9090909090909,4,2,3,85,0,1
42362,-90.9090909090909,4,2,5,85,0,1
42595,-90.9090909090909,4,2,6,85,0,1
42672,-90.9090909090909,4,2,7,85,0,1
42904,-90.9090909090909,4,2,10,85,0,1
42981,-90.9090909090909,4,2,12,85,0,1
43136,-90.9090909090909,4,2,14,85,0,1
43445,-90.9090909090909,4,2,15,85,0,1
43523,-90.9090909090909,4,2,14,85,0,1
43600,-90.9090909090909,4,2,13,85,0,1
43755,-90.9090909090909,4,2,8,85,0,1
43832,-90.9090909090909,4,2,7,85,0,1
43909,-90.9090909090909,4,2,6,85,0,1
44064,-90.9090909090909,4,2,1,85,0,1
44141,-90.9090909090909,4,2,19,85,0,1
44218,-90.9090909090909,4,2,18,85,0,1
44373,-90.9090909090909,4,2,21,85,0,1
44528,-90.9090909090909,4,2,17,85,0,1
44682,-90.9090909090909,4,2,20,85,0,1
44759,-90.9090909090909,4,2,18,85,0,1
44836,-90.9090909090909,4,2,19,85,0,1
45069,-90.9090909090909,4,2,3,85,0,1
45146,-90.9090909090909,4,2,1,85,0,1
45301,-90.9090909090909,4,2,6,85,0,1
45378,-90.9090909090909,4,2,7,85,0,1
45455,-90.9090909090909,4,2,8,85,0,1
45610,-90.9090909090909,4,2,13,85,0,1
46538,-90.9090909090909,4,2,5,85,0,1
46615,-90.9090909090909,4,2,6,85,0,1
46692,-90.9090909090909,4,2,8,85,0,1
46847,-90.9090909090909,4,2,16,85,0,1
47930,-90.9090909090909,4,2,10,85,0,1
48085,-90.9090909090909,4,2,12,85,0,1
48394,-90.9090909090909,4,2,13,85,0,1
49167,-90.9090909090909,4,2,3,85,0,1
49322,-90.9090909090909,4,2,6,85,0,1
49631,-90.9090909090909,4,2,7,85,0,1
50249,-90.9090909090909,4,2,5,85,0,1
50404,-90.9090909090909,4,2,13,85,0,1
50481,-90.9090909090909,4,2,15,85,0,1
50559,-90.9090909090909,4,2,16,85,0,1
50868,-90.9090909090909,4,2,15,85,0,1
50945,-90.9090909090909,4,2,14,85,0,1
51023,-90.9090909090909,4,2,13,85,0,1
51177,-90.9090909090909,4,2,14,85,0,1
51254,-90.9090909090909,4,2,13,85,0,1
51564,-90.9090909090909,4,2,12,85,0,1
51641,-90.9090909090909,4,2,11,85,0,1
51796,-90.9090909090909,4,2,12,85,0,1
51873,-90.9090909090909,4,2,11,85,0,1
51950,-90.9090909090909,4,2,10,85,0,1
52182,-90.9090909090909,4,2,9,85,0,1
52259,-90.9090909090909,4,2,10,85,0,1
52414,-90.9090909090909,4,2,8,85,0,1
52491,-90.9090909090909,4,2,9,85,0,1
52568,-90.9090909090909,4,2,10,85,0,1
52724,-90.9090909090909,4,2,8,85,0,1
52878,-90.9090909090909,4,2,10,85,0,1
53033,-90.9090909090909,4,2,6,85,0,1
53342,-90.9090909090909,4,2,1,85,0,1
54115,-90.9090909090909,4,2,11,85,0,1
54270,-90.9090909090909,4,2,6,85,0,1
54579,-90.9090909090909,4,2,13,85,0,1
55507,-90.9090909090909,4,2,10,85,0,1
56126,-90.9090909090909,4,2,3,85,0,1
56203,-90.9090909090909,4,2,6,85,0,1
56280,-90.9090909090909,4,2,8,85,0,1
56435,-90.9090909090909,4,2,13,85,0,1
56512,-90.9090909090909,4,2,10,85,0,1
56589,-90.9090909090909,4,2,13,85,0,1
56744,-90.9090909090909,4,2,16,85,0,1
57827,-90.9090909090909,4,2,14,85,0,1
57981,-90.9090909090909,4,2,10,85,0,1
59064,-90.9090909090909,4,2,15,85,0,1
59219,-90.9090909090909,4,2,13,85,0,1
59837,-90.9090909090909,4,2,15,85,0,1
59991,-90.9090909090909,4,2,16,85,0,1
60456,-90.9090909090909,4,2,13,85,0,1
61074,-90.9090909090909,4,2,1,85,0,1
61151,-90.9090909090909,4,2,19,85,0,1
61228,-90.9090909090909,4,2,18,85,0,1
61384,-90.9090909090909,4,2,1,85,0,1
61460,-90.9090909090909,4,2,3,85,0,1
61538,-90.9090909090909,4,2,4,85,0,1
61693,-90.9090909090909,4,2,6,85,0,1
61770,-90.9090909090909,4,2,3,85,0,1
61847,-90.9090909090909,4,2,6,85,0,1
62002,-90.9090909090909,4,2,8,85,0,1
62079,-90.9090909090909,4,2,7,85,0,1
62156,-90.9090909090909,4,2,8,85,0,1
62311,-90.9090909090909,4,2,10,85,0,1
62388,-90.9090909090909,4,2,7,85,0,1
62465,-90.9090909090909,4,2,8,85,0,1
62621,-90.9090909090909,4,2,13,85,0,1
62698,-90.9090909090909,4,2,10,85,0,1
62775,-90.9090909090909,4,2,13,85,0,1
62930,-90.9090909090909,4,2,15,85,0,1
63239,-90.9090909090909,4,2,13,85,0,1
63548,-90.9090909090909,4,2,9,85,0,1
64012,-90.9090909090909,4,2,8,85,0,1
64167,-90.9090909090909,4,2,10,85,0,1
64786,-90.9090909090909,4,2,16,85,0,1
65095,-90.9090909090909,4,2,14,85,0,1
65404,-90.9090909090909,4,2,13,85,0,1
65867,-90.9090909090909,4,2,12,85,0,1
66331,-90.9090909090909,4,2,10,85,0,1
66641,-125,4,2,10,60,0,0
67878,-125,4,2,1,60,0,0
68033,-125,4,2,2,60,0,0
68187,-125,4,2,3,60,0,0
68497,-125,4,2,1,60,0,0
68652,-125,4,2,4,60,0,0
68806,-125,4,2,2,60,0,0
68961,-125,4,2,5,60,0,0
69115,-125,4,2,2,60,0,0
69424,-125,4,2,6,60,0,0
69579,-125,4,2,2,60,0,0
69734,-125,4,2,4,60,0,0
69889,-125,4,2,2,60,0,0
70043,-125,4,2,7,60,0,0
70353,-125,4,2,6,60,0,0
70507,-125,4,2,1,60,0,0
70662,-125,4,2,3,60,0,0
70817,-125,4,2,7,60,0,0
71126,-125,4,2,9,60,0,0
71280,-125,4,2,8,60,0,0
71899,-125,4,2,6,60,0,0
72053,-125,4,2,3,60,0,0
72208,-125,4,2,13,60,0,0
72518,-125,4,2,14,60,0,0
72827,-125,4,2,8,60,0,0
72981,-125,4,2,3,60,0,0
73600,-125,4,2,9,60,0,0
73755,-125,4,2,5,60,0,0
73909,-125,4,2,10,60,0,0
74064,-125,4,2,1,60,0,0
74219,-125,4,2,2,60,0,0
74682,-125,4,2,3,60,0,0
75301,-125,4,2,10,60,0,0
75920,-125,4,2,2,60,0,0
76538,-125,4,2,7,60,0,0
76693,-125,4,2,2,60,0,0
77157,-125,4,2,11,60,0,0
77775,-125,4,2,5,60,0,0
79012,-125,4,2,33,60,0,0
87672,-125,4,2,2,60,0,0
99994,297.029702970297,4,2,23,85,1,1
100068,-100,4,2,24,85,0,1
100142,-100,4,2,9,85,0,1
100291,-90.9090909090909,4,2,3,85,0,1
100365,-90.9090909090909,4,2,24,85,0,1
100439,-90.9090909090909,4,2,9,85,0,1
100588,-90.9090909090909,4,2,2,85,0,1
100662,-90.9090909090909,4,2,24,85,0,1
100736,-90.9090909090909,4,2,9,85,0,1
100885,-90.9090909090909,4,2,3,85,0,1
100959,-90.9090909090909,4,2,24,85,0,1
101033,-90.9090909090909,4,2,10,85,0,1
101182,-90.9090909090909,4,2,23,85,0,1
101256,-90.9090909090909,4,2,26,85,0,1
101330,-90.9090909090909,4,2,27,85,0,1
101404,-90.9090909090909,4,2,14,85,0,1
101479,-90.9090909090909,4,2,25,85,0,1
101627,-90.9090909090909,4,2,9,85,0,1
101701,-90.9090909090909,4,2,24,85,0,1
101776,-90.9090909090909,4,2,7,85,0,1
101849,-90.9090909090909,4,2,10,85,0,1
101924,-90.9090909090909,4,2,9,85,0,1
101998,-90.9090909090909,4,2,10,85,0,1
102073,-90.9090909090909,4,2,25,85,0,1
102221,-90.9090909090909,4,2,27,85,0,1
102370,-90.9090909090909,4,2,16,85,0,1
102443,-90.9090909090909,4,2,28,85,0,1
102518,-90.9090909090909,4,2,27,85,0,1
102592,-90.9090909090909,4,2,28,85,0,1
102667,-90.9090909090909,4,2,25,85,0,1
102964,-90.9090909090909,4,2,24,85,0,1
103063,-90.9090909090909,4,2,16,85,0,1
103162,-90.9090909090909,4,2,28,85,0,1
103261,-90.9090909090909,4,2,27,85,0,1
103360,-90.9090909090909,4,2,25,85,0,1
103459,-90.9090909090909,4,2,29,85,0,1
103558,-90.9090909090909,4,2,10,85,0,1
103657,-90.9090909090909,4,2,29,85,0,1
103756,-90.9090909090909,4,2,25,85,0,1
103855,-90.9090909090909,4,2,27,85,0,1
104152,-90.9090909090909,4,2,16,85,0,1
104449,-90.9090909090909,4,2,30,85,0,1
104746,-90.9090909090909,4,2,31,85,0,1
105043,-90.9090909090909,4,2,23,85,0,1
105192,-90.9090909090909,4,2,25,85,0,1
105340,-90.9090909090909,4,2,10,85,0,1
105489,-90.9090909090909,4,2,9,85,0,1
105637,-90.9090909090909,4,2,24,85,0,1
105934,-90.9090909090909,4,2,25,85,0,1
108013,-90.9090909090909,4,2,13,85,0,1
108310,-90.9090909090909,4,2,12,85,0,1
108607,-90.9090909090909,4,2,11,85,0,1
108756,-90.9090909090909,4,2,2,85,0,1
108904,-90.9090909090909,4,2,9,85,0,1
109052,-90.9090909090909,4,2,2,85,0,1
109498,-90.9090909090909,4,2,24,85,0,1
109944,-90.9090909090909,4,2,23,85,0,1
110464,-90.9090909090909,4,2,24,85,0,1
110538,-90.9090909090909,4,2,10,85,0,1
110687,-90.9090909090909,4,2,9,85,0,1
111132,-90.9090909090909,4,2,24,85,0,1
111652,-90.9090909090909,4,2,10,85,0,1
111726,-90.9090909090909,4,2,25,85,0,1
111948,-90.9090909090909,4,2,10,85,0,1
112023,-90.9090909090909,4,2,25,85,0,1
112097,-90.9090909090909,4,2,27,85,0,1
112172,-90.9090909090909,4,2,25,85,0,1
112320,-90.9090909090909,4,2,27,85,0,1
112766,-90.9090909090909,4,2,28,85,0,1
113063,-90.9090909090909,4,2,16,85,0,1
113137,-90.9090909090909,4,2,30,85,0,1
113211,-90.9090909090909,4,2,16,85,0,1
113434,-90.9090909090909,4,2,28,85,0,1
113508,-90.9090909090909,4,2,27,85,0,1
113731,-90.9090909090909,4,2,12,85,0,1
113805,-90.9090909090909,4,2,25,85,0,1
113954,-90.9090909090909,4,2,10,85,0,1
114028,-90.9090909090909,4,2,29,85,0,1
114102,-90.9090909090909,4,2,10,85,0,1
114251,-90.9090909090909,4,2,24,85,0,1
114696,-90.9090909090909,4,2,25,85,0,1
115142,-90.9090909090909,4,2,27,85,0,1
116033,-90.9090909090909,4,2,28,85,0,1
116627,-90.9090909090909,4,2,16,85,0,1
117221,-90.9090909090909,4,2,27,85,0,1
117815,-90.9090909090909,4,2,28,85,0,1
117889,-90.9090909090909,4,2,16,85,0,1
117963,-90.9090909090909,4,2,28,85,0,1
118186,-90.9090909090909,4,2,27,85,0,1
118260,-90.9090909090909,4,2,28,85,0,1
118409,-90.9090909090909,4,2,29,85,0,1
118483,-90.9090909090909,4,2,27,85,0,1
118557,-90.9090909090909,4,2,28,85,0,1
118706,-90.9090909090909,4,2,14,85,0,1
118781,-90.9090909090909,4,2,25,85,0,1
118855,-90.9090909090909,4,2,10,85,0,1
119003,-90.9090909090909,4,2,24,85,0,1
119969,-90.9090909090909,4,2,9,85,0,1
120043,-90.9090909090909,4,2,25,85,0,1
120192,-90.9090909090909,4,2,31,85,0,1
121231,-90.9090909090909,4,2,25,85,0,1
121380,-90.9090909090909,4,2,24,85,0,1
121974,-90.9090909090909,4,2,27,85,0,1
122419,-90.9090909090909,4,2,23,85,0,1
122568,-90.9090909090909,4,2,24,85,0,1
122716,-90.9090909090909,4,2,23,85,0,1
122865,-90.9090909090909,4,2,24,85,0,1
123013,-90.9090909090909,4,2,23,85,0,1
123162,-90.9090909090909,4,2,9,85,0,1
123459,-90.9090909090909,4,2,25,85,0,1
123607,-90.9090909090909,4,2,27,85,0,1
123682,-90.9090909090909,4,2,16,85,0,1
123756,-90.9090909090909,4,2,31,85,0,1
124053,-90.9090909090909,4,2,16,85,0,1
124350,-90.9090909090909,4,2,28,85,0,1
124424,-90.9090909090909,4,2,27,85,0,1
124498,-90.9090909090909,4,2,14,85,0,1
124647,-90.9090909090909,4,2,27,85,0,1
124721,-90.9090909090909,4,2,14,85,0,1
124795,-90.9090909090909,4,2,13,85,0,1
124944,-90.9090909090909,4,2,14,85,0,1
125018,-90.9090909090909,4,2,13,85,0,1
125092,-90.9090909090909,4,2,25,85,0,1
125315,-90.9090909090909,4,2,29,85,0,1
125389,-90.9090909090909,4,2,10,85,0,1
125612,-90.9090909090909,4,2,29,85,0,1
125686,-90.9090909090909,4,2,10,85,0,1
125984,-90.9090909090909,4,2,25,85,0,1
126132,-90.9090909090909,4,2,24,85,0,1
126206,-90.9090909090909,4,2,23,85,0,1
126280,-90.9090909090909,4,2,25,85,0,1
126354,-90.9090909090909,4,2,27,85,0,1
126429,-90.9090909090909,4,2,24,85,0,1
126726,-90.9090909090909,4,2,2,85,0,1
126800,-90.9090909090909,4,2,3,85,0,1
126874,-90.9090909090909,4,2,23,85,0,1
127023,-90.9090909090909,4,2,3,85,0,1
127172,-90.9090909090909,4,2,13,85,0,1
127320,-90.9090909090909,4,2,27,85,0,1
127914,-90.9090909090909,4,2,3,85,0,1
127988,-90.9090909090909,4,2,32,85,0,1
128062,-90.9090909090909,4,2,23,85,0,1
128211,-90.9090909090909,4,2,3,85,0,1
128360,-90.9090909090909,4,2,23,85,0,1
128508,-90.9090909090909,4,2,27,85,0,1
128582,-90.9090909090909,4,2,23,85,0,1
128656,-90.9090909090909,4,2,25,85,0,1
128731,-90.9090909090909,4,2,27,85,0,1
128805,-90.9090909090909,4,2,23,85,0,1
129176,-90.9090909090909,4,2,9,85,0,1
129250,-90.9090909090909,4,2,24,85,0,1
129399,-90.9090909090909,4,2,26,85,0,1
129473,-90.9090909090909,4,2,2,85,0,1
129547,-90.9090909090909,4,2,26,85,0,1
129770,-90.9090909090909,4,2,2,85,0,1
129845,-90.9090909090909,4,2,26,85,0,1
129919,-90.9090909090909,4,2,2,85,0,1
129993,-90.9090909090909,4,2,26,85,0,1
130291,-90.9090909090909,4,2,3,85,0,1
130365,-90.9090909090909,4,2,32,85,0,1
130439,-90.9090909090909,4,2,23,85,0,1
130588,-90.9090909090909,4,2,3,85,0,1
130662,-90.9090909090909,4,2,32,85,0,1
130736,-90.9090909090909,4,2,23,85,0,1
130885,-90.9090909090909,4,2,25,85,0,1
130958,-90.9090909090909,4,2,27,85,0,1
131033,-90.9090909090909,4,2,28,85,0,1
131182,-90.9090909090909,4,2,25,85,0,1
131479,-90.9090909090909,4,2,16,85,0,1
131776,-90.9090909090909,4,2,14,85,0,1
131924,-90.9090909090909,4,2,31,85,0,1
132073,-90.9090909090909,4,2,27,85,0,1
132370,-90.9090909090909,4,2,10,85,0,1
132518,-90.9090909090909,4,2,24,85,0,1
132667,-90.9090909090909,4,2,3,85,0,1
132741,-90.9090909090909,4,2,2,85,0,1
132815,-90.9090909090909,4,2,26,85,0,1
132964,-90.9090909090909,4,2,3,85,0,1
133038,-90.9090909090909,4,2,32,85,0,1
133112,-90.9090909090909,4,2,23,85,0,1
133261,-90.9090909090909,4,2,24,85,0,1
133335,-90.9090909090909,4,2,23,85,0,1
133409,-90.9090909090909,4,2,24,85,0,1
133483,-90.9090909090909,4,2,9,85,0,1
133558,-90.9090909090909,4,2,10,85,0,1
133855,-90.9090909090909,4,2,25,85,0,1
133929,-90.9090909090909,4,2,23,85,0,1
134003,-90.9090909090909,4,2,10,85,0,1
134152,-90.9090909090909,4,2,27,85,0,1
134226,-90.9090909090909,4,2,25,85,0,1
134300,-90.9090909090909,4,2,27,85,0,1
134449,-90.9090909090909,4,2,16,85,0,1
134597,-90.9090909090909,4,2,27,85,0,1
134746,-90.9090909090909,4,2,31,85,0,1
134894,-90.9090909090909,4,2,28,85,0,1
135043,-90.9090909090909,4,2,30,85,0,1
135191,-90.9090909090909,4,2,27,85,0,1
135340,-90.9090909090909,4,2,30,85,0,1
135489,-90.9090909090909,4,2,27,85,0,1
135637,-90.9090909090909,4,2,28,85,0,1
135785,-90.9090909090909,4,2,9,85,0,1
135859,-90.9090909090909,4,2,29,85,0,1
135934,-90.9090909090909,4,2,25,85,0,1
136231,-90.9090909090909,4,2,31,85,0,1
136304,-90.9090909090909,4,2,24,85,0,1
136378,-90.9090909090909,4,2,9,85,0,1
136453,-90.9090909090909,4,2,10,85,0,1
136528,-90.9090909090909,4,2,29,85,0,1
136677,-90.9090909090909,4,2,13,85,0,1
136825,-90.9090909090909,4,2,27,85,0,1
137122,-90.9090909090909,4,2,25,85,0,1
137419,-90.9090909090909,4,2,2,85,0,1
137568,-90.9090909090909,4,2,32,85,0,1
137642,-90.9090909090909,4,2,23,85,0,1
137716,-90.9090909090909,4,2,25,85,0,1
138013,-90.9090909090909,4,2,27,60,0,0
140390,-90.9090909090909,4,2,24,60,0,0
141429,-90.9090909090909,4,2,7,60,0,0
141578,-222.222222222222,4,2,24,60,0,0
142617,-222.222222222222,4,2,7,60,0,0
142766,-222.222222222222,4,2,24,60,0,0
143805,-222.222222222222,4,2,25,60,0,0
143953,-222.222222222222,4,2,24,60,0,0
144993,-222.222222222222,4,2,13,60,0,0
145142,-222.222222222222,4,2,24,60,0,0
146182,-222.222222222222,4,2,27,60,0,0
146330,-222.222222222222,4,2,25,60,0,0
147369,-222.222222222222,4,2,27,60,0,0
147518,-222.222222222222,4,2,25,60,0,0
148557,-222.222222222222,4,2,28,60,0,0
148706,-222.222222222222,4,2,25,60,0,0
149745,-222.222222222222,4,2,16,60,0,0
149894,-222.222222222222,4,2,27,60,0,0
150934,-222.222222222222,4,2,31,60,0,0
151083,-222.222222222222,4,2,27,60,0,0
152122,-222.222222222222,4,2,31,60,0,0
152271,-222.222222222222,4,2,27,60,0,0
153310,-222.222222222222,4,2,31,60,0,0
153459,-222.222222222222,4,2,27,60,0,0
155687,-222.222222222222,4,2,31,60,0,0
155835,-222.222222222222,4,2,27,60,0,0
157023,-111.111111111111,4,2,33,60,0,0

[Colours]
Combo1 : 65,218,250
Combo2 : 32,155,255

[HitObjects]
256,192,2645,12,6,12967,2:0:0:0:
168,240,14257,6,0,L|280:232,1,108,2|2,2:0|2:0,2:0:0:0:
384,224,15548,2,0,L|392:112,2,108,2|2|2,2:0|2:0|2:0,2:0:0:0:
312,304,17483,1,2,2:0:0:0:
248,216,18128,6,0,L|128:224,2,108,2|2|2,2:0|2:0|2:0,2:0:0:0:
360,208,20064,1,2,2:0:0:0:
384,104,20709,6,0,L|272:96,1,108,2|2,2:0|2:0,2:0:0:0:
192,32,21999,2,0,L|184:144,1,108,2|2,2:0|2:0,2:0:0:0:
176,248,23290,6,0,L|208:256,2,18,2|2|2,2:0|2:0|2:0,2:0:0:0:
176,248,25199,6,0,L|336:272,1,162,2|2,2:0|2:0,2:0:0:0:
416,312,25817,6,0,B|392:272|392:272|416:176,1,132,6|8,3:2|2:0,2:0:0:0:
416,104,26280,1,0,2:0:0:0:
416,104,26358,1,0,2:0:0:0:
416,104,26435,2,0,L|336:112,1,66,0|0,2:0|3:2,2:0:0:0:
304,32,26744,2,0,L|232:40,1,66,8|0,2:0|2:0,2:0:0:0:
152,40,27054,6,0,B|120:64|120:64|112:160,1,132,0|8,3:2|2:0,2:0:0:0:
40,208,27518,1,0,2:0:0:0:
40,208,27595,1,0,2:0:0:0:
40,208,27672,2,0,L|32:288,1,66,0|0,2:0|3:2,2:0:0:0:
112,328,27981,1,8,2:0:0:0:
200,288,28136,1,2,2:0:0:0:
200,288,28291,6,0,P|264:312|336:272,1,132,2|8,3:2|2:0,2:0:0:0:
416,320,28755,1,0,2:0:0:0:
416,320,28832,1,0,2:0:0:0:
416,320,28909,2,0,L|424:240,1,66,0|0,2:0|3:2,2:0:0:0:
400,168,29219,1,8,2:0:0:0:
456,96,29373,1,2,2:0:0:0:
456,96,29528,6,0,L|320:80,1,132,2|8,3:2|2:0,2:0:0:0:
248,32,29992,2,0,B|280:72|280:72|264:160,1,132,0|0,3:2|3:2,2:0:0:0:
328,224,30456,1,8,2:0:0:0:
248,272,30610,1,2,2:0:0:0:
248,272,30765,6,0,P|200:224|120:232,1,132,2|8,3:2|2:0,2:0:0:0:
64,280,31229,1,0,2:0:0:0:
64,280,31306,1,0,2:0:0:0:
64,280,31384,2,0,L|72:360,1,66,0|0,2:0|3:2,2:0:0:0:
160,376,31693,2,0,P|200:360|248:368,1,66,8|0,2:0|2:0,2:0:0:0:
312,360,32002,6,0,B|336:328|336:328|440:344,1,132,0|8,3:2|2:0,2:0:0:0:
488,272,32466,1,0,2:0:0:0:
488,272,32543,1,0,2:0:0:0:
488,272,32621,2,0,P|472:232|480:192,1,66,0|0,2:0|3:2,2:0:0:0:
512,128,32930,1,8,2:0:0:0:
464,48,33085,1,2,2:0:0:0:
464,48,33239,6,0,L|312:32,1,132,2|8,3:2|2:0,2:0:0:0:
264,96,33703,1,0,2:0:0:0:
264,96,33780,1,0,2:0:0:0:
264,96,33858,2,0,L|184:88,1,66,0|0,2:0|3:2,2:0:0:0:
136,24,34167,1,8,2:0:0:0:
56,72,34322,1,2,2:0:0:0:
56,72,34476,6,0,B|16:104|16:104|32:208,1,132,2|8,3:2|2:0,2:0:0:0:
48,272,34940,2,0,L|184:240,1,132,0|0,3:2|3:2,2:0:0:0:
248,184,35404,1,8,2:0:0:0:
336,216,35559,1,2,2:0:0:0:
336,216,35713,6,0,P|384:256|384:336,1,132,2|8,3:2|2:0,2:0:0:0:
312,368,36177,1,0,2:0:0:0:
312,368,36255,1,0,2:0:0:0:
312,368,36332,2,0,L|240:360,1,66,0|0,2:0|3:2,2:0:0:0:
184,296,36641,2,0,L|112:288,1,66,8|0,2:0|2:0,2:0:0:0:
24,272,36951,6,0,B|48:224|48:224|32:136,1,132,0|8,3:2|2:0,2:0:0:0:
8,56,37414,1,0,2:0:0:0:
8,56,37492,1,0,2:0:0:0:
8,56,37569,2,0,L|80:64,1,66,0|0,2:0|3:2,2:0:0:0:
144,8,37878,1,8,2:0:0:0:
200,80,38033,1,2,2:0:0:0:
200,80,38188,6,0,P|248:112|328:96,1,132,2|8,3:2|2:0,2:0:0:0:
392,48,38652,1,0,2:0:0:0:
392,48,38729,1,0,2:0:0:0:
392,48,38806,2,0,P|432:40|472:56,1,66,0|0,2:0|3:2,2:0:0:0:
512,120,39115,1,8,2:0:0:0:
464,200,39270,1,2,2:0:0:0:
464,200,39425,6,0,B|440:240|440:240|464:336,1,132,2|8,3:2|2:0,2:0:0:0:
376,368,39889,2,0,L|344:232,1,132,0|0,3:2|3:2,2:0:0:0:
320,152,40353,1,8,2:0:0:0:
368,72,40507,1,2,2:0:0:0:
368,72,40662,6,0,L|232:48,1,132,2|8,3:2|2:0,2:0:0:0:
144,32,41126,1,0,2:0:0:0:
56,16,41280,2,0,L|62:81,1,66,0|0,2:0|3:2,2:0:0:0:
8,160,41590,1,8,2:0:0:0:
40,352,41899,5,2,3:2:0:0:
40,352,41976,1,2,2:0:0:0:
40,352,42054,1,2,2:0:0:0:
112,296,42208,2,0,L|104:248,2,33,10|2|2,2:0|2:0|2:0,2:0:0:0:
200,320,42518,2,0,L|194:352,2,33,2|2|2,2:0|2:0|3:2,2:0:0:0:
288,288,42827,2,0,L|282:255,2,33,10|2|2,2:0|2:0|2:0,2:0:0:0:
368,328,43136,5,2,3:2:0:0:
504,200,43445,1,10,2:0:0:0:
504,200,43523,1,2,2:0:0:0:
504,200,43600,1,2,2:0:0:0:
440,128,43755,2,0,L|392:136,2,33,2|2|2,2:0|2:0|3:2,2:0:0:0:
464,40,44064,2,0,L|392:48,1,66,10|2,2:0|2:0,2:0:0:0:
312,8,44373,5,2,3:2:0:0:
312,8,44528,1,2,2:0:0:0:
248,72,44682,2,0,L|256:144,1,66,2|2,2:0|3:2,2:0:0:0:
344,192,44992,1,2,2:0:0:0:
344,192,45069,1,2,2:0:0:0:
344,192,45146,1,2,3:2:0:0:
296,272,45301,2,0,P|256:272|224:296,1,66,2|10,2:0|2:0,2:0:0:0:
152,336,45610,6,0,B|56:320|56:320|32:280,1,132,6|8,3:2|2:0,2:0:0:0:
16,200,46074,1,0,2:0:0:0:
16,200,46152,1,0,2:0:0:0:
16,200,46229,2,0,L|24:128,1,66,0|0,2:0|3:2,2:0:0:0:
48,48,46538,2,0,L|15:53,2,33,10|2|2,2:0|2:0|2:0,2:0:0:0:
128,8,46847,6,0,L|280:24,1,132,2|8,3:2|2:0,2:0:0:0:
336,72,47311,1,0,2:0:0:0:
336,72,47389,1,0,2:0:0:0:
336,72,47466,2,0,P|368:80|416:64,1,66,0|0,2:0|3:2,2:0:0:0:
480,32,47775,1,8,2:0:0:0:
504,120,47930,1,2,2:0:0:0:
504,120,48085,6,0,L|488:264,1,132,2|8,3:2|2:0,2:0:0:0:
480,344,48548,1,0,2:0:0:0:
392,320,48703,2,0,P|328:304|264:328,1,132,2|8,2:0|2:0,2:0:0:0:
184,360,49167,1,2,2:0:0:0:
184,360,49322,6,0,P|184:296|144:240,1,132,2|8,3:2|2:0,2:0:0:0:
96,168,49786,1,0,3:2:0:0:
184,136,49940,2,0,P|224:104|232:8,1,132,2|10,2:0|2:0,2:0:0:0:
160,8,50404,1,2,2:0:0:0:
160,8,50481,1,2,2:0:0:0:
160,8,50559,6,0,L|80:16,1,66,2|0,3:2|2:0,2:0:0:0:
32,80,50868,1,10,2:0:0:0:
32,80,50945,1,2,2:0:0:0:
32,80,51023,1,2,2:0:0:0:
32,168,51177,2,0,L|72:160,2,33,2|2|0,2:0|2:0|2:0,2:0:0:0:
48,256,51487,2,0,L|8:248,2,33,10|2|2,2:0|2:0|2:0,2:0:0:0:
64,344,51796,6,0,L|144:360,1,66,2|2,3:2|2:0,2:0:0:0:
208,304,52105,2,0,L|296:320,1,66,10|2,2:0|2:0,2:0:0:0:
360,336,52414,2,0,L|352:376,2,33,2|2|2,2:0|2:0|3:2,2:0:0:0:
456,352,52724,1,10,2:0:0:0:
496,264,52878,1,2,2:0:0:0:
496,264,53033,6,0,L|480:128,1,132,2|8,3:2|2:0,2:0:0:0:
472,40,53497,1,0,2:0:0:0:
472,40,53574,1,0,2:0:0:0:
472,40,53652,2,0,L|400:48,1,66,0|0,2:0|3:2,2:0:0:0:
328,96,53961,1,8,2:0:0:0:
264,32,54115,1,2,2:0:0:0:
264,32,54270,6,0,L|128:40,1,132,2|8,3:2|2:0,2:0:0:0:
40,48,54734,2,0,B|56:96|56:96|32:176,1,132,0|0,3:2|3:2,2:0:0:0:
8,264,55198,1,8,2:0:0:0:
88,304,55353,1,2,2:0:0:0:
88,304,55507,6,0,L|224:320,1,132,2|8,3:2|2:0,2:0:0:0:
408,352,56126,1,2,2:0:0:0:
408,352,56203,1,2,2:0:0:0:
408,352,56280,1,2,3:2:0:0:
360,272,56435,2,0,L|368:232,2,33,10|2|2,2:0|2:0|2:0,2:0:0:0:
272,240,56744,6,0,L|304:104,1,132,2|8,3:2|2:0,2:0:0:0:
312,16,57208,1,0,2:0:0:0:
312,16,57286,1,0,2:0:0:0:
312,16,57363,2,0,P|352:32|400:32,1,66,0|0,2:0|3:2,2:0:0:0:
464,8,57672,1,8,2:0:0:0:
496,96,57827,1,2,2:0:0:0:
496,96,57981,6,0,L|480:240,1,132,2|8,3:2|2:0,2:0:0:0:
480,328,58445,1,0,2:0:0:0:
480,328,58523,1,0,2:0:0:0:
480,328,58600,2,0,P|448:368|416:376,1,66,0|0,2:0|3:2,2:0:0:0:
344,360,58909,1,8,2:0:0:0:
280,296,59064,1,2,2:0:0:0:
280,296,59219,6,0,L|144:280,1,132,2|8,3:2|2:0,2:0:0:0:
72,328,59682,1,0,3:2:0:0:
0,264,59837,2,0,L|16:128,1,132,2|8,2:0|2:0,2:0:0:0:
32,48,60301,1,2,2:0:0:0:
32,48,60456,6,0,P|104:40|152:72,1,132,2|8,3:2|2:0,2:0:0:0:
152,160,60920,1,0,2:0:0:0:
216,232,61074,2,0,P|240:200|248:168,1,66,2|2,2:0|3:2,2:0:0:0:
256,80,61384,2,0,L|328:72,1,66,10|2,2:0|2:0,2:0:0:0:
416,72,61693,5,2,3:2:0:0:
416,72,61770,1,2,2:0:0:0:
416,72,61847,1,2,2:0:0:0:
472,144,62002,2,0,L|512:152,2,33,10|2|2,2:0|2:0|2:0,2:0:0:0:
424,224,62311,2,0,L|391:217,2,33,2|2|2,2:0|2:0|3:2,2:0:0:0:
456,312,62621,2,0,L|489:319,2,33,10|2|2,2:0|2:0|2:0,2:0:0:0:
392,384,62930,5,2,3:2:0:0:
248,264,63239,2,0,L|176:272,1,66,2|0,3:2|3:0,2:0:0:0:
96,304,63548,2,0,L|88:224,1,66,2|0,3:2|3:0,2:0:0:0:
24,176,63858,2,0,L|32:96,1,66,2|2,3:2|3:2,2:0:0:0:
40,16,64167,5,10,3:2:0:0:
40,16,64244,1,8,2:0:0:0:
40,16,64322,1,0,3:0:0:0:
128,48,64476,2,0,P|160:64|200:56,1,66,10|0,2:0|3:2,2:0:0:0:
280,40,64786,2,0,P|320:48|352:80,1,66,10|0,2:0|3:2,2:0:0:0:
408,144,65095,1,10,2:0:0:0:
408,144,65172,1,8,2:0:0:0:
408,144,65249,1,8,2:0:0:0:
344,208,65404,6,0,P|376:280|488:272,2,198,6|6|6,3:2|3:2|3:2,2:0:0:0:
336,80,66641,6,0,L|276:76,1,48,0|0,2:0|2:0,2:0:0:0:
232,24,66951,2,0,L|176:32,1,48,0|0,2:0|2:0,2:0:0:0:
104,40,67260,2,0,L|96:152,1,96,0|0,2:0|2:0,2:0:0:0:
40,280,67878,6,0,P|96:264|144:288,1,96,2|10,2:3|2:3,2:0:0:0:
256,360,68497,1,2,2:3:0:0:
256,360,68652,2,0,L|312:352,1,48,10|2,2:3|2:3,2:0:0:0:
384,344,68961,1,2,2:3:0:0:
464,336,69115,6,0,B|496:312|496:312|488:248,1,96,2|10,2:3|2:3,2:0:0:0:
464,184,69579,1,10,2:3:0:0:
464,184,69657,1,0,2:0:0:0:
464,184,69734,2,0,L|472:88,1,96,10|2,2:3|2:3,2:0:0:0:
328,32,70353,6,0,L|336:144,1,96,2|2,2:0|2:0,2:0:0:0:
336,208,70817,2,0,P|280:200|232:216,1,96,2|2,2:0|2:0,2:0:0:0:
176,248,71280,2,0,P|142:202|96:180,1,96,2|0,2:0|2:0,2:0:0:0:
32,168,71744,2,0,P|40:112|24:64,1,96,2|2,2:0|2:0,2:0:0:0:
80,16,72208,1,2,2:0:0:0:
224,72,72518,1,2,2:0:0:0:
368,24,72827,6,0,B|440:64|440:64|416:328,1,336,2|2,2:3|2:3,2:0:0:0:
352,360,74064,2,0,L|208:368,1,144,2|0,2:3|2:0,2:0:0:0:
128,368,74682,2,0,P|80:312|88:240,1,144,10|0,2:3|2:0,2:0:0:0:
136,184,75301,2,0,B|208:120|184:32|184:32|232:112|336:104,1,336,2|2,2:3|2:3,2:0:0:0:
368,168,76538,6,0,P|424:160|496:224,1,144,2|0,2:0|2:0,2:0:0:0:
464,288,77157,2,0,P|393:292|341:245,1,144,10|0,2:3|2:0,2:0:0:0:
288,184,77775,5,6,2:0:0:0:
288,184,79012,1,2,2:0:0:0:
288,184,80249,1,2,2:0:0:0:
288,184,81487,1,2,2:0:0:0:
256,336,82724,5,2,2:0:0:0:
256,336,83961,1,2,2:0:0:0:
256,336,85198,1,2,2:0:0:0:
256,336,86435,1,2,2:0:0:0:
96,272,87672,6,0,L|104:176,1,96,2|8,2:3|2:3,2:0:0:0:
112,96,88136,2,0,L|80:88,2,24,2|8|2,2:3|2:3|2:3,2:0:0:0:
160,32,88445,2,0,P|208:16|256:32,1,96,8|2,2:3|2:3,2:0:0:0:
304,88,88909,6,0,L|296:184,1,96,2|2,2:3|2:3,2:0:0:0:
280,336,89528,1,2,2:3:0:0:
432,312,89837,2,0,L|424:248,1,48,2|0,2:3|2:0,2:0:0:0:
464,192,90146,6,0,L|456:96,1,96,2|8,2:3|2:3,2:0:0:0:
408,32,90610,2,0,L|416:8,2,24,2|8|2,2:3|2:3|2:3,2:0:0:0:
344,80,90920,2,0,P|304:96|240:80,1,96,10|0,2:3|2:0,2:0:0:0:
184,56,91384,5,8,2:3:0:0:
40,120,91693,2,0,L|48:232,1,96,2|2,2:3|2:3,2:0:0:0:
56,296,92157,2,0,P|112:288|160:320,1,96,8|8,2:3|2:3,2:0:0:0:
208,352,92621,6,0,L|312:344,1,96,2|8,2:3|2:3,2:0:0:0:
456,336,93239,1,2,2:3:0:0:
456,336,93317,1,2,2:3:0:0:
456,336,93394,2,0,P|464:280|440:224,1,96,8|0,2:3|2:0,2:0:0:0:
400,184,93858,5,0,2:0:0:0:
264,256,94167,2,0,L|200:248,1,48,10|8,2:3|2:3,2:0:0:0:
144,216,94476,2,0,P|152:160|144:112,1,96,10|2,2:3|2:3,2:0:0:0:
272,32,95095,6,0,L|368:40,1,96,2|8,2:3|2:3,2:0:0:0:
440,96,95559,1,0,2:0:0:0:
440,96,95636,1,8,2:3:0:0:
440,96,95713,2,0,L|448:160,1,48,0|8,2:0|2:3,2:0:0:0:
504,200,96023,2,0,L|496:248,1,48,0|0,2:0|2:0,2:0:0:0:
496,328,96332,6,0,B|432:368|336:328|336:328|256:296|160:344,1,336,8|0,2:3|2:0,2:0:0:0:
256,192,97569,12,0,99425,2:0:0:0:
264,200,99994,5,6,3:2:0:0:
268,204,100068,1,2,2:0:0:0:
264,200,100142,1,2,2:0:0:0:
280,104,100291,2,0,L|273:71,2,33,10|2|2,2:0|2:0|2:0,2:0:0:0:
352,168,100588,2,0,L|360:208,2,33,2|2|2,2:0|2:0|3:2,2:0:0:0:
376,80,100885,2,0,L|369:47,2,33,10|2|2,2:0|2:0|2:0,2:0:0:0:
440,152,101182,6,0,L|480:288,1,132,2|10,3:2|2:0,2:0:0:0:
408,344,101627,1,2,2:0:0:0:
408,344,101701,1,2,2:0:0:0:
408,344,101776,2,0,P|360:312|280:320,1,132,2|10,2:0|2:0,2:0:0:0:
200,336,102221,1,2,2:0:0:0:
112,360,102370,6,0,L|104:216,1,132,2|10,3:2|2:0,2:0:0:0:
64,48,102964,2,0,L|72:-8,2,44,2|2|2,2:0|2:0|2:0,2:0:0:0:
112,72,103261,2,0,L|105:115,2,44,10|2|2,2:0|2:0|2:0,2:0:0:0:
168,40,103558,2,0,P|224:24|304:64,1,132,2|10,3:2|2:0,2:0:0:0:
336,232,104152,1,2,2:0:0:0:
160,192,104449,1,10,2:0:0:0:
296,320,104746,6,0,P|328:328|424:272,1,132,2|10,3:2|2:0,2:0:0:0:
472,216,105192,2,0,B|440:184|440:184|464:72,1,132,2|2,2:0|3:2,2:0:0:0:
408,24,105637,1,10,2:0:0:0:
408,24,105786,6,0,P|360:40|272:16,1,132,0|0,2:0|2:0,2:0:0:0:
232,104,106231,1,10,2:0:0:0:
160,48,106380,2,0,L|16:64,1,132,0|0,2:0|3:0,2:0:0:0:
96,144,106825,1,10,2:0:0:0:
96,144,106974,1,0,2:0:0:0:
40,216,107122,6,0,B|48:312|48:312|80:344,1,132,2|10,3:2|2:0,2:0:0:0:
144,280,107568,1,0,2:0:0:0:
144,280,107642,1,0,2:0:0:0:
144,280,107716,1,0,2:0:0:0:
208,344,107865,1,0,3:0:0:0:
256,264,108013,2,0,P|296:256|344:272,1,66,10|0,2:0|2:0,2:0:0:0:
384,328,108310,6,0,B|368:280|368:280|392:184,1,132,2|10,3:0|2:3,2:0:0:0:
480,208,108756,1,2,3:0:0:0:
480,208,108904,2,0,L|497:128,1,66,2|8,2:0|2:3,2:0:0:0:
504,56,109201,1,2,2:3:0:0:
504,56,109276,1,0,2:0:0:0:
504,56,109350,1,0,2:0:0:0:
424,16,109498,6,0,L|392:144,1,132,6|10,3:2|2:0,2:0:0:0:
432,216,109944,2,0,L|400:352,1,132,2|2,2:0|3:2,2:0:0:0:
320,320,110390,1,10,2:0:0:0:
320,320,110464,1,2,2:0:0:0:
320,320,110538,1,2,2:0:0:0:
240,368,110687,6,0,B|200:344|200:344|104:360,1,132,2|10,3:2|2:0,2:0:0:0:
24,368,111132,2,0,L|32:232,1,132,2|0,2:0|3:0,2:0:0:0:
8,144,111578,1,10,2:0:0:0:
8,144,111652,1,2,2:0:0:0:
8,144,111726,1,2,2:0:0:0:
40,56,111875,6,0,P|80:32|168:48,1,132,2|10,3:2|2:0,2:0:0:0:
232,104,112320,2,0,P|272:128|360:104,1,132,2|2,2:0|3:2,2:0:0:0:
424,56,112766,1,10,2:0:0:0:
504,224,113063,5,2,3:2:0:0:
504,224,113137,1,2,2:0:0:0:
504,224,113211,1,2,2:0:0:0:
448,296,113360,2,0,L|456:336,2,33,10|2|2,2:0|2:0|3:2,2:0:0:0:
368,248,113657,2,0,L|361:215,2,33,2|2|2,2:0|2:0|3:2,2:0:0:0:
304,312,113954,2,0,L|312:352,2,33,10|2|2,2:0|2:0|2:0,2:0:0:0:
216,280,114251,6,0,L|192:144,1,132,2|8,3:2|2:0,2:0:0:0:
232,64,114696,2,0,B|208:40|208:40|112:56,1,132,2|0,2:0|3:0,2:0:0:0:
24,72,115142,6,0,L|48:208,1,132,10|2,2:0|3:2,2:0:0:0:
200,304,115736,1,8,2:0:0:0:
304,200,116033,1,2,3:2:0:0:
312,208,116107,1,0,3:0:0:0:
312,208,116182,2,0,L|328:280,1,66,0|8,3:0|2:0,2:0:0:0:
408,232,116479,1,0,3:0:0:0:
488,192,116627,6,0,L|456:48,1,132,2|8,3:2|2:0,2:0:0:0:
296,144,117221,2,0,L|328:280,1,132,2|8,3:2|2:0,2:0:0:0:
152,328,117815,2,0,L|184:322,2,33,2|2|2,3:2|3:2|3:2,2:0:0:0:
72,280,118112,2,0,L|24:288,2,33,10|2|2,2:0|3:2|3:2,2:0:0:0:
104,192,118409,2,0,L|136:186,2,33,10|10|10,3:2|3:2|3:2,2:0:0:0:
57,124,118706,1,10,2:0:0:0:
57,124,118781,1,10,3:2:0:0:
57,124,118855,1,10,3:2:0:0:
88,32,119003,6,0,B|184:16|184:16|224:40,1,132,6|8,3:2|2:0,2:0:0:0:
280,96,119449,1,0,2:0:0:0:
280,96,119597,2,0,P|296:56|328:40,1,66,0|0,2:0|3:0,2:0:0:0:
408,32,119894,1,10,2:0:0:0:
408,32,119969,1,2,2:0:0:0:
408,32,120043,1,2,2:0:0:0:
470,100,120192,6,0,L|454:244,1,132,2|8,3:2|2:0,2:0:0:0:
488,320,120637,1,0,2:0:0:0:
488,320,120711,1,0,2:0:0:0:
488,320,120786,2,0,P|440:320|408:336,1,66,0|0,2:0|3:0,2:0:0:0:
344,368,121083,1,8,2:0:0:0:
280,304,121231,1,2,2:0:0:0:
280,304,121380,6,0,L|128:328,1,132,2|8,3:2|2:0,2:0:0:0:
8,200,121974,2,0,L|144:176,1,132,2|8,2:0|2:0,2:0:0:0:
120,88,122419,1,2,2:0:0:0:
120,88,122494,1,0,2:0:0:0:
120,88,122568,6,0,L|256:64,1,132,2|10,3:2|2:0,2:0:0:0:
320,8,123013,1,2,3:2:0:0:
400,56,123162,2,0,P|360:112|376:176,1,132,2|10,2:0|2:0,2:0:0:0:
408,264,123607,1,2,2:0:0:0:
408,264,123682,1,2,2:0:0:0:
408,264,123756,6,0,P|360:224|288:224,1,132,2|10,3:2|2:0,2:0:0:0:
120,272,124350,1,2,2:0:0:0:
120,272,124424,1,2,2:0:0:0:
120,272,124498,1,2,3:2:0:0:
200,320,124647,2,0,L|194:352,2,33,10|2|2,2:0|2:0|2:0,2:0:0:0:
288,296,124944,6,0,L|293:263,2,33,2|2|2,3:2|2:0|2:0,2:0:0:0:
368,344,125241,2,0,L|362:376,2,33,10|2|2,2:0|2:0|2:0,2:0:0:0:
456,312,125538,2,0,L|472:216,1,66,2|2,2:0|3:2,2:0:0:0:
424,160,125835,1,10,2:0:0:0:
480,80,125984,1,2,2:0:0:0:
480,80,126132,6,0,B|456:48|456:48|360:56,1,132,2|10,3:2|2:0,2:0:0:0:
184,72,126726,2,0,L|178:104,2,33,2|2|2,2:0|2:0|3:2,2:0:0:0:
104,16,127023,1,10,2:0:0:0:
32,72,127172,1,2,2:0:0:0:
32,72,127320,6,0,L|16:208,1,132,2|8,3:2|2:0,2:0:0:0:
152,328,127914,2,0,L|160:368,2,33,2|2|2,2:0|2:0|3:2,2:0:0:0:
208,256,128211,1,10,2:0:0:0:
272,320,128360,1,2,2:0:0:0:
272,320,128508,6,0,P|312:344|400:320,1,132,2|10,3:2|2:0,2:0:0:0:
496,176,129102,2,0,L|456:184,2,33,2|2|2,2:0|2:0|3:2,2:0:0:0:
464,88,129399,2,0,L|496:81,2,33,10|2|2,2:0|2:0|2:0,2:0:0:0:
400,16,129696,6,0,B|368:48|368:48|264:24,1,132,2|10,3:2|2:0,2:0:0:0:
104,64,130291,2,0,L|96:112,2,33,2|2|2,2:0|2:0|3:2,2:0:0:0:
16,80,130588,2,0,L|21:47,2,33,10|2|2,2:0|2:0|2:0,2:0:0:0:
0,160,130885,6,0,L|16:296,1,132,2|10,3:2|2:0,2:0:0:0:
192,336,131479,2,0,L|184:376,2,33,2|0|0,2:0|2:0|3:0,2:0:0:0:
272,288,131776,2,0,L|265:255,2,33,10|0|2,2:0|2:0|2:0,2:0:0:0:
360,304,132073,6,0,L|335:170,1,132,2|10,3:2|2:0,2:0:0:0:
272,112,132518,1,2,3:2:0:0:
272,112,132667,2,0,P|312:88|336:56,1,66,2|2,2:0|3:2,2:0:0:0:
400,16,132964,1,10,2:0:0:0:
400,16,133038,1,2,2:0:0:0:
400,16,133112,1,2,2:0:0:0:
480,64,133261,6,0,L|464:200,1,132,2|10,3:2|2:0,2:0:0:0:
360,352,133855,2,0,L|392:345,2,33,2|2|2,2:0|2:0|3:2,2:0:0:0:
328,264,134152,2,0,L|360:257,2,33,10|2|2,2:0|2:0|2:0,2:0:0:0:
264,336,134449,6,0,L|231:342,2,33,2|0|2,3:2|2:0|2:0,2:0:0:0:
240,248,134746,2,0,L|207:254,2,33,10|0|2,2:0|3:0|3:2,2:0:0:0:
200,160,135043,2,0,L|184:80,1,66,2|2,3:2|3:2,2:0:0:0:
176,16,135340,1,10,2:0:0:0:
176,16,135414,1,0,3:0:0:0:
176,16,135489,1,2,3:2:0:0:
88,32,135637,6,0,B|104:80|104:80|80:168,1,132,2|10,3:2|2:0,2:0:0:0:
24,344,136231,2,0,P|64:312|152:328,1,132,2|10,3:2|2:0,2:0:0:0:
224,336,136677,1,2,3:2:0:0:
312,352,136825,6,0,L|384:344,1,66,2|0,3:2|3:0,2:0:0:0:
472,344,137122,2,0,L|480:264,1,66,10|0,2:0|3:0,2:0:0:0:
437,195,137419,1,10,3:2:0:0:
488,128,137568,1,10,3:2:0:0:
488,128,137642,1,10,3:2:0:0:
488,128,137716,1,10,2:0:0:0:
312,160,138013,5,6,3:2:0:0:
256,192,138310,12,2,140390,2:0:0:0:
256,200,141429,5,2,2:0:0:0:
256,200,141578,2,0,P|280:168|208:64,1,189,2|2,2:0|2:0,2:0:0:0:
120,64,142766,6,0,B|32:144|32:144|64:320|64:320|168:352,1,405,2|2,2:0|2:0,2:0:0:0:
248,376,145142,5,2,2:0:0:0:
464,224,146182,1,2,2:0:0:0:
464,224,146330,2,0,P|400:280|304:256,1,189,2|2,2:0|2:0,2:0:0:0:
232,224,147518,6,0,B|288:144|208:40|208:40|312:120|400:72,1,405,2|2,2:0|2:0,2:0:0:0:
480,40,149894,5,2,2:0:0:0:
448,304,150934,1,2,2:0:0:0:
448,304,151083,2,0,L|256:320,1,189,2|2,2:0|2:0,2:0:0:0:
176,336,152271,6,0,P|160:248|64:216,1,189,2|2,2:0|2:0,2:0:0:0:
0,168,153459,1,2,2:0:0:0:
0,168,154647,6,0,P|96:184|176:96,1,216,2|2,2:0|2:0,2:0:0:0:
173,105,157023,2,0,L|181:65,2,36,2|2|2,2:0|2:0|2:0,2:0:0:0:
256,192,157617,12,0,159399,2:0:0:0:
