osu file format v14

[General]
AudioFilename: audio.mp3
AudioLeadIn: 0
PreviewTime:25822
Countdown: 0
SampleSet: Soft
StackLeniency: 0.3
Mode: 0
LetterboxInBreaks: 0
WidescreenStoryboard: 1

[Editor]
Bookmarks:2645,25817,66641,99994,138013,159399
DistanceSpacing: 1
BeatDivisor: 4
GridSize: 8
TimelineZoom: 1.000001

[Metadata]
Title:Juvenile
TitleUnicode:Juvenile
Artist:technoplanet
ArtistUnicode:technoplanet
Creator:Astronic
Version:Extra
Source:Lanota
Tags:owc 2020 qualifier nm2 streams electronic piano artcore instrumental badgraph badgraph_
BeatmapID:2659369
BeatmapSetID:1280204

[Difficulty]
HPDrainRate:5
CircleSize:4
OverallDifficulty:8.8
ApproachRate:9.3
SliderMultiplier:1.6
SliderTickRate:1

[Events]
//Background and Video events
0,0,"bg.jpg",0,0
//Break Periods
//Storyboard Layer 0 (Background)
//Storyboard Layer 1 (Fail)
//Storyboard Layer 2 (Pass)
//Storyboard Layer 3 (Foreground)
//Storyboard Layer 4 (Overlay)
//Storyboard Sound Samples

[TimingPoints]
2645,645.161290322581,4,2,33,50,1,0
2645,-222.222222222221,4,2,33,50,0,0
23290,-111.111111111111,4,2,33,50,0,0
25199,309.278350515464,4,2,1,65,1,0
25199,-111.111111111111,4,2,1,65,0,0
25250,-111.111111111111,4,2,2,65,0,0
25302,-111.111111111111,4,2,3,65,0,0
25353,-111.111111111111,4,2,4,65,0,0
25405,-111.111111111111,4,2,5,65,0,0
25456,-111.111111111111,4,2,6,65,0,0
25508,-111.111111111111,4,2,7,65,0,0
25559,-111.111111111111,4,2,8,65,0,0
25611,-111.111111111111,4,2,9,65,0,0
25662,-111.111111111111,4,2,10,65,0,0
25714,-111.111111111111,4,2,11,65,0,0
25817,309.278350515464,4,2,13,85,1,1
26435,-90.9090909090909,4,2,13,85,0,1
28136,-90.9090909090909,4,2,10,85,0,1
28291,-90.9090909090909,4,2,6,85,0,1
28600,-90.9090909090909,4,2,3,85,0,1
29528,-90.9090909090909,4,2,6,85,0,1
29837,-90.9090909090909,4,2,1,85,0,1
30610,-90.9090909090909,4,2,5,85,0,1
30765,-90.9090909090909,4,2,3,85,0,1
33085,-90.9090909090909,4,2,10,85,0,1
33239,-90.9090909090909,4,2,6,85,0,1
33548,-90.9090909090909,4,2,1,85,0,1
34322,-90.9090909090909,4,2,11,85,0,1
34476,-90.9090909090909,4,2,6,85,0,1
34786,-90.9090909090909,4,2,13,85,0,1
35713,-90.9090909090909,4,2,10,85,0,1
38033,-90.9090909090909,4,2,14,85,0,1
38188,-90.9090909090909,4,2,10,85,0,1
39270,-90.9090909090909,4,2,15,85,0,1
39425,-90.9090909090909,4,2,13,85,0,1
40507,-90.9090909090909,4,2,16,85,0,1
40662,-90.9090909090909,4,2,13,85,0,1
41899,-90.9090909090909,4,2,17,85,0,1
41976,-90.9090909090909,4,2,18,85,0,1
42054,-90.9090909090909,4,2,19,85,0,1
42131,-90.9090909090909,4,2,3,85,0,1
42208,-90.9090909090909,4,2,19,85,0,1
42285,-90.9090909090909,4,2,3,85,0,1
42362,-90.9090909090909,4,2,5,85,0,1
42439,-90.9090909090909,4,2,6,85,0,1
42518,-90.9090909090909,4,2,5,85,0,1
42595,-90.9090909090909,4,2,6,85,0,1
42672,-90.9090909090909,4,2,7,85,0,1
42749,-90.9090909090909,4,2,10,85,0,1
42827,-90.9090909090909,4,2,7,85,0,1
42904,-90.9090909090909,4,2,10,85,0,1
42981,-90.9090909090909,4,2,12,85,0,1
43058,-90.9090909090909,4,2,13,85,0,1
43136,-90.9090909090909,4,2,14,85,0,1
43445,-90.9090909090909,4,2,15,85,0,1
43523,-90.9090909090909,4,2,14,85,0,1
43600,-90.9090909090909,4,2,13,85,0,1
43677,-90.9090909090909,4,2,10,85,0,1
43755,-90.9090909090909,4,2,8,85,0,1
43832,-90.9090909090909,4,2,7,85,0,1
43909,-90.9090909090909,4,2,6,85,0,1
43986,-90.9090909090909,4,2,3,85,0,1
44064,-90.9090909090909,4,2,1,85,0,1
44141,-90.9090909090909,4,2,19,85,0,1
44218,-90.9090909090909,4,2,18,85,0,1
44295,-90.9090909090909,4,2,20,85,0,1
44373,-90.9090909090909,4,2,21,85,0,1
44528,-90.9090909090909,4,2,17,85,0,1
44682,-90.9090909090909,4,2,20,85,0,1
44837,-90.9090909090909,4,2,19,85,0,1
45146,-90.9090909090909,4,2,1,85,0,1
45224,-90.9090909090909,4,2,3,85,0,1
45301,-90.9090909090909,4,2,6,85,0,1
45378,-90.9090909090909,4,2,7,85,0,1
45455,-90.9090909090909,4,2,8,85,0,1
45532,-90.9090909090909,4,2,10,85,0,1
45610,-90.9090909090909,4,2,13,85,0,1
46538,-90.9090909090909,4,2,5,85,0,1
46615,-90.9090909090909,4,2,6,85,0,1
46693,-90.9090909090909,4,2,8,85,0,1
46770,-90.9090909090909,4,2,15,85,0,1
46847,-90.9090909090909,4,2,16,85,0,1
47930,-90.9090909090909,4,2,10,85,0,1
48085,-90.9090909090909,4,2,12,85,0,1
48394,-90.9090909090909,4,2,13,85,0,1
49167,-90.9090909090909,4,2,3,85,0,1
49322,-90.9090909090909,4,2,6,85,0,1
49631,-90.9090909090909,4,2,7,85,0,1
50249,-90.9090909090909,4,2,5,85,0,1
50327,-90.9090909090909,4,2,6,85,0,1
50404,-90.9090909090909,4,2,13,85,0,1
50481,-90.9090909090909,4,2,15,85,0,1
50559,-90.9090909090909,4,2,16,85,0,1
50868,-90.9090909090909,4,2,15,85,0,1
50945,-90.9090909090909,4,2,14,85,0,1
51023,-90.9090909090909,4,2,13,85,0,1
51100,-90.9090909090909,4,2,12,85,0,1
51177,-90.9090909090909,4,2,14,85,0,1
51254,-90.9090909090909,4,2,13,85,0,1
51408,-90.9090909090909,4,2,11,85,0,1
51487,-90.9090909090909,4,2,13,85,0,1
51564,-90.9090909090909,4,2,12,85,0,1
51641,-90.9090909090909,4,2,11,85,0,1
51719,-90.9090909090909,4,2,10,85,0,1
51796,-90.9090909090909,4,2,12,85,0,1
51873,-90.9090909090909,4,2,11,85,0,1
51950,-90.9090909090909,4,2,10,85,0,1
52027,-90.9090909090909,4,2,11,85,0,1
52105,-90.9090909090909,4,2,10,85,0,1
52182,-90.9090909090909,4,2,9,85,0,1
52260,-90.9090909090909,4,2,10,85,0,1
52337,-90.9090909090909,4,2,9,85,0,1
52414,-90.9090909090909,4,2,8,85,0,1
52491,-90.9090909090909,4,2,9,85,0,1
52568,-90.9090909090909,4,2,10,85,0,1
52645,-90.9090909090909,4,2,7,85,0,1
52724,-90.9090909090909,4,2,8,85,0,1
52801,-90.9090909090909,4,2,9,85,0,1
52878,-90.9090909090909,4,2,10,85,0,1
52955,-90.9090909090909,4,2,5,85,0,1
53033,-90.9090909090909,4,2,6,85,0,1
53342,-90.9090909090909,4,2,1,85,0,1
54115,-90.9090909090909,4,2,11,85,0,1
54270,-90.9090909090909,4,2,6,85,0,1
54579,-90.9090909090909,4,2,13,85,0,1
55507,-90.9090909090909,4,2,10,85,0,1
56126,-90.9090909090909,4,2,3,85,0,1
56203,-90.9090909090909,4,2,6,85,0,1
56280,-90.9090909090909,4,2,8,85,0,1
56357,-90.9090909090909,4,2,14,85,0,1
56435,-90.9090909090909,4,2,13,85,0,1
56512,-90.9090909090909,4,2,10,85,0,1
56589,-90.9090909090909,4,2,13,85,0,1
56666,-90.9090909090909,4,2,15,85,0,1
56744,-90.9090909090909,4,2,16,85,0,1
57827,-90.9090909090909,4,2,14,85,0,1
57981,-90.9090909090909,4,2,10,85,0,1
59064,-90.9090909090909,4,2,15,85,0,1
59219,-90.9090909090909,4,2,13,85,0,1
59837,-90.9090909090909,4,2,15,85,0,1
60301,-90.9090909090909,4,2,16,85,0,1
60456,-90.9090909090909,4,2,13,85,0,1
60996,-90.9090909090909,4,2,3,85,0,1
61074,-90.9090909090909,4,2,1,85,0,1
61152,-90.9090909090909,4,2,19,85,0,1
61229,-90.9090909090909,4,2,18,85,0,1
61306,-90.9090909090909,4,2,19,85,0,1
61384,-90.9090909090909,4,2,1,85,0,1
61461,-90.9090909090909,4,2,3,85,0,1
61538,-90.9090909090909,4,2,4,85,0,1
61615,-90.9090909090909,4,2,5,85,0,1
61693,-90.9090909090909,4,2,6,85,0,1
61770,-90.9090909090909,4,2,3,85,0,1
61847,-90.9090909090909,4,2,6,85,0,1
61924,-90.9090909090909,4,2,7,85,0,1
62002,-90.9090909090909,4,2,8,85,0,1
62079,-90.9090909090909,4,2,7,85,0,1
62156,-90.9090909090909,4,2,8,85,0,1
62233,-90.9090909090909,4,2,9,85,0,1
62311,-90.9090909090909,4,2,10,85,0,1
62389,-90.9090909090909,4,2,7,85,0,1
62466,-90.9090909090909,4,2,8,85,0,1
62543,-90.9090909090909,4,2,10,85,0,1
62621,-90.9090909090909,4,2,13,85,0,1
62698,-90.9090909090909,4,2,10,85,0,1
62775,-90.9090909090909,4,2,13,85,0,1
62853,-90.9090909090909,4,2,14,85,0,1
62930,-90.9090909090909,4,2,15,85,0,1
63239,-90.9090909090909,4,2,13,85,0,1
63548,-90.9090909090909,4,2,9,85,0,1
64012,-90.9090909090909,4,2,8,85,0,1
64167,-90.9090909090909,4,2,10,85,0,1
64708,-90.9090909090909,4,2,15,85,0,1
64786,-90.9090909090909,4,2,16,85,0,1
65095,-90.9090909090909,4,2,14,85,0,1
65404,-90.9090909090909,4,2,13,85,0,1
65868,-90.9090909090909,4,2,12,85,0,1
66332,-90.9090909090909,4,2,10,85,0,1
66641,-111.111111111111,4,2,10,60,0,0
67878,-111.111111111111,4,2,1,60,0,0
68033,-111.111111111111,4,2,2,60,0,0
68187,-111.111111111111,4,2,3,60,0,0
68497,-111.111111111111,4,2,1,60,0,0
68652,-111.111111111111,4,2,4,60,0,0
68806,-111.111111111111,4,2,2,60,0,0
68961,-111.111111111111,4,2,5,60,0,0
69038,-111.111111111111,4,2,2,60,0,0
69425,-111.111111111111,4,2,6,60,0,0
69579,-111.111111111111,4,2,2,60,0,0
69734,-111.111111111111,4,2,4,60,0,0
69889,-111.111111111111,4,2,2,60,0,0
70043,-111.111111111111,4,2,7,60,0,0
70120,-111.111111111111,4,2,2,60,0,0
70353,-111.111111111111,4,2,6,60,0,0
70507,-111.111111111111,4,2,1,60,0,0
70661,-111.111111111111,4,2,3,60,0,0
70817,-111.111111111111,4,2,7,60,0,0
71125,-111.111111111111,4,2,9,60,0,0
71280,-111.111111111111,4,2,8,60,0,0
71898,-111.111111111111,4,2,6,60,0,0
72053,-111.111111111111,4,2,3,60,0,0
72208,-111.111111111111,4,2,13,60,0,0
72518,-111.111111111111,4,2,14,60,0,0
72827,-166.666666666667,4,2,8,60,0,0
72981,-166.666666666667,4,2,3,60,0,0
73600,-166.666666666667,4,2,9,60,0,0
73755,-166.666666666667,4,2,5,60,0,0
73909,-166.666666666667,4,2,10,60,0,0
74064,-166.666666666667,4,2,1,60,0,0
74219,-166.666666666667,4,2,2,60,0,0
74682,-166.666666666667,4,2,3,60,0,0
75301,-166.666666666667,4,2,10,60,0,0
75920,-166.666666666667,4,2,2,60,0,0
76538,-166.666666666667,4,2,7,60,0,0
76693,-166.666666666667,4,2,2,60,0,0
77157,-166.666666666667,4,2,11,60,0,0
77775,-166.666666666667,4,2,5,60,0,0
79012,-166.666666666667,4,2,33,60,0,0
87672,-142.857142857143,4,2,2,60,0,0
99994,297.029702970297,4,2,23,85,1,1
99994,-90.9090909090909,4,2,23,85,0,1
100068,-90.9090909090909,4,2,24,85,0,1
100142,-90.9090909090909,4,2,9,85,0,1
100216,-90.9090909090909,4,2,25,85,0,1
100291,-90.9090909090909,4,2,3,85,0,1
100365,-90.9090909090909,4,2,24,85,0,1
100439,-90.9090909090909,4,2,9,85,0,1
100513,-90.9090909090909,4,2,25,85,0,1
100588,-90.9090909090909,4,2,2,85,0,1
100662,-90.9090909090909,4,2,24,85,0,1
100736,-90.9090909090909,4,2,9,85,0,1
100810,-90.9090909090909,4,2,25,85,0,1
100885,-90.9090909090909,4,2,3,85,0,1
100959,-90.9090909090909,4,2,24,85,0,1
101033,-90.9090909090909,4,2,10,85,0,1
101107,-90.9090909090909,4,2,25,85,0,1
101182,-90.9090909090909,4,2,23,85,0,1
101256,-90.9090909090909,4,2,26,85,0,1
101330,-90.9090909090909,4,2,27,85,0,1
101404,-90.9090909090909,4,2,14,85,0,1
101479,-90.9090909090909,4,2,25,85,0,1
101553,-90.9090909090909,4,2,10,85,0,1
101627,-90.9090909090909,4,2,9,85,0,1
101701,-90.9090909090909,4,2,24,85,0,1
101776,-90.9090909090909,4,2,7,85,0,1
101850,-90.9090909090909,4,2,10,85,0,1
101924,-90.9090909090909,4,2,9,85,0,1
101998,-90.9090909090909,4,2,10,85,0,1
102073,-90.9090909090909,4,2,25,85,0,1
102147,-90.9090909090909,4,2,10,85,0,1
102221,-90.9090909090909,4,2,27,85,0,1
102295,-90.9090909090909,4,2,28,85,0,1
102370,-90.9090909090909,4,2,16,85,0,1
102444,-90.9090909090909,4,2,28,85,0,1
102518,-90.9090909090909,4,2,27,85,0,1
102592,-90.9090909090909,4,2,28,85,0,1
102667,-90.9090909090909,4,2,25,85,0,1
102741,-90.9090909090909,4,2,10,85,0,1
102815,-90.9090909090909,4,2,24,85,0,1
102890,-90.9090909090909,4,2,9,85,0,1
102964,-90.9090909090909,4,2,24,85,0,1
103063,-90.9090909090909,4,2,16,85,0,1
103162,-90.9090909090909,4,2,28,85,0,1
103261,-90.9090909090909,4,2,27,85,0,1
103360,-90.9090909090909,4,2,25,85,0,1
103459,-90.9090909090909,4,2,29,85,0,1
103558,-90.9090909090909,4,2,10,85,0,1
103657,-90.9090909090909,4,2,29,85,0,1
103756,-90.9090909090909,4,2,25,85,0,1
103855,-90.9090909090909,4,2,27,85,0,1
103954,-90.9090909090909,4,2,14,85,0,1
104053,-90.9090909090909,4,2,28,85,0,1
104152,-90.9090909090909,4,2,16,85,0,1
104449,-90.9090909090909,4,2,30,85,0,1
104746,-90.9090909090909,4,2,31,85,0,1
105043,-90.9090909090909,4,2,23,85,0,1
105192,-90.9090909090909,4,2,25,85,0,1
105340,-90.9090909090909,4,2,10,85,0,1
105489,-90.9090909090909,4,2,9,85,0,1
105637,-90.9090909090909,4,2,24,85,0,1
105934,-90.9090909090909,4,2,25,85,0,1
108013,-90.9090909090909,4,2,13,85,0,1
108310,-90.9090909090909,4,2,12,85,0,1
108607,-90.9090909090909,4,2,11,85,0,1
108756,-90.9090909090909,4,2,2,85,0,1
108904,-90.9090909090909,4,2,9,85,0,1
109053,-90.9090909090909,4,2,2,85,0,1
109498,-90.9090909090909,4,2,24,85,0,1
109944,-90.9090909090909,4,2,23,85,0,1
110464,-90.9090909090909,4,2,24,85,0,1
110538,-90.9090909090909,4,2,10,85,0,1
110612,-90.9090909090909,4,2,25,85,0,1
110687,-90.9090909090909,4,2,9,85,0,1
111132,-90.9090909090909,4,2,24,85,0,1
111652,-90.9090909090909,4,2,10,85,0,1
111726,-90.9090909090909,4,2,25,85,0,1
111800,-90.9090909090909,4,2,27,85,0,1
111875,-90.9090909090909,4,2,25,85,0,1
111949,-90.9090909090909,4,2,10,85,0,1
112023,-90.9090909090909,4,2,25,85,0,1
112097,-90.9090909090909,4,2,27,85,0,1
112172,-90.9090909090909,4,2,25,85,0,1
112246,-90.9090909090909,4,2,10,85,0,1
112320,-90.9090909090909,4,2,27,85,0,1
112766,-90.9090909090909,4,2,28,85,0,1
113063,-90.9090909090909,4,2,16,85,0,1
113137,-90.9090909090909,4,2,30,85,0,1
113211,-90.9090909090909,4,2,16,85,0,1
113286,-90.9090909090909,4,2,28,85,0,1
113360,-90.9090909090909,4,2,16,85,0,1
113434,-90.9090909090909,4,2,28,85,0,1
113508,-90.9090909090909,4,2,27,85,0,1
113583,-90.9090909090909,4,2,12,85,0,1
113657,-90.9090909090909,4,2,27,85,0,1
113731,-90.9090909090909,4,2,12,85,0,1
113805,-90.9090909090909,4,2,25,85,0,1
113880,-90.9090909090909,4,2,29,85,0,1
113954,-90.9090909090909,4,2,10,85,0,1
114028,-90.9090909090909,4,2,29,85,0,1
114102,-90.9090909090909,4,2,10,85,0,1
114176,-90.9090909090909,4,2,9,85,0,1
114251,-90.9090909090909,4,2,24,85,0,1
114696,-90.9090909090909,4,2,25,85,0,1
115142,-90.9090909090909,4,2,27,85,0,1
116033,-90.9090909090909,4,2,28,85,0,1
116627,-90.9090909090909,4,2,16,85,0,1
117221,-90.9090909090909,4,2,27,85,0,1
117815,-90.9090909090909,4,2,28,85,0,1
117890,-90.9090909090909,4,2,16,85,0,1
117964,-90.9090909090909,4,2,28,85,0,1
118038,-90.9090909090909,4,2,16,85,0,1
118112,-90.9090909090909,4,2,28,85,0,1
118187,-90.9090909090909,4,2,27,85,0,1
118261,-90.9090909090909,4,2,28,85,0,1
118335,-90.9090909090909,4,2,27,85,0,1
118409,-90.9090909090909,4,2,29,85,0,1
118484,-90.9090909090909,4,2,27,85,0,1
118558,-90.9090909090909,4,2,28,85,0,1
118632,-90.9090909090909,4,2,25,85,0,1
118706,-90.9090909090909,4,2,14,85,0,1
118781,-90.9090909090909,4,2,25,85,0,1
118855,-90.9090909090909,4,2,10,85,0,1
118929,-90.9090909090909,4,2,25,85,0,1
119003,-90.9090909090909,4,2,24,85,0,1
119969,-90.9090909090909,4,2,9,85,0,1
120043,-90.9090909090909,4,2,25,85,0,1
120117,-90.9090909090909,4,2,27,85,0,1
120192,-90.9090909090909,4,2,31,85,0,1
121231,-90.9090909090909,4,2,25,85,0,1
121380,-90.9090909090909,4,2,24,85,0,1
121974,-90.9090909090909,4,2,27,85,0,1
122419,-90.9090909090909,4,2,23,85,0,1
122568,-90.9090909090909,4,2,24,85,0,1
122716,-90.9090909090909,4,2,23,85,0,1
122865,-90.9090909090909,4,2,24,85,0,1
123013,-90.9090909090909,4,2,23,85,0,1
123162,-90.9090909090909,4,2,9,85,0,1
123459,-90.9090909090909,4,2,25,85,0,1
123533,-90.9090909090909,4,2,14,85,0,1
123607,-90.9090909090909,4,2,27,85,0,1
123682,-90.9090909090909,4,2,16,85,0,1
123756,-90.9090909090909,4,2,31,85,0,1
124053,-90.9090909090909,4,2,16,85,0,1
124127,-90.9090909090909,4,2,28,85,0,1
124201,-90.9090909090909,4,2,27,85,0,1
124276,-90.9090909090909,4,2,14,85,0,1
124350,-90.9090909090909,4,2,28,85,0,1
124424,-90.9090909090909,4,2,27,85,0,1
124498,-90.9090909090909,4,2,14,85,0,1
124572,-90.9090909090909,4,2,13,85,0,1
124647,-90.9090909090909,4,2,27,85,0,1
124721,-90.9090909090909,4,2,14,85,0,1
124795,-90.9090909090909,4,2,13,85,0,1
124870,-90.9090909090909,4,2,25,85,0,1
124944,-90.9090909090909,4,2,14,85,0,1
125018,-90.9090909090909,4,2,13,85,0,1
125093,-90.9090909090909,4,2,25,85,0,1
125167,-90.9090909090909,4,2,13,85,0,1
125241,-90.9090909090909,4,2,25,85,0,1
125315,-90.9090909090909,4,2,29,85,0,1
125389,-90.9090909090909,4,2,10,85,0,1
125463,-90.9090909090909,4,2,29,85,0,1
125538,-90.9090909090909,4,2,10,85,0,1
125612,-90.9090909090909,4,2,29,85,0,1
125686,-90.9090909090909,4,2,10,85,0,1
125760,-90.9090909090909,4,2,9,85,0,1
125835,-90.9090909090909,4,2,10,85,0,1
125909,-90.9090909090909,4,2,9,85,0,1
125984,-90.9090909090909,4,2,25,85,0,1
126058,-90.9090909090909,4,2,7,85,0,1
126132,-90.9090909090909,4,2,24,85,0,1
126206,-90.9090909090909,4,2,23,85,0,1
126281,-90.9090909090909,4,2,25,85,0,1
126355,-90.9090909090909,4,2,27,85,0,1
126429,-90.9090909090909,4,2,24,85,0,1
126503,-90.9090909090909,4,2,23,85,0,1
126577,-90.9090909090909,4,2,25,85,0,1
126651,-90.9090909090909,4,2,27,85,0,1
126726,-90.9090909090909,4,2,2,85,0,1
126800,-90.9090909090909,4,2,3,85,0,1
126875,-90.9090909090909,4,2,23,85,0,1
127023,-90.9090909090909,4,2,3,85,0,1
127097,-90.9090909090909,4,2,2,85,0,1
127172,-90.9090909090909,4,2,13,85,0,1
127320,-90.9090909090909,4,2,27,85,0,1
127914,-90.9090909090909,4,2,3,85,0,1
127989,-90.9090909090909,4,2,32,85,0,1
128063,-90.9090909090909,4,2,23,85,0,1
128211,-90.9090909090909,4,2,3,85,0,1
128285,-90.9090909090909,4,2,32,85,0,1
128360,-90.9090909090909,4,2,23,85,0,1
128508,-90.9090909090909,4,2,27,85,0,1
128582,-90.9090909090909,4,2,23,85,0,1
128656,-90.9090909090909,4,2,25,85,0,1
128805,-90.9090909090909,4,2,23,85,0,1
128879,-90.9090909090909,4,2,9,85,0,1
128953,-90.9090909090909,4,2,24,85,0,1
129102,-90.9090909090909,4,2,23,85,0,1
129177,-90.9090909090909,4,2,9,85,0,1
129251,-90.9090909090909,4,2,24,85,0,1
129399,-90.9090909090909,4,2,26,85,0,1
129474,-90.9090909090909,4,2,2,85,0,1
129548,-90.9090909090909,4,2,26,85,0,1
129622,-90.9090909090909,4,2,2,85,0,1
129696,-90.9090909090909,4,2,26,85,0,1
129770,-90.9090909090909,4,2,2,85,0,1
129844,-90.9090909090909,4,2,26,85,0,1
129918,-90.9090909090909,4,2,2,85,0,1
129994,-90.9090909090909,4,2,26,85,0,1
130068,-90.9090909090909,4,2,2,85,0,1
130142,-90.9090909090909,4,2,26,85,0,1
130216,-90.9090909090909,4,2,2,85,0,1
130291,-90.9090909090909,4,2,3,85,0,1
130365,-90.9090909090909,4,2,32,85,0,1
130439,-90.9090909090909,4,2,23,85,0,1
130588,-90.9090909090909,4,2,3,85,0,1
130662,-90.9090909090909,4,2,32,85,0,1
130736,-90.9090909090909,4,2,23,85,0,1
130885,-90.9090909090909,4,2,25,85,0,1
130959,-90.9090909090909,4,2,27,85,0,1
131033,-90.9090909090909,4,2,28,85,0,1
131182,-90.9090909090909,4,2,25,85,0,1
131256,-90.9090909090909,4,2,27,85,0,1
131330,-90.9090909090909,4,2,28,85,0,1
131479,-90.9090909090909,4,2,16,85,0,1
131776,-90.9090909090909,4,2,14,85,0,1
131924,-90.9090909090909,4,2,31,85,0,1
132073,-90.9090909090909,4,2,27,85,0,1
132370,-90.9090909090909,4,2,10,85,0,1
132444,-90.9090909090909,4,2,9,85,0,1
132518,-90.9090909090909,4,2,24,85,0,1
132593,-90.9090909090909,4,2,23,85,0,1
132667,-90.9090909090909,4,2,3,85,0,1
132741,-90.9090909090909,4,2,2,85,0,1
132815,-90.9090909090909,4,2,26,85,0,1
132889,-90.9090909090909,4,2,2,85,0,1
132964,-90.9090909090909,4,2,3,85,0,1
133038,-90.9090909090909,4,2,32,85,0,1
133112,-90.9090909090909,4,2,23,85,0,1
133186,-90.9090909090909,4,2,7,85,0,1
133261,-90.9090909090909,4,2,24,85,0,1
133335,-90.9090909090909,4,2,23,85,0,1
133409,-90.9090909090909,4,2,24,85,0,1
133484,-90.9090909090909,4,2,9,85,0,1
133558,-90.9090909090909,4,2,10,85,0,1
133632,-90.9090909090909,4,2,24,85,0,1
133706,-90.9090909090909,4,2,10,85,0,1
133780,-90.9090909090909,4,2,29,85,0,1
133855,-90.9090909090909,4,2,25,85,0,1
133929,-90.9090909090909,4,2,23,85,0,1
134003,-90.9090909090909,4,2,10,85,0,1
134078,-90.9090909090909,4,2,25,85,0,1
134152,-90.9090909090909,4,2,27,85,0,1
134226,-90.9090909090909,4,2,25,85,0,1
134300,-90.9090909090909,4,2,27,85,0,1
134375,-90.9090909090909,4,2,28,85,0,1
134449,-90.9090909090909,4,2,16,85,0,1
134597,-90.9090909090909,4,2,27,85,0,1
134671,-90.9090909090909,4,2,16,85,0,1
134746,-90.9090909090909,4,2,31,85,0,1
134894,-90.9090909090909,4,2,28,85,0,1
134968,-90.9090909090909,4,2,16,85,0,1
135043,-90.9090909090909,4,2,30,85,0,1
135192,-90.9090909090909,4,2,27,85,0,1
135266,-90.9090909090909,4,2,28,85,0,1
135340,-90.9090909090909,4,2,30,85,0,1
135489,-90.9090909090909,4,2,27,85,0,1
135637,-90.9090909090909,4,2,28,85,0,1
135786,-90.9090909090909,4,2,9,85,0,1
135860,-90.9090909090909,4,2,29,85,0,1
135934,-90.9090909090909,4,2,25,85,0,1
136082,-90.9090909090909,4,2,9,85,0,1
136156,-90.9090909090909,4,2,16,85,0,1
136231,-90.9090909090909,4,2,31,85,0,1
136305,-90.9090909090909,4,2,24,85,0,1
136379,-90.9090909090909,4,2,9,85,0,1
136453,-90.9090909090909,4,2,10,85,0,1
136528,-90.9090909090909,4,2,29,85,0,1
136602,-90.9090909090909,4,2,25,85,0,1
136677,-90.9090909090909,4,2,13,85,0,1
136751,-90.9090909090909,4,2,14,85,0,1
136825,-90.9090909090909,4,2,27,85,0,1
137122,-90.9090909090909,4,2,25,85,0,1
137419,-90.9090909090909,4,2,2,85,0,1
137494,-90.9090909090909,4,2,3,85,0,1
137568,-90.9090909090909,4,2,32,85,0,1
137642,-90.9090909090909,4,2,23,85,0,1
137716,-90.9090909090909,4,2,25,85,0,1
138013,-285.714285714286,4,2,27,60,0,0
139052,-285.714285714286,4,2,25,60,0,0
139201,-285.714285714286,4,2,24,60,0,0
140240,-285.714285714286,4,2,23,60,0,0
140390,-285.714285714286,4,2,24,60,0,0
141429,-285.714285714286,4,2,7,60,0,0
141578,-285.714285714286,4,2,24,60,0,0
142617,-285.714285714286,4,2,7,60,0,0
142766,-285.714285714286,4,2,24,60,0,0
143805,-285.714285714286,4,2,25,60,0,0
143953,-285.714285714286,4,2,24,60,0,0
144993,-285.714285714286,4,2,13,60,0,0
145142,-285.714285714286,4,2,24,60,0,0
146181,-285.714285714286,4,2,27,60,0,0
146330,-285.714285714286,4,2,25,60,0,0
147369,-285.714285714286,4,2,27,60,0,0
147518,-285.714285714286,4,2,25,60,0,0
148557,-285.714285714286,4,2,28,60,0,0
148706,-285.714285714286,4,2,25,60,0,0
149745,-285.714285714286,4,2,16,60,0,0
149894,-285.714285714286,4,2,27,60,0,0
150933,-285.714285714286,4,2,31,60,0,0
151083,-285.714285714286,4,2,27,60,0,0
152122,-285.714285714286,4,2,31,60,0,0
152271,-285.714285714286,4,2,27,60,0,0
153310,-285.714285714286,4,2,31,60,0,0
153459,-285.714285714286,4,2,27,60,0,0
154498,-285.714285714286,4,2,31,60,0,0
154647,-285.714285714286,4,2,27,60,0,0
155687,-285.714285714286,4,2,31,60,0,0
155835,-285.714285714286,4,2,27,60,0,0
157023,-142.857142857143,4,2,33,60,0,0

[Colours]
Combo1 : 65,218,250
Combo2 : 32,155,255

[HitObjects]
128,192,2645,6,0,B|184:160|232:192|232:192|288:224|336:192,1,216.000000000001,6|2,2:0|2:0,2:0:0:0:
288,128,5225,2,0,P|256:224|352:272,1,216.000000000001,2|2,2:0|2:0,2:0:0:0:
424,296,7806,6,0,B|336:304|336:304|312:336|312:336|208:344,1,216.000000000001,2|2,2:0|2:0,2:0:0:0:
144,352,10386,2,0,B|80:312|104:224|104:224|136:216|152:176,1,216.000000000001,2|2,2:0|2:0,2:0:0:0:
80,72,12967,6,0,L|72:160,3,72.0000000000004,6|2|2|2,2:0|2:0|2:0|2:0,2:0:0:0:
151,176,15548,2,0,L|144:247,3,72.0000000000004,2|2|2|2,2:0|2:0|2:0|2:0,2:0:0:0:
233,159,18128,2,0,L|240:88,3,72.0000000000004,2|2|2|2,2:0|2:0|2:0|2:0,2:0:0:0:
303,192,20709,2,0,L|296:263,3,72.0000000000004,2|2|2|2,2:0|2:0|2:0|2:0,2:0:0:0:
233,159,23290,6,0,L|241:119,2,24,2|2|2,2:0|2:0|2:0,2:0:0:0:
237,135,25199,6,0,L|233:159,10,24,2|2|2|2|2|2|2|2|2|2|2,2:0|2:0|2:0|2:0|2:0|2:0|2:0|2:0|2:0|2:0|2:0,2:0:0:0:
169,87,25817,5,6,3:2:0:0:
205,63,25894,1,0,2:0:0:0:
248,59,25971,1,0,2:0:0:0:
288,76,26048,1,0,2:0:0:0:
315,110,26126,1,8,2:0:0:0:
341,144,26203,1,0,2:0:0:0:
381,161,26280,1,0,2:0:0:0:
425,157,26358,1,0,2:0:0:0:
457,127,26435,2,0,L|468:188,3,44,0|0|0|0,2:0|2:0|3:2|2:0,2:0:0:0:
404,244,26744,2,0,L|396:287,3,44,8|0|0|0,2:0|2:0|2:0|2:0,2:0:0:0:
464,352,27054,5,0,3:2:0:0:
433,320,27131,1,0,2:0:0:0:
392,306,27208,1,0,2:0:0:0:
349,311,27286,1,0,2:0:0:0:
312,344,27363,1,8,2:0:0:0:
275,367,27440,1,0,2:0:0:0:
232,373,27518,1,0,2:0:0:0:
191,358,27595,1,0,2:0:0:0:
160,328,27672,2,0,L|152:376,3,44,0|0|0|0,2:0|2:0|3:2|2:0,2:0:0:0:
248,272,27981,1,8,2:0:0:0:
248,272,28059,1,0,2:0:0:0:
248,272,28136,2,0,L|240:224,1,44,2|0,2:0|2:0,2:0:0:0:
288,96,28291,6,0,P|248:72|192:72,1,88,2|0,3:2|2:0,2:0:0:0:
96,43,28600,1,8,2:0:0:0:
66,75,28677,1,0,2:0:0:0:
57,117,28755,1,0,2:0:0:0:
70,158,28832,1,0,2:0:0:0:
104,184,28909,2,0,L|160:176,3,44,0|0|0|0,2:0|2:0|3:2|2:0,2:0:0:0:
80,272,29219,1,8,2:0:0:0:
80,272,29296,1,0,2:0:0:0:
80,272,29373,2,0,L|32:264,1,44,2|0,2:0|2:0,2:0:0:0:
104,360,29528,6,0,L|192:344,1,88,2|0,3:2|2:0,2:0:0:0:
288,320,29837,1,8,2:0:0:0:
328,303,29914,1,0,2:0:0:0:
354,269,29992,1,0,3:2:0:0:
358,225,30069,1,0,2:0:0:0:
336,184,30146,2,0,L|328:240,3,44,0|0|0|0,2:0|2:0|3:2|2:0,2:0:0:0:
424,152,30456,1,8,2:0:0:0:
424,152,30533,1,0,2:0:0:0:
424,152,30610,2,0,L|416:88,1,44,2|0,2:0|2:0,2:0:0:0:
500,96,30765,5,2,3:2:0:0:
481,56,30842,1,0,2:0:0:0:
445,32,30920,1,0,2:0:0:0:
402,28,30997,1,0,2:0:0:0:
360,44,31074,1,8,2:0:0:0:
323,67,31152,1,0,2:0:0:0:
280,70,31229,1,0,2:0:0:0:
241,51,31306,1,0,2:0:0:0:
216,16,31384,2,0,L|272:8,3,44,0|0|0|0,2:0|2:0|3:2|2:0,2:0:0:0:
160,88,31693,1,8,2:0:0:0:
160,88,31770,1,0,2:0:0:0:
160,88,31847,2,0,L|112:80,1,44,0|0,2:0|2:0,2:0:0:0:
228,140,32002,5,0,3:2:0:0:
266,160,32079,1,0,2:0:0:0:
289,197,32157,1,0,2:0:0:0:
290,241,32234,1,0,2:0:0:0:
269,279,32311,1,8,2:0:0:0:
232,302,32389,1,0,2:0:0:0:
189,304,32466,1,0,2:0:0:0:
150,283,32543,1,0,2:0:0:0:
120,248,32621,2,0,L|112:304,3,44,0|0|0|0,2:0|2:0|3:2|2:0,2:0:0:0:
208,224,32930,1,8,2:0:0:0:
208,224,33007,1,0,2:0:0:0:
208,224,33085,2,0,L|200:152,1,44,2|0,2:0|2:0,2:0:0:0:
152,96,33239,6,0,P|192:80|256:104,1,88,2|0,3:2|2:0,2:0:0:0:
287,165,33548,1,8,2:0:0:0:
304,204,33626,1,0,2:0:0:0:
338,230,33703,1,0,2:0:0:0:
382,235,33780,1,0,2:0:0:0:
424,216,33858,2,0,L|416:160,3,44,0|0|0|0,2:0|2:0|3:2|2:0,2:0:0:0:
512,248,34167,1,8,2:0:0:0:
512,248,34244,1,0,2:0:0:0:
512,248,34322,2,0,L|504:304,1,44,2|0,2:0|2:0,2:0:0:0:
472,376,34476,6,0,L|376:360,1,88,2|0,3:2|2:0,2:0:0:0:
304,344,34786,1,8,2:0:0:0:
262,330,34863,1,0,2:0:0:0:
233,298,34940,1,0,3:2:0:0:
223,256,35018,1,0,2:0:0:0:
232,212,35095,2,0,L|280:208,3,44,0|0|0|0,2:0|2:0|3:2|2:0,2:0:0:0:
152,296,35404,1,8,2:0:0:0:
152,296,35481,1,0,2:0:0:0:
152,296,35559,2,0,L|96:288,1,44,2|0,2:0|2:0,2:0:0:0:
40,336,35713,5,2,3:2:0:0:
25,294,35791,1,0,2:0:0:0:
34,252,35868,1,0,2:0:0:0:
64,220,35945,1,0,2:0:0:0:
104,208,36023,1,8,2:0:0:0:
145,194,36100,1,0,2:0:0:0:
174,162,36177,1,0,2:0:0:0:
185,120,36255,1,0,2:0:0:0:
172,76,36332,2,0,L|124:84,3,44,0|0|0|0,2:0|2:0|3:2|2:0,2:0:0:0:
244,36,36641,2,0,L|213:-1,3,44,8|0|0|0,2:0|2:0|2:0|2:0,2:0:0:0:
320,72,36951,6,0,L|337:26,3,44,0|0|0|0,3:2|2:0|2:0|2:0,2:0:0:0:
304,156,37260,2,0,L|352:147,3,44,8|0|0|0,2:0|2:0|2:0|2:0,2:0:0:0:
204,156,37569,2,0,L|234:193,3,44,0|0|0|0,2:0|2:0|3:2|2:0,2:0:0:0:
216,276,37878,1,8,2:0:0:0:
216,276,37956,1,0,2:0:0:0:
216,276,38033,2,0,L|268:268,1,44,2|0,2:0|2:0,2:0:0:0:
316,336,38188,5,2,3:2:0:0:
349,363,38265,1,0,2:0:0:0:
392,371,38342,1,0,2:0:0:0:
434,358,38420,1,0,2:0:0:0:
464,326,38497,1,8,2:0:0:0:
476,284,38574,1,0,2:0:0:0:
467,242,38652,1,0,2:0:0:0:
438,209,38729,1,0,2:0:0:0:
396,192,38806,2,0,L|400:248,3,44,0|0|0|0,2:0|2:0|3:2|2:0,2:0:0:0:
320,152,39115,1,8,2:0:0:0:
320,152,39193,1,0,2:0:0:0:
320,152,39270,2,0,L|328:96,1,44,2|0,2:0|2:0,2:0:0:0:
392,64,39425,5,2,3:2:0:0:
359,35,39502,1,0,2:0:0:0:
316,27,39579,1,0,2:0:0:0:
276,44,39657,1,0,2:0:0:0:
251,80,39734,1,8,2:0:0:0:
225,115,39811,1,0,2:0:0:0:
185,132,39889,1,0,3:2:0:0:
143,125,39966,1,0,2:0:0:0:
108,96,40043,2,0,L|100:52,3,44,0|0|0|0,2:0|2:0|3:2|2:0,2:0:0:0:
40,144,40353,1,8,2:0:0:0:
40,144,40430,1,0,2:0:0:0:
40,144,40507,2,0,L|32:200,1,44,2|0,2:0|2:0,2:0:0:0:
32,288,40662,5,2,3:2:0:0:
67,262,40739,1,0,2:0:0:0:
110,255,40817,1,0,2:0:0:0:
151,270,40894,1,0,2:0:0:0:
179,303,40971,1,8,2:0:0:0:
207,335,41048,1,0,2:0:0:0:
248,350,41126,1,0,2:0:0:0:
291,344,41203,1,0,2:0:0:0:
328,320,41280,2,0,L|320:272,3,44,0|0|0|0,2:0|2:0|3:2|2:0,2:0:0:0:
416,336,41590,2,0,L|408:384,3,44,8|0|0|0,2:0|2:0|2:0|2:0,2:0:0:0:
504,320,41899,5,2,3:2:0:0:
496,276,41976,1,2,2:0:0:0:
489,233,42054,1,2,2:0:0:0:
482,189,42131,1,2,2:0:0:0:
472,144,42208,2,0,L|424:152,3,44,10|2|2|2,2:0|2:0|2:0|2:0,2:0:0:0:
408,72,42518,1,2,2:0:0:0:
369,92,42595,1,2,2:0:0:0:
347,130,42672,1,2,3:2:0:0:
348,173,42749,1,2,2:0:0:0:
368,208,42827,2,0,L|320:200,3,44,10|2|2|2,2:0|2:0|2:0|2:0,2:0:0:0:
432,264,43136,6,0,L|440:352,1,88,2|0,3:2|2:0,2:0:0:0:
256,240,43445,1,10,2:0:0:0:
211,236,43523,1,2,2:0:0:0:
171,254,43600,1,2,2:0:0:0:
146,290,43677,1,2,2:0:0:0:
136,336,43755,2,0,L|200:328,3,44,2|2|2|2,2:0|2:0|3:2|2:0,2:0:0:0:
64,288,44064,2,0,L|20:293,3,44,10|2|2|2,2:0|2:0|2:0|2:0,2:0:0:0:
88,200,44373,5,2,3:2:0:0:
43,55,44528,1,2,2:0:0:0:
163,145,44682,1,2,2:0:0:0:
13,142,44837,1,2,3:2:0:0:
135,56,44992,1,2,2:0:0:0:
200,248,45146,5,2,3:2:0:0:
200,248,45224,1,2,2:0:0:0:
200,248,45301,2,0,L|248:240,3,44,2|2|10|10,2:0|2:0|2:0|2:0,2:0:0:0:
264,328,45610,5,6,3:2:0:0:
302,306,45688,1,0,2:0:0:0:
325,270,45765,1,0,2:0:0:0:
329,226,45842,1,0,2:0:0:0:
313,186,45920,1,8,2:0:0:0:
297,146,45997,1,0,2:0:0:0:
301,102,46074,1,0,2:0:0:0:
324,66,46152,1,0,2:0:0:0:
360,40,46229,2,0,L|408:32,3,44,0|0|0|0,2:0|2:0|3:2|2:0,2:0:0:0:
272,96,46538,1,10,2:0:0:0:
228,92,46615,1,2,2:0:0:0:
184,89,46693,1,2,2:0:0:0:
140,86,46770,1,2,2:0:0:0:
96,80,46847,6,0,L|88:24,3,44,2|0|0|0,3:2|2:0|2:0|2:0,2:0:0:0:
24,128,47157,2,0,L|17:171,3,44,8|0|0|0,2:0|2:0|2:0|2:0,2:0:0:0:
112,168,47466,2,0,L|118:211,3,44,0|0|0|0,2:0|2:0|3:2|2:0,2:0:0:0:
40,264,47775,1,8,2:0:0:0:
40,264,47853,1,0,2:0:0:0:
40,264,47930,2,0,L|32:320,1,44,2|0,2:0|2:0,2:0:0:0:
136,344,48085,5,2,3:2:0:0:
174,364,48162,1,0,2:0:0:0:
217,365,48239,1,0,2:0:0:0:
256,346,48317,1,0,2:0:0:0:
282,311,48394,1,8,2:0:0:0:
308,276,48471,1,0,2:0:0:0:
347,256,48548,1,0,2:0:0:0:
390,257,48626,1,0,2:0:0:0:
424,272,48703,2,0,L|416:320,3,44,2|0|0|0,2:0|2:0|3:2|2:0,2:0:0:0:
504,232,49012,1,8,2:0:0:0:
504,232,49090,1,0,2:0:0:0:
504,232,49167,2,0,L|496:184,1,44,2|0,2:0|2:0,2:0:0:0:
480,104,49322,5,2,3:2:0:0:
439,86,49399,1,0,2:0:0:0:
396,94,49476,1,0,2:0:0:0:
364,122,49554,1,0,2:0:0:0:
352,164,49631,1,8,2:0:0:0:
339,205,49708,1,0,2:0:0:0:
306,234,49786,1,0,3:2:0:0:
264,240,49863,1,0,2:0:0:0:
224,224,49940,2,0,L|216:176,3,44,2|0|0|0,2:0|2:0|3:2|2:0,2:0:0:0:
240,104,50249,1,10,2:0:0:0:
196,99,50327,1,2,2:0:0:0:
158,120,50404,1,2,2:0:0:0:
137,157,50481,1,2,2:0:0:0:
136,200,50559,6,0,L|152:296,1,88,2|0,3:2|2:0,2:0:0:0:
272,352,50868,1,10,2:0:0:0:
310,373,50945,1,2,2:0:0:0:
353,375,51023,1,2,2:0:0:0:
393,358,51100,1,2,2:0:0:0:
424,328,51177,2,0,L|472:336,3,44,2|2|0|2,2:0|2:0|2:0|3:2,2:0:0:0:
336,288,51487,1,10,2:0:0:0:
339,244,51564,1,2,2:0:0:0:
343,200,51641,1,2,2:0:0:0:
347,156,51719,1,2,2:0:0:0:
352,112,51796,6,0,L|296:120,3,44,2|2|2|2,3:2|2:0|2:0|2:0,2:0:0:0:
428,152,52105,1,10,2:0:0:0:
438,109,52182,1,2,2:0:0:0:
425,67,52260,1,2,2:0:0:0:
394,37,52337,1,2,2:0:0:0:
352,24,52414,2,0,L|296:32,3,44,2|2|2|2,2:0|2:0|3:2|2:0,2:0:0:0:
240,80,52724,1,10,2:0:0:0:
240,80,52801,1,2,2:0:0:0:
240,80,52878,2,0,L|184:64,1,44,2|2,2:0|2:0,2:0:0:0:
104,16,53033,6,0,P|112:64|96:112,1,88,2|0,3:2|2:0,2:0:0:0:
40,208,53342,1,8,2:0:0:0:
83,211,53420,1,0,2:0:0:0:
127,215,53497,1,0,2:0:0:0:
171,219,53574,1,0,2:0:0:0:
216,224,53652,2,0,L|208:280,3,44,0|0|0|0,2:0|2:0|3:2|2:0,2:0:0:0:
296,184,53961,1,8,2:0:0:0:
296,184,54038,1,0,2:0:0:0:
296,184,54115,2,0,L|288:128,1,44,2|0,2:0|2:0,2:0:0:0:
376,216,54270,6,0,P|416:200|480:216,1,88,2|0,3:2|2:0,2:0:0:0:
432,336,54579,1,8,2:0:0:0:
388,339,54657,1,0,2:0:0:0:
344,343,54734,1,0,3:2:0:0:
300,347,54811,1,0,2:0:0:0:
256,352,54889,2,0,L|264:304,3,44,0|0|0|0,2:0|2:0|3:2|2:0,2:0:0:0:
176,304,55198,1,8,2:0:0:0:
176,304,55275,1,0,2:0:0:0:
176,304,55353,2,0,L|120:312,1,44,2|0,2:0|2:0,2:0:0:0:
24,320,55507,6,0,L|32:224,1,88,2|0,3:2|2:0,2:0:0:0:
128,160,55817,1,8,2:0:0:0:
148,121,55894,1,0,2:0:0:0:
150,78,55971,1,0,2:0:0:0:
131,38,56048,1,0,2:0:0:0:
96,8,56126,2,0,L|48:16,3,44,2|2|2|2,2:0|2:0|3:2|2:0,2:0:0:0:
150,78,56435,2,0,L|200:72,3,44,10|2|2|2,2:0|2:0|2:0|2:0,2:0:0:0:
128,160,56744,6,0,L|240:176,1,88,2|0,3:2|2:0,2:0:0:0:
296,256,57054,1,8,2:0:0:0:
328,227,57131,1,0,2:0:0:0:
343,186,57208,1,0,2:0:0:0:
335,143,57286,1,0,2:0:0:0:
304,104,57363,2,0,L|296:152,3,44,0|0|0|0,2:0|2:0|3:2|2:0,2:0:0:0:
320,16,57672,1,8,2:0:0:0:
320,16,57749,1,0,2:0:0:0:
320,16,57827,2,0,L|384:24,1,44,2|0,2:0|2:0,2:0:0:0:
480,8,57981,6,0,P|456:56|464:104,1,88,2|0,3:2|2:0,2:0:0:0:
504,200,58291,1,8,2:0:0:0:
510,243,58368,1,0,2:0:0:0:
493,283,58445,1,0,2:0:0:0:
458,309,58523,1,0,2:0:0:0:
416,312,58600,2,0,L|424:264,3,44,0|0|0|0,2:0|2:0|3:2|2:0,2:0:0:0:
344,360,58909,1,8,2:0:0:0:
344,360,58987,1,0,2:0:0:0:
344,360,59064,2,0,L|288:352,1,44,2|0,2:0|2:0,2:0:0:0:
200,280,59219,6,0,P|152:272|104:296,1,88,2|0,3:2|2:0,2:0:0:0:
280,224,59528,2,0,L|288:272,3,44,8|0|0|0,2:0|2:0|3:2|2:0,2:0:0:0:
208,104,59837,2,0,L|200:192,1,88,2|0,2:0|3:2,2:0:0:0:
336,128,60146,1,8,2:0:0:0:
336,128,60224,1,0,2:0:0:0:
336,128,60301,2,0,L|280:136,1,44,2|0,2:0|2:0,2:0:0:0:
424,208,60456,6,0,L|416:104,1,88,2|0,3:2|2:0,2:0:0:0:
408,16,60765,2,0,L|464:8,3,44,8|0|0|2,2:0|2:0|2:0|2:0,2:0:0:0:
336,52,61074,1,2,2:0:0:0:
290,55,61152,1,2,2:0:0:0:
245,59,61229,1,2,3:2:0:0:
200,63,61306,1,2,2:0:0:0:
155,68,61384,1,10,2:0:0:0:
116,89,61461,1,2,2:0:0:0:
92,129,61538,1,2,2:0:0:0:
91,173,61615,1,2,2:0:0:0:
112,216,61693,6,0,L|56:224,3,44,2|2|2|2,3:2|2:0|2:0|2:0,2:0:0:0:
200,208,62002,2,0,L|192:152,3,44,10|2|2|2,2:0|2:0|2:0|2:0,2:0:0:0:
160,288,62311,1,2,2:0:0:0:
202,297,62389,1,2,2:0:0:0:
244,285,62466,1,2,3:2:0:0:
275,255,62543,1,2,2:0:0:0:
296,216,62621,1,10,2:0:0:0:
334,195,62698,1,2,2:0:0:0:
378,196,62775,1,2,2:0:0:0:
416,217,62853,1,2,2:0:0:0:
440,251,62930,6,0,L|448:352,1,88,2|0,3:2|3:0,2:0:0:0:
312,368,63239,1,2,3:2:0:0:
312,368,63317,1,0,3:0:0:0:
312,368,63394,2,0,L|320:312,1,44,0|0,3:0|3:0,2:0:0:0:
232,304,63548,1,2,3:2:0:0:
232,304,63626,1,0,3:0:0:0:
232,304,63703,2,0,L|198:258,1,44,0|0,3:0|3:0,2:0:0:0:
136,336,63858,1,2,3:2:0:0:
136,336,63935,1,0,3:0:0:0:
136,336,64012,2,0,L|80:328,1,44,2|0,3:2|3:0,2:0:0:0:
20,288,64167,5,10,3:2:0:0:
20,288,64244,1,8,2:0:0:0:
20,288,64322,2,0,L|32:240,1,44,0|0,3:0|3:0,2:0:0:0:
48,112,64476,1,10,2:0:0:0:
48,112,64554,1,8,2:0:0:0:
48,112,64631,2,0,L|36:160,1,44,0|10,3:2|2:0,2:0:0:0:
128,144,64786,5,10,2:0:0:0:
168,173,64863,1,8,2:0:0:0:
219,180,64940,1,0,3:2:0:0:
267,162,65018,1,8,2:0:0:0:
302,124,65095,1,10,2:0:0:0:
336,85,65172,1,8,2:0:0:0:
384,67,65249,1,8,2:0:0:0:
435,75,65327,1,8,2:0:0:0:
477,105,65404,5,6,3:2:0:0:
318,324,65868,5,6,3:2:0:0:
168,173,66332,5,6,3:2:0:0:
176,136,66641,6,0,L|168:96,5,24,0|0|0|0|0|0,2:0|2:0|2:0|2:0|2:0|2:0,2:0:0:0:
264,160,66951,2,0,L|259:183,5,24,0|0|0|0|0|0,2:0|2:0|2:0|2:0|2:0|2:0,2:0:0:0:
344,120,67260,2,0,P|384:112|424:128,1,72.0000000000001,0|0,2:0|2:0,2:0:0:0:
412,255,67569,2,0,P|388:229|379:195,1,72.0000000000001,0|0,2:0|2:0,2:0:0:0:
328,80,67878,6,0,B|272:72|272:72|248:48|248:48|184:40,1,144,2|10,2:3|2:3,2:0:0:0:
184,24,68497,1,2,2:3:0:0:
96,96,68652,2,0,L|104:24,1,72.0000000000001,10|2,2:3|2:3,2:0:0:0:
24,144,68961,1,2,2:3:0:0:
24,144,69038,1,8,2:3:0:0:
24,144,69115,6,0,L|32:224,1,72.0000000000001,2|0,2:3|2:0,2:0:0:0:
128,312,69425,2,0,L|135:240,1,72.0000000000001,10|10,2:3|2:3,2:0:0:0:
248,168,69734,1,10,2:3:0:0:
250,185,69811,1,0,2:0:0:0:
252,203,69889,1,2,2:3:0:0:
254,221,69966,1,8,2:3:0:0:
256,240,70043,2,0,L|220:232,3,36,2|2|8|0,2:3|2:3|2:3|2:0,2:0:0:0:
344,264,70353,5,2,2:0:0:0:
416,136,70507,2,0,P|384:112|336:112,1,72.0000000000001,2|2,2:0|2:0,2:0:0:0:
256,240,70817,1,2,2:0:0:0:
432,288,70971,2,0,L|440:208,1,72.0000000000001,0|2,2:0|2:0,2:0:0:0:
267,354,71280,6,0,B|227:330|227:330|219:218,1,144,2|0,2:0|2:0,2:0:0:0:
240,72,71744,2,0,P|200:88|160:80,2,72.0000000000001,2|2|2,2:0|2:0|2:0,2:0:0:0:
136,232,72208,2,0,L|128:160,1,72.0000000000001,2|0,2:0|2:0,2:0:0:0:
272,88,72518,2,0,L|264:160,1,72.0000000000001,2|0,2:0|2:0,2:0:0:0:
240,328,72827,6,0,P|272:368|328:216,1,335.999999999999,2|2,2:3|2:3,2:0:0:0:
319,298,74064,2,0,L|479:322,1,144,2|0,2:3|2:0,2:0:0:0:
324,213,74682,2,0,L|484:237,1,144,10|0,2:3|2:0,2:0:0:0:
424,120,75301,6,0,B|320:128|320:128|224:88|224:88|88:104,1,335.999999999999,2|2,2:3|2:3,2:0:0:0:
0,208,76538,2,0,P|24:160|112:136,1,144,2|0,2:0|2:0,2:0:0:0:
112,344,77157,2,0,B|72:312|72:312|88:208,1,144,10|0,2:3|2:0,2:0:0:0:
176,64,77775,5,6,2:0:0:0:
200,56,79012,1,2,2:0:0:0:
228,44,80249,1,2,2:0:0:0:
252,36,81487,1,2,2:0:0:0:
312,160,82724,5,2,2:0:0:0:
288,152,83961,1,2,2:0:0:0:
260,140,85198,1,2,2:0:0:0:
236,132,86435,1,2,2:0:0:0:
68,100,87672,6,0,B|64:188|64:188|80:212,1,112,2|8,2:3|2:3,2:0:0:0:
176,288,88136,1,2,2:3:0:0:
176,288,88213,1,8,2:3:0:0:
176,288,88291,1,2,2:3:0:0:
200,176,88445,2,0,B|232:160|264:176|264:176|296:192|328:176,1,112,8|2,2:3|2:3,2:0:0:0:
392,272,88909,6,0,L|336:264,1,56,2|0,2:3|2:0,2:0:0:0:
336,168,89219,2,0,L|432:184,1,83.9999999999999,2|8,2:3|2:3,2:0:0:0:
464,192,89528,2,0,P|456:152|464:128,1,56,2|8,2:3|2:3,2:0:0:0:
488,16,89837,2,0,L|424:24,1,56,2|0,2:3|2:0,2:0:0:0:
320,80,90146,6,0,L|208:64,1,112,2|8,2:3|2:3,2:0:0:0:
56,48,90610,1,2,2:3:0:0:
56,48,90688,1,8,2:3:0:0:
56,48,90765,1,2,2:3:0:0:
128,88,90920,2,0,P|144:144|120:200,1,112,10|0,2:3|2:0,2:0:0:0:
104,216,91306,1,8,2:3:0:0:
104,216,91384,6,0,L|160:208,1,56,8|2,2:3|2:3,2:0:0:0:
232,280,91693,2,0,L|176:288,1,56,2|0,2:3|2:0,2:0:0:0:
232,144,92002,2,0,L|240:200,1,56,2|8,2:3|2:3,2:0:0:0:
312,328,92311,2,0,L|320:240,1,83.9999999999999,8|0,2:3|2:0,2:0:0:0:
320,208,92621,6,0,P|376:240|440:216,1,112,2|8,2:3|2:3,2:0:0:0:
392,152,93085,1,2,2:3:0:0:
392,152,93162,1,8,2:3:0:0:
392,152,93239,1,2,2:3:0:0:
448,224,93394,2,0,L|440:336,1,112,8|0,2:3|2:0,2:0:0:0:
432,368,93780,1,8,2:3:0:0:
432,368,93858,6,0,P|400:344|368:336,1,56,0|0,2:0|2:0,2:0:0:0:
272,376,94167,2,0,L|216:368,1,56,10|8,2:3|2:3,2:0:0:0:
104,288,94476,2,0,L|160:280,1,56,10|2,2:3|2:3,2:0:0:0:
288,184,94786,2,0,L|224:176,1,56,2|8,2:3|2:3,2:0:0:0:
80,112,95095,6,0,L|88:192,1,56,2|0,2:3|2:0,2:0:0:0:
88,192,95327,1,0,2:0:0:0:
88,192,95404,2,0,L|48:184,2,28,8|0|0,2:3|2:0|2:0,2:0:0:0:
176,120,95713,1,0,2:0:0:0:
176,120,95791,1,8,2:3:0:0:
176,120,95868,1,8,2:3:0:0:
80,24,96023,2,0,L|144:32,1,56,0|0,2:0|2:0,2:0:0:0:
264,128,96332,6,0,B|384:232|512:128|512:128|488:64|416:64,1,392,8|0,2:3|2:0,2:0:0:0:
256,192,97569,12,0,99425,2:0:0:0:
240,144,99994,6,0,L|248:192,3,44,6|2|2|2,3:2|2:0|2:0|2:0,2:0:0:0:
176,88,100291,2,0,L|183:44,3,44,10|2|2|2,2:0|2:0|2:0|2:0,2:0:0:0:
112,152,100588,1,2,2:0:0:0:
112,152,100662,1,2,2:0:0:0:
112,152,100736,2,0,L|120:200,1,44,2|2,3:2|2:0,2:0:0:0:
112,288,100885,1,10,2:0:0:0:
112,288,100959,1,2,2:0:0:0:
112,288,101033,2,0,L|160:280,1,44,2|2,2:0|2:0,2:0:0:0:
220,344,101182,5,2,3:2:0:0:
256,371,101256,1,2,2:0:0:0:
302,377,101330,1,2,2:0:0:0:
343,356,101404,1,2,2:0:0:0:
369,317,101479,1,10,2:0:0:0:
369,271,101553,1,2,2:0:0:0:
345,232,101627,1,2,2:0:0:0:
305,209,101701,1,2,2:0:0:0:
256,208,101776,2,0,L|248:160,3,44,2|2|2|2,2:0|2:0|3:2|2:0,2:0:0:0:
219,91,102073,1,10,2:0:0:0:
176,88,102147,1,2,2:0:0:0:
132,84,102221,1,2,2:0:0:0:
88,80,102295,1,2,2:0:0:0:
43,75,102370,6,0,L|32:24,3,44,2|2|2|2,3:2|2:0|2:0|2:0,2:0:0:0:
64,160,102667,1,10,2:0:0:0:
90,194,102741,1,2,2:0:0:0:
96,237,102815,1,2,2:0:0:0:
80,278,102890,1,2,2:0:0:0:
48,304,102964,6,0,L|40:240,2,58.6666666666667,2|2|2,2:0|2:0|2:0,2:0:0:0:
168,288,103261,6,0,L|160:346,2,58.6666666666667,10|2|2,2:0|2:0|2:0,2:0:0:0:
272,264,103558,6,0,L|264:200,2,58.6666666666667,2|2|2,3:2|2:0|2:0,2:0:0:0:
392,248,103855,6,0,L|384:306,2,58.6666666666667,10|2|2,2:0|2:0|2:0,2:0:0:0:
496,232,104152,6,0,L|488:176,3,44,2|0|0|0,2:0|2:0|3:0|2:0,2:0:0:0:
460,356,104449,2,0,P|420:332|364:340,1,88,10|0,2:0|2:0,2:0:0:0:
256,360,104746,5,2,3:2:0:0:
215,377,104820,1,0,2:0:0:0:
172,371,104894,1,0,2:0:0:0:
137,345,104969,1,0,2:0:0:0:
120,304,105043,2,0,L|112:240,1,44,10|0,2:0|2:0,2:0:0:0:
216,176,105192,2,0,L|208:224,3,44,2|0|2|0,2:0|2:0|2:0|2:0,2:0:0:0:
88,176,105489,1,2,3:2:0:0:
88,176,105563,1,0,2:0:0:0:
88,176,105637,2,0,L|144:168,1,44,10|0,2:0|2:0,2:0:0:0:
188,80,105786,2,0,L|232:88,1,44,0|0,2:0|2:0,2:0:0:0:
296,31,105934,5,2,3:2:0:0:
315,69,106008,1,0,2:0:0:0:
313,113,106083,1,0,2:0:0:0:
289,149,106157,1,0,2:0:0:0:
250,169,106231,1,10,2:0:0:0:
211,189,106305,1,0,2:0:0:0:
187,225,106380,1,0,2:0:0:0:
185,269,106454,1,0,2:0:0:0:
200,312,106528,2,0,L|192:360,3,44,2|0|0|0,2:0|2:0|3:0|2:0,2:0:0:0:
320,248,106825,2,0,L|256:256,1,44,10|0,2:0|2:0,2:0:0:0:
384,320,106974,2,0,L|427:314,1,44,0|0,2:0|2:0,2:0:0:0:
488,208,107122,5,2,3:2:0:0:
456,178,107196,1,0,2:0:0:0:
413,167,107271,1,0,2:0:0:0:
371,178,107345,1,0,2:0:0:0:
336,208,107419,1,10,2:0:0:0:
307,241,107494,1,0,2:0:0:0:
266,255,107568,1,0,2:0:0:0:
224,246,107642,1,0,2:0:0:0:
192,216,107716,5,0,2:0:0:0:
200,192,107791,1,0,2:0:0:0:
208,168,107865,2,0,L|160:176,1,44,0|0,3:0|2:0,2:0:0:0:
72,184,108013,2,0,L|87:142,1,44,10|0,2:0|2:0,2:0:0:0:
128,56,108162,2,0,L|155:89,1,44,0|0,2:0|2:0,2:0:0:0:
288,152,108310,6,0,L|384:160,1,88,2|0,3:0|2:0,2:0:0:0:
512,176,108607,1,10,2:3:0:0:
400,80,108756,1,2,3:0:0:0:
480,256,108904,1,2,2:0:0:0:
375,159,109053,1,8,2:3:0:0:
336,288,109201,2,0,L|384:280,3,44,2|0|0|0,2:3|2:0|2:0|2:0,2:0:0:0:
272,352,109498,5,6,3:2:0:0:
232,370,109573,1,0,2:0:0:0:
189,367,109647,1,0,2:0:0:0:
154,341,109721,1,0,2:0:0:0:
136,302,109795,1,10,2:0:0:0:
141,258,109870,1,0,2:0:0:0:
168,224,109944,2,0,L|160:176,5,44,2|0|0|0|2|0,2:0|2:0|2:0|2:0|3:2|2:0,2:0:0:0:
112,114,110390,1,10,2:0:0:0:
153,99,110464,1,2,2:0:0:0:
195,107,110538,1,2,2:0:0:0:
228,136,110612,1,2,2:0:0:0:
240,176,110687,6,0,L|248:232,5,44,2|0|0|0|10|0,3:2|2:0|2:0|2:0|2:0|2:0,2:0:0:0:
328,144,111132,1,2,2:0:0:0:
328,144,111206,1,0,2:0:0:0:
328,144,111281,2,0,L|336:80,3,44,0|0|0|0,2:0|2:0|3:0|2:0,2:0:0:0:
416,160,111578,1,10,2:0:0:0:
420,203,111652,1,2,2:0:0:0:
425,247,111726,1,2,2:0:0:0:
430,291,111800,1,2,2:0:0:0:
436,336,111875,6,0,L|484:328,5,44,2|2|2|2|10|2,3:2|2:0|2:0|2:0|2:0|2:0,2:0:0:0:
336,320,112320,1,2,2:0:0:0:
336,320,112394,1,0,2:0:0:0:
336,320,112469,2,0,L|344:368,3,44,0|0|2|0,2:0|2:0|3:2|2:0,2:0:0:0:
312,192,112766,2,0,P|272:168|216:176,1,88,10|0,2:0|2:0,2:0:0:0:
80,240,113063,5,2,3:2:0:0:
44,214,113137,1,2,2:0:0:0:
27,175,113211,1,2,2:0:0:0:
33,132,113286,1,2,2:0:0:0:
61,98,113360,1,10,2:0:0:0:
102,85,113434,1,2,2:0:0:0:
145,94,113508,1,2,3:2:0:0:
175,125,113583,1,2,2:0:0:0:
184,168,113657,1,2,2:0:0:0:
172,210,113731,1,2,2:0:0:0:
184,251,113805,1,2,3:2:0:0:
216,281,113880,1,2,2:0:0:0:
256,296,113954,2,0,L|248:248,3,44,10|2|2|2,2:0|2:0|2:0|2:0,2:0:0:0:
328,360,114251,6,0,L|432:368,1,88,2|0,3:2|2:0,2:0:0:0:
496,280,114548,1,8,2:0:0:0:
496,280,114622,1,0,2:0:0:0:
496,280,114696,2,0,L|432:288,5,44,2|0|0|0|0|0,2:0|2:0|2:0|2:0|3:0|2:0,2:0:0:0:
352,272,115142,2,0,L|344:228,3,44,10|0|0|0,2:0|2:0|2:0|2:0,2:0:0:0:
436,204,115439,5,2,3:2:0:0:
409,164,115513,1,0,2:0:0:0:
369,142,115588,1,0,2:0:0:0:
323,141,115662,1,0,2:0:0:0:
281,161,115736,1,8,2:0:0:0:
239,181,115810,1,0,3:0:0:0:
194,179,115885,1,0,3:0:0:0:
154,157,115959,1,0,3:0:0:0:
128,120,116033,2,0,L|136:72,3,44,2|0|0|0,3:2|3:0|3:0|3:0,2:0:0:0:
56,168,116330,2,0,L|64:216,3,44,8|0|0|0,2:0|3:0|3:0|3:0,2:0:0:0:
80,296,116627,5,2,3:2:0:0:
103,332,116701,1,0,3:0:0:0:
142,351,116776,1,0,3:0:0:0:
185,346,116850,1,0,3:0:0:0:
219,320,116924,1,8,2:0:0:0:
242,283,116998,1,0,3:0:0:0:
281,264,117073,1,0,3:0:0:0:
324,269,117147,1,0,3:0:0:0:
360,296,117221,2,0,L|352:344,3,44,2|0|0|0,3:2|3:0|3:0|3:0,2:0:0:0:
456,280,117518,1,8,2:0:0:0:
456,280,117593,1,0,3:0:0:0:
456,280,117667,2,0,L|448:216,1,44,0|0,3:0|3:0,2:0:0:0:
455,95,117815,5,2,3:2:0:0:
442,47,117890,1,2,3:2:0:0:
408,12,117964,1,2,3:2:0:0:
362,0,118038,1,2,3:2:0:0:
314,12,118112,1,10,2:0:0:0:
280,46,118187,1,2,3:2:0:0:
268,92,118261,1,2,3:2:0:0:
280,139,118335,1,2,3:2:0:0:
317,176,118409,5,10,3:2:0:0:
353,213,118484,1,10,3:2:0:0:
370,266,118558,1,10,3:2:0:0:
353,318,118632,1,10,3:2:0:0:
314,357,118706,1,10,2:0:0:0:
263,371,118781,1,10,3:2:0:0:
209,356,118855,1,10,3:2:0:0:
173,317,118929,1,10,3:2:0:0:
176,264,119003,6,0,L|232:272,3,44,6|0|0|0,3:2|2:0|2:0|2:0,2:0:0:0:
96,248,119300,2,0,L|88:304,3,44,8|0|0|0,2:0|2:0|2:0|2:0,2:0:0:0:
120,168,119597,2,0,L|64:160,3,44,0|0|0|0,2:0|2:0|3:0|2:0,2:0:0:0:
184,104,119894,1,10,2:0:0:0:
227,109,119969,1,2,2:0:0:0:
271,115,120043,1,2,2:0:0:0:
314,121,120117,1,2,2:0:0:0:
360,128,120192,6,0,L|352:80,3,44,2|0|0|0,3:2|2:0|2:0|2:0,2:0:0:0:
448,160,120489,1,8,2:0:0:0:
478,191,120563,1,0,2:0:0:0:
489,233,120637,1,0,2:0:0:0:
478,275,120711,1,0,2:0:0:0:
448,304,120786,2,0,L|456:352,3,44,0|0|0|0,2:0|2:0|3:0|2:0,2:0:0:0:
384,232,121083,1,8,2:0:0:0:
384,232,121157,1,0,2:0:0:0:
384,232,121231,2,0,L|336:240,1,44,2|0,2:0|2:0,2:0:0:0:
280,320,121380,5,2,3:2:0:0:
236,316,121454,1,0,2:0:0:0:
192,312,121528,1,0,2:0:0:0:
148,308,121602,1,0,2:0:0:0:
104,304,121677,1,8,2:0:0:0:
66,281,121751,1,0,2:0:0:0:
48,242,121825,1,0,2:0:0:0:
54,199,121899,1,0,2:0:0:0:
80,160,121974,2,0,L|32:168,3,44,2|0|0|0,2:0|2:0|3:0|2:0,2:0:0:0:
184,232,122271,1,8,2:0:0:0:
184,232,122345,1,0,2:0:0:0:
184,232,122419,2,0,L|136:224,1,44,2|0,2:0|2:0,2:0:0:0:
136,96,122568,5,2,3:2:0:0:
171,70,122642,1,0,2:0:0:0:
214,64,122716,1,2,2:0:0:0:
254,80,122791,1,0,2:0:0:0:
282,113,122865,1,10,2:0:0:0:
309,146,122939,1,0,2:0:0:0:
350,162,123013,1,2,3:2:0:0:
393,156,123088,1,0,2:0:0:0:
432,128,123162,2,0,L|424:80,3,44,2|0|0|0,2:0|2:0|3:0|2:0,2:0:0:0:
512,160,123459,1,10,2:0:0:0:
508,203,123533,1,2,2:0:0:0:
504,247,123607,1,2,2:0:0:0:
500,291,123682,1,2,2:0:0:0:
496,336,123756,6,0,L|408:344,1,88,2|0,3:2|2:0,2:0:0:0:
272,352,124053,1,10,2:0:0:0:
228,349,124127,1,2,2:0:0:0:
193,324,124201,1,2,2:0:0:0:
176,284,124276,1,2,2:0:0:0:
184,240,124350,2,0,L|128:248,3,44,2|2|2|2,2:0|2:0|3:2|2:0,2:0:0:0:
280,208,124647,1,10,2:0:0:0:
302,170,124721,1,2,2:0:0:0:
303,127,124795,1,2,2:0:0:0:
283,88,124870,1,2,2:0:0:0:
246,65,124944,5,2,3:2:0:0:
203,63,125018,1,2,2:0:0:0:
164,82,125093,1,2,2:0:0:0:
140,118,125167,1,2,2:0:0:0:
136,160,125241,2,0,L|192:152,3,44,10|2|2|2,2:0|2:0|2:0|2:0,2:0:0:0:
96,240,125538,2,0,L|52:233,3,44,2|2|2|2,2:0|2:0|3:2|2:0,2:0:0:0:
149,329,125835,1,10,2:0:0:0:
149,329,125909,1,2,2:0:0:0:
149,329,125984,2,0,L|213:321,1,44,2|2,2:0|2:0,2:0:0:0:
280,360,126132,5,2,3:2:0:0:
323,356,126206,1,2,2:0:0:0:
367,353,126281,1,2,2:0:0:0:
411,350,126355,1,2,2:0:0:0:
456,344,126429,2,0,L|464:296,3,44,10|2|2|2,2:0|2:0|2:0|2:0,2:0:0:0:
424,224,126726,1,2,2:0:0:0:
398,188,126800,1,2,2:0:0:0:
389,145,126875,1,2,3:2:0:0:
399,103,126949,1,0,2:0:0:0:
424,64,127023,2,0,L|472:56,1,44,10|2,2:0|2:0,2:0:0:0:
352,152,127172,2,0,L|296:144,1,44,2|0,2:0|2:0,2:0:0:0:
264,64,127320,5,2,3:2:0:0:
228,39,127394,1,0,2:0:0:0:
184,31,127469,1,0,2:0:0:0:
142,43,127543,1,0,2:0:0:0:
104,72,127617,2,0,L|96:16,3,44,8|0|0|0,2:0|2:0|3:0|2:0,2:0:0:0:
192,136,127914,1,2,2:0:0:0:
212,174,127989,1,2,2:0:0:0:
214,218,128063,1,2,3:2:0:0:
199,259,128137,1,0,2:0:0:0:
168,288,128211,2,0,L|120:296,1,44,10|2,2:0|2:0,2:0:0:0:
256,224,128360,2,0,L|304:232,1,44,2|0,2:0|2:0,2:0:0:0:
312,344,128508,6,0,L|224:352,1,88,2|2,3:2|2:0,2:0:0:0:
88,320,128805,2,0,L|96:368,3,44,10|2|2|0,2:0|2:0|2:0|2:0,2:0:0:0:
72,224,129102,1,2,2:0:0:0:
70,179,129177,1,2,2:0:0:0:
95,143,129251,1,2,3:2:0:0:
134,127,129325,1,0,2:0:0:0:
176,136,129399,1,10,2:0:0:0:
218,145,129474,1,2,2:0:0:0:
258,128,129548,1,2,2:0:0:0:
283,92,129622,1,2,2:0:0:0:
280,48,129696,6,0,L|232:56,3,44,2|2|2|2,3:2|2:0|2:0|2:0,2:0:0:0:
360,128,129994,2,0,L|403:135,3,44,10|2|2|2,2:0|2:0|2:0|2:0,2:0:0:0:
304,200,130291,1,2,2:0:0:0:
282,237,130365,1,2,2:0:0:0:
281,281,130439,1,2,3:2:0:0:
304,320,130513,1,0,2:0:0:0:
344,336,130588,2,0,L|400:328,1,44,10|2,2:0|2:0,2:0:0:0:
432,224,130736,2,0,L|388:217,1,44,2|0,2:0|2:0,2:0:0:0:
464,304,130885,5,2,3:2:0:0:
499,278,130959,1,2,2:0:0:0:
512,239,131033,1,2,2:0:0:0:
512,195,131107,1,0,2:0:0:0:
492,156,131182,2,0,L|496:112,3,44,10|2|2|0,2:0|2:0|2:0|2:0,2:0:0:0:
432,224,131479,1,2,2:0:0:0:
388,218,131553,1,0,2:0:0:0:
344,212,131627,1,0,3:0:0:0:
301,206,131701,1,0,2:0:0:0:
256,200,131776,2,0,L|248:144,1,44,10|0,2:0|2:0,2:0:0:0:
344,80,131924,2,0,L|336:136,1,44,2|0,2:0|2:0,2:0:0:0:
248,32,132073,5,2,3:2:0:0:
207,16,132147,1,0,2:0:0:0:
163,21,132221,1,0,2:0:0:0:
127,46,132295,1,0,2:0:0:0:
107,84,132370,1,10,2:0:0:0:
106,128,132444,1,2,2:0:0:0:
126,166,132518,1,2,3:2:0:0:
161,192,132593,1,2,2:0:0:0:
208,196,132667,2,0,L|200:148,3,44,2|2|2|2,2:0|2:0|3:2|2:0,2:0:0:0:
80,232,132964,1,10,2:0:0:0:
80,232,133038,1,2,2:0:0:0:
80,232,133112,2,0,L|72:296,1,44,2|2,2:0|2:0,2:0:0:0:
128,352,133261,5,2,3:2:0:0:
171,348,133335,1,2,2:0:0:0:
215,344,133409,1,2,2:0:0:0:
259,340,133484,1,2,2:0:0:0:
304,336,133558,2,0,L|296:288,3,44,10|2|2|2,2:0|2:0|2:0|2:0,2:0:0:0:
392,360,133855,1,2,2:0:0:0:
435,356,133929,1,2,2:0:0:0:
471,331,134003,1,2,3:2:0:0:
489,291,134078,1,2,2:0:0:0:
485,248,134152,1,10,2:0:0:0:
460,213,134226,1,2,2:0:0:0:
421,194,134300,1,2,2:0:0:0:
377,198,134375,1,2,2:0:0:0:
344,224,134449,6,0,L|336:168,3,44,2|0|2|2,3:2|2:0|2:0|2:0,2:0:0:0:
432,112,134746,2,0,L|425:155,3,44,10|0|2|2,2:0|3:0|3:2|3:2,2:0:0:0:
324,72,135043,1,2,3:2:0:0:
284,49,135117,1,0,3:0:0:0:
239,51,135192,1,2,3:2:0:0:
202,76,135266,1,2,3:2:0:0:
180,113,135340,1,10,2:0:0:0:
151,146,135414,1,0,3:0:0:0:
108,159,135489,1,2,3:2:0:0:
65,147,135563,1,0,3:0:0:0:
35,115,135637,5,2,3:2:0:0:
26,72,135711,1,0,3:0:0:0:
43,29,135786,1,2,3:2:0:0:
79,4,135860,1,2,3:2:0:0:
128,0,135934,2,0,L|120:48,3,44,10|0|2|2,2:0|3:0|3:2|3:2,2:0:0:0:
191,100,136231,2,0,L|184:144,3,44,2|2|2|2,3:2|3:2|3:2|3:2,2:0:0:0:
96,160,136528,5,10,2:0:0:0:
98,181,136602,1,2,3:2:0:0:
101,203,136677,1,2,3:2:0:0:
104,226,136751,1,2,3:2:0:0:
108,250,136825,5,2,3:2:0:0:
116,295,136899,1,0,3:0:0:0:
144,331,136974,1,0,3:0:0:0:
187,352,137048,1,0,3:0:0:0:
233,351,137122,1,10,2:0:0:0:
275,329,137196,1,0,3:0:0:0:
301,291,137271,1,0,3:0:0:0:
310,245,137345,1,0,3:0:0:0:
296,200,137419,5,10,3:2:0:0:
263,155,137494,1,10,3:2:0:0:
259,102,137568,1,10,3:2:0:0:
281,54,137642,1,10,3:2:0:0:
325,25,137716,1,10,2:0:0:0:
378,22,137791,1,10,3:2:0:0:
426,44,137865,1,10,3:2:0:0:
454,90,137939,1,10,3:2:0:0:
448,144,138013,6,0,B|344:240|416:368|416:368|504:344|488:232,1,420,6|2,3:2|2:0,2:0:0:0:
360,112,140390,6,0,P|336:144|304:304,1,196,2|2,2:0|2:0,2:0:0:0:
304,376,141578,2,0,P|288:339|165:231,1,196,2|2,2:0|2:0,2:0:0:0:
168,320,142766,6,0,P|224:304|96:264,1,420,2|2,2:0|2:0,2:0:0:0:
175,235,145142,6,0,B|143:139|143:139|199:51,1,196,2|2,2:0|2:0,2:0:0:0:
304,40,146330,2,0,B|352:16|400:40|400:40|440:64|496:40,1,196,2|2,2:0|2:0,2:0:0:0:
352,112,147518,6,0,P|296:160|440:144,1,420,2|2,2:0|2:0,2:0:0:0:
373,193,149894,6,0,P|293:145|189:169,1,196,2|2,2:0|2:0,2:0:0:0:
120,216,151083,2,0,B|104:144|104:144|128:96|128:96|112:24,1,196,2|2,2:0|2:0,2:0:0:0:
32,80,152271,2,0,B|8:128|8:128|40:272,1,196,2|2,2:0|2:0,2:0:0:0:
72,344,153459,6,0,B|128:312|184:344|184:344|232:376|296:344,2,224,2|2|2,2:0|2:0|2:0,2:0:0:0:
232,240,157023,6,0,L|240:288,2,37.3333333333333,2|2|2,2:0|2:0|2:0,2:0:0:0:
256,192,157617,12,0,159399,2:0:0:0:
