osu file format v14

[General]
AudioFilename: audio.mp3
AudioLeadIn: 0
PreviewTime: 25822
Countdown: 0
SampleSet: Soft
StackLeniency: 0.3
Mode: 0
LetterboxInBreaks: 0
WidescreenStoryboard: 1

[Editor]
Bookmarks: 2645,25817,66641,99994,138013,138088,159399
DistanceSpacing: 1.1
BeatDivisor: 4
GridSize: 8
TimelineZoom: 2.299999

[Metadata]
Title:Juvenile
TitleUnicode:Juvenile
Artist:technoplanet
ArtistUnicode:technoplanet
Creator:Astronic
Version:Ataraxis
Source:Lanota
Tags:owc 2020 qualifier nm2 streams electronic piano artcore instrumental badgraph badgraph_
BeatmapID:2659368
BeatmapSetID:1280204

[Difficulty]
HPDrainRate:6
CircleSize:4.5
OverallDifficulty:9.5
ApproachRate:9.7
SliderMultiplier:1.94
SliderTickRate:1

[Events]
//Background and Video events
0,0,"bg.jpg",0,0
//Break Periods
//Storyboard Layer 0 (Background)
//Storyboard Layer 1 (Fail)
//Storyboard Layer 2 (Pass)
//Storyboard Layer 3 (Foreground)
//Storyboard Layer 4 (Overlay)
//Storyboard Sound Samples

[TimingPoints]
2645,645.161290322581,4,2,33,50,1,0
2645,-200,4,2,33,50,0,0
23290,-125,4,2,33,50,0,0
25199,309.278350515464,4,2,1,65,1,0
25199,-125,4,2,1,65,0,0
25250,-125,4,2,2,65,0,0
25302,-125,4,2,3,65,0,0
25353,-125,4,2,4,65,0,0
25405,-125,4,2,5,65,0,0
25456,-125,4,2,6,65,0,0
25508,-125,4,2,7,65,0,0
25559,-125,4,2,8,65,0,0
25611,-125,4,2,9,65,0,0
25662,-125,4,2,10,65,0,0
25714,-125,4,2,11,65,0,0
25766,-125,4,2,12,65,0,0
25817,309.278350515464,4,2,13,85,1,1
28136,-86.9565217391304,4,2,10,85,0,1
28291,-86.9565217391304,4,2,6,85,0,1
28600,-86.9565217391304,4,2,3,85,0,1
29528,-86.9565217391304,4,2,6,85,0,1
29837,-86.9565217391304,4,2,1,85,0,1
30610,-86.9565217391304,4,2,5,85,0,1
30765,-86.9565217391304,4,2,3,85,0,1
33085,-86.9565217391304,4,2,10,85,0,1
33239,-86.9565217391304,4,2,6,85,0,1
33548,-86.9565217391304,4,2,1,85,0,1
34322,-86.9565217391304,4,2,11,85,0,1
34476,-86.9565217391304,4,2,6,85,0,1
34786,-86.9565217391304,4,2,13,85,0,1
35713,-86.9565217391304,4,2,10,85,0,1
38033,-86.9565217391304,4,2,14,85,0,1
38188,-86.9565217391304,4,2,10,85,0,1
39270,-86.9565217391304,4,2,15,85,0,1
39425,-86.9565217391304,4,2,13,85,0,1
40507,-86.9565217391304,4,2,16,85,0,1
40662,-86.9565217391304,4,2,13,85,0,1
41899,-86.9565217391304,4,2,17,85,0,1
41976,-86.9565217391304,4,2,18,85,0,1
42054,-86.9565217391304,4,2,19,85,0,1
42131,-86.9565217391304,4,2,3,85,0,1
42208,-86.9565217391304,4,2,19,85,0,1
42286,-86.9565217391304,4,2,3,85,0,1
42363,-86.9565217391304,4,2,5,85,0,1
42440,-86.9565217391304,4,2,6,85,0,1
42518,-86.9565217391304,4,2,5,85,0,1
42595,-86.9565217391304,4,2,6,85,0,1
42672,-86.9565217391304,4,2,7,85,0,1
42749,-86.9565217391304,4,2,10,85,0,1
42827,-86.9565217391304,4,2,7,85,0,1
42904,-86.9565217391304,4,2,10,85,0,1
42981,-86.9565217391304,4,2,12,85,0,1
43059,-86.9565217391304,4,2,13,85,0,1
43136,-86.9565217391304,4,2,14,85,0,1
43445,-86.9565217391304,4,2,15,85,0,1
43523,-86.9565217391304,4,2,14,85,0,1
43600,-86.9565217391304,4,2,13,85,0,1
43677,-86.9565217391304,4,2,10,85,0,1
43755,-86.9565217391304,4,2,8,85,0,1
43832,-86.9565217391304,4,2,7,85,0,1
43909,-86.9565217391304,4,2,6,85,0,1
43987,-86.9565217391304,4,2,3,85,0,1
44064,-86.9565217391304,4,2,1,85,0,1
44141,-86.9565217391304,4,2,19,85,0,1
44219,-86.9565217391304,4,2,18,85,0,1
44296,-86.9565217391304,4,2,20,85,0,1
44373,-86.9565217391304,4,2,21,85,0,1
44450,-86.9565217391304,4,2,22,85,0,1
44528,-86.9565217391304,4,2,17,85,0,1
44605,-86.9565217391304,4,2,18,85,0,1
44682,-86.9565217391304,4,2,20,85,0,1
44759,-86.9565217391304,4,2,18,85,0,1
44837,-86.9565217391304,4,2,19,85,0,1
44914,-86.9565217391304,4,2,18,85,0,1
44992,-86.9565217391304,4,2,19,85,0,1
45069,-86.9565217391304,4,2,3,85,0,1
45146,-86.9565217391304,4,2,1,85,0,1
45224,-86.9565217391304,4,2,3,85,0,1
45301,-86.9565217391304,4,2,6,85,0,1
45378,-86.9565217391304,4,2,7,85,0,1
45456,-86.9565217391304,4,2,8,85,0,1
45533,-86.9565217391304,4,2,10,85,0,1
45610,-86.9565217391304,4,2,13,85,0,1
46538,-86.9565217391304,4,2,5,85,0,1
46615,-86.9565217391304,4,2,6,85,0,1
46693,-86.9565217391304,4,2,8,85,0,1
46770,-86.9565217391304,4,2,15,85,0,1
46847,-86.9565217391304,4,2,16,85,0,1
47930,-86.9565217391304,4,2,10,85,0,1
48085,-86.9565217391304,4,2,12,85,0,1
48394,-86.9565217391304,4,2,13,85,0,1
49167,-86.9565217391304,4,2,3,85,0,1
49322,-86.9565217391304,4,2,6,85,0,1
49631,-86.9565217391304,4,2,7,85,0,1
50249,-86.9565217391304,4,2,5,85,0,1
50327,-86.9565217391304,4,2,6,85,0,1
50404,-86.9565217391304,4,2,13,85,0,1
50481,-86.9565217391304,4,2,15,85,0,1
50559,-86.9565217391304,4,2,16,85,0,1
50868,-86.9565217391304,4,2,15,85,0,1
50945,-86.9565217391304,4,2,14,85,0,1
51023,-86.9565217391304,4,2,13,85,0,1
51100,-86.9565217391304,4,2,12,85,0,1
51177,-86.9565217391304,4,2,14,85,0,1
51255,-86.9565217391304,4,2,13,85,0,1
51409,-86.9565217391304,4,2,11,85,0,1
51487,-86.9565217391304,4,2,13,85,0,1
51564,-86.9565217391304,4,2,12,85,0,1
51641,-86.9565217391304,4,2,11,85,0,1
51719,-86.9565217391304,4,2,10,85,0,1
51796,-86.9565217391304,4,2,12,85,0,1
51873,-86.9565217391304,4,2,11,85,0,1
51951,-86.9565217391304,4,2,10,85,0,1
52028,-86.9565217391304,4,2,11,85,0,1
52105,-86.9565217391304,4,2,10,85,0,1
52182,-86.9565217391304,4,2,9,85,0,1
52260,-86.9565217391304,4,2,10,85,0,1
52337,-86.9565217391304,4,2,9,85,0,1
52414,-86.9565217391304,4,2,8,85,0,1
52492,-86.9565217391304,4,2,9,85,0,1
52569,-86.9565217391304,4,2,10,85,0,1
52646,-86.9565217391304,4,2,7,85,0,1
52724,-86.9565217391304,4,2,8,85,0,1
52801,-86.9565217391304,4,2,9,85,0,1
52878,-86.9565217391304,4,2,10,85,0,1
52955,-86.9565217391304,4,2,5,85,0,1
53033,-86.9565217391304,4,2,6,85,0,1
53342,-86.9565217391304,4,2,1,85,0,1
54115,-86.9565217391304,4,2,11,85,0,1
54270,-86.9565217391304,4,2,6,85,0,1
54579,-86.9565217391304,4,2,13,85,0,1
55507,-86.9565217391304,4,2,10,85,0,1
56126,-86.9565217391304,4,2,3,85,0,1
56203,-86.9565217391304,4,2,6,85,0,1
56280,-86.9565217391304,4,2,8,85,0,1
56358,-86.9565217391304,4,2,14,85,0,1
56435,-86.9565217391304,4,2,13,85,0,1
56512,-86.9565217391304,4,2,10,85,0,1
56590,-86.9565217391304,4,2,13,85,0,1
56667,-86.9565217391304,4,2,15,85,0,1
56744,-86.9565217391304,4,2,16,85,0,1
57827,-86.9565217391304,4,2,14,85,0,1
57981,-86.9565217391304,4,2,10,85,0,1
59064,-86.9565217391304,4,2,15,85,0,1
59219,-86.9565217391304,4,2,13,85,0,1
59837,-86.9565217391304,4,2,15,85,0,1
60301,-86.9565217391304,4,2,16,85,0,1
60456,-86.9565217391304,4,2,13,85,0,1
60996,-86.9565217391304,4,2,3,85,0,1
61074,-86.9565217391304,4,2,1,85,0,1
61152,-86.9565217391304,4,2,19,85,0,1
61229,-86.9565217391304,4,2,18,85,0,1
61306,-86.9565217391304,4,2,19,85,0,1
61384,-86.9565217391304,4,2,1,85,0,1
61461,-86.9565217391304,4,2,3,85,0,1
61538,-86.9565217391304,4,2,4,85,0,1
61615,-86.9565217391304,4,2,5,85,0,1
61693,-86.9565217391304,4,2,6,85,0,1
61770,-86.9565217391304,4,2,3,85,0,1
61847,-86.9565217391304,4,2,6,85,0,1
61925,-86.9565217391304,4,2,7,85,0,1
62002,-86.9565217391304,4,2,8,85,0,1
62079,-86.9565217391304,4,2,7,85,0,1
62157,-86.9565217391304,4,2,8,85,0,1
62234,-86.9565217391304,4,2,9,85,0,1
62311,-86.9565217391304,4,2,10,85,0,1
62389,-86.9565217391304,4,2,7,85,0,1
62466,-86.9565217391304,4,2,8,85,0,1
62543,-86.9565217391304,4,2,10,85,0,1
62621,-86.9565217391304,4,2,13,85,0,1
62698,-86.9565217391304,4,2,10,85,0,1
62775,-86.9565217391304,4,2,13,85,0,1
62853,-86.9565217391304,4,2,14,85,0,1
62930,-86.9565217391304,4,2,15,85,0,1
63239,-86.9565217391304,4,2,13,85,0,1
63548,-86.9565217391304,4,2,9,85,0,1
64012,-86.9565217391304,4,2,8,85,0,1
64167,-86.9565217391304,4,2,10,85,0,1
64708,-86.9565217391304,4,2,15,85,0,1
64786,-86.9565217391304,4,2,16,85,0,1
65095,-86.9565217391304,4,2,14,85,0,1
65404,-86.9565217391304,4,2,13,85,0,1
65868,-86.9565217391304,4,2,12,85,0,1
66332,-86.9565217391304,4,2,10,85,0,1
66641,-125,4,2,10,60,0,0
67878,-142.857142857143,4,2,1,60,0,0
68032,-142.857142857143,4,2,2,60,0,0
68188,-142.857142857143,4,2,3,60,0,0
68342,-142.857142857143,4,2,2,60,0,0
68497,-142.857142857143,4,2,1,60,0,0
68652,-142.857142857143,4,2,4,60,0,0
68806,-142.857142857143,4,2,2,60,0,0
68961,-142.857142857143,4,2,5,60,0,0
69038,-142.857142857143,4,2,2,60,0,0
69425,-142.857142857143,4,2,6,60,0,0
69579,-142.857142857143,4,2,2,60,0,0
69734,-142.857142857143,4,2,4,60,0,0
69889,-142.857142857143,4,2,2,60,0,0
70043,-142.857142857143,4,2,7,60,0,0
70121,-142.857142857143,4,2,2,60,0,0
70353,-142.857142857143,4,2,6,60,0,0
70507,-142.857142857143,4,2,1,60,0,0
70661,-142.857142857143,4,2,3,60,0,0
70817,-142.857142857143,4,2,7,60,0,0
71125,-142.857142857143,4,2,9,60,0,0
71280,-142.857142857143,4,2,8,60,0,0
71899,-142.857142857143,4,2,6,60,0,0
72053,-142.857142857143,4,2,3,60,0,0
72208,-142.857142857143,4,2,13,60,0,0
72518,-142.857142857143,4,2,14,60,0,0
72827,-222.222222222222,4,2,8,60,0,0
72981,-222.222222222222,4,2,3,60,0,0
73600,-222.222222222222,4,2,9,60,0,0
73755,-222.222222222222,4,2,5,60,0,0
73909,-222.222222222222,4,2,10,60,0,0
74064,-222.222222222222,4,2,1,60,0,0
74219,-222.222222222222,4,2,2,60,0,0
74682,-222.222222222222,4,2,3,60,0,0
75301,-222.222222222222,4,2,10,60,0,0
75920,-222.222222222222,4,2,2,60,0,0
76538,-222.222222222222,4,2,7,60,0,0
76693,-222.222222222222,4,2,2,60,0,0
77157,-222.222222222222,4,2,11,60,0,0
77775,-222.222222222222,4,2,5,60,0,0
79012,-222.222222222222,4,2,33,60,0,0
87672,-125,4,2,2,60,0,0
92621,-111.111111111111,4,2,2,60,0,0
94089,-111.111111111111,4,2,2,5,0,0
94167,-111.111111111111,4,2,2,60,0,0
96332,-333.333333333333,4,2,2,60,0,0
99994,297.029702970297,4,2,23,85,1,1
100068,-100,4,2,24,85,0,1
100142,-100,4,2,9,85,0,1
100216,-100,4,2,25,85,0,1
100291,-100,4,2,3,85,0,1
100365,-100,4,2,24,85,0,1
100439,-100,4,2,9,85,0,1
100513,-100,4,2,25,85,0,1
100588,-100,4,2,2,85,0,1
100662,-100,4,2,24,85,0,1
100736,-100,4,2,9,85,0,1
100810,-100,4,2,25,85,0,1
100885,-100,4,2,3,85,0,1
100959,-100,4,2,24,85,0,1
101033,-100,4,2,10,85,0,1
101107,-100,4,2,25,85,0,1
101182,-100,4,2,23,85,0,1
101256,-100,4,2,26,85,0,1
101330,-100,4,2,27,85,0,1
101404,-100,4,2,14,85,0,1
101479,-100,4,2,25,85,0,1
101553,-100,4,2,10,85,0,1
101627,-100,4,2,9,85,0,1
101701,-100,4,2,24,85,0,1
101776,-100,4,2,7,85,0,1
101850,-100,4,2,10,85,0,1
101924,-100,4,2,9,85,0,1
101998,-100,4,2,10,85,0,1
102073,-100,4,2,25,85,0,1
102147,-100,4,2,10,85,0,1
102221,-100,4,2,27,85,0,1
102295,-100,4,2,28,85,0,1
102370,-100,4,2,16,85,0,1
102444,-100,4,2,28,85,0,1
102518,-100,4,2,27,85,0,1
102593,-100,4,2,28,85,0,1
102667,-100,4,2,25,85,0,1
102741,-100,4,2,10,85,0,1
102815,-100,4,2,24,85,0,1
102890,-100,4,2,9,85,0,1
102964,-86.9565217391304,4,2,24,85,0,1
103063,-86.9565217391304,4,2,16,85,0,1
103162,-86.9565217391304,4,2,28,85,0,1
103261,-86.9565217391304,4,2,27,85,0,1
103360,-86.9565217391304,4,2,25,85,0,1
103459,-86.9565217391304,4,2,29,85,0,1
103558,-86.9565217391304,4,2,10,85,0,1
103657,-86.9565217391304,4,2,29,85,0,1
103756,-86.9565217391304,4,2,25,85,0,1
103855,-86.9565217391304,4,2,27,85,0,1
103954,-86.9565217391304,4,2,14,85,0,1
104053,-86.9565217391304,4,2,28,85,0,1
104152,-86.9565217391304,4,2,16,85,0,1
104449,-86.9565217391304,4,2,30,85,0,1
104746,-86.9565217391304,4,2,31,85,0,1
105043,-86.9565217391304,4,2,23,85,0,1
105192,-86.9565217391304,4,2,25,85,0,1
105340,-86.9565217391304,4,2,10,85,0,1
105489,-86.9565217391304,4,2,9,85,0,1
105637,-86.9565217391304,4,2,24,85,0,1
105934,-86.9565217391304,4,2,25,85,0,1
108013,-86.9565217391304,4,2,13,85,0,1
108310,-86.9565217391304,4,2,12,85,0,1
108607,-86.9565217391304,4,2,11,85,0,1
108756,-86.9565217391304,4,2,2,85,0,1
108904,-86.9565217391304,4,2,9,85,0,1
109053,-86.9565217391304,4,2,2,85,0,1
109498,-86.9565217391304,4,2,24,85,0,1
109944,-86.9565217391304,4,2,23,85,0,1
110464,-86.9565217391304,4,2,24,85,0,1
110538,-86.9565217391304,4,2,10,85,0,1
110612,-86.9565217391304,4,2,25,85,0,1
110687,-86.9565217391304,4,2,9,85,0,1
111132,-86.9565217391304,4,2,24,85,0,1
111652,-86.9565217391304,4,2,10,85,0,1
111726,-86.9565217391304,4,2,25,85,0,1
111800,-86.9565217391304,4,2,27,85,0,1
111875,-86.9565217391304,4,2,25,85,0,1
111949,-86.9565217391304,4,2,10,85,0,1
112023,-86.9565217391304,4,2,25,85,0,1
112097,-86.9565217391304,4,2,27,85,0,1
112172,-86.9565217391304,4,2,25,85,0,1
112246,-86.9565217391304,4,2,10,85,0,1
112320,-86.9565217391304,4,2,27,85,0,1
112766,-86.9565217391304,4,2,28,85,0,1
113063,-86.9565217391304,4,2,16,85,0,1
113137,-86.9565217391304,4,2,30,85,0,1
113211,-86.9565217391304,4,2,16,85,0,1
113286,-86.9565217391304,4,2,28,85,0,1
113360,-86.9565217391304,4,2,16,85,0,1
113434,-86.9565217391304,4,2,28,85,0,1
113508,-86.9565217391304,4,2,27,85,0,1
113583,-86.9565217391304,4,2,12,85,0,1
113657,-86.9565217391304,4,2,27,85,0,1
113731,-86.9565217391304,4,2,12,85,0,1
113805,-86.9565217391304,4,2,25,85,0,1
113880,-86.9565217391304,4,2,29,85,0,1
113954,-86.9565217391304,4,2,10,85,0,1
114028,-86.9565217391304,4,2,29,85,0,1
114102,-86.9565217391304,4,2,10,85,0,1
114177,-86.9565217391304,4,2,9,85,0,1
114251,-86.9565217391304,4,2,24,85,0,1
114696,-86.9565217391304,4,2,25,85,0,1
115142,-86.9565217391304,4,2,27,85,0,1
116033,-86.9565217391304,4,2,28,85,0,1
116627,-86.9565217391304,4,2,16,85,0,1
117221,-86.9565217391304,4,2,27,85,0,1
117815,-86.9565217391304,4,2,28,85,0,1
117890,-86.9565217391304,4,2,16,85,0,1
117964,-86.9565217391304,4,2,28,85,0,1
118038,-86.9565217391304,4,2,16,85,0,1
118112,-86.9565217391304,4,2,28,85,0,1
118187,-86.9565217391304,4,2,27,85,0,1
118261,-86.9565217391304,4,2,28,85,0,1
118335,-86.9565217391304,4,2,27,85,0,1
118409,-86.9565217391304,4,2,29,85,0,1
118484,-86.9565217391304,4,2,27,85,0,1
118558,-86.9565217391304,4,2,28,85,0,1
118632,-86.9565217391304,4,2,25,85,0,1
118706,-86.9565217391304,4,2,14,85,0,1
118781,-86.9565217391304,4,2,25,85,0,1
118855,-86.9565217391304,4,2,10,85,0,1
118929,-86.9565217391304,4,2,25,85,0,1
119003,-86.9565217391304,4,2,24,85,0,1
119969,-86.9565217391304,4,2,9,85,0,1
120043,-86.9565217391304,4,2,25,85,0,1
120117,-86.9565217391304,4,2,27,85,0,1
120192,-76.9230769230769,4,2,31,85,0,1
121231,-76.9230769230769,4,2,25,85,0,1
121380,-76.9230769230769,4,2,24,85,0,1
121974,-76.9230769230769,4,2,27,85,0,1
122419,-76.9230769230769,4,2,23,85,0,1
122568,-76.9230769230769,4,2,24,85,0,1
122716,-76.9230769230769,4,2,23,85,0,1
122865,-76.9230769230769,4,2,24,85,0,1
123013,-76.9230769230769,4,2,23,85,0,1
123162,-76.9230769230769,4,2,9,85,0,1
123459,-76.9230769230769,4,2,25,85,0,1
123533,-76.9230769230769,4,2,14,85,0,1
123607,-76.9230769230769,4,2,27,85,0,1
123682,-76.9230769230769,4,2,16,85,0,1
123756,-86.9565217391304,4,2,31,85,0,1
124053,-86.9565217391304,4,2,16,85,0,1
124127,-86.9565217391304,4,2,28,85,0,1
124201,-86.9565217391304,4,2,27,85,0,1
124276,-86.9565217391304,4,2,14,85,0,1
124350,-86.9565217391304,4,2,28,85,0,1
124424,-86.9565217391304,4,2,27,85,0,1
124498,-86.9565217391304,4,2,14,85,0,1
124573,-86.9565217391304,4,2,13,85,0,1
124647,-86.9565217391304,4,2,27,85,0,1
124721,-86.9565217391304,4,2,14,85,0,1
124795,-86.9565217391304,4,2,13,85,0,1
124870,-86.9565217391304,4,2,25,85,0,1
124944,-86.9565217391304,4,2,14,85,0,1
125018,-86.9565217391304,4,2,13,85,0,1
125093,-86.9565217391304,4,2,25,85,0,1
125167,-86.9565217391304,4,2,13,85,0,1
125241,-86.9565217391304,4,2,25,85,0,1
125315,-86.9565217391304,4,2,29,85,0,1
125390,-86.9565217391304,4,2,10,85,0,1
125464,-86.9565217391304,4,2,29,85,0,1
125538,-86.9565217391304,4,2,10,85,0,1
125612,-86.9565217391304,4,2,29,85,0,1
125687,-86.9565217391304,4,2,10,85,0,1
125761,-86.9565217391304,4,2,9,85,0,1
125835,-86.9565217391304,4,2,10,85,0,1
125909,-86.9565217391304,4,2,9,85,0,1
125984,-86.9565217391304,4,2,25,85,0,1
126058,-86.9565217391304,4,2,7,85,0,1
126132,-86.9565217391304,4,2,24,85,0,1
126206,-86.9565217391304,4,2,23,85,0,1
126281,-86.9565217391304,4,2,25,85,0,1
126355,-86.9565217391304,4,2,27,85,0,1
126429,-86.9565217391304,4,2,24,85,0,1
126503,-86.9565217391304,4,2,23,85,0,1
126578,-86.9565217391304,4,2,25,85,0,1
126652,-86.9565217391304,4,2,27,85,0,1
126726,-86.9565217391304,4,2,2,85,0,1
126800,-86.9565217391304,4,2,3,85,0,1
126875,-86.9565217391304,4,2,23,85,0,1
127023,-86.9565217391304,4,2,3,85,0,1
127097,-86.9565217391304,4,2,2,85,0,1
127172,-86.9565217391304,4,2,13,85,0,1
127320,-86.9565217391304,4,2,27,85,0,1
127914,-86.9565217391304,4,2,3,85,0,1
127989,-86.9565217391304,4,2,32,85,0,1
128063,-86.9565217391304,4,2,23,85,0,1
128211,-86.9565217391304,4,2,3,85,0,1
128286,-86.9565217391304,4,2,32,85,0,1
128360,-86.9565217391304,4,2,23,85,0,1
128508,-86.9565217391304,4,2,27,85,0,1
128583,-86.9565217391304,4,2,23,85,0,1
128657,-86.9565217391304,4,2,25,85,0,1
128731,-86.9565217391304,4,2,27,85,0,1
128805,-86.9565217391304,4,2,23,85,0,1
128879,-86.9565217391304,4,2,9,85,0,1
128953,-86.9565217391304,4,2,24,85,0,1
129102,-86.9565217391304,4,2,23,85,0,1
129177,-86.9565217391304,4,2,9,85,0,1
129251,-86.9565217391304,4,2,24,85,0,1
129399,-86.9565217391304,4,2,26,85,0,1
129474,-86.9565217391304,4,2,2,85,0,1
129548,-86.9565217391304,4,2,26,85,0,1
129622,-86.9565217391304,4,2,2,85,0,1
129696,-86.9565217391304,4,2,26,85,0,1
129771,-86.9565217391304,4,2,2,85,0,1
129845,-86.9565217391304,4,2,26,85,0,1
129919,-86.9565217391304,4,2,2,85,0,1
129994,-86.9565217391304,4,2,26,85,0,1
130068,-86.9565217391304,4,2,2,85,0,1
130142,-86.9565217391304,4,2,26,85,0,1
130216,-86.9565217391304,4,2,2,85,0,1
130291,-86.9565217391304,4,2,3,85,0,1
130365,-86.9565217391304,4,2,32,85,0,1
130439,-86.9565217391304,4,2,23,85,0,1
130588,-86.9565217391304,4,2,3,85,0,1
130662,-86.9565217391304,4,2,32,85,0,1
130736,-86.9565217391304,4,2,23,85,0,1
130885,-86.9565217391304,4,2,25,85,0,1
130959,-86.9565217391304,4,2,27,85,0,1
131033,-86.9565217391304,4,2,28,85,0,1
131182,-86.9565217391304,4,2,25,85,0,1
131256,-86.9565217391304,4,2,27,85,0,1
131330,-86.9565217391304,4,2,28,85,0,1
131479,-86.9565217391304,4,2,16,85,0,1
131776,-86.9565217391304,4,2,14,85,0,1
131924,-86.9565217391304,4,2,31,85,0,1
132073,-86.9565217391304,4,2,27,85,0,1
132370,-86.9565217391304,4,2,10,85,0,1
132444,-86.9565217391304,4,2,9,85,0,1
132518,-86.9565217391304,4,2,24,85,0,1
132593,-86.9565217391304,4,2,23,85,0,1
132667,-86.9565217391304,4,2,3,85,0,1
132741,-86.9565217391304,4,2,2,85,0,1
132815,-86.9565217391304,4,2,26,85,0,1
132889,-86.9565217391304,4,2,2,85,0,1
132964,-86.9565217391304,4,2,3,85,0,1
133038,-86.9565217391304,4,2,32,85,0,1
133112,-86.9565217391304,4,2,23,85,0,1
133187,-86.9565217391304,4,2,7,85,0,1
133261,-86.9565217391304,4,2,24,85,0,1
133335,-86.9565217391304,4,2,23,85,0,1
133409,-86.9565217391304,4,2,24,85,0,1
133484,-86.9565217391304,4,2,9,85,0,1
133558,-86.9565217391304,4,2,10,85,0,1
133632,-86.9565217391304,4,2,24,85,0,1
133706,-86.9565217391304,4,2,10,85,0,1
133781,-86.9565217391304,4,2,29,85,0,1
133855,-86.9565217391304,4,2,25,85,0,1
133929,-86.9565217391304,4,2,23,85,0,1
134003,-86.9565217391304,4,2,10,85,0,1
134078,-86.9565217391304,4,2,25,85,0,1
134152,-86.9565217391304,4,2,27,85,0,1
134226,-86.9565217391304,4,2,25,85,0,1
134300,-86.9565217391304,4,2,27,85,0,1
134375,-86.9565217391304,4,2,28,85,0,1
134449,-86.9565217391304,4,2,16,85,0,1
134597,-86.9565217391304,4,2,27,85,0,1
134672,-86.9565217391304,4,2,16,85,0,1
134746,-86.9565217391304,4,2,31,85,0,1
134894,-86.9565217391304,4,2,28,85,0,1
134969,-86.9565217391304,4,2,16,85,0,1
135043,-86.9565217391304,4,2,30,85,0,1
135192,-86.9565217391304,4,2,27,85,0,1
135266,-86.9565217391304,4,2,28,85,0,1
135340,-86.9565217391304,4,2,30,85,0,1
135489,-86.9565217391304,4,2,27,85,0,1
135637,-86.9565217391304,4,2,28,85,0,1
135786,-86.9565217391304,4,2,9,85,0,1
135860,-86.9565217391304,4,2,29,85,0,1
135934,-86.9565217391304,4,2,25,85,0,1
136083,-86.9565217391304,4,2,9,85,0,1
136157,-86.9565217391304,4,2,16,85,0,1
136231,-86.9565217391304,4,2,31,85,0,1
136305,-86.9565217391304,4,2,24,85,0,1
136380,-86.9565217391304,4,2,9,85,0,1
136454,-86.9565217391304,4,2,10,85,0,1
136528,-86.9565217391304,4,2,29,85,0,1
136602,-86.9565217391304,4,2,25,85,0,1
136677,-86.9565217391304,4,2,13,85,0,1
136751,-86.9565217391304,4,2,14,85,0,1
136825,-86.9565217391304,4,2,27,85,0,1
137122,-86.9565217391304,4,2,25,85,0,1
137419,-86.9565217391304,4,2,2,85,0,1
137494,-86.9565217391304,4,2,3,85,0,1
137568,-86.9565217391304,4,2,32,85,0,1
137642,-86.9565217391304,4,2,23,85,0,1
137716,-86.9565217391304,4,2,25,85,0,1
138013,-400,4,2,27,60,0,0
139052,-400,4,2,25,60,0,0
139201,-400,4,2,24,60,0,0
140240,-400,4,2,23,60,0,0
140390,-400,4,2,24,60,0,0
141429,-400,4,2,7,60,0,0
141578,-400,4,2,24,60,0,0
142617,-400,4,2,7,60,0,0
142766,-400,4,2,24,60,0,0
143805,-400,4,2,25,60,0,0
143953,-400,4,2,24,60,0,0
144993,-400,4,2,13,60,0,0
145142,-400,4,2,24,60,0,0
146181,-400,4,2,27,60,0,0
146330,-400,4,2,25,60,0,0
147369,-400,4,2,27,60,0,0
147518,-400,4,2,25,60,0,0
148557,-400,4,2,28,60,0,0
148706,-400,4,2,25,60,0,0
149745,-400,4,2,16,60,0,0
149894,-400,4,2,27,60,0,0
150933,-400,4,2,31,60,0,0
151083,-400,4,2,27,60,0,0
152122,-400,4,2,31,60,0,0
152271,-400,4,2,27,60,0,0
153310,-400,4,2,31,60,0,0
153459,-400,4,2,27,60,0,0
154498,-400,4,2,31,60,0,0
154647,-400,4,2,27,60,0,0
155687,-400,4,2,31,60,0,0
155835,-400,4,2,27,60,0,0
157023,-133.333333333333,4,2,33,60,0,0

[Colours]
Combo1 : 65,218,250
Combo2 : 32,155,255

[HitObjects]
250,303,2645,6,0,L|352:292,3,97,6|2|2|2,2:0|2:0|2:0|2:0,2:0:0:0:
224,224,5225,2,0,L|120:208,3,97,2|2|2|2,2:0|2:0|2:0|2:0,2:0:0:0:
284,152,7806,2,0,L|393:136,3,97,2|2|2|2,2:0|2:0|2:0|2:0,2:0:0:0:
232,72,10386,2,0,L|128:52,3,97,2|2|2|2,2:0|2:0|2:0|2:0,2:0:0:0:
332,84,12967,5,6,2:0:0:0:
372,164,13612,1,2,2:0:0:0:
412,248,14257,1,2,2:0:0:0:
452,328,14903,1,2,2:0:0:0:
240,84,15548,5,2,2:0:0:0:
280,164,16193,1,2,2:0:0:0:
152,108,16838,1,2,2:0:0:0:
192,188,17483,1,2,2:0:0:0:
272,352,18128,5,2,2:0:0:0:
232,272,18774,1,2,2:0:0:0:
192,188,19419,1,2,2:0:0:0:
152,108,20064,1,2,2:0:0:0:
56,84,20709,5,2,2:0:0:0:
280,164,21354,1,2,2:0:0:0:
56,180,21999,1,2,2:0:0:0:
280,260,22645,1,2,2:0:0:0:
248,104,23290,6,0,L|253:129,2,25.8666666666667,2|2|2,2:0|2:0|2:0,2:0:0:0:
248,104,25199,6,0,L|257:144,11,25.8666666666667,2|2|2|2|2|2|2|2|2|2|2|2,2:0|2:0|2:0|2:0|2:0|2:0|2:0|2:0|2:0|2:0|2:0|2:0,2:0:0:0:
236,52,25817,5,6,3:2:0:0:
290,47,25894,1,0,2:0:0:0:
339,71,25971,1,0,2:0:0:0:
367,118,26048,1,0,2:0:0:0:
366,174,26126,1,8,2:0:0:0:
337,219,26203,1,0,2:0:0:0:
287,243,26280,1,0,2:0:0:0:
232,237,26358,1,0,2:0:0:0:
188,200,26435,1,0,2:0:0:0:
134,188,26512,1,0,2:0:0:0:
82,206,26590,1,0,3:2:0:0:
47,248,26667,1,0,2:0:0:0:
40,303,26744,1,8,2:0:0:0:
62,353,26822,1,0,2:0:0:0:
108,384,26899,1,0,2:0:0:0:
163,387,26976,1,0,2:0:0:0:
211,360,27054,1,0,3:2:0:0:
238,312,27131,1,0,2:0:0:0:
264,264,27208,1,0,2:0:0:0:
288,212,27286,1,0,2:0:0:0:
312,160,27363,1,8,2:0:0:0:
360,133,27440,1,0,2:0:0:0:
415,133,27518,1,0,2:0:0:0:
463,159,27595,1,0,2:0:0:0:
493,206,27672,1,0,2:0:0:0:
496,261,27749,1,0,2:0:0:0:
471,311,27827,1,0,3:2:0:0:
426,342,27904,1,0,2:0:0:0:
371,348,27981,1,8,2:0:0:0:
321,327,28059,1,0,2:0:0:0:
288,284,28136,2,0,L|280:228,1,55.775,2|0,2:0|2:0,2:0:0:0:
264,112,28291,5,2,3:2:0:0:
252,56,28368,1,0,2:0:0:0:
209,21,28445,1,0,2:0:0:0:
153,21,28523,1,0,2:0:0:0:
111,58,28600,1,8,2:0:0:0:
102,114,28677,1,0,2:0:0:0:
131,162,28755,1,0,2:0:0:0:
184,178,28832,1,0,2:0:0:0:
244,164,28909,1,0,2:0:0:0:
294,142,28987,1,0,2:0:0:0:
347,160,29064,1,0,3:2:0:0:
377,209,29141,1,0,2:0:0:0:
368,264,29219,1,8,2:0:0:0:
325,300,29296,1,0,2:0:0:0:
268,300,29373,2,0,L|204:304,1,55.775,2|0,2:0|2:0,2:0:0:0:
66,301,29528,5,2,3:2:0:0:
20,269,29605,1,0,2:0:0:0:
3,217,29682,1,0,2:0:0:0:
21,165,29760,1,0,2:0:0:0:
66,135,29837,1,8,2:0:0:0:
121,137,29914,1,0,2:0:0:0:
162,169,29992,1,0,3:2:0:0:
207,200,30069,1,0,2:0:0:0:
262,203,30146,1,0,2:0:0:0:
311,177,30224,1,0,2:0:0:0:
339,130,30301,1,0,3:2:0:0:
339,75,30378,1,0,2:0:0:0:
311,28,30456,1,8,2:0:0:0:
262,2,30533,1,0,2:0:0:0:
208,4,30610,2,0,L|216:64,1,55.775,2|0,2:0|2:0,2:0:0:0:
240,212,30765,5,2,3:2:0:0:
267,260,30842,1,0,2:0:0:0:
313,289,30920,1,0,2:0:0:0:
368,294,30997,1,0,2:0:0:0:
419,273,31074,1,8,2:0:0:0:
454,230,31152,1,0,2:0:0:0:
465,176,31229,1,0,2:0:0:0:
450,123,31306,1,0,2:0:0:0:
412,83,31384,1,0,2:0:0:0:
360,66,31461,1,0,2:0:0:0:
305,75,31538,1,0,3:2:0:0:
261,108,31615,1,0,2:0:0:0:
232,156,31693,1,8,2:0:0:0:
206,204,31770,1,0,2:0:0:0:
160,236,31847,1,0,2:0:0:0:
105,242,31925,1,0,2:0:0:0:
54,223,32002,1,0,3:2:0:0:
17,181,32079,1,0,2:0:0:0:
4,128,32157,1,0,2:0:0:0:
18,74,32234,1,0,2:0:0:0:
54,33,32311,1,8,2:0:0:0:
106,13,32389,1,0,2:0:0:0:
161,20,32466,1,0,2:0:0:0:
206,52,32543,1,0,2:0:0:0:
232,102,32621,1,0,2:0:0:0:
253,152,32698,1,0,2:0:0:0:
298,185,32775,1,0,3:2:0:0:
352,191,32853,1,0,2:0:0:0:
403,168,32930,1,8,2:0:0:0:
435,124,33007,1,0,2:0:0:0:
437,68,33085,2,0,L|376:76,1,55.775,2|0,2:0|2:0,2:0:0:0:
144,108,33239,5,2,3:2:0:0:
89,119,33317,1,0,2:0:0:0:
47,154,33394,1,0,2:0:0:0:
26,205,33471,1,0,2:0:0:0:
32,260,33548,1,8,2:0:0:0:
63,306,33626,1,0,2:0:0:0:
111,332,33703,1,0,2:0:0:0:
167,332,33780,1,0,2:0:0:0:
212,304,33858,1,0,2:0:0:0:
258,273,33935,1,0,2:0:0:0:
312,260,34012,1,0,3:2:0:0:
367,264,34090,1,0,2:0:0:0:
418,286,34167,1,8,2:0:0:0:
459,324,34244,1,0,2:0:0:0:
484,372,34322,2,0,L|428:364,1,55.775,2|0,2:0|2:0,2:0:0:0:
200,284,34476,5,2,3:2:0:0:
163,241,34554,1,0,2:0:0:0:
155,186,34631,1,0,2:0:0:0:
178,135,34708,1,0,2:0:0:0:
225,105,34786,1,8,2:0:0:0:
281,105,34863,1,0,2:0:0:0:
328,135,34940,1,0,3:2:0:0:
351,186,35018,1,0,2:0:0:0:
340,240,35095,1,0,2:0:0:0:
308,284,35172,1,0,2:0:0:0:
312,339,35249,1,0,3:2:0:0:
350,379,35327,1,0,2:0:0:0:
404,386,35404,1,8,2:0:0:0:
451,358,35481,1,0,2:0:0:0:
468,304,35559,2,0,L|480:232,1,55.775,2|0,2:0|2:0,2:0:0:0:
493,148,35713,5,2,3:2:0:0:
488,93,35791,1,0,2:0:0:0:
456,47,35868,1,0,2:0:0:0:
406,24,35945,1,0,2:0:0:0:
351,30,36023,1,8,2:0:0:0:
307,60,36100,1,0,2:0:0:0:
283,112,36177,1,0,2:0:0:0:
289,167,36255,1,0,2:0:0:0:
320,212,36332,1,0,2:0:0:0:
339,263,36409,1,0,2:0:0:0:
328,317,36487,1,0,3:2:0:0:
288,355,36564,1,0,2:0:0:0:
234,366,36641,1,8,2:0:0:0:
184,345,36719,1,0,2:0:0:0:
153,299,36796,1,0,2:0:0:0:
152,244,36873,1,0,2:0:0:0:
180,196,36951,1,0,3:2:0:0:
204,146,37028,1,0,2:0:0:0:
199,92,37105,1,0,2:0:0:0:
165,49,37182,1,0,2:0:0:0:
113,31,37260,1,8,2:0:0:0:
59,44,37337,1,0,2:0:0:0:
21,84,37414,1,0,2:0:0:0:
11,138,37492,1,0,2:0:0:0:
32,189,37569,1,0,2:0:0:0:
77,221,37646,1,0,2:0:0:0:
132,223,37724,1,0,3:2:0:0:
180,196,37801,1,0,2:0:0:0:
230,173,37878,1,8,2:0:0:0:
285,178,37956,1,0,2:0:0:0:
328,208,38033,2,0,L|336:264,1,55.775,2|0,2:0|2:0,2:0:0:0:
180,196,38188,5,2,3:2:0:0:
139,159,38265,1,0,2:0:0:0:
132,105,38342,1,0,2:0:0:0:
162,59,38420,1,0,2:0:0:0:
215,44,38497,1,8,2:0:0:0:
264,67,38574,1,0,2:0:0:0:
284,116,38652,1,0,2:0:0:0:
301,168,38729,1,0,2:0:0:0:
345,201,38806,1,0,2:0:0:0:
400,203,38884,1,0,2:0:0:0:
447,175,38961,1,0,3:2:0:0:
470,125,39038,1,0,2:0:0:0:
461,71,39115,1,8,2:0:0:0:
423,31,39193,1,0,2:0:0:0:
368,16,39270,2,0,L|360:76,1,55.775,2|0,2:0|2:0,2:0:0:0:
332,276,39425,5,2,3:2:0:0:
318,329,39502,1,0,2:0:0:0:
279,368,39579,1,0,2:0:0:0:
226,383,39657,1,0,2:0:0:0:
173,369,39734,1,8,2:0:0:0:
133,330,39811,1,0,2:0:0:0:
119,277,39889,1,0,3:2:0:0:
133,224,39966,1,0,2:0:0:0:
168,184,40043,1,0,2:0:0:0:
205,143,40121,1,0,2:0:0:0:
207,89,40198,1,0,3:2:0:0:
174,46,40275,1,0,2:0:0:0:
120,34,40353,1,8,2:0:0:0:
72,60,40430,1,0,2:0:0:0:
52,108,40507,2,0,L|112:96,1,55.775,2|0,2:0|2:0,2:0:0:0:
312,60,40662,5,2,3:2:0:0:
366,56,40739,1,0,2:0:0:0:
416,80,40817,1,0,2:0:0:0:
445,127,40894,1,0,2:0:0:0:
447,182,40971,1,8,2:0:0:0:
420,230,41048,1,0,2:0:0:0:
372,258,41126,1,0,2:0:0:0:
317,257,41203,1,0,2:0:0:0:
268,228,41280,1,0,2:0:0:0:
216,208,41358,1,0,2:0:0:0:
165,226,41435,1,0,3:2:0:0:
136,273,41512,1,0,2:0:0:0:
145,327,41590,1,8,2:0:0:0:
185,363,41667,1,0,2:0:0:0:
240,365,41744,1,0,2:0:0:0:
283,331,41822,1,0,2:0:0:0:
296,272,41899,5,2,3:2:0:0:
341,303,41976,1,2,2:0:0:0:
396,304,42054,1,2,2:0:0:0:
442,275,42131,1,2,2:0:0:0:
465,225,42208,1,10,2:0:0:0:
457,170,42286,1,2,2:0:0:0:
420,129,42363,1,2,2:0:0:0:
367,116,42440,1,2,2:0:0:0:
312,132,42518,5,2,2:0:0:0:
252,145,42595,1,2,2:0:0:0:
193,158,42672,1,2,3:2:0:0:
134,172,42749,1,2,2:0:0:0:
72,184,42827,5,10,2:0:0:0:
17,152,42904,1,2,2:0:0:0:
6,89,42981,1,2,2:0:0:0:
48,42,43059,1,2,2:0:0:0:
112,44,43136,2,0,L|104:100,3,55.775,2|0|0|0,3:2|2:0|2:0|2:0,2:0:0:0:
72,260,43445,5,10,2:0:0:0:
112,304,43523,1,2,2:0:0:0:
164,315,43600,1,2,2:0:0:0:
213,302,43677,1,2,2:0:0:0:
247,272,43755,1,2,2:0:0:0:
275,246,43832,1,2,2:0:0:0:
302,241,43909,1,2,3:2:0:0:
319,250,43987,1,2,2:0:0:0:
328,264,44064,1,10,2:0:0:0:
360,279,44141,1,2,2:0:0:0:
407,277,44219,1,2,2:0:0:0:
450,250,44296,1,2,2:0:0:0:
472,204,44373,6,0,L|404:196,1,55.775,2|2,3:2|2:0,2:0:0:0:
296,344,44528,2,0,L|364:352,1,55.775,2|2,2:0|2:0,2:0:0:0:
464,112,44682,2,0,L|396:104,1,55.775,2|2,2:0|2:0,2:0:0:0:
288,252,44837,2,0,L|356:260,1,55.775,2|2,3:2|2:0,2:0:0:0:
194,146,44992,5,2,2:0:0:0:
136,146,45069,1,2,2:0:0:0:
92,181,45146,1,2,3:2:0:0:
80,235,45224,1,2,2:0:0:0:
97,282,45301,1,2,2:0:0:0:
137,312,45378,1,2,2:0:0:0:
185,316,45456,1,10,2:0:0:0:
227,297,45533,1,10,2:0:0:0:
276,244,45610,5,6,3:2:0:0:
224,225,45688,1,0,2:0:0:0:
175,248,45765,1,0,2:0:0:0:
156,299,45842,1,0,2:0:0:0:
179,348,45920,1,8,2:0:0:0:
230,367,45997,1,0,2:0:0:0:
276,344,46074,1,0,2:0:0:0:
322,315,46152,1,0,2:0:0:0:
376,312,46229,2,0,L|368:368,3,55.775,0|0|0|0,2:0|2:0|3:2|2:0,2:0:0:0:
456,305,46538,5,10,2:0:0:0:
453,244,46615,1,2,2:0:0:0:
451,183,46693,1,2,2:0:0:0:
448,123,46770,1,2,2:0:0:0:
444,68,46847,5,2,3:2:0:0:
403,109,46925,1,0,2:0:0:0:
346,122,47002,1,0,2:0:0:0:
291,102,47079,1,0,2:0:0:0:
257,57,47157,1,8,2:0:0:0:
207,24,47234,1,0,2:0:0:0:
150,19,47311,1,0,2:0:0:0:
95,40,47389,1,0,2:0:0:0:
58,85,47466,1,0,2:0:0:0:
45,141,47543,1,0,2:0:0:0:
59,198,47621,1,0,3:2:0:0:
99,241,47698,1,0,2:0:0:0:
154,261,47775,1,8,2:0:0:0:
212,253,47853,1,0,2:0:0:0:
257,216,47930,2,0,L|315:208,1,55.775,2|0,2:0|2:0,2:0:0:0:
447,194,48085,5,2,3:2:0:0:
481,240,48162,1,0,2:0:0:0:
483,298,48239,1,0,2:0:0:0:
452,348,48317,1,0,2:0:0:0:
398,370,48394,1,8,2:0:0:0:
342,359,48471,1,0,2:0:0:0:
301,317,48548,1,0,2:0:0:0:
290,260,48626,1,0,2:0:0:0:
315,207,48703,1,2,2:0:0:0:
341,155,48780,1,0,2:0:0:0:
330,97,48858,1,0,3:2:0:0:
289,56,48935,1,0,2:0:0:0:
233,45,49012,1,8,2:0:0:0:
179,67,49090,1,0,2:0:0:0:
144,111,49167,2,0,L|136:173,1,55.775,2|0,2:0|2:0,2:0:0:0:
113,341,49322,5,2,3:2:0:0:
160,374,49399,1,0,2:0:0:0:
218,377,49476,1,0,2:0:0:0:
268,347,49554,1,0,2:0:0:0:
293,294,49631,1,8,2:0:0:0:
285,237,49708,1,0,2:0:0:0:
246,193,49786,1,0,3:2:0:0:
191,177,49863,1,0,2:0:0:0:
136,197,49940,2,0,L|65:204,3,55.775,2|0|0|0,2:0|2:0|3:2|2:0,2:0:0:0:
195,278,50249,5,10,2:0:0:0:
253,272,50327,1,2,2:0:0:0:
311,265,50404,1,2,2:0:0:0:
370,258,50481,1,2,2:0:0:0:
424,247,50559,2,0,L|416:309,3,55.775,2|0|0|0,3:2|2:0|2:0|2:0,2:0:0:0:
491,177,50868,5,10,2:0:0:0:
489,119,50945,1,2,2:0:0:0:
457,69,51023,1,2,2:0:0:0:
406,42,51100,1,2,2:0:0:0:
347,45,51177,1,2,2:0:0:0:
299,76,51255,1,2,2:0:0:0:
273,129,51332,1,0,2:0:0:0:
276,187,51409,1,2,3:2:0:0:
308,228,51487,1,10,2:0:0:0:
353,252,51564,1,2,2:0:0:0:
405,246,51641,1,2,2:0:0:0:
445,212,51719,1,2,2:0:0:0:
457,162,51796,1,2,3:2:0:0:
440,112,51873,1,2,2:0:0:0:
397,82,51951,1,2,2:0:0:0:
346,81,52028,1,2,2:0:0:0:
308,111,52105,1,10,2:0:0:0:
295,155,52182,1,2,2:0:0:0:
316,197,52260,1,2,2:0:0:0:
359,213,52337,1,2,2:0:0:0:
393,201,52414,1,2,2:0:0:0:
406,164,52492,1,2,2:0:0:0:
377,137,52569,1,2,3:2:0:0:
342,153,52646,1,2,2:0:0:0:
342,192,52724,1,10,2:0:0:0:
370,204,52801,1,2,2:0:0:0:
397,189,52878,2,0,L|338:181,1,55.775,2|2,2:0|2:0,2:0:0:0:
144,158,53033,5,2,3:2:0:0:
88,173,53110,1,0,2:0:0:0:
51,218,53188,1,0,2:0:0:0:
47,276,53265,1,0,2:0:0:0:
76,326,53342,1,8,2:0:0:0:
129,350,53420,1,0,2:0:0:0:
186,341,53497,1,0,2:0:0:0:
227,300,53574,1,0,2:0:0:0:
238,243,53652,1,0,2:0:0:0:
270,195,53729,1,0,2:0:0:0:
325,180,53806,1,0,3:2:0:0:
377,204,53884,1,0,2:0:0:0:
400,258,53961,1,8,2:0:0:0:
383,313,54038,1,0,2:0:0:0:
331,341,54115,2,0,L|338:278,1,55.775,2|0,2:0|2:0,2:0:0:0:
397,84,54270,5,2,3:2:0:0:
372,135,54347,1,0,2:0:0:0:
321,164,54425,1,0,2:0:0:0:
264,156,54502,1,0,2:0:0:0:
222,115,54579,1,8,2:0:0:0:
168,90,54657,1,0,2:0:0:0:
111,96,54734,1,0,3:2:0:0:
64,131,54811,1,0,2:0:0:0:
44,185,54889,1,0,2:0:0:0:
54,242,54966,1,0,2:0:0:0:
93,286,55043,1,0,3:2:0:0:
148,303,55121,1,0,2:0:0:0:
204,288,55198,1,8,2:0:0:0:
245,246,55275,1,0,2:0:0:0:
257,189,55353,2,0,L|190:196,1,55.775,2|0,2:0|2:0,2:0:0:0:
214,306,55507,5,2,3:2:0:0:
248,352,55585,1,0,2:0:0:0:
303,370,55662,1,0,2:0:0:0:
358,352,55739,1,0,2:0:0:0:
389,306,55817,1,8,2:0:0:0:
403,248,55894,1,0,2:0:0:0:
418,191,55971,1,0,2:0:0:0:
432,133,56048,1,0,2:0:0:0:
444,72,56126,5,2,2:0:0:0:
481,115,56203,1,2,2:0:0:0:
483,173,56280,1,2,3:2:0:0:
446,218,56358,1,2,2:0:0:0:
385,228,56435,1,10,2:0:0:0:
337,194,56512,1,2,2:0:0:0:
278,189,56590,1,2,2:0:0:0:
226,212,56667,1,2,2:0:0:0:
187,255,56744,5,2,3:2:0:0:
232,291,56822,1,0,2:0:0:0:
289,302,56899,1,0,2:0:0:0:
344,281,56976,1,0,2:0:0:0:
382,237,57054,1,8,2:0:0:0:
392,179,57131,1,0,2:0:0:0:
373,125,57208,1,0,2:0:0:0:
329,86,57286,1,0,2:0:0:0:
273,74,57363,1,0,2:0:0:0:
217,93,57440,1,0,2:0:0:0:
175,134,57518,1,0,3:2:0:0:
123,160,57595,1,0,2:0:0:0:
67,145,57672,1,8,2:0:0:0:
33,98,57749,1,0,2:0:0:0:
35,41,57827,2,0,L|97:48,1,55.775,2|0,2:0|2:0,2:0:0:0:
273,74,57981,5,2,3:2:0:0:
329,86,58059,1,0,2:0:0:0:
373,125,58136,1,0,2:0:0:0:
392,179,58213,1,0,2:0:0:0:
382,237,58291,1,8,2:0:0:0:
344,281,58368,1,0,2:0:0:0:
289,302,58445,1,0,2:0:0:0:
232,291,58523,1,0,2:0:0:0:
184,252,58600,1,0,2:0:0:0:
136,224,58677,1,0,2:0:0:0:
83,236,58755,1,0,3:2:0:0:
48,280,58832,1,0,2:0:0:0:
56,334,58909,1,8,2:0:0:0:
97,371,58987,1,0,2:0:0:0:
152,368,59064,2,0,L|224:360,1,55.775,2|0,2:0|2:0,2:0:0:0:
400,344,59219,5,2,3:2:0:0:
448,318,59296,1,0,2:0:0:0:
478,271,59373,1,0,2:0:0:0:
482,216,59451,1,0,2:0:0:0:
459,167,59528,1,8,2:0:0:0:
414,134,59605,1,0,2:0:0:0:
359,128,59682,1,0,3:2:0:0:
308,149,59760,1,0,2:0:0:0:
272,192,59837,1,2,2:0:0:0:
232,230,59914,1,0,2:0:0:0:
178,241,59992,1,0,3:2:0:0:
127,220,60069,1,0,2:0:0:0:
96,175,60146,1,8,2:0:0:0:
95,120,60224,1,0,2:0:0:0:
120,72,60301,2,0,L|188:64,1,55.775,2|0,2:0|2:0,2:0:0:0:
72,200,60456,5,2,3:2:0:0:
28,167,60533,1,0,2:0:0:0:
15,114,60610,1,0,2:0:0:0:
38,64,60688,1,0,2:0:0:0:
86,40,60765,2,0,L|148:32,3,55.775,8|0|0|2,2:0|2:0|2:0|2:0,2:0:0:0:
192,152,61074,5,2,2:0:0:0:
204,150,61152,1,2,2:0:0:0:
221,147,61229,1,2,3:2:0:0:
245,142,61306,1,2,2:0:0:0:
274,137,61384,1,10,2:0:0:0:
310,131,61461,1,2,2:0:0:0:
351,125,61538,1,2,2:0:0:0:
399,116,61615,1,2,2:0:0:0:
452,104,61693,5,2,3:2:0:0:
423,51,61770,1,2,2:0:0:0:
371,22,61847,1,2,2:0:0:0:
311,26,61925,1,2,2:0:0:0:
264,60,62002,1,10,2:0:0:0:
248,118,62079,1,2,2:0:0:0:
232,177,62157,1,2,2:0:0:0:
217,235,62234,1,2,2:0:0:0:
200,292,62311,5,2,2:0:0:0:
147,329,62389,1,2,2:0:0:0:
84,324,62466,1,2,3:2:0:0:
38,278,62543,1,2,2:0:0:0:
33,214,62621,1,10,2:0:0:0:
71,162,62698,1,2,2:0:0:0:
133,147,62775,1,2,2:0:0:0:
190,176,62853,1,2,2:0:0:0:
217,235,62930,5,2,3:2:0:0:
153,260,63007,1,0,3:0:0:0:
92,230,63085,1,0,3:0:0:0:
71,162,63162,1,0,3:0:0:0:
104,100,63239,5,2,3:2:0:0:
116,106,63317,1,0,3:0:0:0:
124,110,63394,2,0,L|180:118,1,55.775,0|0,3:0|3:0,2:0:0:0:
128,24,63548,5,2,3:2:0:0:
140,30,63626,1,0,3:0:0:0:
149,35,63703,2,0,L|210:43,1,55.775,0|0,3:0|3:0,2:0:0:0:
368,48,63858,5,2,3:2:0:0:
360,80,63935,1,0,3:0:0:0:
352,120,64012,2,0,L|342:187,1,55.775,2|0,3:2|3:0,2:0:0:0:
240,256,64167,5,10,3:2:0:0:
248,224,64244,1,8,2:0:0:0:
256,184,64322,2,0,L|266:117,1,55.775,0|0,3:0|3:0,2:0:0:0:
112,328,64476,5,10,2:0:0:0:
167,331,64554,1,8,2:0:0:0:
224,336,64631,2,0,L|296:344,1,55.775,0|10,3:2|2:0,2:0:0:0:
420,296,64786,5,10,2:0:0:0:
457,246,64863,1,8,2:0:0:0:
461,184,64940,1,0,3:2:0:0:
429,131,65018,1,8,2:0:0:0:
368,100,65095,5,10,2:0:0:0:
298,108,65172,1,8,2:0:0:0:
228,116,65249,1,8,2:0:0:0:
158,125,65327,1,8,2:0:0:0:
88,133,65404,5,6,3:2:0:0:
364,212,65868,5,6,3:2:0:0:
96,344,66332,5,6,3:2:0:0:
128,200,66641,6,0,L|124:232,5,25.8666666666667,0|0|0|0|0|0,2:0|2:0|2:0|2:0|2:0|2:0,2:0:0:0:
80,136,66951,2,0,L|72:104,5,25.8666666666667,0|0|0|0|0|0,2:0|2:0|2:0|2:0|2:0|2:0,2:0:0:0:
158,125,67260,5,0,2:0:0:0:
60,276,67569,1,0,2:0:0:0:
172,108,67878,6,0,L|248:100,1,67.8999999999999,2|2,2:3|2:3,2:0:0:0:
272,180,68188,2,0,L|204:187,1,67.8999999999999,10|2,2:3|2:3,2:0:0:0:
316,112,68497,1,2,2:3:0:0:
344,216,68652,2,0,L|352:112,1,101.85,10|8,2:3|2:3,2:0:0:0:
364,40,68961,1,2,2:3:0:0:
364,40,69038,1,8,2:3:0:0:
364,40,69115,2,0,B|384:92|384:92|448:108,1,101.85,2|0,2:3|2:0,2:0:0:0:
508,88,69425,1,10,2:3:0:0:
428,188,69579,1,10,2:3:0:0:
428,188,69657,1,0,2:0:0:0:
428,188,69734,2,0,L|424:224,1,33.95,10|0,2:3|2:0,2:0:0:0:
412,304,69889,1,2,2:3:0:0:
378,305,69966,1,8,2:3:0:0:
344,307,70043,1,2,2:3:0:0:
310,309,70121,1,2,2:3:0:0:
276,311,70198,1,8,2:3:0:0:
344,216,70353,5,2,2:0:0:0:
208,356,70507,2,0,P|196:316|204:276,1,67.8999999999999,2|2,2:0|2:0,2:0:0:0:
332,200,70817,1,2,2:0:0:0:
124,272,70971,2,0,P|143:235|177:212,1,67.8999999999999,0|2,2:0|2:0,2:0:0:0:
268,152,71280,2,0,P|216:192|148:180,1,135.8,2|0,2:0|2:0,2:0:0:0:
112,27,71744,2,0,P|173:53|197:115,1,135.8,2|2,2:0|2:0,2:0:0:0:
49,116,72208,2,0,L|117:109,1,67.8999999999999,2|0,2:0|2:0,2:0:0:0:
268,152,72518,2,0,L|200:159,1,67.8999999999999,2|0,2:0|2:0,2:0:0:0:
56,232,72827,6,0,B|128:224|128:224|156:248|156:248|368:224,1,305.55,2|2,2:3|2:3,2:0:0:0:
304,360,74064,2,0,L|168:336,1,130.95,2|0,2:3|2:0,2:0:0:0:
368,252,74682,2,0,L|224:224,1,130.95,10|0,2:3|2:0,2:0:0:0:
376,344,75301,6,0,P|464:296|376:152,1,305.55,2|2,2:3|2:3,2:0:0:0:
239,227,76538,2,0,L|368:252,1,130.95,2|0,2:0|2:0,2:0:0:0:
264,112,77157,2,0,L|392:136,1,130.95,10|0,2:3|2:0,2:0:0:0:
192,152,77775,5,6,2:0:0:0:
200,168,79012,1,2,2:0:0:0:
192,184,80249,1,2,2:0:0:0:
184,204,81487,1,2,2:0:0:0:
296,304,82724,5,2,2:0:0:0:
288,272,83961,1,2,2:0:0:0:
280,240,85198,1,2,2:0:0:0:
272,208,86435,1,2,2:0:0:0:
200,280,87672,6,0,L|190:365,1,77.6,2|0,2:3|2:0,2:0:0:0:
120,264,87981,2,0,B|76:252|76:252|62:169,1,116.4,8|8,2:3|2:3,2:0:0:0:
48,96,88291,1,2,2:3:0:0:
48,96,88368,1,8,2:3:0:0:
48,96,88445,2,0,L|152:120,1,77.6,8|2,2:3|2:3,2:0:0:0:
240,48,88755,1,2,2:3:0:0:
240,48,88832,1,8,2:3:0:0:
240,48,88909,6,0,L|152:32,1,77.6,2|0,2:3|2:0,2:0:0:0:
232,288,89219,2,0,L|216:128,1,155.2,2|2,2:3|2:3,2:0:0:0:
288,112,89682,1,8,2:3:0:0:
416,64,89837,2,0,P|368:72|328:40,1,77.6,2|0,2:3|2:0,2:0:0:0:
144,24,90146,6,0,L|136:112,1,77.6,2|0,2:3|2:0,2:0:0:0:
88,256,90456,2,0,P|132:240|184:256,1,77.6,8|2,2:3|2:3,2:0:0:0:
240,288,90688,2,0,P|272:296|328:280,1,77.6,8|8,2:3|2:3,2:0:0:0:
392,256,90920,2,0,P|428:248|480:272,1,77.6,10|0,2:3|2:0,2:0:0:0:
328,384,91229,1,0,2:0:0:0:
328,384,91306,1,8,2:3:0:0:
328,384,91384,6,0,L|320:288,1,77.6,8|2,2:3|2:3,2:0:0:0:
280,216,91693,2,0,L|288:128,1,77.6,2|0,2:3|2:0,2:0:0:0:
400,8,92002,2,0,L|408:88,1,77.6,2|8,2:3|2:3,2:0:0:0:
312,24,92311,2,0,L|280:16,6,19.4,8|8|8|8|8|0|0,2:3|2:3|2:3|2:3|2:3|2:0|2:0,2:0:0:0:
320,48,92621,6,0,P|288:60|224:32,1,87.3000000000001,2|0,2:3|2:0,2:0:0:0:
96,0,92930,2,0,L|80:96,1,87.3000000000001,8|2,2:3|2:3,2:0:0:0:
104,224,93239,1,2,2:3:0:0:
104,224,93317,1,2,2:3:0:0:
104,224,93394,2,0,P|72:216|16:232,1,87.3000000000001,8|0,2:3|2:0,2:0:0:0:
128,352,93703,1,0,2:0:0:0:
128,352,93780,1,8,2:3:0:0:
128,352,93858,6,0,L|272:336,1,130.95,0|0,2:0|2:0,2:0:0:0:
312,280,94167,1,10,2:3:0:0:
395,289,94322,1,8,2:3:0:0:
480,296,94476,1,10,2:3:0:0:
320,168,94631,1,2,2:3:0:0:
480,184,94786,2,0,B|408:176|408:176|384:96,1,130.95,2|0,2:3|2:0,2:0:0:0:
392,0,95095,6,0,P|372:36|304:56,1,87.3000000000001,2|0,2:3|2:0,2:0:0:0:
288,128,95404,1,8,2:3:0:0:
253,123,95481,1,0,2:0:0:0:
218,119,95559,1,0,2:0:0:0:
183,115,95636,1,8,2:3:0:0:
149,111,95713,1,0,2:0:0:0:
114,107,95791,1,8,2:3:0:0:
75,101,95868,2,0,L|67:45,1,43.65,8|0,2:3|2:0,2:0:0:0:
176,0,96023,1,0,2:0:0:0:
182,43,96100,1,0,2:0:0:0:
189,86,96177,1,0,2:0:0:0:
196,129,96255,1,0,2:0:0:0:
200,168,96332,6,0,B|167:216|200:268|200:268|231:320|199:368,1,203.69999378357,8|0,2:3|2:0,2:0:0:0:
256,192,97569,12,0,99889,2:0:0:0:
276,312,99994,5,6,3:2:0:0:
300,314,100068,1,2,2:0:0:0:
324,316,100142,1,2,2:0:0:0:
348,319,100216,1,2,2:0:0:0:
376,344,100291,5,10,2:0:0:0:
394,328,100365,1,2,2:0:0:0:
412,312,100439,1,2,2:0:0:0:
431,298,100513,1,2,2:0:0:0:
472,304,100588,5,2,2:0:0:0:
474,279,100662,1,2,2:0:0:0:
476,255,100736,1,2,3:2:0:0:
479,231,100810,1,2,2:0:0:0:
504,203,100885,5,10,2:0:0:0:
488,185,100959,1,2,2:0:0:0:
472,167,101033,1,2,2:0:0:0:
458,148,101107,1,2,2:0:0:0:
464,108,101182,5,2,3:2:0:0:
427,148,101256,1,2,2:0:0:0:
374,164,101330,1,2,2:0:0:0:
319,151,101404,1,2,2:0:0:0:
280,113,101479,1,10,2:0:0:0:
242,73,101553,1,2,2:0:0:0:
189,60,101627,1,2,2:0:0:0:
136,78,101701,1,2,2:0:0:0:
102,120,101776,1,2,2:0:0:0:
95,175,101850,1,2,2:0:0:0:
119,225,101924,1,2,3:2:0:0:
165,254,101998,1,2,2:0:0:0:
208,256,102073,1,10,2:0:0:0:
240,240,102147,1,2,2:0:0:0:
260,220,102221,1,2,2:0:0:0:
264,204,102295,1,2,2:0:0:0:
260,188,102370,5,2,3:2:0:0:
213,216,102444,1,2,2:0:0:0:
188,265,102518,1,2,2:0:0:0:
193,320,102593,1,2,2:0:0:0:
226,364,102667,1,10,2:0:0:0:
277,384,102741,1,2,2:0:0:0:
331,374,102815,1,2,2:0:0:0:
372,337,102890,1,2,2:0:0:0:
384,284,102964,6,0,P|428:299|479:283,2,74.3666666666667,2|2|2,2:0|2:0|2:0,2:0:0:0:
432,214,103261,6,0,P|444:166|425:125,2,74.3666666666667,10|2|2,2:0|2:0|2:0,2:0:0:0:
360,173,103558,5,2,3:2:0:0:
316,160,103657,5,2,2:0:0:0:
272,148,103756,5,2,2:0:0:0:
232,132,103855,6,0,P|224:96|236:52,2,74.3666666666667,10|2|2,2:0|2:0|2:0,2:0:0:0:
168,176,104152,6,0,L|176:236,3,55.775,2|0|0|0,2:0|2:0|3:0|2:0,2:0:0:0:
92,152,104449,2,0,L|99:96,3,55.775,10|0|0|0,2:0|2:0|2:0|2:0,2:0:0:0:
72,304,104746,5,2,3:2:0:0:
99,305,104820,1,0,2:0:0:0:
127,307,104894,1,0,2:0:0:0:
155,309,104969,1,0,2:0:0:0:
184,312,105043,2,0,L|176:248,1,55.775,10|0,2:0|2:0,2:0:0:0:
248,172,105192,5,2,2:0:0:0:
285,131,105266,1,0,2:0:0:0:
338,116,105340,1,2,2:0:0:0:
391,129,105414,1,0,2:0:0:0:
430,168,105489,1,2,3:2:0:0:
444,222,105563,1,0,2:0:0:0:
424,272,105637,2,0,L|368:264,1,55.775,10|0,2:0|2:0,2:0:0:0:
232,196,105786,2,0,L|288:188,1,55.775,0|0,2:0|2:0,2:0:0:0:
356,348,105934,5,2,3:2:0:0:
300,341,106008,1,0,2:0:0:0:
245,334,106083,1,0,2:0:0:0:
189,327,106157,1,0,2:0:0:0:
136,316,106231,1,10,2:0:0:0:
86,291,106305,1,0,2:0:0:0:
55,246,106380,1,0,2:0:0:0:
51,191,106454,1,0,2:0:0:0:
76,141,106528,1,2,2:0:0:0:
122,111,106602,1,0,2:0:0:0:
177,108,106677,1,0,3:0:0:0:
226,132,106751,1,0,2:0:0:0:
252,176,106825,2,0,L|244:236,1,55.775,10|0,2:0|2:0,2:0:0:0:
136,316,106974,2,0,L|128:256,1,55.775,0|0,2:0|2:0,2:0:0:0:
104,100,107122,5,2,3:2:0:0:
154,78,107196,1,0,2:0:0:0:
209,83,107271,1,0,2:0:0:0:
255,113,107345,1,0,2:0:0:0:
280,160,107419,1,10,2:0:0:0:
306,208,107494,1,0,2:0:0:0:
355,232,107568,1,0,2:0:0:0:
409,225,107642,1,0,2:0:0:0:
450,188,107716,1,0,2:0:0:0:
463,134,107791,1,0,2:0:0:0:
440,84,107865,6,0,L|384:92,1,55.775,0|0,3:0|2:0,2:0:0:0:
328,32,108013,2,0,L|294:77,1,55.775,10|0,2:0|2:0,2:0:0:0:
212,60,108162,2,0,L|220:115,1,55.775,0|0,2:0|2:0,2:0:0:0:
144,152,108310,6,0,L|136:276,1,111.55,2|0,3:0|2:0,2:0:0:0:
388,304,108607,1,10,2:3:0:0:
294,76,108756,1,2,3:0:0:0:
128,344,108904,1,2,2:0:0:0:
464,288,109053,1,8,2:3:0:0:
184,136,109201,5,2,2:3:0:0:
160,128,109276,1,0,2:0:0:0:
140,128,109350,1,0,2:0:0:0:
128,132,109424,1,0,2:0:0:0:
120,136,109498,5,6,3:2:0:0:
110,190,109573,1,0,2:0:0:0:
132,240,109647,1,0,2:0:0:0:
179,269,109721,1,0,2:0:0:0:
234,268,109795,1,10,2:0:0:0:
279,236,109870,1,0,2:0:0:0:
298,185,109944,5,2,2:0:0:0:
352,195,110018,1,0,2:0:0:0:
402,173,110093,1,0,2:0:0:0:
431,126,110167,1,0,2:0:0:0:
430,71,110241,1,2,3:2:0:0:
398,26,110315,1,0,2:0:0:0:
344,4,110390,5,10,2:0:0:0:
333,65,110464,1,2,2:0:0:0:
323,126,110538,1,2,2:0:0:0:
314,187,110612,1,2,2:0:0:0:
304,248,110687,5,2,3:2:0:0:
266,293,110761,1,0,2:0:0:0:
207,301,110835,1,0,2:0:0:0:
159,267,110909,1,0,2:0:0:0:
147,209,110984,1,10,2:0:0:0:
178,159,111058,1,0,2:0:0:0:
232,140,111132,5,2,2:0:0:0:
268,187,111206,1,0,2:0:0:0:
324,207,111281,1,0,2:0:0:0:
382,192,111355,1,0,2:0:0:0:
422,148,111429,1,0,3:0:0:0:
432,89,111503,1,0,2:0:0:0:
404,32,111578,5,10,2:0:0:0:
339,43,111652,1,2,2:0:0:0:
274,54,111726,1,2,2:0:0:0:
210,65,111800,1,2,2:0:0:0:
144,76,111875,5,2,3:2:0:0:
188,30,111949,1,2,2:0:0:0:
252,21,112023,1,2,2:0:0:0:
307,54,112097,1,2,2:0:0:0:
330,114,112172,1,10,2:0:0:0:
311,175,112246,1,2,2:0:0:0:
256,212,112320,5,2,2:0:0:0:
203,174,112394,1,0,2:0:0:0:
140,182,112469,1,0,2:0:0:0:
98,230,112543,1,0,2:0:0:0:
99,294,112617,1,2,3:2:0:0:
143,340,112692,1,0,2:0:0:0:
207,345,112766,5,10,2:0:0:0:
212,320,112840,1,0,2:0:0:0:
220,287,112914,1,0,2:0:0:0:
228,259,112989,1,0,2:0:0:0:
232,240,113063,5,2,3:2:0:0:
284,288,113137,1,2,2:0:0:0:
347,307,113211,1,2,2:0:0:0:
404,303,113286,1,2,2:0:0:0:
450,281,113360,1,10,2:0:0:0:
480,246,113434,1,2,2:0:0:0:
494,206,113508,1,2,3:2:0:0:
493,168,113583,1,2,2:0:0:0:
478,137,113657,1,2,2:0:0:0:
454,117,113731,1,2,2:0:0:0:
428,108,113805,1,2,3:2:0:0:
404,111,113880,1,2,2:0:0:0:
383,121,113954,1,10,2:0:0:0:
372,136,114028,1,2,2:0:0:0:
365,152,114102,1,2,2:0:0:0:
363,168,114177,1,2,2:0:0:0:
364,184,114251,5,2,3:2:0:0:
416,201,114325,1,0,2:0:0:0:
468,184,114399,1,0,2:0:0:0:
500,139,114474,1,0,2:0:0:0:
499,85,114548,1,8,2:0:0:0:
466,41,114622,1,0,2:0:0:0:
412,24,114696,5,2,2:0:0:0:
387,73,114771,1,0,2:0:0:0:
343,108,114845,1,0,2:0:0:0:
290,121,114919,1,0,2:0:0:0:
235,111,114994,1,0,3:0:0:0:
190,79,115068,1,0,2:0:0:0:
160,32,115142,2,0,L|216:24,3,55.775,10|0|0|0,2:0|2:0|2:0|2:0,2:0:0:0:
80,68,115439,5,2,3:2:0:0:
79,80,115513,1,0,2:0:0:0:
78,94,115588,1,0,2:0:0:0:
75,111,115662,1,0,2:0:0:0:
72,132,115736,1,8,2:0:0:0:
70,154,115810,1,0,3:0:0:0:
65,182,115885,1,0,3:0:0:0:
61,214,115959,1,0,3:0:0:0:
56,252,116033,5,2,3:2:0:0:
71,304,116107,1,0,3:0:0:0:
110,343,116182,1,0,3:0:0:0:
164,357,116256,1,0,3:0:0:0:
217,342,116330,1,8,2:0:0:0:
256,303,116404,1,0,3:0:0:0:
271,250,116479,1,0,3:0:0:0:
257,197,116553,1,0,3:0:0:0:
220,156,116627,5,2,3:2:0:0:
190,207,116701,1,0,3:0:0:0:
136,235,116776,1,0,3:0:0:0:
77,229,116850,1,0,3:0:0:0:
30,192,116924,1,8,2:0:0:0:
10,136,116998,1,0,3:0:0:0:
24,78,117073,1,0,3:0:0:0:
67,36,117147,1,0,3:0:0:0:
120,12,117221,5,2,3:2:0:0:
133,70,117295,1,0,3:0:0:0:
179,108,117370,1,0,3:0:0:0:
238,112,117444,1,0,3:0:0:0:
288,79,117518,1,8,2:0:0:0:
337,46,117593,1,0,3:0:0:0:
397,49,117667,1,0,3:0:0:0:
443,92,117741,1,0,3:0:0:0:
460,148,117815,5,2,3:2:0:0:
392,139,117890,1,2,3:2:0:0:
336,177,117964,1,2,3:2:0:0:
317,242,118038,1,2,3:2:0:0:
344,304,118112,1,10,2:0:0:0:
404,334,118187,1,2,3:2:0:0:
470,318,118261,1,2,3:2:0:0:
510,264,118335,1,2,3:2:0:0:
507,197,118409,5,10,3:2:0:0:
460,148,118484,1,10,3:2:0:0:
392,139,118558,1,10,3:2:0:0:
336,177,118632,1,10,3:2:0:0:
317,242,118706,1,10,2:0:0:0:
297,309,118781,1,10,3:2:0:0:
244,351,118855,1,10,3:2:0:0:
177,351,118929,1,10,3:2:0:0:
122,313,119003,5,6,3:2:0:0:
147,255,119078,1,0,2:0:0:0:
197,219,119152,1,0,2:0:0:0:
259,213,119226,1,0,2:0:0:0:
317,242,119300,1,8,2:0:0:0:
377,257,119375,1,0,2:0:0:0:
435,236,119449,1,0,2:0:0:0:
470,185,119523,1,0,2:0:0:0:
470,123,119597,1,0,2:0:0:0:
435,72,119672,1,0,2:0:0:0:
377,51,119746,1,0,3:0:0:0:
317,67,119820,1,0,2:0:0:0:
274,117,119894,5,10,2:0:0:0:
262,179,119969,1,2,2:0:0:0:
251,241,120043,1,2,2:0:0:0:
240,303,120117,1,2,2:0:0:0:
226,365,120192,2,0,L|290:357,3,63.05,2|0|0|0,3:2|2:0|2:0|2:0,2:0:0:0:
112,316,120489,5,8,2:0:0:0:
61,279,120563,1,0,2:0:0:0:
40,221,120637,1,0,2:0:0:0:
57,161,120711,1,0,2:0:0:0:
104,121,120786,1,0,2:0:0:0:
166,116,120860,1,0,2:0:0:0:
216,148,120934,1,0,3:0:0:0:
268,181,121008,1,0,2:0:0:0:
329,175,121083,1,8,2:0:0:0:
374,132,121157,1,0,2:0:0:0:
380,72,121231,2,0,L|312:64,1,63.05,2|0,2:0|2:0,2:0:0:0:
128,52,121380,5,2,3:2:0:0:
67,68,121454,1,0,2:0:0:0:
25,114,121528,1,0,2:0:0:0:
15,175,121602,1,0,2:0:0:0:
39,232,121677,1,8,2:0:0:0:
90,268,121751,1,0,2:0:0:0:
152,270,121825,1,0,2:0:0:0:
206,239,121899,1,0,2:0:0:0:
236,184,121974,1,2,2:0:0:0:
267,130,122048,1,0,2:0:0:0:
324,106,122122,1,0,3:0:0:0:
385,120,122196,1,0,2:0:0:0:
425,167,122271,1,8,2:0:0:0:
429,229,122345,1,0,2:0:0:0:
397,277,122419,2,0,L|330:257,1,63.05,2|0,2:0|2:0,2:0:0:0:
136,196,122568,5,2,3:2:0:0:
84,228,122642,1,0,2:0:0:0:
74,288,122716,1,2,2:0:0:0:
114,335,122791,1,0,2:0:0:0:
176,336,122865,1,10,2:0:0:0:
227,300,122939,1,0,2:0:0:0:
289,290,123013,1,2,3:2:0:0:
350,305,123088,1,0,2:0:0:0:
396,344,123162,2,0,L|328:352,3,63.05,2|0|0|0,2:0|2:0|3:0|2:0,2:0:0:0:
488,332,123459,5,10,2:0:0:0:
484,269,123533,1,2,2:0:0:0:
480,206,123607,1,2,2:0:0:0:
476,143,123682,1,2,2:0:0:0:
472,80,123756,2,0,L|468:24,3,55.775,2|0|0|0,3:2|2:0|2:0|2:0,2:0:0:0:
408,192,124053,5,10,2:0:0:0:
382,244,124127,1,2,2:0:0:0:
332,276,124201,1,2,2:0:0:0:
273,277,124276,1,2,2:0:0:0:
223,247,124350,1,2,2:0:0:0:
195,195,124424,1,2,2:0:0:0:
200,136,124498,1,2,3:2:0:0:
236,88,124573,1,2,2:0:0:0:
292,76,124647,1,10,2:0:0:0:
337,92,124721,1,2,2:0:0:0:
362,131,124795,1,2,2:0:0:0:
363,179,124870,1,2,2:0:0:0:
339,222,124944,1,2,3:2:0:0:
304,239,125018,1,2,2:0:0:0:
267,236,125093,1,2,2:0:0:0:
237,213,125167,1,2,2:0:0:0:
227,179,125241,1,10,2:0:0:0:
236,149,125315,1,2,2:0:0:0:
259,129,125390,1,2,2:0:0:0:
288,125,125464,1,2,2:0:0:0:
322,136,125538,1,2,2:0:0:0:
333,157,125612,1,2,2:0:0:0:
330,181,125687,1,2,3:2:0:0:
317,200,125761,1,2,2:0:0:0:
296,209,125835,1,10,2:0:0:0:
276,202,125909,1,2,2:0:0:0:
266,192,125984,2,0,L|339:183,1,55.775,2|2,2:0|2:0,2:0:0:0:
424,256,126132,5,2,3:2:0:0:
389,299,126206,1,2,2:0:0:0:
340,324,126281,1,2,2:0:0:0:
285,325,126355,1,2,2:0:0:0:
234,302,126429,1,10,2:0:0:0:
183,278,126503,1,2,2:0:0:0:
128,279,126578,1,2,2:0:0:0:
78,304,126652,1,2,2:0:0:0:
44,344,126726,5,2,2:0:0:0:
76,360,126800,1,2,2:0:0:0:
104,372,126875,2,0,L|168:364,1,55.775,2|0,3:2|2:0,2:0:0:0:
168,200,127023,5,10,2:0:0:0:
136,184,127097,1,2,2:0:0:0:
108,172,127172,2,0,L|44:180,1,55.775,2|0,2:0|2:0,2:0:0:0:
183,278,127320,5,2,3:2:0:0:
215,322,127394,1,0,2:0:0:0:
266,342,127469,1,0,2:0:0:0:
320,330,127543,1,0,2:0:0:0:
359,291,127617,1,8,2:0:0:0:
370,237,127692,1,0,2:0:0:0:
350,186,127766,1,0,3:0:0:0:
306,154,127840,1,0,2:0:0:0:
251,151,127914,5,2,2:0:0:0:
256,184,127989,1,2,2:0:0:0:
260,216,128063,2,0,L|332:224,1,55.775,2|0,3:2|2:0,2:0:0:0:
408,128,128211,5,10,2:0:0:0:
403,95,128286,1,2,2:0:0:0:
399,63,128360,2,0,L|327:55,1,55.775,2|0,2:0|2:0,2:0:0:0:
180,160,128508,5,2,3:2:0:0:
129,179,128583,1,2,2:0:0:0:
77,162,128657,1,2,2:0:0:0:
48,115,128731,1,2,2:0:0:0:
56,60,128805,2,0,L|64:4,3,55.775,10|2|2|0,2:0|2:0|2:0|2:0,2:0:0:0:
48,232,129102,5,2,2:0:0:0:
95,260,129177,1,2,2:0:0:0:
150,264,129251,1,2,3:2:0:0:
201,244,129325,1,0,2:0:0:0:
238,203,129399,1,10,2:0:0:0:
275,162,129474,1,2,2:0:0:0:
326,142,129548,1,2,2:0:0:0:
381,146,129622,1,2,2:0:0:0:
424,168,129696,5,2,3:2:0:0:
399,217,129771,1,2,2:0:0:0:
353,247,129845,1,2,2:0:0:0:
298,250,129919,1,2,2:0:0:0:
249,225,129994,1,10,2:0:0:0:
220,178,130068,1,2,2:0:0:0:
219,123,130142,1,2,2:0:0:0:
246,75,130216,1,2,2:0:0:0:
293,47,130291,5,2,2:0:0:0:
304,60,130365,1,2,2:0:0:0:
316,72,130439,2,0,L|328:136,1,55.775,2|0,3:2|2:0,2:0:0:0:
220,208,130588,5,10,2:0:0:0:
231,195,130662,1,2,2:0:0:0:
243,183,130736,2,0,L|232:120,1,55.775,2|0,2:0|2:0,2:0:0:0:
136,147,130885,5,2,3:2:0:0:
125,201,130959,1,2,2:0:0:0:
147,251,131033,1,2,2:0:0:0:
192,282,131107,1,0,2:0:0:0:
248,284,131182,1,10,2:0:0:0:
296,257,131256,1,2,2:0:0:0:
351,260,131330,1,2,2:0:0:0:
395,292,131404,1,0,2:0:0:0:
416,343,131479,5,2,2:0:0:0:
384,356,131553,1,0,2:0:0:0:
352,368,131627,2,0,L|292:360,1,55.775,0|0,3:0|2:0,2:0:0:0:
220,208,131776,5,10,2:0:0:0:
252,195,131850,1,0,2:0:0:0:
284,183,131924,2,0,L|344:191,1,55.775,2|0,2:0|2:0,2:0:0:0:
476,244,132073,5,2,3:2:0:0:
480,189,132147,1,0,2:0:0:0:
450,143,132221,1,0,2:0:0:0:
399,124,132295,1,0,2:0:0:0:
347,139,132370,1,10,2:0:0:0:
294,154,132444,1,2,2:0:0:0:
243,135,132518,1,2,3:2:0:0:
213,89,132593,1,2,2:0:0:0:
216,32,132667,2,0,L|276:40,3,55.775,2|2|2|2,2:0|2:0|3:2|2:0,2:0:0:0:
104,16,132964,5,10,2:0:0:0:
100,71,133038,1,2,2:0:0:0:
96,127,133112,1,2,2:0:0:0:
92,182,133187,1,2,2:0:0:0:
84,236,133261,5,2,3:2:0:0:
122,197,133335,1,2,2:0:0:0:
177,188,133409,1,2,2:0:0:0:
226,213,133484,1,2,2:0:0:0:
251,261,133558,1,10,2:0:0:0:
276,309,133632,1,2,2:0:0:0:
325,334,133706,1,2,2:0:0:0:
379,325,133781,1,2,2:0:0:0:
416,276,133855,5,2,2:0:0:0:
394,279,133929,1,2,2:0:0:0:
371,281,134003,1,2,3:2:0:0:
342,284,134078,1,2,2:0:0:0:
309,288,134152,1,10,2:0:0:0:
268,292,134226,1,2,2:0:0:0:
217,297,134300,1,2,2:0:0:0:
163,302,134375,1,2,2:0:0:0:
104,304,134449,5,2,3:2:0:0:
55,261,134523,1,0,2:0:0:0:
40,199,134597,1,2,2:0:0:0:
65,139,134672,1,2,2:0:0:0:
119,106,134746,1,10,2:0:0:0:
184,111,134820,1,0,3:0:0:0:
232,152,134894,1,2,3:2:0:0:
274,200,134969,1,2,3:2:0:0:
336,212,135043,1,2,3:2:0:0:
392,182,135117,1,0,3:0:0:0:
416,122,135192,1,2,3:2:0:0:
397,61,135266,1,2,3:2:0:0:
343,27,135340,1,10,2:0:0:0:
279,36,135414,1,0,3:0:0:0:
236,84,135489,1,2,3:2:0:0:
234,148,135563,1,0,3:0:0:0:
274,200,135637,5,2,3:2:0:0:
303,261,135711,1,0,3:0:0:0:
281,326,135786,1,2,3:2:0:0:
220,357,135860,1,2,3:2:0:0:
152,340,135934,5,10,2:0:0:0:
111,284,136008,1,0,3:0:0:0:
121,216,136083,1,2,3:2:0:0:
176,175,136157,1,2,3:2:0:0:
248,184,136231,5,2,3:2:0:0:
301,228,136305,1,2,3:2:0:0:
370,231,136380,1,2,3:2:0:0:
427,193,136454,1,2,3:2:0:0:
450,128,136528,1,10,2:0:0:0:
429,62,136602,1,2,3:2:0:0:
373,22,136677,1,2,3:2:0:0:
304,23,136751,1,2,3:2:0:0:
248,64,136825,5,2,3:2:0:0:
184,25,136899,1,0,3:0:0:0:
110,31,136974,1,0,3:0:0:0:
54,78,137048,1,0,3:0:0:0:
35,150,137122,5,10,2:0:0:0:
61,219,137196,1,0,3:0:0:0:
123,260,137271,1,0,3:0:0:0:
196,258,137345,1,0,3:0:0:0:
256,208,137419,5,10,3:2:0:0:
315,154,137494,1,10,3:2:0:0:
395,150,137568,1,10,3:2:0:0:
459,199,137642,1,10,3:2:0:0:
480,276,137716,5,10,2:0:0:0:
438,351,137791,1,10,3:2:0:0:
358,382,137865,1,10,3:2:0:0:
275,355,137939,1,10,3:2:0:0:
224,280,138013,6,0,P|196:236|188:360,1,363.75,6|2,3:2|2:0,2:0:0:0:
152,296,140390,6,0,B|136:168|136:168|156:128,1,169.75,2|2,2:0|2:0,2:0:0:0:
200,72,141578,2,0,B|240:48|280:72|280:72|324:100|364:76,1,169.75,2|2,2:0|2:0,2:0:0:0:
508,156,142766,6,0,P|408:60|432:200,1,363.75,2|2,2:0|2:0,2:0:0:0:
504,284,145142,2,0,B|464:268|460:216|460:216|440:264|392:256,1,169.75,2|2,2:0|2:0,2:0:0:0:
364,340,146330,2,0,P|380:248|332:184,1,169.75,2|2,2:0|2:0,2:0:0:0:
144,248,147518,6,0,B|74:304|102:368|102:368|252:396|278:276,1,363.75,2|2,2:0|2:0,2:0:0:0:
368,112,149894,6,0,P|325:67|227:104,1,169.75,2|2,2:0|2:0,2:0:0:0:
144,248,151083,2,0,L|152:72,1,169.75,2|2,2:0|2:0,2:0:0:0:
320,8,152271,6,0,L|327:177,1,169.75,2|2,2:0|2:0,2:0:0:0:
400,246,153459,6,0,P|368:194|248:218,2,194,2|2|2,2:0|2:0|2:0,2:0:0:0:
323,304,157023,6,0,L|320:256,2,48.5000000000001,2|2|2,2:0|2:0|2:0,2:0:0:0:
256,192,157617,12,0,159399,2:0:0:0:
