osu file format v14

[General]
AudioFilename: audio.mp3
AudioLeadIn: 0
PreviewTime: 98693
Countdown: 0
SampleSet: Soft
StackLeniency: 0.7
Mode: 3
LetterboxInBreaks: 0
SpecialStyle: 0
WidescreenStoryboard: 1

[Editor]
DistanceSpacing: 1.4
BeatDivisor: 4
GridSize: 8
TimelineZoom: 2.4

[Metadata]
Title:Intuition
TitleUnicode:Intuition
Artist:technoplanet
ArtistUnicode:technoplanet
Creator:Touru0711
Version:Hard
Source:
Tags:EP Strange Story drum bass ハセガワシュン electronic instrumental dnb hardcore M3 2020秋 fall M3-46 ln long notes _kobii Akasha- Kuo Kyoka fa featured artist
BeatmapID:3718599
BeatmapSetID:1778535

[Difficulty]
HPDrainRate:7.2
CircleSize:4
OverallDifficulty:7.2
ApproachRate:5
SliderMultiplier:1.4
SliderTickRate:1

[Events]
//Background and Video events
0,0,"91173778_p0.jpg",0,0
//Break Periods
//Storyboard Layer 0 (Background)
//Storyboard Layer 1 (Fail)
//Storyboard Layer 2 (Pass)
//Storyboard Layer 3 (Foreground)
//Storyboard Layer 4 (Overlay)
//Storyboard Sound Samples

[TimingPoints]
1430,315.789473684211,4,2,1,60,1,0
98693,-100,4,2,1,60,0,1
117640,-100,4,2,1,60,0,0
118903,-100,4,2,1,60,0,1
137851,-100,4,2,1,60,0,0

[HitObjects]
448,192,1430,5,0,0:0:0:0:
64,192,1430,1,0,0:0:0:0:
320,192,1430,1,0,0:0:0:0:
448,192,1587,1,0,0:0:0:0:
64,192,1587,1,0,0:0:0:0:
320,192,1587,1,0,0:0:0:0:
192,192,1745,1,0,0:0:0:0:
320,192,1824,1,0,0:0:0:0:
448,192,1903,1,0,0:0:0:0:
192,192,1982,1,0,0:0:0:0:
64,192,1982,128,0,2140:0:0:0:0:
448,192,2140,1,0,0:0:0:0:
320,192,2219,1,0,0:0:0:0:
192,192,2298,1,0,0:0:0:0:
64,192,2377,1,0,0:0:0:0:
448,192,2456,1,0,0:0:0:0:
320,192,2535,1,0,0:0:0:0:
192,192,2614,1,0,0:0:0:0:
64,192,2693,1,0,0:0:0:0:
448,192,2693,1,0,0:0:0:0:
320,192,2772,1,0,0:0:0:0:
192,192,2851,1,0,0:0:0:0:
448,192,2930,1,0,0:0:0:0:
64,192,3008,1,0,0:0:0:0:
192,192,3087,1,0,0:0:0:0:
320,192,3166,1,0,0:0:0:0:
448,192,3245,128,0,3403:0:0:0:0:
192,192,3403,1,0,0:0:0:0:
320,192,3482,1,0,0:0:0:0:
64,192,3482,1,0,0:0:0:0:
448,192,3640,1,0,0:0:0:0:
192,192,3719,1,0,0:0:0:0:
64,192,3798,1,0,0:0:0:0:
320,192,3877,1,0,0:0:0:0:
448,192,3956,1,0,0:0:0:0:
192,192,3956,1,0,0:0:0:0:
448,192,4114,1,0,0:0:0:0:
64,192,4114,1,0,0:0:0:0:
192,192,4272,1,0,0:0:0:0:
320,192,4351,1,0,0:0:0:0:
448,192,4430,1,0,0:0:0:0:
192,192,4508,1,0,0:0:0:0:
320,192,4587,1,0,0:0:0:0:
64,192,4666,1,0,0:0:0:0:
448,192,4745,1,0,0:0:0:0:
320,192,4824,1,0,0:0:0:0:
192,192,4903,1,0,0:0:0:0:
448,192,4982,1,0,0:0:0:0:
320,192,5061,1,0,0:0:0:0:
192,192,5140,1,0,0:0:0:0:
64,192,5219,1,0,0:0:0:0:
320,192,5298,1,0,0:0:0:0:
192,192,5377,1,0,0:0:0:0:
448,192,5456,1,0,0:0:0:0:
64,192,5535,1,0,0:0:0:0:
192,192,5614,1,0,0:0:0:0:
320,192,5693,1,0,0:0:0:0:
64,192,5772,128,0,5930:0:0:0:0:
192,192,5930,1,0,0:0:0:0:
320,192,6008,1,0,0:0:0:0:
448,192,6008,1,0,0:0:0:0:
64,192,6166,1,0,0:0:0:0:
192,192,6245,1,0,0:0:0:0:
448,192,6324,1,0,0:0:0:0:
320,192,6403,1,0,0:0:0:0:
64,192,6482,1,0,0:0:0:0:
192,192,6482,1,0,0:0:0:0:
448,192,6640,1,0,0:0:0:0:
192,192,6798,1,0,0:0:0:0:
320,192,6877,1,0,0:0:0:0:
448,192,6956,1,0,0:0:0:0:
64,192,7035,1,0,0:0:0:0:
192,192,7035,1,0,0:0:0:0:
320,192,7193,1,0,0:0:0:0:
192,192,7272,1,0,0:0:0:0:
64,192,7351,1,0,0:0:0:0:
448,192,7430,1,0,0:0:0:0:
320,192,7508,1,0,0:0:0:0:
192,192,7587,128,0,7745:0:0:0:0:
320,192,7745,1,0,0:0:0:0:
448,192,7745,1,0,0:0:0:0:
64,192,7824,1,0,0:0:0:0:
192,192,7903,1,0,0:0:0:0:
320,192,7982,1,0,0:0:0:0:
448,192,8061,1,0,0:0:0:0:
64,192,8140,1,0,0:0:0:0:
192,192,8219,1,0,0:0:0:0:
448,192,8298,128,0,8456:0:0:0:0:
320,192,8456,1,0,0:0:0:0:
192,192,8535,1,0,0:0:0:0:
64,192,8535,1,0,0:0:0:0:
448,192,8693,1,0,0:0:0:0:
320,192,8693,1,0,0:0:0:0:
192,192,8772,1,0,0:0:0:0:
448,192,8851,1,0,0:0:0:0:
64,192,8930,1,0,0:0:0:0:
320,192,9008,1,0,0:0:0:0:
192,192,9008,1,0,0:0:0:0:
320,192,9166,1,0,0:0:0:0:
448,192,9324,1,0,0:0:0:0:
64,192,9324,1,0,0:0:0:0:
192,192,9403,1,0,0:0:0:0:
320,192,9482,1,0,0:0:0:0:
64,192,9561,1,0,0:0:0:0:
192,192,9640,1,0,0:0:0:0:
320,192,9719,1,0,0:0:0:0:
448,192,9798,1,0,0:0:0:0:
64,192,9877,1,0,0:0:0:0:
320,192,9956,1,0,0:0:0:0:
192,192,10035,1,0,0:0:0:0:
448,192,10114,1,0,0:0:0:0:
320,192,10193,1,0,0:0:0:0:
64,192,10272,1,0,0:0:0:0:
192,192,10272,1,0,0:0:0:0:
448,192,10351,1,0,0:0:0:0:
64,192,10430,1,0,0:0:0:0:
192,192,10587,1,0,0:0:0:0:
448,192,10587,1,0,0:0:0:0:
320,192,10666,1,0,0:0:0:0:
64,192,10745,1,0,0:0:0:0:
448,192,10824,1,0,0:0:0:0:
320,192,10903,1,0,0:0:0:0:
192,192,10982,1,0,0:0:0:0:
448,192,11061,1,0,0:0:0:0:
320,192,11140,1,0,0:0:0:0:
192,192,11219,1,0,0:0:0:0:
64,192,11298,1,0,0:0:0:0:
320,192,11377,1,0,0:0:0:0:
448,192,11456,1,0,0:0:0:0:
64,192,11535,1,0,0:0:0:0:
192,192,11535,1,0,0:0:0:0:
320,192,11614,1,0,0:0:0:0:
192,192,11693,1,0,0:0:0:0:
64,192,11772,1,0,0:0:0:0:
320,192,11930,1,0,0:0:0:0:
192,192,12008,1,0,0:0:0:0:
448,192,12166,1,0,0:0:0:0:
192,192,12324,1,0,0:0:0:0:
320,192,12324,1,0,0:0:0:0:
448,192,12403,1,0,0:0:0:0:
320,192,12482,1,0,0:0:0:0:
192,192,12561,1,0,0:0:0:0:
448,192,12719,1,0,0:0:0:0:
64,192,12798,1,0,0:0:0:0:
192,192,12956,1,0,0:0:0:0:
448,192,13114,1,0,0:0:0:0:
64,192,13193,1,0,0:0:0:0:
192,192,13272,1,0,0:0:0:0:
320,192,13351,1,0,0:0:0:0:
64,192,13430,1,0,0:0:0:0:
192,192,13508,1,0,0:0:0:0:
320,192,13587,1,0,0:0:0:0:
448,192,13666,1,0,0:0:0:0:
192,192,13745,1,0,0:0:0:0:
64,192,13824,1,0,0:0:0:0:
320,192,13903,1,0,0:0:0:0:
448,192,13982,1,0,0:0:0:0:
64,192,14061,1,0,0:0:0:0:
192,192,14061,1,0,0:0:0:0:
320,192,14219,1,0,0:0:0:0:
192,192,14298,1,0,0:0:0:0:
448,192,14377,1,0,0:0:0:0:
64,192,14456,1,0,0:0:0:0:
192,192,14535,1,0,0:0:0:0:
320,192,14614,1,0,0:0:0:0:
448,192,14693,1,0,0:0:0:0:
192,192,14772,1,0,0:0:0:0:
64,192,14851,1,0,0:0:0:0:
320,192,14930,1,0,0:0:0:0:
192,192,15008,1,0,0:0:0:0:
448,192,15087,1,0,0:0:0:0:
320,192,15166,1,0,0:0:0:0:
192,192,15245,1,0,0:0:0:0:
64,192,15324,1,0,0:0:0:0:
448,192,15324,1,0,0:0:0:0:
64,192,15482,1,0,0:0:0:0:
448,192,15482,1,0,0:0:0:0:
320,192,15640,1,0,0:0:0:0:
448,192,15640,1,0,0:0:0:0:
64,192,15719,1,0,0:0:0:0:
192,192,15798,1,0,0:0:0:0:
320,192,15877,1,0,0:0:0:0:
64,192,15956,1,0,0:0:0:0:
192,192,16035,1,0,0:0:0:0:
448,192,16114,1,0,0:0:0:0:
320,192,16193,1,0,0:0:0:0:
192,192,16272,1,0,0:0:0:0:
64,192,16351,1,0,0:0:0:0:
448,192,16430,1,0,0:0:0:0:
320,192,16508,1,0,0:0:0:0:
192,192,16587,1,0,0:0:0:0:
64,192,16587,1,0,0:0:0:0:
320,192,16745,1,0,0:0:0:0:
64,192,16824,1,0,0:0:0:0:
448,192,16903,1,0,0:0:0:0:
192,192,16982,1,0,0:0:0:0:
320,192,17061,1,0,0:0:0:0:
448,192,17140,1,0,0:0:0:0:
192,192,17219,1,0,0:0:0:0:
64,192,17298,1,0,0:0:0:0:
320,192,17377,1,0,0:0:0:0:
192,192,17456,1,0,0:0:0:0:
448,192,17535,1,0,0:0:0:0:
320,192,17614,1,0,0:0:0:0:
192,192,17693,1,0,0:0:0:0:
64,192,17772,1,0,0:0:0:0:
320,192,17851,1,0,0:0:0:0:
448,192,17851,1,0,0:0:0:0:
448,192,18008,1,0,0:0:0:0:
320,192,18008,1,0,0:0:0:0:
64,192,18166,1,0,0:0:0:0:
448,192,18166,1,0,0:0:0:0:
192,192,18245,1,0,0:0:0:0:
320,192,18324,1,0,0:0:0:0:
448,192,18403,1,0,0:0:0:0:
192,192,18482,1,0,0:0:0:0:
64,192,18561,1,0,0:0:0:0:
320,192,18640,1,0,0:0:0:0:
448,192,18719,1,0,0:0:0:0:
64,192,18798,1,0,0:0:0:0:
192,192,18877,1,0,0:0:0:0:
320,192,18956,1,0,0:0:0:0:
448,192,19035,1,0,0:0:0:0:
64,192,19114,1,0,0:0:0:0:
192,192,19114,1,0,0:0:0:0:
192,192,19272,1,0,0:0:0:0:
448,192,19351,1,0,0:0:0:0:
64,192,19430,1,0,0:0:0:0:
192,192,19508,1,0,0:0:0:0:
320,192,19587,1,0,0:0:0:0:
448,192,19666,1,0,0:0:0:0:
192,192,19745,1,0,0:0:0:0:
64,192,19824,1,0,0:0:0:0:
320,192,19903,1,0,0:0:0:0:
192,192,19982,1,0,0:0:0:0:
448,192,20061,1,0,0:0:0:0:
320,192,20140,1,0,0:0:0:0:
192,192,20219,1,0,0:0:0:0:
64,192,20298,1,0,0:0:0:0:
320,192,20377,1,0,0:0:0:0:
448,192,20377,1,0,0:0:0:0:
448,192,20535,1,0,0:0:0:0:
320,192,20535,1,0,0:0:0:0:
64,192,20693,1,0,0:0:0:0:
448,192,20693,1,0,0:0:0:0:
192,192,20772,1,0,0:0:0:0:
320,192,20851,1,0,0:0:0:0:
448,192,20930,1,0,0:0:0:0:
64,192,21008,1,0,0:0:0:0:
192,192,21087,1,0,0:0:0:0:
448,192,21166,1,0,0:0:0:0:
320,192,21245,1,0,0:0:0:0:
192,192,21324,1,0,0:0:0:0:
64,192,21403,1,0,0:0:0:0:
448,192,21482,1,0,0:0:0:0:
320,192,21561,1,0,0:0:0:0:
192,192,21640,1,0,0:0:0:0:
64,192,21640,1,0,0:0:0:0:
192,192,21798,1,0,0:0:0:0:
448,192,21877,1,0,0:0:0:0:
64,192,21956,1,0,0:0:0:0:
192,192,22035,1,0,0:0:0:0:
320,192,22114,1,0,0:0:0:0:
448,192,22193,1,0,0:0:0:0:
192,192,22272,1,0,0:0:0:0:
64,192,22351,1,0,0:0:0:0:
320,192,22430,1,0,0:0:0:0:
192,192,22508,1,0,0:0:0:0:
448,192,22587,1,0,0:0:0:0:
320,192,22666,1,0,0:0:0:0:
192,192,22745,1,0,0:0:0:0:
64,192,22824,1,0,0:0:0:0:
320,192,22903,1,0,0:0:0:0:
448,192,22903,1,0,0:0:0:0:
448,192,23061,1,0,0:0:0:0:
320,192,23061,1,0,0:0:0:0:
192,192,23219,1,0,0:0:0:0:
320,192,23298,1,0,0:0:0:0:
64,192,23377,1,0,0:0:0:0:
448,192,23377,1,0,0:0:0:0:
192,192,23456,1,0,0:0:0:0:
320,192,23535,1,0,0:0:0:0:
64,192,23614,1,0,0:0:0:0:
192,192,23693,1,0,0:0:0:0:
448,192,23693,1,0,0:0:0:0:
320,192,23772,1,0,0:0:0:0:
64,192,23851,1,0,0:0:0:0:
192,192,23930,1,0,0:0:0:0:
320,192,24008,1,0,0:0:0:0:
448,192,24008,1,0,0:0:0:0:
64,192,24166,1,0,0:0:0:0:
192,192,24166,128,0,24482:0:0:0:0:
448,192,24166,1,0,0:0:0:0:
320,192,24482,1,0,0:0:0:0:
448,192,24482,1,0,0:0:0:0:
64,192,24561,1,0,0:0:0:0:
192,192,24640,1,0,0:0:0:0:
320,192,24719,1,0,0:0:0:0:
448,192,24798,1,0,0:0:0:0:
192,192,24877,1,0,0:0:0:0:
320,192,24956,1,0,0:0:0:0:
64,192,25035,1,0,0:0:0:0:
448,192,25114,1,0,0:0:0:0:
192,192,25114,1,0,0:0:0:0:
320,192,25193,1,0,0:0:0:0:
192,192,25272,1,0,0:0:0:0:
64,192,25351,1,0,0:0:0:0:
320,192,25430,1,0,0:0:0:0:
448,192,25430,1,0,0:0:0:0:
448,192,25587,1,0,0:0:0:0:
320,192,25587,1,0,0:0:0:0:
64,192,25745,1,0,0:0:0:0:
448,192,25745,1,0,0:0:0:0:
192,192,25824,1,0,0:0:0:0:
320,192,25903,1,0,0:0:0:0:
448,192,25982,1,0,0:0:0:0:
64,192,26061,1,0,0:0:0:0:
192,192,26140,1,0,0:0:0:0:
320,192,26219,1,0,0:0:0:0:
64,192,26298,1,0,0:0:0:0:
192,192,26377,1,0,0:0:0:0:
448,192,26377,1,0,0:0:0:0:
320,192,26456,1,0,0:0:0:0:
192,192,26535,1,0,0:0:0:0:
64,192,26614,1,0,0:0:0:0:
320,192,26693,1,0,0:0:0:0:
448,192,26693,128,0,26851:0:0:0:0:
192,192,26851,1,0,0:0:0:0:
320,192,26930,1,0,0:0:0:0:
64,192,27008,1,0,0:0:0:0:
448,192,27008,1,0,0:0:0:0:
192,192,27087,1,0,0:0:0:0:
320,192,27166,1,0,0:0:0:0:
448,192,27245,1,0,0:0:0:0:
64,192,27324,1,0,0:0:0:0:
320,192,27403,1,0,0:0:0:0:
192,192,27482,1,0,0:0:0:0:
448,192,27561,1,0,0:0:0:0:
64,192,27640,1,0,0:0:0:0:
320,192,27640,1,0,0:0:0:0:
192,192,27719,1,0,0:0:0:0:
448,192,27798,1,0,0:0:0:0:
320,192,27877,1,0,0:0:0:0:
64,192,27956,128,0,28114:0:0:0:0:
192,192,27956,128,0,28114:0:0:0:0:
320,192,28193,128,0,28351:0:0:0:0:
448,192,28193,128,0,28351:0:0:0:0:
64,192,28430,128,0,28587:0:0:0:0:
192,192,28430,128,0,28587:0:0:0:0:
448,192,28587,1,0,0:0:0:0:
320,192,28666,1,0,0:0:0:0:
192,192,28745,1,0,0:0:0:0:
448,192,28824,1,0,0:0:0:0:
64,192,28903,1,0,0:0:0:0:
320,192,28903,1,0,0:0:0:0:
192,192,28982,1,0,0:0:0:0:
320,192,29061,1,0,0:0:0:0:
448,192,29140,1,0,0:0:0:0:
192,192,29219,1,0,0:0:0:0:
64,192,29219,128,0,29377:0:0:0:0:
320,192,29377,1,0,0:0:0:0:
448,192,29456,1,0,0:0:0:0:
64,192,29535,1,0,0:0:0:0:
192,192,29535,1,0,0:0:0:0:
320,192,29614,1,0,0:0:0:0:
448,192,29693,1,0,0:0:0:0:
64,192,29772,1,0,0:0:0:0:
320,192,29851,1,0,0:0:0:0:
192,192,29930,1,0,0:0:0:0:
448,192,30008,1,0,0:0:0:0:
320,192,30087,1,0,0:0:0:0:
192,192,30166,1,0,0:0:0:0:
448,192,30166,1,0,0:0:0:0:
64,192,30245,1,0,0:0:0:0:
320,192,30324,1,0,0:0:0:0:
192,192,30403,1,0,0:0:0:0:
64,192,30482,1,0,0:0:0:0:
448,192,30482,1,0,0:0:0:0:
64,192,30640,1,0,0:0:0:0:
448,192,30640,1,0,0:0:0:0:
320,192,30798,1,0,0:0:0:0:
448,192,30798,1,0,0:0:0:0:
64,192,30877,1,0,0:0:0:0:
192,192,30956,1,0,0:0:0:0:
320,192,31035,1,0,0:0:0:0:
64,192,31114,1,0,0:0:0:0:
192,192,31193,1,0,0:0:0:0:
448,192,31272,1,0,0:0:0:0:
320,192,31351,1,0,0:0:0:0:
448,192,31430,1,0,0:0:0:0:
192,192,31430,1,0,0:0:0:0:
64,192,31508,1,0,0:0:0:0:
320,192,31587,1,0,0:0:0:0:
192,192,31666,1,0,0:0:0:0:
64,192,31745,1,0,0:0:0:0:
448,192,31745,128,0,31903:0:0:0:0:
192,192,31903,1,0,0:0:0:0:
320,192,31982,1,0,0:0:0:0:
64,192,32061,1,0,0:0:0:0:
448,192,32061,1,0,0:0:0:0:
192,192,32140,1,0,0:0:0:0:
320,192,32219,1,0,0:0:0:0:
448,192,32298,1,0,0:0:0:0:
192,192,32377,1,0,0:0:0:0:
64,192,32456,1,0,0:0:0:0:
448,192,32535,1,0,0:0:0:0:
320,192,32614,1,0,0:0:0:0:
192,192,32693,1,0,0:0:0:0:
448,192,32693,1,0,0:0:0:0:
64,192,32772,1,0,0:0:0:0:
320,192,32851,1,0,0:0:0:0:
192,192,32930,1,0,0:0:0:0:
64,192,33008,1,0,0:0:0:0:
448,192,33008,1,0,0:0:0:0:
448,192,33166,1,0,0:0:0:0:
64,192,33166,1,0,0:0:0:0:
320,192,33324,1,0,0:0:0:0:
448,192,33324,128,0,33403:0:0:0:0:
64,192,33403,128,0,33482:0:0:0:0:
192,192,33482,128,0,33561:0:0:0:0:
320,192,33561,128,0,33640:0:0:0:0:
448,192,33640,128,0,33719:0:0:0:0:
64,192,33719,128,0,33798:0:0:0:0:
192,192,33798,128,0,33877:0:0:0:0:
320,192,33877,128,0,33956:0:0:0:0:
448,192,33956,1,0,0:0:0:0:
64,192,33956,128,0,34035:0:0:0:0:
192,192,34035,128,0,34114:0:0:0:0:
320,192,34114,128,0,34193:0:0:0:0:
448,192,34193,128,0,34272:0:0:0:0:
192,192,34272,1,0,0:0:0:0:
64,192,34272,128,0,34745:0:0:0:0:
448,192,34745,128,0,36798:0:0:0:0:
320,192,34745,1,0,0:0:0:0:
192,192,34903,1,0,0:0:0:0:
192,192,36166,1,0,0:0:0:0:
64,192,36798,1,0,0:0:0:0:
192,192,36798,128,0,38061:0:0:0:0:
64,192,37272,1,0,0:0:0:0:
448,192,37430,1,0,0:0:0:0:
320,192,38061,128,0,38693:0:0:0:0:
64,192,38061,1,0,0:0:0:0:
192,192,38693,1,0,0:0:0:0:
448,192,38693,128,0,39324:0:0:0:0:
64,192,39324,128,0,39798:0:0:0:0:
192,192,39324,1,0,0:0:0:0:
320,192,39798,1,0,0:0:0:0:
448,192,39798,128,0,41851:0:0:0:0:
192,192,39956,1,0,0:0:0:0:
192,192,41219,1,0,0:0:0:0:
192,192,41851,1,0,0:0:0:0:
64,192,41851,128,0,43114:0:0:0:0:
448,192,42324,1,0,0:0:0:0:
192,192,42482,1,0,0:0:0:0:
320,192,43114,1,0,0:0:0:0:
192,192,43114,128,0,43745:0:0:0:0:
320,192,43745,128,0,44377:0:0:0:0:
448,192,43745,1,0,0:0:0:0:
448,192,44377,1,0,0:0:0:0:
64,192,44377,128,0,44456:0:0:0:0:
192,192,44456,128,0,44535:0:0:0:0:
448,192,44535,128,0,44614:0:0:0:0:
320,192,44614,128,0,44693:0:0:0:0:
64,192,44693,1,0,0:0:0:0:
192,192,44772,1,0,0:0:0:0:
320,192,44851,1,0,0:0:0:0:
448,192,44930,1,0,0:0:0:0:
192,192,45008,1,0,0:0:0:0:
64,192,45087,1,0,0:0:0:0:
320,192,45166,1,0,0:0:0:0:
192,192,45245,1,0,0:0:0:0:
448,192,45324,1,0,0:0:0:0:
320,192,45403,1,0,0:0:0:0:
64,192,45482,128,0,45640:0:0:0:0:
448,192,45640,1,0,0:0:0:0:
64,192,45798,128,0,45956:0:0:0:0:
192,192,45798,128,0,45956:0:0:0:0:
320,192,45956,1,0,0:0:0:0:
448,192,46153,128,0,46272:0:0:0:0:
320,192,46153,128,0,46272:0:0:0:0:
192,192,46272,1,0,0:0:0:0:
64,192,46469,128,0,46587:0:0:0:0:
192,192,46469,128,0,46587:0:0:0:0:
448,192,46587,1,0,0:0:0:0:
448,192,46745,1,0,0:0:0:0:
64,192,46903,1,0,0:0:0:0:
192,192,46903,1,0,0:0:0:0:
320,192,46982,1,0,0:0:0:0:
448,192,47061,1,0,0:0:0:0:
192,192,47140,1,0,0:0:0:0:
64,192,47219,1,0,0:0:0:0:
320,192,47377,1,0,0:0:0:0:
192,192,47456,1,0,0:0:0:0:
64,192,47535,1,0,0:0:0:0:
448,192,47535,1,0,0:0:0:0:
320,192,47614,1,0,0:0:0:0:
192,192,47693,1,0,0:0:0:0:
448,192,47772,1,0,0:0:0:0:
64,192,47851,1,0,0:0:0:0:
192,192,47930,1,0,0:0:0:0:
320,192,48008,1,0,0:0:0:0:
448,192,48087,1,0,0:0:0:0:
64,192,48166,128,0,48798:0:0:0:0:
448,192,48324,1,0,0:0:0:0:
320,192,48482,128,0,48640:0:0:0:0:
192,192,48640,128,0,48798:0:0:0:0:
448,192,48798,128,0,49430:0:0:0:0:
320,192,48798,128,0,48956:0:0:0:0:
64,192,48956,128,0,49114:0:0:0:0:
192,192,49114,128,0,49272:0:0:0:0:
320,192,49272,128,0,49430:0:0:0:0:
64,192,49430,1,0,0:0:0:0:
192,192,49430,128,0,49508:0:0:0:0:
320,192,49508,128,0,49587:0:0:0:0:
448,192,49587,128,0,49666:0:0:0:0:
64,192,49666,128,0,49745:0:0:0:0:
320,192,49745,1,0,0:0:0:0:
192,192,49824,1,0,0:0:0:0:
448,192,49903,1,0,0:0:0:0:
320,192,49982,1,0,0:0:0:0:
64,192,50061,1,0,0:0:0:0:
192,192,50061,1,0,0:0:0:0:
448,192,50140,1,0,0:0:0:0:
320,192,50219,1,0,0:0:0:0:
64,192,50298,1,0,0:0:0:0:
448,192,50377,1,0,0:0:0:0:
320,192,50456,1,0,0:0:0:0:
192,192,50535,128,0,50693:0:0:0:0:
448,192,50693,128,0,51008:0:0:0:0:
64,192,50851,1,0,0:0:0:0:
320,192,51008,128,0,51087:0:0:0:0:
192,192,51008,128,0,51087:0:0:0:0:
192,192,51166,128,0,51245:0:0:0:0:
320,192,51166,128,0,51245:0:0:0:0:
64,192,51324,1,0,0:0:0:0:
448,192,51324,1,0,0:0:0:0:
192,192,51403,1,0,0:0:0:0:
320,192,51482,1,0,0:0:0:0:
448,192,51561,1,0,0:0:0:0:
64,192,51640,1,0,0:0:0:0:
64,192,51798,1,0,0:0:0:0:
448,192,51956,128,0,52587:0:0:0:0:
320,192,51956,128,0,52114:0:0:0:0:
64,192,52114,128,0,52272:0:0:0:0:
192,192,52272,128,0,52430:0:0:0:0:
320,192,52430,128,0,52587:0:0:0:0:
192,192,52587,1,0,0:0:0:0:
64,192,52587,128,0,52745:0:0:0:0:
448,192,52745,128,0,52903:0:0:0:0:
192,192,52903,128,0,53061:0:0:0:0:
320,192,53061,128,0,53219:0:0:0:0:
64,192,53061,1,0,0:0:0:0:
448,192,53219,128,0,53535:0:0:0:0:
64,192,53377,1,0,0:0:0:0:
320,192,53535,1,0,0:0:0:0:
192,192,53614,1,0,0:0:0:0:
448,192,53693,1,0,0:0:0:0:
320,192,53772,1,0,0:0:0:0:
64,192,53851,1,0,0:0:0:0:
448,192,53930,1,0,0:0:0:0:
192,192,54008,1,0,0:0:0:0:
320,192,54087,1,0,0:0:0:0:
64,192,54166,1,0,0:0:0:0:
192,192,54245,1,0,0:0:0:0:
320,192,54324,1,0,0:0:0:0:
448,192,54403,1,0,0:0:0:0:
192,192,54482,1,0,0:0:0:0:
64,192,54482,128,0,54640:0:0:0:0:
448,192,54640,1,0,0:0:0:0:
320,192,54719,1,0,0:0:0:0:
64,192,54956,128,0,55114:0:0:0:0:
448,192,55114,128,0,55430:0:0:0:0:
320,192,55114,128,0,55430:0:0:0:0:
192,192,55430,1,0,0:0:0:0:
64,192,55430,128,0,55587:0:0:0:0:
448,192,55587,1,0,0:0:0:0:
320,192,55666,1,0,0:0:0:0:
192,192,55745,1,0,0:0:0:0:
64,192,55745,128,0,56061:0:0:0:0:
320,192,56061,1,0,0:0:0:0:
448,192,56061,1,0,0:0:0:0:
192,192,56140,1,0,0:0:0:0:
64,192,56219,1,0,0:0:0:0:
448,192,56298,1,0,0:0:0:0:
320,192,56456,1,0,0:0:0:0:
192,192,56535,1,0,0:0:0:0:
64,192,56614,1,0,0:0:0:0:
448,192,56693,1,0,0:0:0:0:
320,192,56693,1,0,0:0:0:0:
192,192,56772,1,0,0:0:0:0:
64,192,56851,1,0,0:0:0:0:
448,192,56930,1,0,0:0:0:0:
320,192,57008,1,0,0:0:0:0:
64,192,57087,1,0,0:0:0:0:
192,192,57166,1,0,0:0:0:0:
448,192,57245,1,0,0:0:0:0:
320,192,57324,1,0,0:0:0:0:
192,192,57324,128,0,57482:0:0:0:0:
64,192,57482,128,0,57640:0:0:0:0:
448,192,57640,128,0,58272:0:0:0:0:
192,192,57798,1,0,0:0:0:0:
64,192,57956,1,0,0:0:0:0:
320,192,57956,1,0,0:0:0:0:
192,192,58114,1,0,0:0:0:0:
64,192,58272,128,0,58430:0:0:0:0:
320,192,58272,128,0,58587:0:0:0:0:
192,192,58430,128,0,58587:0:0:0:0:
448,192,58587,128,0,58745:0:0:0:0:
64,192,58587,128,0,58903:0:0:0:0:
320,192,58745,128,0,58903:0:0:0:0:
448,192,58903,128,0,59219:0:0:0:0:
192,192,58903,128,0,59061:0:0:0:0:
64,192,59061,128,0,59219:0:0:0:0:
320,192,59219,128,0,59535:0:0:0:0:
192,192,59298,1,0,0:0:0:0:
64,192,59377,1,0,0:0:0:0:
448,192,59456,1,0,0:0:0:0:
64,192,59535,1,0,0:0:0:0:
192,192,59535,128,0,59693:0:0:0:0:
320,192,59693,1,0,0:0:0:0:
64,192,59772,1,0,0:0:0:0:
192,192,59851,1,0,0:0:0:0:
448,192,59851,1,0,0:0:0:0:
320,192,59930,1,0,0:0:0:0:
64,192,60008,128,0,60166:0:0:0:0:
448,192,60166,128,0,60482:0:0:0:0:
320,192,60324,128,0,60482:0:0:0:0:
192,192,60324,1,0,0:0:0:0:
64,192,60482,1,0,0:0:0:0:
192,192,60482,128,0,60798:0:0:0:0:
320,192,60640,128,0,60798:0:0:0:0:
448,192,60798,128,0,61114:0:0:0:0:
64,192,60798,128,0,61114:0:0:0:0:
320,192,61114,1,0,0:0:0:0:
192,192,61114,1,0,0:0:0:0:
320,192,61272,1,0,0:0:0:0:
448,192,61430,1,0,0:0:0:0:
64,192,61508,1,0,0:0:0:0:
448,192,61587,1,0,0:0:0:0:
64,192,61666,1,0,0:0:0:0:
320,192,61745,1,0,0:0:0:0:
192,192,61824,1,0,0:0:0:0:
448,192,61903,128,0,62061:0:0:0:0:
64,192,62061,128,0,62377:0:0:0:0:
320,192,62061,1,0,0:0:0:0:
320,192,62219,1,0,0:0:0:0:
192,192,62377,1,0,0:0:0:0:
448,192,62377,1,0,0:0:0:0:
448,192,62535,128,0,62851:0:0:0:0:
64,192,62693,1,0,0:0:0:0:
320,192,62851,1,0,0:0:0:0:
192,192,62930,1,0,0:0:0:0:
64,192,63008,1,0,0:0:0:0:
448,192,63087,1,0,0:0:0:0:
192,192,63166,1,0,0:0:0:0:
320,192,63245,1,0,0:0:0:0:
64,192,63324,1,0,0:0:0:0:
448,192,63324,1,0,0:0:0:0:
192,192,63430,1,0,0:0:0:0:
320,192,63535,1,0,0:0:0:0:
448,192,63640,1,0,0:0:0:0:
64,192,63640,1,0,0:0:0:0:
320,192,63745,1,0,0:0:0:0:
192,192,63851,1,0,0:0:0:0:
448,192,63956,1,0,0:0:0:0:
64,192,64061,1,0,0:0:0:0:
192,192,64166,1,0,0:0:0:0:
320,192,64272,1,0,0:0:0:0:
448,192,64272,1,0,0:0:0:0:
64,192,64351,1,0,0:0:0:0:
192,192,64430,1,0,0:0:0:0:
320,192,64508,1,0,0:0:0:0:
64,192,64587,1,0,0:0:0:0:
448,192,64587,128,0,64903:0:0:0:0:
64,192,64745,1,0,0:0:0:0:
320,192,64903,128,0,65219:0:0:0:0:
192,192,65061,128,0,65219:0:0:0:0:
64,192,65061,1,0,0:0:0:0:
448,192,65219,128,0,65535:0:0:0:0:
320,192,65377,128,0,65535:0:0:0:0:
192,192,65377,1,0,0:0:0:0:
64,192,65535,128,0,65851:0:0:0:0:
192,192,65535,1,0,0:0:0:0:
448,192,65693,1,0,0:0:0:0:
320,192,65693,128,0,65851:0:0:0:0:
448,192,65851,128,0,66324:0:0:0:0:
192,192,65851,1,0,0:0:0:0:
192,192,66166,1,0,0:0:0:0:
64,192,66166,1,0,0:0:0:0:
320,192,66324,1,0,0:0:0:0:
192,192,66403,1,0,0:0:0:0:
64,192,66482,1,0,0:0:0:0:
448,192,66561,1,0,0:0:0:0:
64,192,66640,1,0,0:0:0:0:
448,192,66719,1,0,0:0:0:0:
320,192,66798,1,0,0:0:0:0:
192,192,66798,1,0,0:0:0:0:
64,192,66877,1,0,0:0:0:0:
448,192,66956,1,0,0:0:0:0:
320,192,67035,1,0,0:0:0:0:
192,192,67114,1,0,0:0:0:0:
448,192,67193,1,0,0:0:0:0:
64,192,67272,1,0,0:0:0:0:
320,192,67351,1,0,0:0:0:0:
192,192,67430,1,0,0:0:0:0:
448,192,67430,1,0,0:0:0:0:
64,192,67508,1,0,0:0:0:0:
320,192,67587,1,0,0:0:0:0:
192,192,67666,1,0,0:0:0:0:
64,192,67745,1,0,0:0:0:0:
448,192,67824,1,0,0:0:0:0:
192,192,67903,1,0,0:0:0:0:
320,192,67982,1,0,0:0:0:0:
64,192,68061,1,0,0:0:0:0:
448,192,68061,1,0,0:0:0:0:
320,192,68140,1,0,0:0:0:0:
192,192,68219,1,0,0:0:0:0:
64,192,68298,1,0,0:0:0:0:
448,192,68377,128,0,68535:0:0:0:0:
320,192,68377,1,0,0:0:0:0:
64,192,68535,1,0,0:0:0:0:
192,192,68614,1,0,0:0:0:0:
320,192,68693,128,0,69008:0:0:0:0:
64,192,68693,1,0,0:0:0:0:
448,192,68851,128,0,69008:0:0:0:0:
192,192,69008,128,0,69324:0:0:0:0:
64,192,69008,1,0,0:0:0:0:
320,192,69166,128,0,69324:0:0:0:0:
448,192,69166,1,0,0:0:0:0:
64,192,69324,128,0,69640:0:0:0:0:
448,192,69324,1,0,0:0:0:0:
192,192,69482,128,0,69640:0:0:0:0:
320,192,69640,1,0,0:0:0:0:
448,192,69640,128,0,69877:0:0:0:0:
64,192,69877,128,0,70114:0:0:0:0:
192,192,69877,1,0,0:0:0:0:
448,192,70114,128,0,70430:0:0:0:0:
320,192,70114,1,0,0:0:0:0:
64,192,70430,1,0,0:0:0:0:
192,192,70430,128,0,70587:0:0:0:0:
448,192,70587,1,0,0:0:0:0:
320,192,70587,128,0,70745:0:0:0:0:
192,192,70745,128,0,70903:0:0:0:0:
320,192,70903,1,0,0:0:0:0:
448,192,70903,1,0,0:0:0:0:
64,192,70903,128,0,71219:0:0:0:0:
448,192,71219,1,0,0:0:0:0:
320,192,71219,128,0,71377:0:0:0:0:
64,192,71377,128,0,71693:0:0:0:0:
320,192,71693,1,0,0:0:0:0:
448,192,71693,128,0,71851:0:0:0:0:
192,192,71851,128,0,72008:0:0:0:0:
64,192,71851,1,0,0:0:0:0:
320,192,72008,128,0,72166:0:0:0:0:
64,192,72166,128,0,72324:0:0:0:0:
448,192,72166,1,0,0:0:0:0:
192,192,72324,128,0,72482:0:0:0:0:
320,192,72324,1,0,0:0:0:0:
64,192,72482,1,0,0:0:0:0:
448,192,72482,128,0,72640:0:0:0:0:
320,192,72640,128,0,72956:0:0:0:0:
64,192,72956,1,0,0:0:0:0:
192,192,72956,1,0,0:0:0:0:
448,192,73114,128,0,73272:0:0:0:0:
320,192,73114,1,0,0:0:0:0:
64,192,73272,128,0,73430:0:0:0:0:
320,192,73430,1,0,0:0:0:0:
192,192,73508,1,0,0:0:0:0:
448,192,73587,1,0,0:0:0:0:
320,192,73666,1,0,0:0:0:0:
64,192,73745,1,0,0:0:0:0:
192,192,73745,1,0,0:0:0:0:
448,192,73824,1,0,0:0:0:0:
320,192,73903,1,0,0:0:0:0:
192,192,73982,1,0,0:0:0:0:
448,192,74061,128,0,74377:0:0:0:0:
320,192,74219,128,0,74377:0:0:0:0:
64,192,74219,1,0,0:0:0:0:
64,192,74377,128,0,74693:0:0:0:0:
192,192,74377,1,0,0:0:0:0:
448,192,74535,128,0,74693:0:0:0:0:
192,192,74693,128,0,75008:0:0:0:0:
320,192,74693,1,0,0:0:0:0:
320,192,74851,1,0,0:0:0:0:
448,192,75008,1,0,0:0:0:0:
64,192,75008,1,0,0:0:0:0:
320,192,75166,128,0,75482:0:0:0:0:
448,192,75324,1,0,0:0:0:0:
64,192,75482,1,0,0:0:0:0:
192,192,75482,1,0,0:0:0:0:
64,192,75640,1,0,0:0:0:0:
448,192,75640,128,0,75956:0:0:0:0:
320,192,75798,1,0,0:0:0:0:
64,192,75956,1,0,0:0:0:0:
192,192,75956,1,0,0:0:0:0:
448,192,76272,128,0,77219:0:0:0:0:
320,192,76272,1,0,0:0:0:0:
64,192,76272,128,0,77219:0:0:0:0:
192,192,77219,1,0,0:0:0:0:
320,192,77219,1,0,0:0:0:0:
192,192,77377,1,0,0:0:0:0:
320,192,77377,1,0,0:0:0:0:
64,192,77535,1,0,0:0:0:0:
448,192,77535,1,0,0:0:0:0:
320,192,77693,1,0,0:0:0:0:
192,192,77772,1,0,0:0:0:0:
64,192,77851,1,0,0:0:0:0:
448,192,77930,1,0,0:0:0:0:
192,192,78008,1,0,0:0:0:0:
64,192,78166,1,0,0:0:0:0:
448,192,78166,1,0,0:0:0:0:
320,192,78245,1,0,0:0:0:0:
192,192,78324,1,0,0:0:0:0:
64,192,78403,1,0,0:0:0:0:
320,192,78482,1,0,0:0:0:0:
448,192,78482,128,0,78640:0:0:0:0:
320,192,78798,1,0,0:0:0:0:
448,192,78798,128,0,79745:0:0:0:0:
64,192,79272,1,0,0:0:0:0:
192,192,79430,1,0,0:0:0:0:
320,192,79430,1,0,0:0:0:0:
320,192,79745,1,0,0:0:0:0:
64,192,79745,128,0,79903:0:0:0:0:
320,192,79903,1,0,0:0:0:0:
448,192,80061,1,0,0:0:0:0:
64,192,80061,128,0,81008:0:0:0:0:
192,192,80535,1,0,0:0:0:0:
448,192,80693,1,0,0:0:0:0:
320,192,80693,1,0,0:0:0:0:
192,192,81008,1,0,0:0:0:0:
448,192,81008,1,0,0:0:0:0:
320,192,81008,128,0,81166:0:0:0:0:
320,192,81324,128,0,82272:0:0:0:0:
192,192,81324,1,0,0:0:0:0:
192,192,81798,1,0,0:0:0:0:
64,192,81956,1,0,0:0:0:0:
448,192,81956,1,0,0:0:0:0:
448,192,82272,1,0,0:0:0:0:
192,192,82272,128,0,83535:0:0:0:0:
448,192,82430,1,0,0:0:0:0:
64,192,82587,1,0,0:0:0:0:
320,192,82587,1,0,0:0:0:0:
320,192,83061,1,0,0:0:0:0:
64,192,83219,1,0,0:0:0:0:
448,192,83219,1,0,0:0:0:0:
64,192,83535,1,0,0:0:0:0:
448,192,83535,128,0,83693:0:0:0:0:
64,192,83851,1,0,0:0:0:0:
448,192,83851,128,0,84798:0:0:0:0:
64,192,84324,1,0,0:0:0:0:
192,192,84482,1,0,0:0:0:0:
320,192,84482,1,0,0:0:0:0:
320,192,84798,1,0,0:0:0:0:
64,192,84798,128,0,86061:0:0:0:0:
320,192,84956,1,0,0:0:0:0:
448,192,85114,1,0,0:0:0:0:
320,192,85272,1,0,0:0:0:0:
192,192,85430,1,0,0:0:0:0:
320,192,85587,1,0,0:0:0:0:
448,192,85745,1,0,0:0:0:0:
320,192,85903,1,0,0:0:0:0:
192,192,86061,1,0,0:0:0:0:
320,192,86061,1,0,0:0:0:0:
448,192,86061,128,0,86377:0:0:0:0:
64,192,86298,1,0,0:0:0:0:
192,192,86377,1,0,0:0:0:0:
192,192,86535,1,0,0:0:0:0:
320,192,86614,1,0,0:0:0:0:
64,192,86693,1,0,0:0:0:0:
448,192,86772,1,0,0:0:0:0:
320,192,86851,1,0,0:0:0:0:
192,192,86930,1,0,0:0:0:0:
64,192,87008,1,0,0:0:0:0:
448,192,87008,1,0,0:0:0:0:
320,192,87087,1,0,0:0:0:0:
192,192,87166,1,0,0:0:0:0:
64,192,87245,1,0,0:0:0:0:
320,192,87324,1,0,0:0:0:0:
448,192,87324,1,0,0:0:0:0:
192,192,87482,1,0,0:0:0:0:
320,192,87561,1,0,0:0:0:0:
64,192,87640,1,0,0:0:0:0:
448,192,87640,1,0,0:0:0:0:
320,192,87798,1,0,0:0:0:0:
192,192,87877,1,0,0:0:0:0:
448,192,87956,1,0,0:0:0:0:
64,192,88035,1,0,0:0:0:0:
320,192,88114,1,0,0:0:0:0:
192,192,88193,1,0,0:0:0:0:
64,192,88272,1,0,0:0:0:0:
448,192,88272,1,0,0:0:0:0:
320,192,88351,1,0,0:0:0:0:
192,192,88430,1,0,0:0:0:0:
64,192,88508,1,0,0:0:0:0:
320,192,88587,1,0,0:0:0:0:
448,192,88587,128,0,88903:0:0:0:0:
192,192,88824,1,0,0:0:0:0:
64,192,88903,1,0,0:0:0:0:
320,192,88903,1,0,0:0:0:0:
320,192,89061,1,0,0:0:0:0:
192,192,89140,1,0,0:0:0:0:
448,192,89219,1,0,0:0:0:0:
64,192,89298,1,0,0:0:0:0:
320,192,89377,1,0,0:0:0:0:
192,192,89456,1,0,0:0:0:0:
64,192,89535,1,0,0:0:0:0:
448,192,89535,1,0,0:0:0:0:
320,192,89614,1,0,0:0:0:0:
192,192,89693,1,0,0:0:0:0:
448,192,89772,1,0,0:0:0:0:
320,192,89851,1,0,0:0:0:0:
64,192,89851,1,0,0:0:0:0:
448,192,90087,1,0,0:0:0:0:
64,192,90087,1,0,0:0:0:0:
192,192,90087,1,0,0:0:0:0:
320,192,90324,1,0,0:0:0:0:
448,192,90324,1,0,0:0:0:0:
192,192,90403,1,0,0:0:0:0:
64,192,90482,1,0,0:0:0:0:
448,192,90561,1,0,0:0:0:0:
192,192,90640,1,0,0:0:0:0:
320,192,90719,1,0,0:0:0:0:
64,192,90798,1,0,0:0:0:0:
448,192,90798,1,0,0:0:0:0:
192,192,90877,1,0,0:0:0:0:
320,192,90956,1,0,0:0:0:0:
64,192,91035,1,0,0:0:0:0:
192,192,91114,1,0,0:0:0:0:
448,192,91114,128,0,91430:0:0:0:0:
192,192,91351,1,0,0:0:0:0:
320,192,91430,1,0,0:0:0:0:
320,192,91587,1,0,0:0:0:0:
192,192,91666,1,0,0:0:0:0:
64,192,91745,1,0,0:0:0:0:
448,192,91824,1,0,0:0:0:0:
192,192,91903,1,0,0:0:0:0:
320,192,91982,1,0,0:0:0:0:
64,192,92061,1,0,0:0:0:0:
448,192,92061,1,0,0:0:0:0:
192,192,92140,1,0,0:0:0:0:
320,192,92219,1,0,0:0:0:0:
448,192,92298,1,0,0:0:0:0:
192,192,92377,1,0,0:0:0:0:
64,192,92377,1,0,0:0:0:0:
320,192,92535,1,0,0:0:0:0:
192,192,92614,1,0,0:0:0:0:
64,192,92693,1,0,0:0:0:0:
448,192,92693,1,0,0:0:0:0:
192,192,92851,1,0,0:0:0:0:
320,192,92930,1,0,0:0:0:0:
448,192,93008,1,0,0:0:0:0:
64,192,93087,1,0,0:0:0:0:
320,192,93166,1,0,0:0:0:0:
192,192,93245,1,0,0:0:0:0:
64,192,93324,1,0,0:0:0:0:
448,192,93324,1,0,0:0:0:0:
320,192,93403,1,0,0:0:0:0:
192,192,93482,1,0,0:0:0:0:
64,192,93561,1,0,0:0:0:0:
320,192,93640,1,0,0:0:0:0:
448,192,93640,128,0,93956:0:0:0:0:
192,192,93877,1,0,0:0:0:0:
320,192,93956,1,0,0:0:0:0:
320,192,94114,1,0,0:0:0:0:
192,192,94193,1,0,0:0:0:0:
64,192,94272,1,0,0:0:0:0:
448,192,94351,1,0,0:0:0:0:
192,192,94430,1,0,0:0:0:0:
320,192,94508,1,0,0:0:0:0:
64,192,94587,1,0,0:0:0:0:
192,192,94666,1,0,0:0:0:0:
320,192,94745,1,0,0:0:0:0:
448,192,94824,1,0,0:0:0:0:
64,192,94903,1,0,0:0:0:0:
192,192,94903,1,0,0:0:0:0:
320,192,95061,1,0,0:0:0:0:
192,192,95140,1,0,0:0:0:0:
64,192,95219,1,0,0:0:0:0:
448,192,95219,1,0,0:0:0:0:
192,192,95377,1,0,0:0:0:0:
320,192,95456,1,0,0:0:0:0:
64,192,95535,128,0,95614:0:0:0:0:
192,192,95614,128,0,95693:0:0:0:0:
320,192,95693,128,0,95772:0:0:0:0:
448,192,95772,128,0,95851:0:0:0:0:
64,192,95851,128,0,96008:0:0:0:0:
192,192,95930,128,0,96008:0:0:0:0:
320,192,96008,128,0,96166:0:0:0:0:
448,192,96087,128,0,96166:0:0:0:0:
64,192,96166,1,0,0:0:0:0:
192,192,96166,1,0,0:0:0:0:
64,192,96482,1,0,0:0:0:0:
448,192,96798,1,0,0:0:0:0:
64,192,97430,1,0,0:0:0:0:
448,192,97430,1,0,0:0:0:0:
320,192,97508,1,0,0:0:0:0:
192,192,97587,1,0,0:0:0:0:
448,192,97745,1,0,0:0:0:0:
320,192,97745,1,0,0:0:0:0:
192,192,97903,1,0,0:0:0:0:
320,192,97982,1,0,0:0:0:0:
64,192,98061,1,0,0:0:0:0:
448,192,98061,1,0,0:0:0:0:
448,192,98377,128,0,98693:0:0:0:0:
64,192,98377,1,0,0:0:0:0:
320,192,98377,1,0,0:0:0:0:
192,192,98693,1,0,0:0:0:0:
320,192,98693,1,0,0:0:0:0:
64,192,98693,128,0,98930:0:0:0:0:
448,192,98930,128,0,99166:0:0:0:0:
192,192,99008,1,0,0:0:0:0:
64,192,99166,128,0,99403:0:0:0:0:
320,192,99324,1,0,0:0:0:0:
448,192,99403,128,0,99640:0:0:0:0:
64,192,99640,128,0,99798:0:0:0:0:
192,192,99640,1,0,0:0:0:0:
320,192,99719,1,0,0:0:0:0:
448,192,99798,128,0,99956:0:0:0:0:
64,192,99956,1,0,0:0:0:0:
192,192,99956,128,0,100193:0:0:0:0:
320,192,100193,128,0,100430:0:0:0:0:
64,192,100272,1,0,0:0:0:0:
192,192,100430,128,0,100666:0:0:0:0:
448,192,100587,1,0,0:0:0:0:
320,192,100666,128,0,100903:0:0:0:0:
192,192,100903,128,0,101061:0:0:0:0:
64,192,100903,1,0,0:0:0:0:
448,192,100982,1,0,0:0:0:0:
320,192,101061,128,0,101219:0:0:0:0:
448,192,101219,1,0,0:0:0:0:
64,192,101219,128,0,101456:0:0:0:0:
448,192,101456,128,0,101693:0:0:0:0:
192,192,101535,1,0,0:0:0:0:
64,192,101693,128,0,101930:0:0:0:0:
320,192,101851,1,0,0:0:0:0:
448,192,101930,128,0,102166:0:0:0:0:
64,192,102166,128,0,102324:0:0:0:0:
192,192,102166,1,0,0:0:0:0:
320,192,102245,1,0,0:0:0:0:
448,192,102324,128,0,102482:0:0:0:0:
64,192,102482,1,0,0:0:0:0:
192,192,102482,128,0,102719:0:0:0:0:
320,192,102719,128,0,102956:0:0:0:0:
448,192,102798,1,0,0:0:0:0:
64,192,102956,128,0,103114:0:0:0:0:
192,192,102956,128,0,103114:0:0:0:0:
448,192,103114,1,0,0:0:0:0:
64,192,103193,1,0,0:0:0:0:
192,192,103272,1,0,0:0:0:0:
320,192,103351,1,0,0:0:0:0:
448,192,103430,1,0,0:0:0:0:
64,192,103430,1,0,0:0:0:0:
320,192,103508,1,0,0:0:0:0:
192,192,103587,1,0,0:0:0:0:
64,192,103666,1,0,0:0:0:0:
320,192,103745,1,0,0:0:0:0:
448,192,103745,128,0,103982:0:0:0:0:
64,192,103982,128,0,104219:0:0:0:0:
320,192,104061,1,0,0:0:0:0:
448,192,104219,128,0,104456:0:0:0:0:
192,192,104377,1,0,0:0:0:0:
64,192,104456,128,0,104693:0:0:0:0:
448,192,104693,128,0,104851:0:0:0:0:
320,192,104693,1,0,0:0:0:0:
192,192,104772,1,0,0:0:0:0:
64,192,104851,128,0,105008:0:0:0:0:
448,192,105008,1,0,0:0:0:0:
320,192,105008,128,0,105245:0:0:0:0:
192,192,105245,128,0,105482:0:0:0:0:
448,192,105324,1,0,0:0:0:0:
320,192,105482,128,0,105719:0:0:0:0:
64,192,105640,1,0,0:0:0:0:
192,192,105719,128,0,105956:0:0:0:0:
320,192,105956,128,0,106114:0:0:0:0:
448,192,105956,1,0,0:0:0:0:
64,192,106035,1,0,0:0:0:0:
192,192,106114,128,0,106272:0:0:0:0:
64,192,106272,1,0,0:0:0:0:
448,192,106272,128,0,106508:0:0:0:0:
64,192,106508,128,0,106745:0:0:0:0:
320,192,106587,1,0,0:0:0:0:
448,192,106745,128,0,106982:0:0:0:0:
192,192,106903,1,0,0:0:0:0:
64,192,106982,128,0,107219:0:0:0:0:
320,192,107219,1,0,0:0:0:0:
192,192,107219,1,0,0:0:0:0:
448,192,107298,1,0,0:0:0:0:
64,192,107377,1,0,0:0:0:0:
320,192,107456,1,0,0:0:0:0:
64,192,107535,128,0,107614:0:0:0:0:
192,192,107535,128,0,107614:0:0:0:0:
64,192,107693,128,0,107851:0:0:0:0:
192,192,107693,128,0,107851:0:0:0:0:
320,192,107851,1,0,0:0:0:0:
448,192,107851,1,0,0:0:0:0:
192,192,108008,128,0,108087:0:0:0:0:
320,192,108008,128,0,108087:0:0:0:0:
192,192,108166,128,0,108324:0:0:0:0:
320,192,108166,128,0,108324:0:0:0:0:
64,192,108324,1,0,0:0:0:0:
448,192,108324,1,0,0:0:0:0:
448,192,108482,128,0,108561:0:0:0:0:
320,192,108482,128,0,108561:0:0:0:0:
320,192,108640,128,0,108719:0:0:0:0:
448,192,108640,128,0,108719:0:0:0:0:
448,192,108798,128,0,109035:0:0:0:0:
64,192,108798,128,0,109035:0:0:0:0:
192,192,109035,128,0,109272:0:0:0:0:
320,192,109114,1,0,0:0:0:0:
448,192,109272,128,0,109508:0:0:0:0:
64,192,109430,1,0,0:0:0:0:
192,192,109508,128,0,109745:0:0:0:0:
320,192,109745,1,0,0:0:0:0:
448,192,109745,128,0,109903:0:0:0:0:
192,192,109903,128,0,110061:0:0:0:0:
64,192,110061,128,0,110298:0:0:0:0:
448,192,110061,1,0,0:0:0:0:
320,192,110298,128,0,110535:0:0:0:0:
192,192,110377,1,0,0:0:0:0:
64,192,110535,128,0,110772:0:0:0:0:
448,192,110693,1,0,0:0:0:0:
320,192,110772,128,0,111008:0:0:0:0:
64,192,111008,128,0,111166:0:0:0:0:
448,192,111008,1,0,0:0:0:0:
320,192,111166,128,0,111324:0:0:0:0:
64,192,111324,1,0,0:0:0:0:
448,192,111324,128,0,111561:0:0:0:0:
192,192,111561,128,0,111798:0:0:0:0:
320,192,111640,1,0,0:0:0:0:
448,192,111798,128,0,112035:0:0:0:0:
64,192,111956,1,0,0:0:0:0:
192,192,112035,128,0,112272:0:0:0:0:
320,192,112272,1,0,0:0:0:0:
448,192,112272,128,0,112430:0:0:0:0:
192,192,112430,128,0,112587:0:0:0:0:
64,192,112587,128,0,112824:0:0:0:0:
320,192,112587,1,0,0:0:0:0:
448,192,112824,128,0,113061:0:0:0:0:
320,192,112903,1,0,0:0:0:0:
64,192,113061,128,0,113219:0:0:0:0:
192,192,113061,128,0,113219:0:0:0:0:
448,192,113219,1,0,0:0:0:0:
64,192,113298,1,0,0:0:0:0:
192,192,113377,1,0,0:0:0:0:
320,192,113456,1,0,0:0:0:0:
448,192,113535,1,0,0:0:0:0:
64,192,113535,1,0,0:0:0:0:
320,192,113614,1,0,0:0:0:0:
192,192,113693,1,0,0:0:0:0:
64,192,113772,1,0,0:0:0:0:
448,192,113851,128,0,114087:0:0:0:0:
320,192,113851,1,0,0:0:0:0:
192,192,114087,128,0,114324:0:0:0:0:
320,192,114166,1,0,0:0:0:0:
448,192,114324,128,0,114561:0:0:0:0:
64,192,114482,1,0,0:0:0:0:
192,192,114561,128,0,114798:0:0:0:0:
320,192,114798,1,0,0:0:0:0:
448,192,114798,128,0,114956:0:0:0:0:
192,192,114956,128,0,115114:0:0:0:0:
64,192,115114,128,0,115351:0:0:0:0:
448,192,115114,1,0,0:0:0:0:
320,192,115351,128,0,115587:0:0:0:0:
192,192,115430,1,0,0:0:0:0:
64,192,115587,128,0,115824:0:0:0:0:
448,192,115745,1,0,0:0:0:0:
320,192,115824,128,0,116061:0:0:0:0:
64,192,116061,128,0,116219:0:0:0:0:
448,192,116061,1,0,0:0:0:0:
320,192,116219,128,0,116377:0:0:0:0:
64,192,116377,1,0,0:0:0:0:
448,192,116377,128,0,116614:0:0:0:0:
64,192,116535,1,0,0:0:0:0:
192,192,116614,128,0,116851:0:0:0:0:
320,192,116693,1,0,0:0:0:0:
448,192,116851,128,0,117087:0:0:0:0:
320,192,116851,1,0,0:0:0:0:
64,192,117008,1,0,0:0:0:0:
192,192,117087,1,0,0:0:0:0:
320,192,117166,1,0,0:0:0:0:
64,192,117166,1,0,0:0:0:0:
448,192,117245,1,0,0:0:0:0:
192,192,117324,1,0,0:0:0:0:
320,192,117403,1,0,0:0:0:0:
192,192,117482,1,0,0:0:0:0:
320,192,117561,1,0,0:0:0:0:
64,192,117640,128,0,117719:0:0:0:0:
192,192,117640,128,0,117719:0:0:0:0:
64,192,117798,128,0,117956:0:0:0:0:
192,192,117798,128,0,117956:0:0:0:0:
448,192,117956,1,0,0:0:0:0:
192,192,118114,128,0,118193:0:0:0:0:
320,192,118114,128,0,118193:0:0:0:0:
192,192,118272,128,0,118430:0:0:0:0:
320,192,118272,128,0,118430:0:0:0:0:
64,192,118430,1,0,0:0:0:0:
448,192,118587,128,0,118903:0:0:0:0:
320,192,118587,128,0,118903:0:0:0:0:
64,192,118903,128,0,119140:0:0:0:0:
192,192,118903,128,0,119140:0:0:0:0:
448,192,119140,128,0,119456:0:0:0:0:
192,192,119219,1,0,0:0:0:0:
320,192,119219,1,0,0:0:0:0:
64,192,119377,128,0,119693:0:0:0:0:
320,192,119535,1,0,0:0:0:0:
192,192,119535,1,0,0:0:0:0:
448,192,119614,128,0,119851:0:0:0:0:
64,192,119851,128,0,120087:0:0:0:0:
192,192,119851,1,0,0:0:0:0:
448,192,120008,128,0,120087:0:0:0:0:
448,192,120166,128,0,120403:0:0:0:0:
64,192,120166,1,0,0:0:0:0:
64,192,120403,128,0,120719:0:0:0:0:
320,192,120482,1,0,0:0:0:0:
192,192,120482,1,0,0:0:0:0:
448,192,120640,128,0,120956:0:0:0:0:
320,192,120798,1,0,0:0:0:0:
192,192,120798,1,0,0:0:0:0:
64,192,120877,128,0,121114:0:0:0:0:
448,192,121114,128,0,121351:0:0:0:0:
320,192,121114,1,0,0:0:0:0:
64,192,121272,128,0,121351:0:0:0:0:
64,192,121430,128,0,121666:0:0:0:0:
448,192,121430,1,0,0:0:0:0:
448,192,121666,128,0,121982:0:0:0:0:
192,192,121745,1,0,0:0:0:0:
320,192,121745,1,0,0:0:0:0:
64,192,121903,128,0,122219:0:0:0:0:
320,192,122061,1,0,0:0:0:0:
192,192,122061,1,0,0:0:0:0:
448,192,122140,128,0,122377:0:0:0:0:
192,192,122377,1,0,0:0:0:0:
64,192,122377,128,0,122614:0:0:0:0:
448,192,122535,128,0,122614:0:0:0:0:
64,192,122693,1,0,0:0:0:0:
448,192,122693,128,0,123008:0:0:0:0:
320,192,122851,1,0,0:0:0:0:
64,192,123008,1,0,0:0:0:0:
192,192,123008,1,0,0:0:0:0:
64,192,123166,128,0,123324:0:0:0:0:
448,192,123324,1,0,0:0:0:0:
192,192,123403,1,0,0:0:0:0:
320,192,123482,1,0,0:0:0:0:
448,192,123561,1,0,0:0:0:0:
64,192,123640,1,0,0:0:0:0:
192,192,123640,1,0,0:0:0:0:
320,192,123719,1,0,0:0:0:0:
192,192,123798,1,0,0:0:0:0:
64,192,123877,1,0,0:0:0:0:
448,192,123956,128,0,124193:0:0:0:0:
320,192,123956,1,0,0:0:0:0:
64,192,124193,128,0,124508:0:0:0:0:
320,192,124272,1,0,0:0:0:0:
192,192,124272,1,0,0:0:0:0:
448,192,124430,128,0,124745:0:0:0:0:
192,192,124587,1,0,0:0:0:0:
320,192,124587,1,0,0:0:0:0:
64,192,124666,128,0,124903:0:0:0:0:
448,192,124903,128,0,125140:0:0:0:0:
192,192,124903,1,0,0:0:0:0:
320,192,125061,128,0,125140:0:0:0:0:
64,192,125219,128,0,125456:0:0:0:0:
448,192,125219,1,0,0:0:0:0:
448,192,125456,128,0,125772:0:0:0:0:
192,192,125535,1,0,0:0:0:0:
320,192,125535,1,0,0:0:0:0:
64,192,125693,128,0,126008:0:0:0:0:
192,192,125851,1,0,0:0:0:0:
320,192,125851,1,0,0:0:0:0:
448,192,125930,128,0,126166:0:0:0:0:
64,192,126166,128,0,126403:0:0:0:0:
320,192,126166,1,0,0:0:0:0:
192,192,126324,128,0,126403:0:0:0:0:
448,192,126482,128,0,126719:0:0:0:0:
64,192,126482,1,0,0:0:0:0:
64,192,126719,128,0,127035:0:0:0:0:
320,192,126798,1,0,0:0:0:0:
192,192,126798,1,0,0:0:0:0:
448,192,126956,128,0,127272:0:0:0:0:
192,192,127114,1,0,0:0:0:0:
320,192,127114,1,0,0:0:0:0:
64,192,127193,128,0,127430:0:0:0:0:
320,192,127430,1,0,0:0:0:0:
448,192,127430,128,0,127666:0:0:0:0:
64,192,127587,128,0,127666:0:0:0:0:
320,192,127745,128,0,127824:0:0:0:0:
448,192,127745,128,0,127824:0:0:0:0:
320,192,127903,128,0,128061:0:0:0:0:
448,192,127903,128,0,128061:0:0:0:0:
64,192,128061,1,0,0:0:0:0:
192,192,128219,128,0,128298:0:0:0:0:
320,192,128219,128,0,128298:0:0:0:0:
192,192,128377,128,0,128535:0:0:0:0:
320,192,128377,128,0,128535:0:0:0:0:
448,192,128535,1,0,0:0:0:0:
64,192,128693,128,0,129008:0:0:0:0:
192,192,128693,128,0,129008:0:0:0:0:
320,192,128693,1,0,0:0:0:0:
448,192,129008,128,0,129324:0:0:0:0:
320,192,129324,1,0,0:0:0:0:
64,192,129324,128,0,130745:0:0:0:0:
320,192,129640,1,0,0:0:0:0:
192,192,129956,1,0,0:0:0:0:
448,192,129956,1,0,0:0:0:0:
448,192,130272,1,0,0:0:0:0:
320,192,130430,1,0,0:0:0:0:
448,192,130587,1,0,0:0:0:0:
192,192,130587,1,0,0:0:0:0:
320,192,130745,1,0,0:0:0:0:
448,192,130824,1,0,0:0:0:0:
192,192,130903,128,0,131219:0:0:0:0:
64,192,130903,1,0,0:0:0:0:
320,192,131061,128,0,131219:0:0:0:0:
64,192,131219,128,0,131535:0:0:0:0:
448,192,131219,1,0,0:0:0:0:
192,192,131377,128,0,131535:0:0:0:0:
320,192,131535,1,0,0:0:0:0:
448,192,131535,128,0,132324:0:0:0:0:
192,192,131693,1,0,0:0:0:0:
64,192,131851,1,0,0:0:0:0:
320,192,131851,1,0,0:0:0:0:
192,192,132008,1,0,0:0:0:0:
320,192,132166,1,0,0:0:0:0:
192,192,132324,1,0,0:0:0:0:
64,192,132482,1,0,0:0:0:0:
448,192,132482,1,0,0:0:0:0:
320,192,132561,1,0,0:0:0:0:
192,192,132640,1,0,0:0:0:0:
64,192,132719,1,0,0:0:0:0:
320,192,132798,1,0,0:0:0:0:
448,192,132798,128,0,133035:0:0:0:0:
64,192,133035,128,0,133272:0:0:0:0:
192,192,133035,1,0,0:0:0:0:
192,192,133272,128,0,133508:0:0:0:0:
320,192,133272,1,0,0:0:0:0:
320,192,133508,128,0,133745:0:0:0:0:
448,192,133508,1,0,0:0:0:0:
192,192,133745,1,0,0:0:0:0:
448,192,133745,128,0,133903:0:0:0:0:
64,192,133903,1,0,0:0:0:0:
320,192,133903,1,0,0:0:0:0:
448,192,134061,1,0,0:0:0:0:
64,192,134061,128,0,134377:0:0:0:0:
192,192,134061,1,0,0:0:0:0:
320,192,134377,1,0,0:0:0:0:
448,192,134456,1,0,0:0:0:0:
192,192,134535,1,0,0:0:0:0:
320,192,134614,1,0,0:0:0:0:
64,192,134693,1,0,0:0:0:0:
192,192,134772,1,0,0:0:0:0:
320,192,134851,1,0,0:0:0:0:
448,192,134930,1,0,0:0:0:0:
64,192,135008,1,0,0:0:0:0:
192,192,135087,1,0,0:0:0:0:
320,192,135166,1,0,0:0:0:0:
448,192,135245,1,0,0:0:0:0:
192,192,135324,1,0,0:0:0:0:
320,192,135403,1,0,0:0:0:0:
448,192,135482,1,0,0:0:0:0:
64,192,135561,1,0,0:0:0:0:
320,192,135640,1,0,0:0:0:0:
448,192,135719,1,0,0:0:0:0:
192,192,135798,1,0,0:0:0:0:
320,192,135877,1,0,0:0:0:0:
64,192,135956,1,0,0:0:0:0:
192,192,136035,1,0,0:0:0:0:
320,192,136114,1,0,0:0:0:0:
448,192,136193,1,0,0:0:0:0:
192,192,136272,1,0,0:0:0:0:
320,192,136351,1,0,0:0:0:0:
64,192,136430,1,0,0:0:0:0:
192,192,136508,1,0,0:0:0:0:
320,192,136587,1,0,0:0:0:0:
448,192,136587,1,0,0:0:0:0:
192,192,136745,1,0,0:0:0:0:
320,192,136824,1,0,0:0:0:0:
448,192,136903,1,0,0:0:0:0:
64,192,136982,1,0,0:0:0:0:
192,192,137061,1,0,0:0:0:0:
448,192,137140,1,0,0:0:0:0:
320,192,137219,128,0,137298:0:0:0:0:
64,192,137298,128,0,137377:0:0:0:0:
448,192,137377,128,0,137456:0:0:0:0:
192,192,137456,128,0,137535:0:0:0:0:
320,192,137535,128,0,137614:0:0:0:0:
448,192,137614,128,0,137693:0:0:0:0:
64,192,137693,128,0,137772:0:0:0:0:
192,192,137772,128,0,137851:0:0:0:0:
320,192,137851,1,0,0:0:0:0:
448,192,137851,1,0,0:0:0:0:
448,192,138008,1,0,0:0:0:0:
64,192,138008,1,0,0:0:0:0:
64,192,138166,1,0,0:0:0:0:
192,192,138166,1,0,0:0:0:0:
192,192,138324,1,0,0:0:0:0:
448,192,138324,1,0,0:0:0:0:
320,192,138482,1,0,0:0:0:0:
448,192,138482,1,0,0:0:0:0:
64,192,138640,1,0,0:0:0:0:
320,192,138640,1,0,0:0:0:0:
192,192,138798,1,0,0:0:0:0:
448,192,138798,1,0,0:0:0:0:
320,192,138877,1,0,0:0:0:0:
192,192,138956,1,0,0:0:0:0:
320,192,139035,1,0,0:0:0:0:
64,192,139114,1,0,0:0:0:0:
64,192,139430,1,0,0:0:0:0:
448,192,139430,128,0,141008:0:0:0:0:
320,192,139430,1,0,0:0:0:0:
64,192,139745,128,0,141640:0:0:0:0:
320,192,141008,128,0,144482:0:0:0:0:
448,192,141640,128,0,144482:0:0:0:0:
