osu file format v14

[General]
AudioFilename: audio.mp3
AudioLeadIn: 0
PreviewTime: 98693
Countdown: 0
SampleSet: Soft
StackLeniency: 0.7
Mode: 3
LetterboxInBreaks: 0
SpecialStyle: 0
WidescreenStoryboard: 0

[Editor]
DistanceSpacing: 1.4
BeatDivisor: 8
GridSize: 8
TimelineZoom: 2.399999

[Metadata]
Title:Intuition
TitleUnicode:Intuition
Artist:technoplanet
ArtistUnicode:technoplanet
Creator:Touru0711
Version:Extra
Source:
Tags:EP Strange Story drum bass ハセガワシュン electronic instrumental dnb hardcore M3 2020秋 fall M3-46 ln long notes _kobii Akasha- Kuo Kyoka fa featured artist
BeatmapID:3642514
BeatmapSetID:1778535

[Difficulty]
HPDrainRate:7.8
CircleSize:4
OverallDifficulty:7.3
ApproachRate:5
SliderMultiplier:1.4
SliderTickRate:1

[Events]
//Background and Video events
0,0,"91173778_p0.jpg",0,0
//Break Periods
//Storyboard Layer 0 (Background)
//Storyboard Layer 1 (Fail)
//Storyboard Layer 2 (Pass)
//Storyboard Layer 3 (Foreground)
//Storyboard Layer 4 (Overlay)
//Storyboard Sound Samples

[TimingPoints]
1430,315.789473684211,4,2,1,60,1,0
98693,-100,4,2,1,60,0,1
117640,-100,4,2,1,60,0,0
118903,-100,4,2,1,60,0,1
137851,-100,4,2,1,60,0,0

[HitObjects]
64,192,1430,5,0,0:0:0:0:
448,192,1430,1,0,0:0:0:0:
320,192,1430,1,0,0:0:0:0:
64,192,1587,1,0,0:0:0:0:
448,192,1587,1,0,0:0:0:0:
320,192,1587,1,0,0:0:0:0:
192,192,1745,128,0,1824:0:0:0:0:
320,192,1824,128,0,1903:0:0:0:0:
448,192,1903,128,0,1982:0:0:0:0:
64,192,1982,128,0,2061:0:0:0:0:
192,192,1982,128,0,2061:0:0:0:0:
448,192,2140,128,0,2219:0:0:0:0:
64,192,2219,1,0,0:0:0:0:
320,192,2219,128,0,2298:0:0:0:0:
192,192,2298,128,0,2377:0:0:0:0:
448,192,2377,1,0,0:0:0:0:
320,192,2456,1,0,0:0:0:0:
192,192,2535,1,0,0:0:0:0:
64,192,2614,1,0,0:0:0:0:
448,192,2693,1,0,0:0:0:0:
320,192,2693,1,0,0:0:0:0:
192,192,2772,128,0,2851:0:0:0:0:
320,192,2851,128,0,2930:0:0:0:0:
448,192,2930,128,0,3008:0:0:0:0:
192,192,3008,128,0,3087:0:0:0:0:
64,192,3087,128,0,3166:0:0:0:0:
320,192,3166,128,0,3245:0:0:0:0:
448,192,3245,128,0,3324:0:0:0:0:
64,192,3403,1,0,0:0:0:0:
192,192,3403,1,0,0:0:0:0:
320,192,3482,128,0,3561:0:0:0:0:
448,192,3482,128,0,3561:0:0:0:0:
192,192,3640,1,0,0:0:0:0:
320,192,3640,1,0,0:0:0:0:
64,192,3719,128,0,3798:0:0:0:0:
448,192,3719,128,0,3798:0:0:0:0:
192,192,3798,1,0,0:0:0:0:
320,192,3877,128,0,3956:0:0:0:0:
448,192,3956,128,0,4035:0:0:0:0:
192,192,3956,128,0,4035:0:0:0:0:
64,192,3956,128,0,4035:0:0:0:0:
64,192,4114,128,0,4193:0:0:0:0:
320,192,4114,128,0,4193:0:0:0:0:
448,192,4114,128,0,4193:0:0:0:0:
192,192,4272,128,0,4351:0:0:0:0:
320,192,4351,128,0,4430:0:0:0:0:
64,192,4430,1,0,0:0:0:0:
448,192,4430,128,0,4508:0:0:0:0:
192,192,4508,128,0,4587:0:0:0:0:
320,192,4587,128,0,4666:0:0:0:0:
448,192,4666,128,0,4745:0:0:0:0:
192,192,4745,128,0,4824:0:0:0:0:
64,192,4824,128,0,4903:0:0:0:0:
320,192,4903,128,0,4982:0:0:0:0:
192,192,4982,128,0,5061:0:0:0:0:
448,192,5061,128,0,5140:0:0:0:0:
320,192,5140,128,0,5219:0:0:0:0:
64,192,5219,128,0,5298:0:0:0:0:
192,192,5219,128,0,5298:0:0:0:0:
448,192,5298,128,0,5377:0:0:0:0:
64,192,5377,128,0,5456:0:0:0:0:
320,192,5456,128,0,5535:0:0:0:0:
192,192,5535,1,0,0:0:0:0:
448,192,5614,1,0,0:0:0:0:
64,192,5693,1,0,0:0:0:0:
320,192,5772,1,0,0:0:0:0:
192,192,5851,1,0,0:0:0:0:
64,192,5930,1,0,0:0:0:0:
320,192,6008,128,0,6087:0:0:0:0:
448,192,6008,128,0,6087:0:0:0:0:
192,192,6087,1,0,0:0:0:0:
448,192,6166,1,0,0:0:0:0:
320,192,6245,128,0,6324:0:0:0:0:
192,192,6245,128,0,6324:0:0:0:0:
64,192,6324,1,0,0:0:0:0:
448,192,6403,128,0,6482:0:0:0:0:
64,192,6482,128,0,6561:0:0:0:0:
192,192,6482,128,0,6561:0:0:0:0:
320,192,6482,1,0,0:0:0:0:
448,192,6640,128,0,6719:0:0:0:0:
64,192,6798,1,0,0:0:0:0:
192,192,6798,128,0,6877:0:0:0:0:
320,192,6877,128,0,6956:0:0:0:0:
448,192,6956,128,0,7035:0:0:0:0:
192,192,7035,128,0,7114:0:0:0:0:
64,192,7035,128,0,7114:0:0:0:0:
448,192,7193,128,0,7272:0:0:0:0:
320,192,7272,128,0,7351:0:0:0:0:
64,192,7272,1,0,0:0:0:0:
192,192,7351,128,0,7430:0:0:0:0:
448,192,7430,128,0,7508:0:0:0:0:
64,192,7430,1,0,0:0:0:0:
320,192,7508,128,0,7587:0:0:0:0:
192,192,7587,128,0,7666:0:0:0:0:
64,192,7666,128,0,7745:0:0:0:0:
320,192,7745,1,0,0:0:0:0:
448,192,7745,128,0,7824:0:0:0:0:
192,192,7824,128,0,7903:0:0:0:0:
320,192,7903,128,0,7982:0:0:0:0:
64,192,7903,1,0,0:0:0:0:
448,192,7982,128,0,8061:0:0:0:0:
64,192,8061,128,0,8140:0:0:0:0:
192,192,8061,1,0,0:0:0:0:
320,192,8140,128,0,8219:0:0:0:0:
448,192,8219,128,0,8298:0:0:0:0:
192,192,8298,128,0,8377:0:0:0:0:
64,192,8377,1,0,0:0:0:0:
448,192,8456,1,0,0:0:0:0:
192,192,8535,128,0,8614:0:0:0:0:
320,192,8535,128,0,8614:0:0:0:0:
64,192,8693,1,0,0:0:0:0:
192,192,8693,1,0,0:0:0:0:
448,192,8772,128,0,8851:0:0:0:0:
320,192,8772,128,0,8851:0:0:0:0:
64,192,8851,1,0,0:0:0:0:
320,192,8930,128,0,9008:0:0:0:0:
448,192,9008,128,0,9087:0:0:0:0:
192,192,9008,128,0,9087:0:0:0:0:
64,192,9008,128,0,9087:0:0:0:0:
320,192,9166,128,0,9245:0:0:0:0:
192,192,9166,128,0,9245:0:0:0:0:
320,192,9324,1,0,0:0:0:0:
448,192,9324,1,0,0:0:0:0:
64,192,9324,128,0,9403:0:0:0:0:
192,192,9403,128,0,9482:0:0:0:0:
320,192,9482,128,0,9561:0:0:0:0:
64,192,9561,128,0,9640:0:0:0:0:
192,192,9640,128,0,9719:0:0:0:0:
448,192,9719,128,0,9798:0:0:0:0:
320,192,9798,128,0,9877:0:0:0:0:
64,192,9798,1,0,0:0:0:0:
192,192,9877,128,0,9956:0:0:0:0:
448,192,9956,128,0,10035:0:0:0:0:
64,192,9956,1,0,0:0:0:0:
320,192,10035,128,0,10114:0:0:0:0:
192,192,10114,128,0,10193:0:0:0:0:
64,192,10193,128,0,10272:0:0:0:0:
320,192,10272,1,0,0:0:0:0:
448,192,10272,128,0,10351:0:0:0:0:
192,192,10351,128,0,10430:0:0:0:0:
320,192,10430,128,0,10508:0:0:0:0:
448,192,10508,128,0,10587:0:0:0:0:
192,192,10587,128,0,10666:0:0:0:0:
64,192,10587,1,0,0:0:0:0:
320,192,10666,128,0,10745:0:0:0:0:
64,192,10745,128,0,10824:0:0:0:0:
448,192,10824,128,0,10903:0:0:0:0:
320,192,10903,1,0,0:0:0:0:
64,192,10982,128,0,11061:0:0:0:0:
192,192,10982,128,0,11061:0:0:0:0:
448,192,11061,128,0,11140:0:0:0:0:
320,192,11140,128,0,11219:0:0:0:0:
192,192,11219,128,0,11298:0:0:0:0:
64,192,11219,1,0,0:0:0:0:
448,192,11298,128,0,11377:0:0:0:0:
64,192,11377,128,0,11456:0:0:0:0:
320,192,11456,128,0,11535:0:0:0:0:
448,192,11535,128,0,11614:0:0:0:0:
64,192,11535,1,0,0:0:0:0:
192,192,11535,1,0,0:0:0:0:
320,192,11614,128,0,11693:0:0:0:0:
192,192,11693,128,0,11772:0:0:0:0:
64,192,11772,128,0,11851:0:0:0:0:
448,192,11930,1,0,0:0:0:0:
320,192,11930,128,0,12008:0:0:0:0:
192,192,12008,128,0,12087:0:0:0:0:
64,192,12166,1,0,0:0:0:0:
448,192,12166,128,0,12245:0:0:0:0:
320,192,12324,1,0,0:0:0:0:
64,192,12324,128,0,12403:0:0:0:0:
192,192,12324,128,0,12403:0:0:0:0:
448,192,12403,128,0,12482:0:0:0:0:
320,192,12482,128,0,12561:0:0:0:0:
192,192,12561,128,0,12640:0:0:0:0:
64,192,12561,1,0,0:0:0:0:
448,192,12719,128,0,12798:0:0:0:0:
320,192,12719,1,0,0:0:0:0:
64,192,12798,128,0,12877:0:0:0:0:
192,192,12956,128,0,13035:0:0:0:0:
320,192,13114,1,0,0:0:0:0:
64,192,13114,128,0,13272:0:0:0:0:
448,192,13114,1,0,0:0:0:0:
192,192,13193,128,0,13351:0:0:0:0:
320,192,13272,128,0,13430:0:0:0:0:
448,192,13351,128,0,13508:0:0:0:0:
192,192,13430,128,0,13587:0:0:0:0:
320,192,13508,128,0,13666:0:0:0:0:
64,192,13587,128,0,13824:0:0:0:0:
192,192,13666,128,0,13745:0:0:0:0:
320,192,13745,128,0,13824:0:0:0:0:
448,192,13745,128,0,13903:0:0:0:0:
192,192,13824,128,0,13903:0:0:0:0:
320,192,13903,128,0,13982:0:0:0:0:
64,192,13903,128,0,13982:0:0:0:0:
448,192,13982,128,0,14061:0:0:0:0:
192,192,14061,128,0,14140:0:0:0:0:
320,192,14061,1,0,0:0:0:0:
64,192,14061,128,0,14140:0:0:0:0:
448,192,14219,1,0,0:0:0:0:
64,192,14298,128,0,14377:0:0:0:0:
192,192,14298,128,0,14377:0:0:0:0:
320,192,14377,1,0,0:0:0:0:
448,192,14377,1,0,0:0:0:0:
64,192,14456,128,0,14535:0:0:0:0:
192,192,14535,128,0,14614:0:0:0:0:
320,192,14614,128,0,14693:0:0:0:0:
448,192,14693,128,0,14772:0:0:0:0:
192,192,14772,128,0,14851:0:0:0:0:
64,192,14851,128,0,14930:0:0:0:0:
320,192,14851,1,0,0:0:0:0:
448,192,14930,128,0,15008:0:0:0:0:
320,192,15008,1,0,0:0:0:0:
192,192,15008,128,0,15087:0:0:0:0:
64,192,15087,128,0,15166:0:0:0:0:
448,192,15166,128,0,15245:0:0:0:0:
320,192,15245,128,0,15324:0:0:0:0:
64,192,15324,128,0,15403:0:0:0:0:
192,192,15324,128,0,15403:0:0:0:0:
448,192,15324,1,0,0:0:0:0:
64,192,15482,128,0,15561:0:0:0:0:
192,192,15482,128,0,15561:0:0:0:0:
448,192,15482,1,0,0:0:0:0:
64,192,15640,1,0,0:0:0:0:
320,192,15640,128,0,15719:0:0:0:0:
448,192,15719,128,0,15798:0:0:0:0:
192,192,15798,128,0,15877:0:0:0:0:
320,192,15877,128,0,15956:0:0:0:0:
64,192,15956,128,0,16035:0:0:0:0:
192,192,16035,128,0,16114:0:0:0:0:
448,192,16114,1,0,0:0:0:0:
320,192,16114,128,0,16193:0:0:0:0:
192,192,16193,128,0,16272:0:0:0:0:
448,192,16272,128,0,16351:0:0:0:0:
64,192,16272,1,0,0:0:0:0:
320,192,16351,128,0,16430:0:0:0:0:
192,192,16430,128,0,16508:0:0:0:0:
64,192,16508,128,0,16587:0:0:0:0:
320,192,16587,128,0,16666:0:0:0:0:
448,192,16587,128,0,16666:0:0:0:0:
192,192,16587,1,0,0:0:0:0:
448,192,16745,128,0,16824:0:0:0:0:
320,192,16824,128,0,16903:0:0:0:0:
192,192,16903,1,0,0:0:0:0:
64,192,16903,1,0,0:0:0:0:
448,192,16982,128,0,17061:0:0:0:0:
192,192,17061,128,0,17140:0:0:0:0:
320,192,17140,128,0,17219:0:0:0:0:
448,192,17219,128,0,17298:0:0:0:0:
192,192,17298,128,0,17377:0:0:0:0:
64,192,17377,128,0,17456:0:0:0:0:
320,192,17377,1,0,0:0:0:0:
448,192,17456,128,0,17535:0:0:0:0:
320,192,17535,1,0,0:0:0:0:
192,192,17535,128,0,17614:0:0:0:0:
64,192,17614,128,0,17693:0:0:0:0:
448,192,17693,128,0,17772:0:0:0:0:
320,192,17772,128,0,17851:0:0:0:0:
64,192,17851,128,0,17930:0:0:0:0:
192,192,17851,1,0,0:0:0:0:
448,192,17851,128,0,17930:0:0:0:0:
64,192,18008,128,0,18087:0:0:0:0:
192,192,18008,1,0,0:0:0:0:
448,192,18008,128,0,18087:0:0:0:0:
64,192,18166,1,0,0:0:0:0:
320,192,18166,128,0,18245:0:0:0:0:
448,192,18245,128,0,18324:0:0:0:0:
192,192,18324,128,0,18403:0:0:0:0:
320,192,18403,128,0,18482:0:0:0:0:
448,192,18482,128,0,18561:0:0:0:0:
64,192,18561,128,0,18640:0:0:0:0:
192,192,18640,128,0,18719:0:0:0:0:
320,192,18640,1,0,0:0:0:0:
448,192,18719,128,0,18798:0:0:0:0:
64,192,18798,128,0,18877:0:0:0:0:
320,192,18798,1,0,0:0:0:0:
192,192,18877,128,0,18956:0:0:0:0:
320,192,18956,128,0,19035:0:0:0:0:
448,192,19035,128,0,19114:0:0:0:0:
64,192,19114,128,0,19193:0:0:0:0:
192,192,19114,128,0,19193:0:0:0:0:
320,192,19114,1,0,0:0:0:0:
64,192,19272,128,0,19351:0:0:0:0:
192,192,19351,128,0,19430:0:0:0:0:
320,192,19430,1,0,0:0:0:0:
448,192,19430,1,0,0:0:0:0:
64,192,19508,128,0,19587:0:0:0:0:
192,192,19587,128,0,19666:0:0:0:0:
320,192,19666,128,0,19745:0:0:0:0:
448,192,19745,128,0,19824:0:0:0:0:
192,192,19824,128,0,19903:0:0:0:0:
64,192,19903,128,0,19982:0:0:0:0:
320,192,19903,1,0,0:0:0:0:
448,192,19982,128,0,20061:0:0:0:0:
192,192,20061,128,0,20140:0:0:0:0:
320,192,20061,1,0,0:0:0:0:
64,192,20140,128,0,20219:0:0:0:0:
448,192,20219,128,0,20298:0:0:0:0:
320,192,20298,128,0,20377:0:0:0:0:
64,192,20377,1,0,0:0:0:0:
192,192,20377,128,0,20456:0:0:0:0:
448,192,20377,128,0,20456:0:0:0:0:
64,192,20535,1,0,0:0:0:0:
192,192,20535,128,0,20614:0:0:0:0:
448,192,20535,128,0,20614:0:0:0:0:
64,192,20693,1,0,0:0:0:0:
320,192,20693,128,0,20772:0:0:0:0:
448,192,20772,128,0,20851:0:0:0:0:
192,192,20851,128,0,20930:0:0:0:0:
320,192,20930,128,0,21008:0:0:0:0:
64,192,21008,128,0,21087:0:0:0:0:
192,192,21087,128,0,21166:0:0:0:0:
320,192,21166,128,0,21245:0:0:0:0:
448,192,21166,1,0,0:0:0:0:
192,192,21245,128,0,21324:0:0:0:0:
64,192,21324,1,0,0:0:0:0:
448,192,21324,128,0,21403:0:0:0:0:
320,192,21403,128,0,21482:0:0:0:0:
192,192,21482,128,0,21561:0:0:0:0:
64,192,21561,128,0,21640:0:0:0:0:
448,192,21640,128,0,21719:0:0:0:0:
320,192,21640,128,0,21719:0:0:0:0:
192,192,21640,1,0,0:0:0:0:
448,192,21798,128,0,21877:0:0:0:0:
320,192,21877,128,0,21956:0:0:0:0:
192,192,21956,1,0,0:0:0:0:
64,192,21956,1,0,0:0:0:0:
448,192,22035,128,0,22114:0:0:0:0:
192,192,22114,128,0,22193:0:0:0:0:
320,192,22193,128,0,22272:0:0:0:0:
448,192,22272,128,0,22351:0:0:0:0:
192,192,22351,128,0,22430:0:0:0:0:
64,192,22430,128,0,22508:0:0:0:0:
320,192,22430,1,0,0:0:0:0:
448,192,22508,128,0,22587:0:0:0:0:
192,192,22587,128,0,22666:0:0:0:0:
320,192,22587,1,0,0:0:0:0:
64,192,22666,128,0,22745:0:0:0:0:
448,192,22745,128,0,22824:0:0:0:0:
320,192,22824,128,0,22903:0:0:0:0:
64,192,22903,128,0,22982:0:0:0:0:
192,192,22903,128,0,22982:0:0:0:0:
448,192,22903,128,0,22982:0:0:0:0:
64,192,23061,128,0,23140:0:0:0:0:
192,192,23061,128,0,23140:0:0:0:0:
448,192,23061,128,0,23140:0:0:0:0:
320,192,23219,128,0,23298:0:0:0:0:
448,192,23298,128,0,23377:0:0:0:0:
64,192,23377,128,0,23456:0:0:0:0:
192,192,23377,128,0,23456:0:0:0:0:
320,192,23377,1,0,0:0:0:0:
448,192,23456,128,0,23535:0:0:0:0:
192,192,23535,128,0,23614:0:0:0:0:
320,192,23614,128,0,23693:0:0:0:0:
64,192,23693,128,0,23772:0:0:0:0:
448,192,23693,1,0,0:0:0:0:
192,192,23772,128,0,23851:0:0:0:0:
320,192,23851,128,0,23930:0:0:0:0:
64,192,23930,128,0,24008:0:0:0:0:
192,192,24008,128,0,24087:0:0:0:0:
448,192,24008,1,0,0:0:0:0:
320,192,24087,128,0,24166:0:0:0:0:
192,192,24166,128,0,24403:0:0:0:0:
64,192,24166,128,0,24403:0:0:0:0:
448,192,24166,128,0,24403:0:0:0:0:
448,192,24482,128,0,24640:0:0:0:0:
320,192,24482,128,0,24561:0:0:0:0:
192,192,24482,1,0,0:0:0:0:
64,192,24561,128,0,24956:0:0:0:0:
192,192,24640,128,0,24877:0:0:0:0:
320,192,24719,128,0,24798:0:0:0:0:
448,192,24798,128,0,24956:0:0:0:0:
320,192,24877,128,0,24956:0:0:0:0:
192,192,24956,128,0,25035:0:0:0:0:
64,192,25035,128,0,25114:0:0:0:0:
448,192,25114,128,0,25193:0:0:0:0:
320,192,25114,128,0,25272:0:0:0:0:
192,192,25193,128,0,25272:0:0:0:0:
64,192,25272,128,0,25351:0:0:0:0:
448,192,25351,128,0,25430:0:0:0:0:
192,192,25430,128,0,25508:0:0:0:0:
320,192,25430,128,0,25508:0:0:0:0:
64,192,25430,1,0,0:0:0:0:
320,192,25587,128,0,25666:0:0:0:0:
192,192,25587,128,0,25666:0:0:0:0:
64,192,25587,1,0,0:0:0:0:
64,192,25745,128,0,25903:0:0:0:0:
448,192,25745,128,0,25824:0:0:0:0:
192,192,25824,128,0,25982:0:0:0:0:
320,192,25903,128,0,26061:0:0:0:0:
448,192,25982,128,0,26140:0:0:0:0:
64,192,26061,128,0,26298:0:0:0:0:
192,192,26140,128,0,26219:0:0:0:0:
320,192,26219,128,0,26298:0:0:0:0:
192,192,26298,128,0,26377:0:0:0:0:
64,192,26377,128,0,26456:0:0:0:0:
448,192,26377,128,0,26614:0:0:0:0:
320,192,26456,128,0,26614:0:0:0:0:
192,192,26535,128,0,26614:0:0:0:0:
64,192,26614,128,0,26693:0:0:0:0:
192,192,26693,128,0,26772:0:0:0:0:
320,192,26693,128,0,26851:0:0:0:0:
448,192,26693,128,0,26851:0:0:0:0:
64,192,26851,128,0,26930:0:0:0:0:
192,192,26930,128,0,27008:0:0:0:0:
320,192,27008,128,0,27087:0:0:0:0:
448,192,27008,128,0,27166:0:0:0:0:
64,192,27087,128,0,27482:0:0:0:0:
192,192,27166,128,0,27403:0:0:0:0:
320,192,27245,128,0,27324:0:0:0:0:
448,192,27324,128,0,27482:0:0:0:0:
320,192,27403,128,0,27482:0:0:0:0:
192,192,27482,128,0,27561:0:0:0:0:
64,192,27561,128,0,27640:0:0:0:0:
448,192,27640,128,0,27719:0:0:0:0:
320,192,27640,128,0,27798:0:0:0:0:
192,192,27719,128,0,27798:0:0:0:0:
64,192,27798,128,0,27877:0:0:0:0:
448,192,27877,128,0,27956:0:0:0:0:
64,192,27956,128,0,28114:0:0:0:0:
192,192,27956,128,0,28114:0:0:0:0:
320,192,27956,128,0,28114:0:0:0:0:
64,192,28193,128,0,28351:0:0:0:0:
192,192,28193,128,0,28351:0:0:0:0:
320,192,28193,128,0,28351:0:0:0:0:
64,192,28430,128,0,28508:0:0:0:0:
192,192,28430,128,0,28508:0:0:0:0:
320,192,28430,128,0,28508:0:0:0:0:
64,192,28587,128,0,28745:0:0:0:0:
448,192,28587,128,0,28666:0:0:0:0:
192,192,28666,128,0,28824:0:0:0:0:
320,192,28745,128,0,28903:0:0:0:0:
448,192,28824,128,0,28982:0:0:0:0:
192,192,28903,128,0,29061:0:0:0:0:
64,192,28903,128,0,28982:0:0:0:0:
320,192,28982,128,0,29140:0:0:0:0:
448,192,29061,128,0,29140:0:0:0:0:
64,192,29140,128,0,29219:0:0:0:0:
192,192,29219,1,0,0:0:0:0:
320,192,29219,128,0,29456:0:0:0:0:
448,192,29219,128,0,29456:0:0:0:0:
64,192,29377,1,0,0:0:0:0:
192,192,29456,1,0,0:0:0:0:
448,192,29535,128,0,29693:0:0:0:0:
320,192,29535,128,0,29614:0:0:0:0:
64,192,29614,128,0,30008:0:0:0:0:
192,192,29693,128,0,29930:0:0:0:0:
320,192,29772,128,0,29851:0:0:0:0:
448,192,29851,128,0,30008:0:0:0:0:
320,192,29930,128,0,30008:0:0:0:0:
192,192,30008,128,0,30087:0:0:0:0:
64,192,30087,128,0,30166:0:0:0:0:
448,192,30166,128,0,30245:0:0:0:0:
320,192,30166,128,0,30324:0:0:0:0:
192,192,30245,128,0,30324:0:0:0:0:
64,192,30324,128,0,30403:0:0:0:0:
448,192,30403,128,0,30482:0:0:0:0:
320,192,30482,1,0,0:0:0:0:
64,192,30482,128,0,30561:0:0:0:0:
192,192,30482,128,0,30561:0:0:0:0:
64,192,30640,128,0,30719:0:0:0:0:
192,192,30640,128,0,30719:0:0:0:0:
320,192,30640,1,0,0:0:0:0:
448,192,30798,128,0,30877:0:0:0:0:
64,192,30798,128,0,30956:0:0:0:0:
192,192,30877,128,0,31035:0:0:0:0:
320,192,30956,128,0,31114:0:0:0:0:
448,192,31035,128,0,31193:0:0:0:0:
64,192,31114,128,0,31351:0:0:0:0:
192,192,31193,128,0,31272:0:0:0:0:
320,192,31272,128,0,31351:0:0:0:0:
192,192,31351,128,0,31430:0:0:0:0:
64,192,31430,128,0,31508:0:0:0:0:
448,192,31430,128,0,31587:0:0:0:0:
320,192,31508,128,0,31587:0:0:0:0:
192,192,31587,128,0,31666:0:0:0:0:
64,192,31666,128,0,31745:0:0:0:0:
448,192,31745,128,0,31903:0:0:0:0:
192,192,31745,128,0,31824:0:0:0:0:
320,192,31745,128,0,31903:0:0:0:0:
64,192,31903,128,0,31982:0:0:0:0:
192,192,31982,128,0,32061:0:0:0:0:
320,192,32061,128,0,32140:0:0:0:0:
448,192,32061,128,0,32219:0:0:0:0:
64,192,32140,128,0,32535:0:0:0:0:
192,192,32219,128,0,32456:0:0:0:0:
320,192,32298,128,0,32377:0:0:0:0:
448,192,32377,128,0,32535:0:0:0:0:
320,192,32456,128,0,32535:0:0:0:0:
192,192,32535,128,0,32614:0:0:0:0:
64,192,32614,128,0,32693:0:0:0:0:
320,192,32693,128,0,32851:0:0:0:0:
448,192,32693,128,0,32772:0:0:0:0:
192,192,32772,128,0,32851:0:0:0:0:
64,192,32851,128,0,32930:0:0:0:0:
448,192,32930,128,0,33008:0:0:0:0:
64,192,33008,128,0,33087:0:0:0:0:
192,192,33008,128,0,33087:0:0:0:0:
320,192,33008,1,0,0:0:0:0:
64,192,33166,128,0,33245:0:0:0:0:
192,192,33166,128,0,33245:0:0:0:0:
320,192,33166,1,0,0:0:0:0:
448,192,33324,128,0,33482:0:0:0:0:
320,192,33324,128,0,33403:0:0:0:0:
64,192,33403,128,0,33561:0:0:0:0:
192,192,33482,128,0,33640:0:0:0:0:
320,192,33561,128,0,33719:0:0:0:0:
448,192,33640,128,0,33798:0:0:0:0:
64,192,33719,128,0,33956:0:0:0:0:
192,192,33798,128,0,34035:0:0:0:0:
320,192,33877,128,0,34114:0:0:0:0:
448,192,33956,128,0,34193:0:0:0:0:
64,192,34035,128,0,34193:0:0:0:0:
192,192,34114,128,0,34193:0:0:0:0:
320,192,34193,128,0,34272:0:0:0:0:
64,192,34272,5,0,0:0:0:0:
192,192,34272,1,0,0:0:0:0:
448,192,34272,128,0,34745:0:0:0:0:
320,192,34430,1,0,0:0:0:0:
64,192,34745,128,0,36640:0:0:0:0:
192,192,34745,1,0,0:0:0:0:
320,192,34798,1,0,0:0:0:0:
448,192,34903,1,0,0:0:0:0:
192,192,34903,1,0,0:0:0:0:
320,192,35219,1,0,0:0:0:0:
448,192,35851,1,0,0:0:0:0:
320,192,36166,1,0,0:0:0:0:
192,192,36166,1,0,0:0:0:0:
192,192,36798,128,0,38061:0:0:0:0:
64,192,36798,1,0,0:0:0:0:
448,192,36798,1,0,0:0:0:0:
320,192,36837,1,0,0:0:0:0:
64,192,37272,1,0,0:0:0:0:
320,192,37430,1,0,0:0:0:0:
448,192,37430,1,0,0:0:0:0:
64,192,37745,1,0,0:0:0:0:
320,192,38061,128,0,38693:0:0:0:0:
64,192,38061,1,0,0:0:0:0:
448,192,38114,1,0,0:0:0:0:
192,192,38693,1,0,0:0:0:0:
448,192,38693,128,0,39324:0:0:0:0:
64,192,38732,1,0,0:0:0:0:
64,192,39324,128,0,39798:0:0:0:0:
192,192,39324,1,0,0:0:0:0:
320,192,39377,1,0,0:0:0:0:
448,192,39798,128,0,41693:0:0:0:0:
320,192,39798,1,0,0:0:0:0:
192,192,39851,1,0,0:0:0:0:
64,192,39956,1,0,0:0:0:0:
320,192,39956,1,0,0:0:0:0:
320,192,40903,1,0,0:0:0:0:
64,192,41219,1,0,0:0:0:0:
192,192,41219,1,0,0:0:0:0:
192,192,41851,1,0,0:0:0:0:
448,192,41851,1,0,0:0:0:0:
320,192,41851,128,0,43114:0:0:0:0:
64,192,41890,1,0,0:0:0:0:
448,192,42324,1,0,0:0:0:0:
192,192,42482,1,0,0:0:0:0:
64,192,42482,1,0,0:0:0:0:
448,192,42798,1,0,0:0:0:0:
448,192,43114,1,0,0:0:0:0:
192,192,43114,128,0,43745:0:0:0:0:
64,192,43166,1,0,0:0:0:0:
320,192,43745,1,0,0:0:0:0:
64,192,43745,128,0,44298:0:0:0:0:
448,192,43785,1,0,0:0:0:0:
192,192,44377,1,0,0:0:0:0:
448,192,44377,128,0,44614:0:0:0:0:
64,192,44377,128,0,44614:0:0:0:0:
320,192,44456,128,0,44535:0:0:0:0:
192,192,44535,128,0,44614:0:0:0:0:
320,192,44614,128,0,44693:0:0:0:0:
448,192,44693,128,0,44851:0:0:0:0:
64,192,44693,1,0,0:0:0:0:
192,192,44772,128,0,44851:0:0:0:0:
320,192,44851,128,0,45008:0:0:0:0:
64,192,44930,128,0,45008:0:0:0:0:
448,192,45008,128,0,45087:0:0:0:0:
192,192,45008,1,0,0:0:0:0:
64,192,45087,128,0,45166:0:0:0:0:
320,192,45166,128,0,45245:0:0:0:0:
192,192,45245,128,0,45324:0:0:0:0:
448,192,45324,128,0,45403:0:0:0:0:
320,192,45324,1,0,0:0:0:0:
64,192,45403,128,0,45482:0:0:0:0:
192,192,45482,1,0,0:0:0:0:
320,192,45535,1,0,0:0:0:0:
192,192,45587,1,0,0:0:0:0:
448,192,45640,128,0,45798:0:0:0:0:
64,192,45640,1,0,0:0:0:0:
320,192,45798,1,0,0:0:0:0:
64,192,45798,128,0,46035:0:0:0:0:
192,192,45877,128,0,46035:0:0:0:0:
320,192,45956,128,0,46035:0:0:0:0:
448,192,45956,128,0,46035:0:0:0:0:
64,192,46153,128,0,46232:0:0:0:0:
192,192,46193,128,0,46272:0:0:0:0:
320,192,46232,128,0,46311:0:0:0:0:
448,192,46272,1,0,0:0:0:0:
192,192,46469,128,0,46548:0:0:0:0:
320,192,46508,128,0,46587:0:0:0:0:
448,192,46548,128,0,46627:0:0:0:0:
64,192,46587,128,0,46666:0:0:0:0:
64,192,46745,128,0,46824:0:0:0:0:
320,192,46903,1,0,0:0:0:0:
448,192,46903,128,0,46982:0:0:0:0:
192,192,46982,1,0,0:0:0:0:
64,192,47061,1,0,0:0:0:0:
320,192,47140,1,0,0:0:0:0:
64,192,47219,1,0,0:0:0:0:
192,192,47219,1,0,0:0:0:0:
448,192,47219,128,0,47456:0:0:0:0:
320,192,47377,128,0,47535:0:0:0:0:
192,192,47456,128,0,47614:0:0:0:0:
64,192,47535,1,0,0:0:0:0:
448,192,47535,128,0,47772:0:0:0:0:
320,192,47614,128,0,47693:0:0:0:0:
64,192,47693,128,0,47930:0:0:0:0:
192,192,47772,128,0,47851:0:0:0:0:
320,192,47851,128,0,47930:0:0:0:0:
192,192,47930,128,0,48166:0:0:0:0:
64,192,48008,1,0,0:0:0:0:
448,192,48008,128,0,48087:0:0:0:0:
320,192,48087,128,0,48166:0:0:0:0:
448,192,48166,128,0,48719:0:0:0:0:
64,192,48324,1,0,0:0:0:0:
320,192,48324,1,0,0:0:0:0:
192,192,48482,128,0,48640:0:0:0:0:
64,192,48561,128,0,48719:0:0:0:0:
320,192,48640,128,0,48719:0:0:0:0:
192,192,48719,128,0,48798:0:0:0:0:
448,192,48798,1,0,0:0:0:0:
64,192,48798,128,0,49351:0:0:0:0:
320,192,48798,128,0,48956:0:0:0:0:
192,192,48877,128,0,48956:0:0:0:0:
448,192,48956,128,0,49114:0:0:0:0:
320,192,49035,128,0,49114:0:0:0:0:
192,192,49114,128,0,49272:0:0:0:0:
448,192,49193,128,0,49272:0:0:0:0:
320,192,49272,128,0,49430:0:0:0:0:
192,192,49351,128,0,49430:0:0:0:0:
64,192,49430,128,0,49666:0:0:0:0:
448,192,49430,128,0,49666:0:0:0:0:
320,192,49508,128,0,49587:0:0:0:0:
192,192,49587,128,0,49666:0:0:0:0:
320,192,49666,128,0,49745:0:0:0:0:
448,192,49745,128,0,49903:0:0:0:0:
192,192,49745,1,0,0:0:0:0:
64,192,49824,128,0,49903:0:0:0:0:
320,192,49903,128,0,50061:0:0:0:0:
192,192,49982,128,0,50061:0:0:0:0:
448,192,50061,1,0,0:0:0:0:
64,192,50061,128,0,50140:0:0:0:0:
320,192,50140,128,0,50219:0:0:0:0:
448,192,50219,128,0,50298:0:0:0:0:
192,192,50298,128,0,50377:0:0:0:0:
64,192,50377,128,0,50456:0:0:0:0:
320,192,50377,1,0,0:0:0:0:
448,192,50456,128,0,50535:0:0:0:0:
192,192,50535,1,0,0:0:0:0:
320,192,50587,1,0,0:0:0:0:
192,192,50640,1,0,0:0:0:0:
448,192,50693,1,0,0:0:0:0:
64,192,50693,128,0,51008:0:0:0:0:
320,192,50851,1,0,0:0:0:0:
448,192,50851,128,0,51008:0:0:0:0:
192,192,51008,128,0,51087:0:0:0:0:
320,192,51048,128,0,51127:0:0:0:0:
192,192,51166,128,0,51245:0:0:0:0:
320,192,51206,128,0,51285:0:0:0:0:
64,192,51324,1,0,0:0:0:0:
448,192,51324,128,0,51482:0:0:0:0:
320,192,51403,128,0,51482:0:0:0:0:
64,192,51482,128,0,51640:0:0:0:0:
192,192,51561,128,0,51640:0:0:0:0:
448,192,51640,128,0,51719:0:0:0:0:
448,192,51798,128,0,51877:0:0:0:0:
320,192,51956,1,0,0:0:0:0:
64,192,51956,128,0,52508:0:0:0:0:
192,192,51956,128,0,52035:0:0:0:0:
448,192,52035,128,0,52114:0:0:0:0:
320,192,52114,128,0,52193:0:0:0:0:
192,192,52193,128,0,52272:0:0:0:0:
448,192,52272,128,0,52508:0:0:0:0:
320,192,52430,128,0,52508:0:0:0:0:
448,192,52587,128,0,52903:0:0:0:0:
192,192,52587,1,0,0:0:0:0:
64,192,52587,128,0,52824:0:0:0:0:
320,192,52666,128,0,52745:0:0:0:0:
192,192,52745,128,0,52824:0:0:0:0:
320,192,52824,128,0,52903:0:0:0:0:
64,192,52903,128,0,53219:0:0:0:0:
192,192,52982,128,0,53061:0:0:0:0:
448,192,53061,1,0,0:0:0:0:
320,192,53061,128,0,53140:0:0:0:0:
192,192,53140,128,0,53219:0:0:0:0:
448,192,53219,128,0,53298:0:0:0:0:
320,192,53298,128,0,53535:0:0:0:0:
64,192,53377,1,0,0:0:0:0:
192,192,53377,128,0,53456:0:0:0:0:
448,192,53456,128,0,53535:0:0:0:0:
64,192,53535,128,0,53614:0:0:0:0:
320,192,53614,128,0,53693:0:0:0:0:
64,192,53693,128,0,53772:0:0:0:0:
320,192,53772,128,0,53851:0:0:0:0:
192,192,53851,128,0,53930:0:0:0:0:
448,192,53851,1,0,0:0:0:0:
320,192,53930,128,0,54008:0:0:0:0:
192,192,54008,128,0,54087:0:0:0:0:
320,192,54087,128,0,54166:0:0:0:0:
192,192,54166,128,0,54245:0:0:0:0:
448,192,54245,128,0,54324:0:0:0:0:
192,192,54324,128,0,54403:0:0:0:0:
448,192,54403,128,0,54482:0:0:0:0:
64,192,54482,1,0,0:0:0:0:
192,192,54482,1,0,0:0:0:0:
320,192,54482,1,0,0:0:0:0:
448,192,54561,1,0,0:0:0:0:
64,192,54640,1,0,0:0:0:0:
192,192,54719,1,0,0:0:0:0:
448,192,54903,1,0,0:0:0:0:
64,192,54956,1,0,0:0:0:0:
192,192,55008,1,0,0:0:0:0:
320,192,55061,1,0,0:0:0:0:
448,192,55114,128,0,55666:0:0:0:0:
64,192,55114,128,0,55351:0:0:0:0:
64,192,55430,128,0,55666:0:0:0:0:
192,192,55430,128,0,55508:0:0:0:0:
320,192,55430,128,0,55587:0:0:0:0:
192,192,55587,1,0,0:0:0:0:
320,192,55666,1,0,0:0:0:0:
64,192,55745,1,0,0:0:0:0:
192,192,55745,1,0,0:0:0:0:
448,192,55745,128,0,56061:0:0:0:0:
64,192,55903,1,0,0:0:0:0:
192,192,56061,128,0,56140:0:0:0:0:
320,192,56061,1,0,0:0:0:0:
64,192,56140,128,0,56219:0:0:0:0:
320,192,56219,128,0,56298:0:0:0:0:
448,192,56298,128,0,56377:0:0:0:0:
64,192,56377,1,0,0:0:0:0:
320,192,56456,128,0,56535:0:0:0:0:
192,192,56535,128,0,56614:0:0:0:0:
448,192,56535,1,0,0:0:0:0:
64,192,56614,128,0,56693:0:0:0:0:
320,192,56693,1,0,0:0:0:0:
448,192,56693,128,0,56772:0:0:0:0:
192,192,56772,128,0,56851:0:0:0:0:
320,192,56851,128,0,56930:0:0:0:0:
64,192,56930,128,0,57008:0:0:0:0:
192,192,57008,1,0,0:0:0:0:
448,192,57008,128,0,57087:0:0:0:0:
320,192,57087,128,0,57166:0:0:0:0:
64,192,57166,1,0,0:0:0:0:
192,192,57166,128,0,57245:0:0:0:0:
448,192,57245,128,0,57324:0:0:0:0:
320,192,57324,128,0,57403:0:0:0:0:
192,192,57377,128,0,57456:0:0:0:0:
64,192,57430,128,0,57508:0:0:0:0:
448,192,57482,128,0,57561:0:0:0:0:
320,192,57535,128,0,57614:0:0:0:0:
192,192,57587,128,0,57666:0:0:0:0:
64,192,57640,128,0,58193:0:0:0:0:
448,192,57798,1,0,0:0:0:0:
448,192,57956,1,0,0:0:0:0:
320,192,57956,1,0,0:0:0:0:
192,192,58035,1,0,0:0:0:0:
320,192,58114,1,0,0:0:0:0:
448,192,58193,1,0,0:0:0:0:
64,192,58272,1,0,0:0:0:0:
192,192,58272,1,0,0:0:0:0:
320,192,58324,1,0,0:0:0:0:
64,192,58377,1,0,0:0:0:0:
448,192,58430,1,0,0:0:0:0:
320,192,58482,1,0,0:0:0:0:
192,192,58535,1,0,0:0:0:0:
448,192,58587,1,0,0:0:0:0:
64,192,58640,1,0,0:0:0:0:
192,192,58693,1,0,0:0:0:0:
448,192,58745,1,0,0:0:0:0:
320,192,58798,1,0,0:0:0:0:
64,192,58851,1,0,0:0:0:0:
192,192,58903,1,0,0:0:0:0:
320,192,58956,1,0,0:0:0:0:
448,192,59008,1,0,0:0:0:0:
192,192,59061,1,0,0:0:0:0:
64,192,59114,1,0,0:0:0:0:
448,192,59166,1,0,0:0:0:0:
320,192,59219,1,0,0:0:0:0:
192,192,59219,1,0,0:0:0:0:
64,192,59298,1,0,0:0:0:0:
448,192,59377,1,0,0:0:0:0:
320,192,59430,1,0,0:0:0:0:
192,192,59482,1,0,0:0:0:0:
64,192,59535,1,0,0:0:0:0:
448,192,59535,1,0,0:0:0:0:
320,192,59614,1,0,0:0:0:0:
192,192,59693,1,0,0:0:0:0:
64,192,59693,1,0,0:0:0:0:
448,192,59772,1,0,0:0:0:0:
320,192,59851,1,0,0:0:0:0:
192,192,59851,1,0,0:0:0:0:
64,192,59930,1,0,0:0:0:0:
448,192,60008,1,0,0:0:0:0:
320,192,60061,1,0,0:0:0:0:
192,192,60114,1,0,0:0:0:0:
448,192,60166,1,0,0:0:0:0:
320,192,60219,1,0,0:0:0:0:
64,192,60272,128,0,60351:0:0:0:0:
192,192,60324,128,0,60403:0:0:0:0:
320,192,60377,128,0,60456:0:0:0:0:
448,192,60430,128,0,60508:0:0:0:0:
64,192,60482,128,0,60561:0:0:0:0:
192,192,60535,128,0,60614:0:0:0:0:
320,192,60587,128,0,60666:0:0:0:0:
64,192,60640,128,0,60719:0:0:0:0:
192,192,60693,128,0,60772:0:0:0:0:
320,192,60745,128,0,60824:0:0:0:0:
64,192,60798,1,0,0:0:0:0:
448,192,60798,128,0,61193:0:0:0:0:
192,192,60956,1,0,0:0:0:0:
320,192,61114,128,0,61193:0:0:0:0:
64,192,61114,1,0,0:0:0:0:
192,192,61272,1,0,0:0:0:0:
320,192,61272,128,0,61351:0:0:0:0:
448,192,61430,128,0,61508:0:0:0:0:
64,192,61482,128,0,61561:0:0:0:0:
448,192,61587,128,0,61666:0:0:0:0:
320,192,61587,1,0,0:0:0:0:
64,192,61640,128,0,61719:0:0:0:0:
448,192,61745,1,0,0:0:0:0:
320,192,61745,128,0,61824:0:0:0:0:
192,192,61824,128,0,61903:0:0:0:0:
64,192,61903,1,0,0:0:0:0:
320,192,61956,1,0,0:0:0:0:
448,192,62008,1,0,0:0:0:0:
192,192,62061,1,0,0:0:0:0:
64,192,62061,128,0,62377:0:0:0:0:
192,192,62219,1,0,0:0:0:0:
448,192,62377,128,0,62456:0:0:0:0:
320,192,62377,1,0,0:0:0:0:
448,192,62535,128,0,62851:0:0:0:0:
192,192,62693,1,0,0:0:0:0:
320,192,62851,128,0,62930:0:0:0:0:
64,192,62851,1,0,0:0:0:0:
192,192,62930,128,0,63008:0:0:0:0:
448,192,63008,1,0,0:0:0:0:
320,192,63008,128,0,63087:0:0:0:0:
64,192,63087,128,0,63166:0:0:0:0:
192,192,63166,128,0,63245:0:0:0:0:
320,192,63245,128,0,63324:0:0:0:0:
448,192,63324,1,0,0:0:0:0:
64,192,63324,128,0,63535:0:0:0:0:
192,192,63430,128,0,63640:0:0:0:0:
320,192,63535,128,0,63640:0:0:0:0:
64,192,63640,1,0,0:0:0:0:
448,192,63640,128,0,63851:0:0:0:0:
320,192,63745,128,0,63956:0:0:0:0:
192,192,63851,128,0,63956:0:0:0:0:
64,192,63956,128,0,64166:0:0:0:0:
448,192,63956,1,0,0:0:0:0:
192,192,64061,128,0,64272:0:0:0:0:
320,192,64166,128,0,64272:0:0:0:0:
448,192,64272,128,0,64430:0:0:0:0:
64,192,64272,1,0,0:0:0:0:
192,192,64351,128,0,64508:0:0:0:0:
320,192,64430,128,0,64587:0:0:0:0:
448,192,64508,128,0,64587:0:0:0:0:
64,192,64587,128,0,64930:0:0:0:0:
192,192,64587,128,0,64745:0:0:0:0:
320,192,64745,1,0,0:0:0:0:
448,192,64745,1,0,0:0:0:0:
192,192,64903,128,0,64982:0:0:0:0:
320,192,64956,128,0,65035:0:0:0:0:
448,192,65008,128,0,65087:0:0:0:0:
64,192,65061,128,0,65140:0:0:0:0:
192,192,65114,128,0,65193:0:0:0:0:
320,192,65166,128,0,65245:0:0:0:0:
64,192,65219,128,0,65298:0:0:0:0:
192,192,65272,128,0,65351:0:0:0:0:
448,192,65324,128,0,65403:0:0:0:0:
64,192,65377,128,0,65456:0:0:0:0:
320,192,65430,128,0,65508:0:0:0:0:
448,192,65482,128,0,65561:0:0:0:0:
192,192,65535,128,0,65614:0:0:0:0:
320,192,65587,128,0,65666:0:0:0:0:
448,192,65640,128,0,65719:0:0:0:0:
64,192,65693,128,0,65772:0:0:0:0:
192,192,65745,128,0,65824:0:0:0:0:
320,192,65798,128,0,65877:0:0:0:0:
64,192,65851,1,0,0:0:0:0:
448,192,65851,128,0,66324:0:0:0:0:
192,192,66008,1,0,0:0:0:0:
64,192,66166,1,0,0:0:0:0:
320,192,66166,1,0,0:0:0:0:
192,192,66324,128,0,66403:0:0:0:0:
64,192,66403,128,0,66482:0:0:0:0:
448,192,66482,1,0,0:0:0:0:
320,192,66482,128,0,66561:0:0:0:0:
192,192,66561,128,0,66640:0:0:0:0:
448,192,66640,1,0,0:0:0:0:
320,192,66640,128,0,66719:0:0:0:0:
192,192,66719,128,0,66798:0:0:0:0:
320,192,66798,128,0,66877:0:0:0:0:
64,192,66798,1,0,0:0:0:0:
192,192,66877,128,0,66956:0:0:0:0:
448,192,66956,128,0,67035:0:0:0:0:
320,192,67035,128,0,67114:0:0:0:0:
64,192,67114,128,0,67272:0:0:0:0:
192,192,67193,128,0,67351:0:0:0:0:
320,192,67272,128,0,67430:0:0:0:0:
448,192,67351,128,0,67430:0:0:0:0:
192,192,67430,128,0,67587:0:0:0:0:
64,192,67430,1,0,0:0:0:0:
320,192,67508,128,0,67587:0:0:0:0:
448,192,67587,128,0,67745:0:0:0:0:
64,192,67587,1,0,0:0:0:0:
320,192,67666,128,0,67824:0:0:0:0:
192,192,67745,128,0,67903:0:0:0:0:
64,192,67824,128,0,67903:0:0:0:0:
320,192,67903,128,0,68061:0:0:0:0:
448,192,67903,1,0,0:0:0:0:
192,192,67982,128,0,68061:0:0:0:0:
448,192,68061,128,0,68219:0:0:0:0:
64,192,68061,1,0,0:0:0:0:
320,192,68140,128,0,68298:0:0:0:0:
192,192,68219,128,0,68377:0:0:0:0:
64,192,68298,128,0,68377:0:0:0:0:
448,192,68377,128,0,68535:0:0:0:0:
320,192,68377,1,0,0:0:0:0:
64,192,68535,128,0,68614:0:0:0:0:
192,192,68535,1,0,0:0:0:0:
448,192,68614,128,0,68693:0:0:0:0:
192,192,68693,1,0,0:0:0:0:
320,192,68693,1,0,0:0:0:0:
64,192,68745,1,0,0:0:0:0:
448,192,68798,1,0,0:0:0:0:
192,192,68851,1,0,0:0:0:0:
320,192,68903,1,0,0:0:0:0:
448,192,68956,1,0,0:0:0:0:
64,192,69008,1,0,0:0:0:0:
192,192,69061,1,0,0:0:0:0:
320,192,69114,1,0,0:0:0:0:
64,192,69166,1,0,0:0:0:0:
192,192,69219,1,0,0:0:0:0:
448,192,69272,1,0,0:0:0:0:
64,192,69324,1,0,0:0:0:0:
320,192,69377,1,0,0:0:0:0:
448,192,69430,1,0,0:0:0:0:
192,192,69482,1,0,0:0:0:0:
320,192,69535,1,0,0:0:0:0:
448,192,69587,1,0,0:0:0:0:
64,192,69640,128,0,69798:0:0:0:0:
192,192,69640,128,0,70035:0:0:0:0:
64,192,69877,128,0,70035:0:0:0:0:
448,192,69877,128,0,70035:0:0:0:0:
320,192,69877,128,0,70351:0:0:0:0:
192,192,70114,128,0,70351:0:0:0:0:
64,192,70114,128,0,70351:0:0:0:0:
448,192,70114,128,0,70351:0:0:0:0:
448,192,70430,128,0,70666:0:0:0:0:
320,192,70430,128,0,70666:0:0:0:0:
192,192,70587,128,0,70824:0:0:0:0:
64,192,70587,128,0,70824:0:0:0:0:
448,192,70745,128,0,70824:0:0:0:0:
320,192,70745,128,0,70824:0:0:0:0:
64,192,70903,1,0,0:0:0:0:
192,192,70903,1,0,0:0:0:0:
448,192,70903,128,0,71298:0:0:0:0:
320,192,71061,1,0,0:0:0:0:
192,192,71219,1,0,0:0:0:0:
64,192,71219,128,0,71535:0:0:0:0:
448,192,71377,128,0,71693:0:0:0:0:
320,192,71535,1,0,0:0:0:0:
64,192,71693,1,0,0:0:0:0:
192,192,71693,128,0,71930:0:0:0:0:
320,192,71851,128,0,72087:0:0:0:0:
448,192,71851,1,0,0:0:0:0:
192,192,72008,1,0,0:0:0:0:
64,192,72008,128,0,72245:0:0:0:0:
448,192,72166,128,0,72403:0:0:0:0:
320,192,72166,1,0,0:0:0:0:
320,192,72324,1,0,0:0:0:0:
64,192,72324,128,0,72561:0:0:0:0:
192,192,72482,1,0,0:0:0:0:
448,192,72482,128,0,72719:0:0:0:0:
320,192,72640,128,0,72877:0:0:0:0:
192,192,72640,128,0,72877:0:0:0:0:
64,192,72798,1,0,0:0:0:0:
448,192,72877,1,0,0:0:0:0:
320,192,72956,1,0,0:0:0:0:
192,192,72956,1,0,0:0:0:0:
64,192,73035,128,0,73114:0:0:0:0:
448,192,73114,128,0,73272:0:0:0:0:
192,192,73114,1,0,0:0:0:0:
320,192,73272,1,0,0:0:0:0:
192,192,73324,1,0,0:0:0:0:
64,192,73377,1,0,0:0:0:0:
448,192,73430,1,0,0:0:0:0:
320,192,73430,128,0,73508:0:0:0:0:
192,192,73508,128,0,73587:0:0:0:0:
448,192,73587,128,0,73666:0:0:0:0:
320,192,73666,128,0,73745:0:0:0:0:
192,192,73745,128,0,73824:0:0:0:0:
64,192,73745,1,0,0:0:0:0:
448,192,73824,128,0,73903:0:0:0:0:
320,192,73903,128,0,73982:0:0:0:0:
192,192,73982,128,0,74061:0:0:0:0:
64,192,74061,1,0,0:0:0:0:
320,192,74114,1,0,0:0:0:0:
192,192,74166,1,0,0:0:0:0:
448,192,74219,1,0,0:0:0:0:
320,192,74272,1,0,0:0:0:0:
64,192,74324,1,0,0:0:0:0:
192,192,74377,1,0,0:0:0:0:
320,192,74430,1,0,0:0:0:0:
448,192,74482,1,0,0:0:0:0:
64,192,74535,1,0,0:0:0:0:
192,192,74587,1,0,0:0:0:0:
320,192,74640,1,0,0:0:0:0:
448,192,74693,1,0,0:0:0:0:
64,192,74693,128,0,75008:0:0:0:0:
192,192,74772,1,0,0:0:0:0:
448,192,74851,1,0,0:0:0:0:
320,192,74930,1,0,0:0:0:0:
192,192,75008,1,0,0:0:0:0:
64,192,75166,1,0,0:0:0:0:
448,192,75166,128,0,75482:0:0:0:0:
192,192,75245,1,0,0:0:0:0:
64,192,75324,1,0,0:0:0:0:
320,192,75403,1,0,0:0:0:0:
192,192,75482,1,0,0:0:0:0:
64,192,75640,128,0,75877:0:0:0:0:
448,192,75640,1,0,0:0:0:0:
192,192,75719,1,0,0:0:0:0:
448,192,75798,1,0,0:0:0:0:
320,192,75877,1,0,0:0:0:0:
64,192,75956,128,0,76193:0:0:0:0:
192,192,75956,128,0,76193:0:0:0:0:
448,192,75956,128,0,76193:0:0:0:0:
320,192,76272,128,0,77219:0:0:0:0:
64,192,76272,128,0,77114:0:0:0:0:
192,192,76272,128,0,77166:0:0:0:0:
448,192,76272,128,0,77272:0:0:0:0:
64,192,77219,1,0,0:0:0:0:
192,192,77272,1,0,0:0:0:0:
320,192,77324,1,0,0:0:0:0:
448,192,77377,1,0,0:0:0:0:
64,192,77430,1,0,0:0:0:0:
192,192,77482,1,0,0:0:0:0:
320,192,77535,1,0,0:0:0:0:
448,192,77587,1,0,0:0:0:0:
64,192,77640,1,0,0:0:0:0:
192,192,77693,1,0,0:0:0:0:
320,192,77745,1,0,0:0:0:0:
448,192,77798,1,0,0:0:0:0:
192,192,77851,1,0,0:0:0:0:
64,192,77903,1,0,0:0:0:0:
448,192,77956,1,0,0:0:0:0:
320,192,78008,1,0,0:0:0:0:
192,192,78061,1,0,0:0:0:0:
64,192,78114,1,0,0:0:0:0:
448,192,78166,1,0,0:0:0:0:
320,192,78219,1,0,0:0:0:0:
192,192,78272,1,0,0:0:0:0:
64,192,78324,1,0,0:0:0:0:
448,192,78377,1,0,0:0:0:0:
320,192,78430,1,0,0:0:0:0:
192,192,78482,1,0,0:0:0:0:
64,192,78482,128,0,78719:0:0:0:0:
448,192,78640,1,0,0:0:0:0:
192,192,78798,1,0,0:0:0:0:
64,192,78798,128,0,79666:0:0:0:0:
320,192,78798,1,0,0:0:0:0:
448,192,78956,1,0,0:0:0:0:
320,192,79114,1,0,0:0:0:0:
192,192,79193,1,0,0:0:0:0:
320,192,79272,1,0,0:0:0:0:
448,192,79272,1,0,0:0:0:0:
192,192,79351,1,0,0:0:0:0:
448,192,79430,1,0,0:0:0:0:
320,192,79430,1,0,0:0:0:0:
192,192,79587,1,0,0:0:0:0:
64,192,79745,1,0,0:0:0:0:
448,192,79745,128,0,79982:0:0:0:0:
192,192,79903,1,0,0:0:0:0:
64,192,79903,1,0,0:0:0:0:
192,192,80061,1,0,0:0:0:0:
320,192,80061,1,0,0:0:0:0:
448,192,80061,128,0,80930:0:0:0:0:
64,192,80219,1,0,0:0:0:0:
320,192,80298,1,0,0:0:0:0:
192,192,80377,1,0,0:0:0:0:
320,192,80456,1,0,0:0:0:0:
192,192,80535,1,0,0:0:0:0:
64,192,80535,1,0,0:0:0:0:
320,192,80693,1,0,0:0:0:0:
64,192,80693,1,0,0:0:0:0:
192,192,80772,1,0,0:0:0:0:
64,192,80851,1,0,0:0:0:0:
448,192,81008,1,0,0:0:0:0:
320,192,81008,1,0,0:0:0:0:
192,192,81008,128,0,81245:0:0:0:0:
64,192,81166,1,0,0:0:0:0:
192,192,81324,128,0,82193:0:0:0:0:
320,192,81324,1,0,0:0:0:0:
448,192,81324,1,0,0:0:0:0:
64,192,81482,1,0,0:0:0:0:
448,192,81640,1,0,0:0:0:0:
64,192,81719,1,0,0:0:0:0:
320,192,81798,1,0,0:0:0:0:
448,192,81798,1,0,0:0:0:0:
64,192,81877,1,0,0:0:0:0:
320,192,81956,1,0,0:0:0:0:
448,192,81956,1,0,0:0:0:0:
64,192,82114,1,0,0:0:0:0:
320,192,82272,128,0,83456:0:0:0:0:
192,192,82272,1,0,0:0:0:0:
64,192,82430,1,0,0:0:0:0:
192,192,82430,1,0,0:0:0:0:
448,192,82587,1,0,0:0:0:0:
64,192,82587,1,0,0:0:0:0:
192,192,82745,1,0,0:0:0:0:
448,192,82824,1,0,0:0:0:0:
64,192,82903,1,0,0:0:0:0:
448,192,82982,1,0,0:0:0:0:
64,192,83061,1,0,0:0:0:0:
192,192,83061,1,0,0:0:0:0:
448,192,83219,1,0,0:0:0:0:
192,192,83219,1,0,0:0:0:0:
64,192,83298,1,0,0:0:0:0:
192,192,83377,1,0,0:0:0:0:
64,192,83535,128,0,83772:0:0:0:0:
320,192,83535,1,0,0:0:0:0:
448,192,83535,1,0,0:0:0:0:
192,192,83693,1,0,0:0:0:0:
64,192,83851,128,0,84719:0:0:0:0:
320,192,83851,1,0,0:0:0:0:
448,192,83851,1,0,0:0:0:0:
192,192,84008,1,0,0:0:0:0:
320,192,84166,1,0,0:0:0:0:
192,192,84245,1,0,0:0:0:0:
448,192,84324,1,0,0:0:0:0:
320,192,84324,1,0,0:0:0:0:
192,192,84403,1,0,0:0:0:0:
448,192,84482,1,0,0:0:0:0:
320,192,84482,1,0,0:0:0:0:
192,192,84640,1,0,0:0:0:0:
448,192,84798,128,0,85035:0:0:0:0:
320,192,84798,1,0,0:0:0:0:
320,192,84956,1,0,0:0:0:0:
192,192,84956,1,0,0:0:0:0:
448,192,85114,128,0,85982:0:0:0:0:
64,192,85272,1,0,0:0:0:0:
192,192,85272,1,0,0:0:0:0:
192,192,85430,1,0,0:0:0:0:
192,192,85587,1,0,0:0:0:0:
64,192,85587,1,0,0:0:0:0:
64,192,85745,1,0,0:0:0:0:
64,192,85903,1,0,0:0:0:0:
192,192,85903,1,0,0:0:0:0:
64,192,86061,128,0,86456:0:0:0:0:
320,192,86061,128,0,86298:0:0:0:0:
448,192,86061,128,0,86298:0:0:0:0:
192,192,86298,1,0,0:0:0:0:
448,192,86377,128,0,86456:0:0:0:0:
320,192,86377,128,0,86456:0:0:0:0:
448,192,86535,128,0,86693:0:0:0:0:
64,192,86614,1,0,0:0:0:0:
320,192,86693,128,0,86772:0:0:0:0:
192,192,86693,1,0,0:0:0:0:
448,192,86772,128,0,86851:0:0:0:0:
320,192,86851,128,0,86930:0:0:0:0:
192,192,86851,1,0,0:0:0:0:
64,192,86930,128,0,87008:0:0:0:0:
448,192,87008,128,0,87087:0:0:0:0:
320,192,87008,1,0,0:0:0:0:
192,192,87087,128,0,87166:0:0:0:0:
64,192,87166,128,0,87245:0:0:0:0:
320,192,87245,128,0,87324:0:0:0:0:
192,192,87324,1,0,0:0:0:0:
448,192,87324,128,0,87719:0:0:0:0:
192,192,87482,1,0,0:0:0:0:
320,192,87561,1,0,0:0:0:0:
64,192,87640,128,0,87719:0:0:0:0:
192,192,87640,128,0,87719:0:0:0:0:
64,192,87798,128,0,87956:0:0:0:0:
320,192,87798,1,0,0:0:0:0:
448,192,87877,1,0,0:0:0:0:
192,192,87956,128,0,88035:0:0:0:0:
320,192,87956,1,0,0:0:0:0:
64,192,88035,128,0,88114:0:0:0:0:
192,192,88114,128,0,88193:0:0:0:0:
320,192,88114,1,0,0:0:0:0:
448,192,88193,128,0,88272:0:0:0:0:
64,192,88272,128,0,88351:0:0:0:0:
192,192,88272,1,0,0:0:0:0:
320,192,88351,128,0,88430:0:0:0:0:
448,192,88430,128,0,88508:0:0:0:0:
192,192,88508,128,0,88587:0:0:0:0:
320,192,88587,128,0,88745:0:0:0:0:
64,192,88587,1,0,0:0:0:0:
448,192,88587,128,0,88745:0:0:0:0:
192,192,88745,1,0,0:0:0:0:
448,192,88824,128,0,88982:0:0:0:0:
320,192,88824,128,0,88982:0:0:0:0:
64,192,88903,1,0,0:0:0:0:
192,192,88903,1,0,0:0:0:0:
448,192,89061,128,0,89140:0:0:0:0:
192,192,89140,128,0,89219:0:0:0:0:
320,192,89219,128,0,89298:0:0:0:0:
64,192,89219,1,0,0:0:0:0:
448,192,89298,128,0,89377:0:0:0:0:
320,192,89377,128,0,89456:0:0:0:0:
64,192,89377,1,0,0:0:0:0:
192,192,89456,128,0,89535:0:0:0:0:
64,192,89535,128,0,89614:0:0:0:0:
448,192,89535,1,0,0:0:0:0:
192,192,89614,128,0,89693:0:0:0:0:
320,192,89693,128,0,89772:0:0:0:0:
448,192,89772,128,0,89851:0:0:0:0:
64,192,89851,128,0,90008:0:0:0:0:
320,192,89851,1,0,0:0:0:0:
192,192,89851,128,0,90008:0:0:0:0:
192,192,90087,128,0,90245:0:0:0:0:
448,192,90087,1,0,0:0:0:0:
320,192,90087,128,0,90245:0:0:0:0:
320,192,90324,128,0,90482:0:0:0:0:
448,192,90324,128,0,90482:0:0:0:0:
64,192,90324,1,0,0:0:0:0:
192,192,90403,1,0,0:0:0:0:
64,192,90482,128,0,90561:0:0:0:0:
448,192,90561,128,0,90640:0:0:0:0:
192,192,90640,128,0,90719:0:0:0:0:
320,192,90640,1,0,0:0:0:0:
64,192,90719,128,0,90798:0:0:0:0:
320,192,90798,128,0,90877:0:0:0:0:
448,192,90798,1,0,0:0:0:0:
192,192,90877,128,0,90956:0:0:0:0:
64,192,90956,128,0,91035:0:0:0:0:
448,192,91035,128,0,91114:0:0:0:0:
64,192,91114,1,0,0:0:0:0:
320,192,91114,128,0,91351:0:0:0:0:
192,192,91114,128,0,91351:0:0:0:0:
448,192,91351,1,0,0:0:0:0:
64,192,91430,1,0,0:0:0:0:
192,192,91430,128,0,91508:0:0:0:0:
320,192,91430,128,0,91508:0:0:0:0:
448,192,91587,128,0,91745:0:0:0:0:
192,192,91587,1,0,0:0:0:0:
64,192,91666,1,0,0:0:0:0:
320,192,91745,128,0,91824:0:0:0:0:
448,192,91824,128,0,91903:0:0:0:0:
320,192,91903,128,0,91982:0:0:0:0:
64,192,91903,1,0,0:0:0:0:
192,192,91982,128,0,92061:0:0:0:0:
448,192,92061,128,0,92140:0:0:0:0:
64,192,92061,1,0,0:0:0:0:
320,192,92140,128,0,92219:0:0:0:0:
192,192,92219,128,0,92298:0:0:0:0:
448,192,92298,128,0,92377:0:0:0:0:
320,192,92377,1,0,0:0:0:0:
64,192,92377,128,0,92535:0:0:0:0:
320,192,92535,1,0,0:0:0:0:
64,192,92614,128,0,92851:0:0:0:0:
448,192,92693,1,0,0:0:0:0:
320,192,92693,1,0,0:0:0:0:
192,192,92851,1,0,0:0:0:0:
64,192,92930,128,0,93008:0:0:0:0:
448,192,93008,128,0,93087:0:0:0:0:
64,192,93087,128,0,93166:0:0:0:0:
192,192,93166,128,0,93245:0:0:0:0:
320,192,93166,1,0,0:0:0:0:
448,192,93245,128,0,93324:0:0:0:0:
64,192,93324,128,0,93403:0:0:0:0:
320,192,93324,1,0,0:0:0:0:
192,192,93403,128,0,93482:0:0:0:0:
448,192,93482,128,0,93561:0:0:0:0:
320,192,93561,128,0,93640:0:0:0:0:
448,192,93640,128,0,93877:0:0:0:0:
64,192,93640,128,0,94035:0:0:0:0:
192,192,93640,128,0,93877:0:0:0:0:
320,192,93877,1,0,0:0:0:0:
448,192,93956,128,0,94035:0:0:0:0:
192,192,93956,128,0,94035:0:0:0:0:
448,192,94114,128,0,94272:0:0:0:0:
64,192,94193,1,0,0:0:0:0:
320,192,94272,128,0,94351:0:0:0:0:
192,192,94272,1,0,0:0:0:0:
448,192,94351,128,0,94430:0:0:0:0:
320,192,94430,128,0,94508:0:0:0:0:
64,192,94430,1,0,0:0:0:0:
192,192,94508,128,0,94587:0:0:0:0:
64,192,94587,128,0,94666:0:0:0:0:
448,192,94587,1,0,0:0:0:0:
192,192,94666,128,0,94745:0:0:0:0:
320,192,94745,128,0,94824:0:0:0:0:
64,192,94745,1,0,0:0:0:0:
448,192,94824,128,0,94903:0:0:0:0:
192,192,94903,1,0,0:0:0:0:
320,192,94903,1,0,0:0:0:0:
64,192,94982,1,0,0:0:0:0:
448,192,95140,1,0,0:0:0:0:
320,192,95140,1,0,0:0:0:0:
64,192,95219,1,0,0:0:0:0:
192,192,95298,1,0,0:0:0:0:
448,192,95377,1,0,0:0:0:0:
320,192,95456,1,0,0:0:0:0:
64,192,95535,128,0,95693:0:0:0:0:
192,192,95614,128,0,95772:0:0:0:0:
320,192,95693,128,0,95851:0:0:0:0:
448,192,95772,128,0,95930:0:0:0:0:
64,192,95851,128,0,96087:0:0:0:0:
192,192,95930,128,0,96087:0:0:0:0:
320,192,96008,128,0,96166:0:0:0:0:
448,192,96087,128,0,96166:0:0:0:0:
192,192,96166,1,0,0:0:0:0:
64,192,96166,1,0,0:0:0:0:
64,192,96482,1,0,0:0:0:0:
448,192,96798,128,0,96877:0:0:0:0:
320,192,97430,5,0,0:0:0:0:
448,192,97430,1,0,0:0:0:0:
192,192,97508,1,0,0:0:0:0:
64,192,97587,1,0,0:0:0:0:
448,192,97587,1,0,0:0:0:0:
64,192,97745,1,0,0:0:0:0:
192,192,97745,1,0,0:0:0:0:
320,192,97903,1,0,0:0:0:0:
448,192,97903,1,0,0:0:0:0:
192,192,97982,1,0,0:0:0:0:
64,192,97982,1,0,0:0:0:0:
448,192,98061,128,0,98140:0:0:0:0:
320,192,98061,1,0,0:0:0:0:
64,192,98377,128,0,98614:0:0:0:0:
448,192,98377,128,0,98614:0:0:0:0:
320,192,98377,128,0,98614:0:0:0:0:
64,192,98693,5,0,0:0:0:0:
192,192,98693,1,0,0:0:0:0:
448,192,98693,128,0,98930:0:0:0:0:
320,192,98851,128,0,98930:0:0:0:0:
64,192,98930,128,0,99166:0:0:0:0:
448,192,99008,1,0,0:0:0:0:
320,192,99008,1,0,0:0:0:0:
192,192,99087,128,0,99166:0:0:0:0:
448,192,99166,128,0,99403:0:0:0:0:
192,192,99324,1,0,0:0:0:0:
320,192,99324,128,0,99403:0:0:0:0:
64,192,99403,128,0,99640:0:0:0:0:
448,192,99482,1,0,0:0:0:0:
192,192,99561,128,0,99640:0:0:0:0:
448,192,99640,128,0,99877:0:0:0:0:
320,192,99640,1,0,0:0:0:0:
64,192,99719,128,0,99877:0:0:0:0:
320,192,99798,128,0,99877:0:0:0:0:
192,192,99798,128,0,99877:0:0:0:0:
448,192,99956,5,0,0:0:0:0:
64,192,99956,128,0,100193:0:0:0:0:
320,192,99956,1,0,0:0:0:0:
192,192,100114,128,0,100193:0:0:0:0:
448,192,100193,128,0,100430:0:0:0:0:
64,192,100272,1,0,0:0:0:0:
192,192,100272,1,0,0:0:0:0:
320,192,100351,128,0,100430:0:0:0:0:
64,192,100430,128,0,100666:0:0:0:0:
320,192,100587,1,0,0:0:0:0:
192,192,100587,128,0,100666:0:0:0:0:
448,192,100666,128,0,100903:0:0:0:0:
64,192,100745,1,0,0:0:0:0:
320,192,100824,128,0,100903:0:0:0:0:
64,192,100903,128,0,101140:0:0:0:0:
192,192,100903,1,0,0:0:0:0:
448,192,100982,128,0,101140:0:0:0:0:
320,192,101061,128,0,101140:0:0:0:0:
192,192,101061,128,0,101140:0:0:0:0:
64,192,101219,5,0,0:0:0:0:
448,192,101219,128,0,101456:0:0:0:0:
192,192,101219,1,0,0:0:0:0:
320,192,101377,128,0,101456:0:0:0:0:
64,192,101456,128,0,101693:0:0:0:0:
320,192,101535,1,0,0:0:0:0:
448,192,101535,1,0,0:0:0:0:
192,192,101614,128,0,101693:0:0:0:0:
448,192,101693,128,0,101930:0:0:0:0:
320,192,101851,128,0,101930:0:0:0:0:
192,192,101851,1,0,0:0:0:0:
64,192,101930,128,0,102166:0:0:0:0:
448,192,102008,1,0,0:0:0:0:
192,192,102087,128,0,102166:0:0:0:0:
448,192,102166,128,0,102403:0:0:0:0:
320,192,102166,1,0,0:0:0:0:
64,192,102245,128,0,102403:0:0:0:0:
320,192,102324,128,0,102403:0:0:0:0:
192,192,102324,128,0,102403:0:0:0:0:
448,192,102482,1,0,0:0:0:0:
64,192,102482,128,0,102719:0:0:0:0:
192,192,102482,1,0,0:0:0:0:
320,192,102640,128,0,102719:0:0:0:0:
192,192,102719,128,0,102798:0:0:0:0:
64,192,102798,1,0,0:0:0:0:
448,192,102798,128,0,102956:0:0:0:0:
320,192,102877,128,0,102956:0:0:0:0:
64,192,102956,128,0,103114:0:0:0:0:
192,192,102956,128,0,103114:0:0:0:0:
320,192,103114,1,0,0:0:0:0:
448,192,103114,128,0,103193:0:0:0:0:
64,192,103193,128,0,103351:0:0:0:0:
192,192,103272,128,0,103430:0:0:0:0:
320,192,103351,128,0,103430:0:0:0:0:
64,192,103430,1,0,0:0:0:0:
448,192,103430,128,0,103587:0:0:0:0:
320,192,103508,128,0,103666:0:0:0:0:
192,192,103587,128,0,103666:0:0:0:0:
64,192,103666,128,0,103745:0:0:0:0:
192,192,103745,5,0,0:0:0:0:
320,192,103745,128,0,103982:0:0:0:0:
448,192,103745,1,0,0:0:0:0:
448,192,103903,128,0,103982:0:0:0:0:
192,192,103982,128,0,104219:0:0:0:0:
448,192,104061,1,0,0:0:0:0:
320,192,104061,1,0,0:0:0:0:
64,192,104140,128,0,104219:0:0:0:0:
320,192,104219,128,0,104456:0:0:0:0:
64,192,104377,1,0,0:0:0:0:
448,192,104377,128,0,104456:0:0:0:0:
192,192,104456,128,0,104693:0:0:0:0:
320,192,104535,1,0,0:0:0:0:
64,192,104614,128,0,104693:0:0:0:0:
448,192,104693,1,0,0:0:0:0:
320,192,104693,128,0,104930:0:0:0:0:
192,192,104772,128,0,104930:0:0:0:0:
64,192,104851,128,0,104930:0:0:0:0:
448,192,104851,128,0,104930:0:0:0:0:
320,192,105008,5,0,0:0:0:0:
192,192,105008,128,0,105245:0:0:0:0:
64,192,105008,1,0,0:0:0:0:
64,192,105166,128,0,105245:0:0:0:0:
320,192,105245,128,0,105482:0:0:0:0:
64,192,105324,1,0,0:0:0:0:
192,192,105324,1,0,0:0:0:0:
448,192,105403,128,0,105482:0:0:0:0:
192,192,105482,128,0,105719:0:0:0:0:
448,192,105640,1,0,0:0:0:0:
64,192,105640,128,0,105719:0:0:0:0:
320,192,105719,128,0,105956:0:0:0:0:
192,192,105798,1,0,0:0:0:0:
448,192,105877,128,0,105956:0:0:0:0:
192,192,105956,128,0,106193:0:0:0:0:
64,192,105956,1,0,0:0:0:0:
320,192,106035,128,0,106193:0:0:0:0:
64,192,106114,128,0,106193:0:0:0:0:
448,192,106114,128,0,106193:0:0:0:0:
192,192,106272,5,0,0:0:0:0:
320,192,106272,128,0,106508:0:0:0:0:
448,192,106272,1,0,0:0:0:0:
448,192,106430,128,0,106508:0:0:0:0:
192,192,106508,128,0,106745:0:0:0:0:
320,192,106587,1,0,0:0:0:0:
448,192,106587,1,0,0:0:0:0:
64,192,106666,128,0,106745:0:0:0:0:
320,192,106745,128,0,106982:0:0:0:0:
448,192,106903,128,0,106982:0:0:0:0:
64,192,106903,1,0,0:0:0:0:
192,192,106982,128,0,107219:0:0:0:0:
320,192,107061,1,0,0:0:0:0:
64,192,107140,128,0,107219:0:0:0:0:
320,192,107219,128,0,107298:0:0:0:0:
448,192,107219,128,0,107298:0:0:0:0:
192,192,107298,1,0,0:0:0:0:
64,192,107377,128,0,107456:0:0:0:0:
448,192,107377,128,0,107456:0:0:0:0:
320,192,107456,1,0,0:0:0:0:
64,192,107535,128,0,107614:0:0:0:0:
192,192,107535,128,0,107614:0:0:0:0:
448,192,107535,1,0,0:0:0:0:
64,192,107693,128,0,107851:0:0:0:0:
192,192,107693,128,0,107851:0:0:0:0:
448,192,107693,1,0,0:0:0:0:
320,192,107851,1,0,0:0:0:0:
448,192,108008,128,0,108087:0:0:0:0:
192,192,108008,1,0,0:0:0:0:
64,192,108008,128,0,108087:0:0:0:0:
448,192,108166,128,0,108324:0:0:0:0:
192,192,108166,1,0,0:0:0:0:
64,192,108166,128,0,108324:0:0:0:0:
320,192,108324,1,0,0:0:0:0:
320,192,108482,128,0,108561:0:0:0:0:
448,192,108482,128,0,108561:0:0:0:0:
64,192,108482,1,0,0:0:0:0:
192,192,108561,1,0,0:0:0:0:
320,192,108640,128,0,108719:0:0:0:0:
448,192,108640,128,0,108719:0:0:0:0:
192,192,108719,1,0,0:0:0:0:
64,192,108798,128,0,109035:0:0:0:0:
320,192,108798,128,0,108956:0:0:0:0:
448,192,108798,128,0,109035:0:0:0:0:
192,192,108956,128,0,109035:0:0:0:0:
320,192,109035,128,0,109193:0:0:0:0:
64,192,109114,1,0,0:0:0:0:
448,192,109114,1,0,0:0:0:0:
192,192,109193,128,0,109351:0:0:0:0:
64,192,109272,128,0,109430:0:0:0:0:
320,192,109430,128,0,109587:0:0:0:0:
192,192,109430,1,0,0:0:0:0:
448,192,109508,128,0,109666:0:0:0:0:
64,192,109587,1,0,0:0:0:0:
192,192,109666,128,0,109824:0:0:0:0:
64,192,109745,128,0,109903:0:0:0:0:
320,192,109745,1,0,0:0:0:0:
448,192,109824,128,0,109982:0:0:0:0:
320,192,109903,128,0,109982:0:0:0:0:
192,192,109903,128,0,109982:0:0:0:0:
448,192,110061,128,0,110298:0:0:0:0:
64,192,110061,128,0,110298:0:0:0:0:
192,192,110061,1,0,0:0:0:0:
320,192,110219,128,0,110298:0:0:0:0:
192,192,110298,128,0,110456:0:0:0:0:
448,192,110377,1,0,0:0:0:0:
64,192,110377,1,0,0:0:0:0:
320,192,110456,128,0,110614:0:0:0:0:
448,192,110535,128,0,110693:0:0:0:0:
192,192,110693,128,0,110851:0:0:0:0:
320,192,110693,1,0,0:0:0:0:
64,192,110772,128,0,110930:0:0:0:0:
448,192,110851,1,0,0:0:0:0:
320,192,110930,128,0,111087:0:0:0:0:
448,192,111008,128,0,111166:0:0:0:0:
192,192,111008,1,0,0:0:0:0:
64,192,111087,128,0,111245:0:0:0:0:
320,192,111166,128,0,111245:0:0:0:0:
192,192,111166,128,0,111245:0:0:0:0:
64,192,111324,128,0,111561:0:0:0:0:
448,192,111324,128,0,111561:0:0:0:0:
320,192,111324,1,0,0:0:0:0:
192,192,111482,128,0,111561:0:0:0:0:
320,192,111561,128,0,111719:0:0:0:0:
64,192,111640,1,0,0:0:0:0:
448,192,111640,1,0,0:0:0:0:
192,192,111719,128,0,111877:0:0:0:0:
64,192,111798,128,0,111956:0:0:0:0:
320,192,111956,128,0,112114:0:0:0:0:
192,192,111956,1,0,0:0:0:0:
448,192,112035,128,0,112193:0:0:0:0:
64,192,112114,1,0,0:0:0:0:
192,192,112193,128,0,112351:0:0:0:0:
64,192,112272,128,0,112430:0:0:0:0:
320,192,112272,1,0,0:0:0:0:
448,192,112351,128,0,112508:0:0:0:0:
192,192,112430,128,0,112508:0:0:0:0:
320,192,112430,128,0,112508:0:0:0:0:
448,192,112587,1,0,0:0:0:0:
64,192,112587,128,0,112824:0:0:0:0:
192,192,112587,1,0,0:0:0:0:
320,192,112745,128,0,112824:0:0:0:0:
192,192,112824,128,0,112903:0:0:0:0:
448,192,112903,128,0,113061:0:0:0:0:
64,192,112903,1,0,0:0:0:0:
320,192,112982,128,0,113061:0:0:0:0:
192,192,113061,128,0,113219:0:0:0:0:
64,192,113061,128,0,113219:0:0:0:0:
320,192,113219,1,0,0:0:0:0:
448,192,113219,128,0,113298:0:0:0:0:
64,192,113298,128,0,113456:0:0:0:0:
192,192,113377,128,0,113535:0:0:0:0:
320,192,113456,128,0,113535:0:0:0:0:
64,192,113535,1,0,0:0:0:0:
448,192,113535,128,0,113693:0:0:0:0:
320,192,113614,128,0,113772:0:0:0:0:
192,192,113693,128,0,113772:0:0:0:0:
64,192,113772,128,0,113851:0:0:0:0:
320,192,113851,128,0,114087:0:0:0:0:
192,192,113851,128,0,114087:0:0:0:0:
448,192,113851,1,0,0:0:0:0:
448,192,114008,128,0,114087:0:0:0:0:
64,192,114087,128,0,114245:0:0:0:0:
320,192,114166,1,0,0:0:0:0:
192,192,114166,1,0,0:0:0:0:
448,192,114245,128,0,114403:0:0:0:0:
320,192,114324,128,0,114482:0:0:0:0:
192,192,114403,1,0,0:0:0:0:
64,192,114482,128,0,114640:0:0:0:0:
448,192,114482,1,0,0:0:0:0:
192,192,114561,128,0,114719:0:0:0:0:
320,192,114640,1,0,0:0:0:0:
448,192,114719,128,0,114877:0:0:0:0:
320,192,114798,128,0,114956:0:0:0:0:
64,192,114798,1,0,0:0:0:0:
192,192,114877,128,0,115035:0:0:0:0:
448,192,114956,128,0,115035:0:0:0:0:
64,192,114956,128,0,115035:0:0:0:0:
192,192,115114,128,0,115351:0:0:0:0:
320,192,115114,128,0,115351:0:0:0:0:
64,192,115114,1,0,0:0:0:0:
448,192,115193,1,0,0:0:0:0:
64,192,115272,128,0,115351:0:0:0:0:
448,192,115351,128,0,115508:0:0:0:0:
192,192,115430,1,0,0:0:0:0:
320,192,115430,1,0,0:0:0:0:
64,192,115508,128,0,115666:0:0:0:0:
192,192,115587,128,0,115745:0:0:0:0:
320,192,115666,1,0,0:0:0:0:
448,192,115745,128,0,115903:0:0:0:0:
64,192,115745,1,0,0:0:0:0:
320,192,115824,128,0,115982:0:0:0:0:
192,192,115903,1,0,0:0:0:0:
64,192,115982,128,0,116140:0:0:0:0:
192,192,116061,128,0,116219:0:0:0:0:
448,192,116061,1,0,0:0:0:0:
320,192,116140,128,0,116298:0:0:0:0:
64,192,116219,128,0,116298:0:0:0:0:
448,192,116219,128,0,116298:0:0:0:0:
448,192,116377,128,0,116535:0:0:0:0:
320,192,116377,1,0,0:0:0:0:
192,192,116456,1,0,0:0:0:0:
320,192,116535,128,0,116693:0:0:0:0:
64,192,116535,1,0,0:0:0:0:
192,192,116614,128,0,116772:0:0:0:0:
64,192,116693,1,0,0:0:0:0:
448,192,116693,1,0,0:0:0:0:
320,192,116772,128,0,116930:0:0:0:0:
192,192,116851,1,0,0:0:0:0:
448,192,116851,128,0,117008:0:0:0:0:
64,192,117008,1,0,0:0:0:0:
192,192,117008,128,0,117087:0:0:0:0:
320,192,117087,128,0,117166:0:0:0:0:
448,192,117087,1,0,0:0:0:0:
64,192,117166,1,0,0:0:0:0:
192,192,117166,1,0,0:0:0:0:
320,192,117245,1,0,0:0:0:0:
448,192,117245,128,0,117324:0:0:0:0:
64,192,117324,1,0,0:0:0:0:
192,192,117364,1,0,0:0:0:0:
320,192,117403,1,0,0:0:0:0:
448,192,117443,1,0,0:0:0:0:
64,192,117482,1,0,0:0:0:0:
192,192,117522,1,0,0:0:0:0:
320,192,117561,1,0,0:0:0:0:
448,192,117601,1,0,0:0:0:0:
64,192,117640,128,0,117719:0:0:0:0:
192,192,117640,128,0,117719:0:0:0:0:
64,192,117798,128,0,117956:0:0:0:0:
192,192,117798,128,0,117956:0:0:0:0:
448,192,117798,1,0,0:0:0:0:
320,192,117956,1,0,0:0:0:0:
192,192,118035,1,0,0:0:0:0:
448,192,118114,128,0,118193:0:0:0:0:
64,192,118114,1,0,0:0:0:0:
320,192,118114,128,0,118193:0:0:0:0:
448,192,118272,128,0,118430:0:0:0:0:
64,192,118272,1,0,0:0:0:0:
320,192,118272,128,0,118430:0:0:0:0:
192,192,118430,1,0,0:0:0:0:
320,192,118508,1,0,0:0:0:0:
448,192,118587,128,0,118824:0:0:0:0:
64,192,118587,128,0,118824:0:0:0:0:
192,192,118587,128,0,118824:0:0:0:0:
448,192,118903,128,0,119298:0:0:0:0:
320,192,118903,128,0,119061:0:0:0:0:
192,192,118903,128,0,119140:0:0:0:0:
64,192,118903,128,0,119140:0:0:0:0:
320,192,119140,128,0,119535:0:0:0:0:
64,192,119219,1,0,0:0:0:0:
192,192,119298,1,0,0:0:0:0:
448,192,119377,128,0,119772:0:0:0:0:
64,192,119535,1,0,0:0:0:0:
192,192,119535,1,0,0:0:0:0:
320,192,119614,128,0,119930:0:0:0:0:
64,192,119693,1,0,0:0:0:0:
192,192,119772,1,0,0:0:0:0:
64,192,119851,128,0,120087:0:0:0:0:
448,192,119851,128,0,119930:0:0:0:0:
192,192,119930,128,0,120087:0:0:0:0:
320,192,120008,128,0,120087:0:0:0:0:
448,192,120008,128,0,120166:0:0:0:0:
64,192,120166,128,0,120561:0:0:0:0:
192,192,120166,128,0,120324:0:0:0:0:
320,192,120166,1,0,0:0:0:0:
320,192,120324,1,0,0:0:0:0:
192,192,120403,128,0,120798:0:0:0:0:
448,192,120482,1,0,0:0:0:0:
320,192,120561,1,0,0:0:0:0:
64,192,120640,128,0,121035:0:0:0:0:
320,192,120798,128,0,120877:0:0:0:0:
448,192,120798,1,0,0:0:0:0:
192,192,120877,128,0,121193:0:0:0:0:
448,192,120956,1,0,0:0:0:0:
320,192,121035,1,0,0:0:0:0:
448,192,121114,128,0,121351:0:0:0:0:
64,192,121114,128,0,121193:0:0:0:0:
320,192,121193,128,0,121351:0:0:0:0:
192,192,121272,128,0,121351:0:0:0:0:
64,192,121272,128,0,121430:0:0:0:0:
448,192,121430,128,0,121824:0:0:0:0:
320,192,121430,128,0,121587:0:0:0:0:
192,192,121430,128,0,121508:0:0:0:0:
192,192,121587,1,0,0:0:0:0:
320,192,121666,128,0,122061:0:0:0:0:
64,192,121745,1,0,0:0:0:0:
192,192,121824,1,0,0:0:0:0:
448,192,121903,128,0,122298:0:0:0:0:
64,192,122061,1,0,0:0:0:0:
192,192,122061,1,0,0:0:0:0:
320,192,122140,128,0,122456:0:0:0:0:
64,192,122219,1,0,0:0:0:0:
192,192,122298,1,0,0:0:0:0:
64,192,122377,128,0,122614:0:0:0:0:
448,192,122377,128,0,122456:0:0:0:0:
192,192,122456,128,0,122614:0:0:0:0:
320,192,122535,128,0,122614:0:0:0:0:
448,192,122535,128,0,122693:0:0:0:0:
64,192,122693,128,0,123087:0:0:0:0:
320,192,122693,128,0,122772:0:0:0:0:
192,192,122693,128,0,122930:0:0:0:0:
448,192,122851,1,0,0:0:0:0:
320,192,122930,1,0,0:0:0:0:
448,192,123008,1,0,0:0:0:0:
192,192,123008,1,0,0:0:0:0:
320,192,123087,1,0,0:0:0:0:
448,192,123166,128,0,123482:0:0:0:0:
64,192,123166,1,0,0:0:0:0:
192,192,123324,1,0,0:0:0:0:
320,192,123324,128,0,123403:0:0:0:0:
64,192,123403,128,0,123561:0:0:0:0:
192,192,123482,128,0,123719:0:0:0:0:
320,192,123561,128,0,123640:0:0:0:0:
64,192,123640,128,0,123798:0:0:0:0:
448,192,123640,128,0,123877:0:0:0:0:
320,192,123719,128,0,123877:0:0:0:0:
192,192,123798,128,0,123877:0:0:0:0:
64,192,123877,128,0,123956:0:0:0:0:
448,192,123956,128,0,124351:0:0:0:0:
320,192,123956,128,0,124114:0:0:0:0:
192,192,123956,128,0,124035:0:0:0:0:
192,192,124114,1,0,0:0:0:0:
320,192,124193,128,0,124587:0:0:0:0:
64,192,124272,1,0,0:0:0:0:
192,192,124351,1,0,0:0:0:0:
448,192,124430,128,0,124824:0:0:0:0:
64,192,124587,1,0,0:0:0:0:
192,192,124587,1,0,0:0:0:0:
320,192,124666,128,0,124982:0:0:0:0:
64,192,124745,1,0,0:0:0:0:
192,192,124824,1,0,0:0:0:0:
64,192,124903,128,0,125140:0:0:0:0:
448,192,124903,128,0,124982:0:0:0:0:
192,192,124982,128,0,125140:0:0:0:0:
320,192,125061,128,0,125140:0:0:0:0:
448,192,125061,128,0,125219:0:0:0:0:
64,192,125219,128,0,125614:0:0:0:0:
192,192,125219,128,0,125377:0:0:0:0:
320,192,125219,1,0,0:0:0:0:
320,192,125377,1,0,0:0:0:0:
192,192,125456,128,0,125851:0:0:0:0:
448,192,125535,1,0,0:0:0:0:
320,192,125614,1,0,0:0:0:0:
64,192,125693,128,0,126087:0:0:0:0:
320,192,125851,128,0,125930:0:0:0:0:
448,192,125851,1,0,0:0:0:0:
192,192,125930,128,0,126245:0:0:0:0:
448,192,126008,1,0,0:0:0:0:
320,192,126087,1,0,0:0:0:0:
448,192,126166,128,0,126403:0:0:0:0:
64,192,126166,128,0,126324:0:0:0:0:
320,192,126245,128,0,126403:0:0:0:0:
192,192,126324,128,0,126403:0:0:0:0:
64,192,126403,128,0,126482:0:0:0:0:
448,192,126482,128,0,126877:0:0:0:0:
320,192,126482,128,0,126640:0:0:0:0:
192,192,126482,128,0,126561:0:0:0:0:
192,192,126640,1,0,0:0:0:0:
320,192,126719,128,0,127114:0:0:0:0:
64,192,126798,1,0,0:0:0:0:
192,192,126877,1,0,0:0:0:0:
448,192,126956,128,0,127351:0:0:0:0:
64,192,127114,1,0,0:0:0:0:
192,192,127114,1,0,0:0:0:0:
320,192,127193,128,0,127508:0:0:0:0:
64,192,127272,1,0,0:0:0:0:
192,192,127351,1,0,0:0:0:0:
448,192,127430,128,0,127508:0:0:0:0:
64,192,127430,128,0,127508:0:0:0:0:
192,192,127508,1,0,0:0:0:0:
64,192,127587,128,0,127666:0:0:0:0:
320,192,127587,128,0,127666:0:0:0:0:
448,192,127666,1,0,0:0:0:0:
64,192,127745,128,0,127824:0:0:0:0:
192,192,127745,128,0,127824:0:0:0:0:
320,192,127745,128,0,127824:0:0:0:0:
64,192,127903,128,0,128061:0:0:0:0:
192,192,127903,128,0,128061:0:0:0:0:
320,192,127903,128,0,128061:0:0:0:0:
448,192,128061,1,0,0:0:0:0:
64,192,128219,128,0,128298:0:0:0:0:
320,192,128219,128,0,128298:0:0:0:0:
448,192,128219,128,0,128298:0:0:0:0:
64,192,128377,128,0,128535:0:0:0:0:
320,192,128377,128,0,128535:0:0:0:0:
448,192,128377,128,0,128535:0:0:0:0:
192,192,128535,1,0,0:0:0:0:
448,192,128693,128,0,129008:0:0:0:0:
320,192,128693,128,0,129008:0:0:0:0:
192,192,128693,128,0,129008:0:0:0:0:
64,192,129008,128,0,129324:0:0:0:0:
192,192,129324,1,0,0:0:0:0:
320,192,129324,1,0,0:0:0:0:
448,192,129324,128,0,130824:0:0:0:0:
64,192,129482,1,0,0:0:0:0:
64,192,129640,1,0,0:0:0:0:
320,192,129640,1,0,0:0:0:0:
192,192,129719,1,0,0:0:0:0:
320,192,129798,1,0,0:0:0:0:
64,192,129956,1,0,0:0:0:0:
192,192,129956,1,0,0:0:0:0:
320,192,129956,1,0,0:0:0:0:
64,192,130114,1,0,0:0:0:0:
192,192,130272,1,0,0:0:0:0:
320,192,130272,1,0,0:0:0:0:
64,192,130430,1,0,0:0:0:0:
192,192,130508,1,0,0:0:0:0:
64,192,130587,1,0,0:0:0:0:
320,192,130587,1,0,0:0:0:0:
192,192,130745,1,0,0:0:0:0:
64,192,130824,1,0,0:0:0:0:
448,192,130903,1,0,0:0:0:0:
320,192,130903,1,0,0:0:0:0:
192,192,130956,1,0,0:0:0:0:
64,192,131008,1,0,0:0:0:0:
448,192,131061,1,0,0:0:0:0:
320,192,131114,1,0,0:0:0:0:
192,192,131166,1,0,0:0:0:0:
448,192,131219,1,0,0:0:0:0:
64,192,131219,1,0,0:0:0:0:
320,192,131272,1,0,0:0:0:0:
192,192,131324,1,0,0:0:0:0:
64,192,131377,1,0,0:0:0:0:
320,192,131430,1,0,0:0:0:0:
448,192,131482,1,0,0:0:0:0:
64,192,131535,128,0,131930:0:0:0:0:
192,192,131535,128,0,131693:0:0:0:0:
320,192,131693,1,0,0:0:0:0:
192,192,131772,128,0,132166:0:0:0:0:
448,192,131851,1,0,0:0:0:0:
320,192,131930,1,0,0:0:0:0:
64,192,132008,128,0,132403:0:0:0:0:
448,192,132166,1,0,0:0:0:0:
320,192,132166,1,0,0:0:0:0:
192,192,132245,128,0,132403:0:0:0:0:
448,192,132324,1,0,0:0:0:0:
320,192,132403,128,0,132482:0:0:0:0:
64,192,132482,1,0,0:0:0:0:
448,192,132482,128,0,132719:0:0:0:0:
320,192,132561,128,0,132719:0:0:0:0:
192,192,132640,128,0,132719:0:0:0:0:
64,192,132719,128,0,132798:0:0:0:0:
320,192,132798,128,0,133193:0:0:0:0:
448,192,132798,128,0,132956:0:0:0:0:
192,192,132798,128,0,132956:0:0:0:0:
192,192,133035,128,0,133193:0:0:0:0:
64,192,133035,128,0,133193:0:0:0:0:
448,192,133035,128,0,133430:0:0:0:0:
64,192,133272,128,0,133430:0:0:0:0:
192,192,133272,128,0,133430:0:0:0:0:
320,192,133272,128,0,133666:0:0:0:0:
64,192,133508,128,0,133666:0:0:0:0:
448,192,133508,128,0,133666:0:0:0:0:
192,192,133508,128,0,133824:0:0:0:0:
320,192,133745,128,0,133824:0:0:0:0:
448,192,133745,128,0,133824:0:0:0:0:
64,192,133745,128,0,133982:0:0:0:0:
320,192,133903,128,0,133982:0:0:0:0:
448,192,133903,128,0,133982:0:0:0:0:
192,192,133903,128,0,133982:0:0:0:0:
320,192,134061,128,0,134377:0:0:0:0:
192,192,134061,128,0,134298:0:0:0:0:
64,192,134061,128,0,134219:0:0:0:0:
448,192,134061,128,0,134456:0:0:0:0:
64,192,134377,128,0,134535:0:0:0:0:
192,192,134456,128,0,134614:0:0:0:0:
320,192,134535,128,0,134693:0:0:0:0:
448,192,134614,128,0,134772:0:0:0:0:
64,192,134693,128,0,134851:0:0:0:0:
192,192,134772,128,0,134930:0:0:0:0:
320,192,134851,128,0,135008:0:0:0:0:
448,192,134930,128,0,135087:0:0:0:0:
64,192,135008,128,0,135087:0:0:0:0:
192,192,135087,128,0,135166:0:0:0:0:
320,192,135166,128,0,135245:0:0:0:0:
64,192,135166,1,0,0:0:0:0:
448,192,135245,128,0,135324:0:0:0:0:
192,192,135245,1,0,0:0:0:0:
320,192,135324,1,0,0:0:0:0:
64,192,135324,128,0,135798:0:0:0:0:
448,192,135403,128,0,135561:0:0:0:0:
192,192,135482,128,0,135719:0:0:0:0:
320,192,135561,128,0,135640:0:0:0:0:
448,192,135640,128,0,135877:0:0:0:0:
320,192,135719,128,0,135956:0:0:0:0:
192,192,135798,128,0,136035:0:0:0:0:
64,192,135877,128,0,136114:0:0:0:0:
448,192,135956,128,0,136193:0:0:0:0:
320,192,136035,128,0,136272:0:0:0:0:
192,192,136114,128,0,136351:0:0:0:0:
64,192,136193,128,0,136430:0:0:0:0:
448,192,136272,128,0,136351:0:0:0:0:
320,192,136351,128,0,136430:0:0:0:0:
192,192,136430,128,0,136508:0:0:0:0:
448,192,136430,1,0,0:0:0:0:
64,192,136508,128,0,136587:0:0:0:0:
320,192,136508,1,0,0:0:0:0:
448,192,136587,128,0,137140:0:0:0:0:
192,192,136587,128,0,136666:0:0:0:0:
320,192,136666,128,0,136745:0:0:0:0:
64,192,136745,128,0,136824:0:0:0:0:
192,192,136824,128,0,136903:0:0:0:0:
320,192,136903,128,0,136982:0:0:0:0:
64,192,136982,128,0,137061:0:0:0:0:
192,192,137061,128,0,137140:0:0:0:0:
320,192,137140,128,0,137219:0:0:0:0:
192,192,137219,128,0,137456:0:0:0:0:
64,192,137219,128,0,137377:0:0:0:0:
448,192,137298,128,0,137535:0:0:0:0:
320,192,137377,128,0,137614:0:0:0:0:
64,192,137456,128,0,137851:0:0:0:0:
192,192,137535,128,0,137693:0:0:0:0:
448,192,137614,128,0,137772:0:0:0:0:
320,192,137693,128,0,137772:0:0:0:0:
192,192,137772,128,0,137851:0:0:0:0:
448,192,137851,1,0,0:0:0:0:
320,192,137851,1,0,0:0:0:0:
64,192,137930,1,0,0:0:0:0:
448,192,138008,1,0,0:0:0:0:
192,192,138008,1,0,0:0:0:0:
320,192,138087,1,0,0:0:0:0:
192,192,138166,1,0,0:0:0:0:
64,192,138166,1,0,0:0:0:0:
448,192,138245,1,0,0:0:0:0:
320,192,138324,1,0,0:0:0:0:
64,192,138324,1,0,0:0:0:0:
192,192,138403,1,0,0:0:0:0:
320,192,138482,1,0,0:0:0:0:
448,192,138482,1,0,0:0:0:0:
192,192,138561,1,0,0:0:0:0:
64,192,138561,1,0,0:0:0:0:
320,192,138640,1,0,0:0:0:0:
448,192,138640,1,0,0:0:0:0:
192,192,138719,1,0,0:0:0:0:
64,192,138719,1,0,0:0:0:0:
448,192,138798,1,0,0:0:0:0:
320,192,138837,1,0,0:0:0:0:
192,192,138877,1,0,0:0:0:0:
64,192,138916,1,0,0:0:0:0:
448,192,138956,1,0,0:0:0:0:
320,192,138995,1,0,0:0:0:0:
192,192,139035,1,0,0:0:0:0:
64,192,139074,1,0,0:0:0:0:
320,192,139114,1,0,0:0:0:0:
448,192,139114,1,0,0:0:0:0:
64,192,139430,128,0,142114:0:0:0:0:
448,192,139430,128,0,139666:0:0:0:0:
320,192,139430,128,0,141561:0:0:0:0:
192,192,139430,128,0,142114:0:0:0:0:
448,192,139745,128,0,140930:0:0:0:0:
448,192,141008,128,0,144482:0:0:0:0:
320,192,141640,128,0,144482:0:0:0:0:
