osu file format v14

[General]
AudioFilename: audio.mp3
AudioLeadIn: 0
PreviewTime: 95917
Countdown: 0
SampleSet: Soft
StackLeniency: 0.7
Mode: 2
LetterboxInBreaks: 0
WidescreenStoryboard: 1

[Editor]
DistanceSpacing: 1.5
BeatDivisor: 4
GridSize: 32
TimelineZoom: 2.3

[Metadata]
Title:Intuition
TitleUnicode:Intuition
Artist:technoplanet
ArtistUnicode:technoplanet
Creator:Jemzuu
Version:Salad
Source:
Tags:ハセガワシュン featured artist fa mappers' guild mg ajamez ctbi vii 7 qf quarterfinals nm1 no mod osu!catch international cup 7 instrumental electronic wub dubstep piano drum n bass and dnb d&b hardcore happycore core electric guitar stream Strange Story 2020
BeatmapID:3184028
BeatmapSetID:1553878

[Difficulty]
HPDrainRate:4
CircleSize:3
OverallDifficulty:7
ApproachRate:7
SliderMultiplier:1.38
SliderTickRate:1

[Events]
//Background and Video events
0,0,"adventure!!.jpg",0,0
//Break Periods
//Storyboard Layer 0 (Background)
//Storyboard Layer 1 (Fail)
//Storyboard Layer 2 (Pass)
//Storyboard Layer 3 (Foreground)
//Storyboard Layer 4 (Overlay)
//Storyboard Sound Samples

[TimingPoints]
1266,315.78947368421,4,2,1,70,1,0
4265,-100,4,2,4,70,0,0
4344,-100,4,2,1,70,0,0
27791,-100,4,2,1,70,0,0
28265,-100,4,2,1,70,0,0
28423,-100,4,2,1,70,0,0
34107,-100,4,2,2,60,0,0
44212,-100,4,2,1,70,0,0
50883,-100,4,2,1,5,0,0
51002,-100,4,2,1,70,0,0
51041,-100,4,2,1,5,0,0
51159,-100,4,2,1,70,0,0
53390,-100,4,2,1,5,0,0
53449,-100,4,2,1,70,0,0
53469,-100,4,2,1,5,0,0
53528,-100,4,2,1,70,0,0
53548,-100,4,2,1,5,0,0
53607,-100,4,2,1,70,0,0
53627,-100,4,2,1,5,0,0
53686,-100,4,2,1,70,0,0
53706,-100,4,2,1,5,0,0
53765,-100,4,2,1,70,0,0
53785,-100,4,2,1,5,0,0
53844,-100,4,2,1,70,0,0
53864,-100,4,2,1,5,0,0
53923,-100,4,2,1,70,0,0
53943,-100,4,2,1,5,0,0
54002,-100,4,2,1,70,0,0
54022,-100,4,2,1,5,0,0
54081,-100,4,2,1,70,0,0
54101,-100,4,2,1,5,0,0
54159,-100,4,2,1,70,0,0
54179,-100,4,2,1,5,0,0
54238,-100,4,2,1,70,0,0
54258,-100,4,2,1,5,0,0
54317,-100,4,2,1,70,0,0
55581,-100,4,2,1,70,0,0
58423,-100,4,2,1,60,0,0
58738,-100,4,2,1,50,0,0
59370,-100,4,2,1,60,0,0
59844,-100,4,2,1,65,0,0
60317,-100,4,2,1,70,0,0
60633,-83.3333333333333,4,2,1,70,0,0
61028,-100,4,2,1,70,0,0
61265,-100,4,2,1,70,0,0
65686,-83.3333333333333,4,2,1,70,0,0
66081,-100,4,2,1,70,0,0
66318,-100,4,2,1,70,0,0
72476,-92.5925925925926,4,2,1,70,0,0
72792,-100,4,2,98,70,0,0
72871,-100,4,2,1,70,0,0
72950,-100,4,2,99,70,0,0
73265,-100,4,2,1,70,0,0
76029,-100,4,2,1,5,0,0
76108,-83.3333333333333,4,2,1,80,0,1
76582,-100,4,2,98,80,0,1
76739,-100,4,2,99,80,0,1
76897,-100,4,2,1,80,0,1
77055,-100,4,2,98,80,0,1
77371,-100,4,2,99,80,0,1
77529,-100,4,2,1,80,0,1
77687,-100,4,2,1,60,0,0
77845,-100,4,2,98,60,0,0
78003,-100,4,2,99,60,0,0
78160,-100,4,2,1,60,0,0
85897,-100,4,2,1,65,0,0
86371,-100,4,2,3,70,0,0
94108,-100,4,2,1,60,0,0
95687,-100,4,2,1,75,0,0
96003,-100,4,2,1,70,0,0
96318,-100,4,2,1,55,0,0
97266,-100,4,2,1,60,0,0
98213,-100,4,2,1,70,0,0
98529,-100,4,2,4,80,0,1
98608,-100,4,2,5,80,0,1
103108,-100,4,2,1,80,0,1
103582,-100,4,2,5,80,0,1
108634,-100,4,2,13,80,0,0
108950,-100,4,2,4,80,0,1
109029,-100,4,2,5,80,0,1
113213,-100,4,2,1,80,0,1
113687,-100,4,2,5,80,0,1
118739,-100,4,2,14,80,0,0
119055,-100,4,2,4,80,0,1
119213,-100,4,2,5,80,0,1
128844,-100,4,2,13,80,0,0
129160,-76.9230769230769,4,2,4,80,0,1
129476,-100,4,2,98,80,0,1
129634,-100,4,2,1,80,0,1
129792,-100,4,2,99,80,0,1
129950,-100,4,2,1,80,0,1
130108,-100,4,2,1,80,0,1
131371,-76.9230769230769,4,2,1,80,0,1
131687,-100,4,2,99,80,0,1
131845,-100,4,2,1,80,0,1
132003,-100,4,2,98,80,0,1
132160,-100,4,2,1,80,0,1
132318,-100,4,2,99,80,0,1
132476,-100,4,2,1,80,0,1
133897,-100,4,2,1,80,0,0
136423,-100,4,2,1,80,0,0
137055,-100,4,2,1,80,0,0
137134,-100,4,2,1,80,0,0
137687,-100,4,2,1,80,0,0
139265,-100,4,2,15,90,0,1
139344,-100,4,2,1,60,0,0
140213,-100,4,2,1,50,0,0
140845,-100,4,2,1,45,0,0
141476,-100,4,2,1,40,0,0
142108,-100,4,2,1,30,0,0
142739,-100,4,2,1,25,0,0
143371,-100,4,2,1,15,0,0
143845,-100,4,2,4,10,0,0

[Colours]
Combo1 : 255,170,130
Combo2 : 60,157,255
Combo3 : 255,255,128
Combo4 : 157,157,255
Combo5 : 255,164,255

[HitObjects]
256,192,160,12,0,950,0:0:0:0:
239,217,1266,6,0,L|240:142,1,69,0|0,1:0|1:0,0:0:0:0:
389,96,1739,1,2,0:1:0:0:
350,84,1818,2,0,L|155:74,1,172.5,2|0,0:0|0:0,0:0:0:0:
446,31,2529,6,0,L|474:105,2,69,10|2|2,0:0|0:0|0:0,0:0:0:0:
362,29,3002,2,0,L|202:49,1,138,2|2,0:0|0:0,0:0:0:0:
305,95,3476,2,0,L|329:61,2,34.5,4|4|4,0:3|0:3|0:3,0:0:0:0:
149,135,3792,6,0,L|58:134,1,69,0|0,1:0|1:0,0:0:0:0:
365,175,4265,6,0,P|389:208|287:327,1,207,12|2,0:0|0:0,0:0:0:0:
243,337,4897,1,2,0:0:0:0:
162,320,5055,6,0,L|129:257,2,69,2|2|0,0:0|0:0|0:0,0:0:0:0:
243,296,5529,2,0,L|400:282,1,138,0|2,0:0|0:0,0:0:0:0:
321,216,6002,1,0,0:0:0:0:
249,190,6160,1,2,0:0:0:0:
96,205,6318,6,0,L|88:48,1,138,4|10,1:2|0:0,0:0:0:0:
170,58,6792,2,0,L|323:77,1,138,2|2,0:0|1:2,0:0:0:0:
237,120,7265,1,10,0:0:0:0:
164,137,7423,1,2,0:0:0:0:
245,166,7581,6,0,L|342:164,2,69,0|0|10,1:0|1:0|0:0,0:0:0:0:
163,175,8055,2,0,L|161:324,1,138,2|2,0:0|1:2,0:0:0:0:
230,330,8529,1,10,0:0:0:0:
305,334,8687,1,2,0:0:0:0:
154,362,8844,6,0,L|72:359,1,69,2|0,1:2|1:0,0:0:0:0:
232,259,9318,2,0,L|393:237,1,138,0|2,0:0|1:2,0:0:0:0:
295,222,9792,2,0,L|290:140,1,69,10|2,0:2|0:2,0:0:0:0:
446,158,10108,6,0,P|457:111|389:58,1,138,2|10,1:2|0:0,0:0:0:0:
317,66,10581,2,0,L|296:36,2,34.5,0|10|10,0:0|0:0|0:0,0:0:0:0:
398,66,10897,2,0,L|475:65,2,69,4|8|0,0:3|0:0|1:0,0:0:0:0:
238,118,11371,6,0,L|112:129,1,103.5,6|2,1:2|0:0,0:0:0:0:
135,217,11765,2,0,L|186:218,1,34.5,4|4,0:3|0:3,0:0:0:0:
242,238,12002,1,4,0:3:0:0:
394,220,12160,6,0,L|399:345,1,103.5,4|4,3:2|0:3,0:0:0:0:
317,351,12555,2,0,L|272:354,1,34.5,4|4,0:3|0:3,0:0:0:0:
208,347,12792,1,4,0:3:0:0:
284,275,12950,6,0,L|363:268,1,69,6|2,1:2|0:1,0:0:0:0:
272,222,13265,2,0,L|197:211,1,69,2|2,0:0|0:0,0:0:0:0:
285,176,13581,2,0,L|322:176,2,34.5,2|2|2,0:0|0:0|0:0,0:0:0:0:
128,114,13897,6,0,L|17:97,2,103.5,4|2|2,1:2|0:0|0:2,0:0:0:0:
205,148,14529,2,0,L|301:160,2,69,2|2|10,0:2|1:2|0:2,0:0:0:0:
126,157,15002,1,2,0:2:0:0:
276,262,15160,6,0,L|347:268,1,69,0|0,1:0|1:0,0:0:0:0:
267,319,15476,2,0,L|116:297,1,138,10|2,0:0|0:0,0:0:0:0:
92,218,15950,1,2,1:2:0:0:
129,300,16108,1,10,0:0:0:0:
199,332,16265,1,2,0:0:0:0:
348,340,16423,6,0,L|486:288,1,138,2|8,1:2|0:0,0:0:0:0:
403,246,16897,2,0,L|317:246,2,69,2|2|2,0:2|0:2|1:2,0:0:0:0:
474,178,17371,2,0,L|394:162,1,69,10|2,0:2|0:2,0:0:0:0:
251,116,17687,6,0,L|158:117,1,69,2|2,1:2|1:2,0:0:0:0:
257,93,18002,2,0,L|401:87,1,138,10|2,0:2|0:2,0:0:0:0:
324,71,18476,1,2,1:2:0:0:
246,62,18634,2,0,L|237:155,1,69,10|2,0:2|0:2,0:0:0:0:
390,175,18950,6,0,P|409:214|348:279,1,138,4|8,1:2|0:0,0:0:0:0:
282,278,19423,1,2,0:2:0:0:
252,201,19581,1,2,0:2:0:0:
282,278,19739,1,2,1:2:0:0:
356,289,19897,2,0,L|276:292,1,69,10|2,0:2|0:2,0:0:0:0:
134,333,20213,6,0,L|45:320,1,69,2|2,1:2|1:2,0:0:0:0:
141,298,20529,2,0,L|285:278,1,138,8|2,0:0|0:2,0:0:0:0:
310,215,21002,1,2,1:2:0:0:
278,137,21160,1,10,0:2:0:0:
207,113,21318,1,2,0:2:0:0:
54,193,21476,6,0,L|43:22,1,138,2|8,1:2|0:0,0:0:0:0:
117,48,21950,1,2,0:2:0:0:
190,73,22108,2,0,L|111:86,1,69,2|2,0:2|1:2,0:0:0:0:
49,138,22423,2,0,L|46:231,1,69,10|2,0:2|0:2,0:0:0:0:
200,249,22739,6,0,L|292:266,2,69,2|2|0,1:2|1:2|3:0,0:0:0:0:
54,294,23213,2,0,P|37:254|103:198,1,138,2|2,1:2|1:2,0:0:0:0:
159,173,23687,1,10,0:2:0:0:
224,168,23844,1,2,1:2:0:0:
383,150,24002,6,0,P|405:189|352:255,1,138,4|8,1:2|0:0,0:0:0:0:
282,252,24476,1,2,0:2:0:0:
246,177,24634,1,2,0:2:0:0:
282,252,24792,1,2,1:2:0:0:
354,254,24950,1,10,0:2:0:0:
426,266,25108,1,2,0:2:0:0:
274,349,25265,6,0,L|204:350,2,69,0|0|10,1:0|1:0|0:0,0:0:0:0:
351,353,25739,2,0,L|357:214,1,138,2|2,0:0|1:2,0:0:0:0:
291,178,26213,1,10,0:0:0:0:
219,160,26371,1,2,0:0:0:0:
66,240,26529,6,0,L|59:100,1,138,2|8,1:2|0:0,0:0:0:0:
126,81,27002,1,2,0:2:0:0:
197,72,27160,2,0,L|121:66,1,69,2|2,0:2|1:2,0:0:0:0:
52,55,27476,2,0,L|139:42,1,69,10|2,0:2|0:2,0:0:0:0:
274,142,27792,6,0,L|408:164,1,103.5,6|6,1:2|1:2,0:0:0:0:
155,275,28265,6,0,P|142:222|214:155,1,138,6|2,1:2|1:2,0:0:0:0:
260,149,28739,1,10,0:2:0:0:
331,151,28897,1,2,0:2:0:0:
175,68,29055,6,0,L|36:48,1,138,4|8,1:2|0:0,0:0:0:0:
111,75,29529,1,2,0:2:0:0:
142,155,29687,1,2,0:2:0:0:
111,75,29844,1,2,1:2:0:0:
34,51,30002,2,0,L|114:47,1,69,10|2,0:2|0:2,0:0:0:0:
261,136,30318,6,0,L|347:138,1,69,2|2,1:2|1:2,0:0:0:0:
252,191,30634,2,0,L|95:241,1,138,8|2,0:0|0:2,0:0:0:0:
190,275,31108,1,2,1:2:0:0:
268,293,31265,2,0,L|269:210,1,69,10|2,0:2|0:2,0:0:0:0:
117,325,31581,6,0,P|55:311|65:237,1,138,2|8,1:2|0:0,0:0:0:0:
125,229,32055,1,0,0:0:0:0:
198,204,32213,2,0,L|205:133,1,69,2|2,0:2|1:2,0:0:0:0:
127,129,32529,2,0,L|114:41,1,69,10|2,0:2|0:2,0:0:0:0:
273,39,32844,6,0,L|373:54,1,69,2|2,1:2|1:2,0:0:0:0:
265,83,33160,2,0,P|218:91|189:192,1,138,0|10,3:0|0:2,0:0:0:0:
252,211,33634,1,2,1:2:0:0:
325,243,33792,2,0,L|417:242,1,69,10|2,0:2|1:2,0:0:0:0:
241,312,34108,6,0,P|169:314|148:184,1,207,6|2,1:2|0:0,0:0:0:0:
203,180,34739,1,10,0:0:0:0:
470,131,36002,1,8,0:0:0:0:
172,74,36634,6,0,P|115:77|80:207,1,207,2|2,0:0|0:0,0:0:0:0:
148,228,37265,1,8,0:0:0:0:
409,298,37897,1,2,0:0:0:0:
215,358,38529,1,10,0:0:0:0:
25,235,39160,6,0,P|123:169|240:144,1,207,2|2,0:0|0:0,0:0:0:0:
286,137,39792,1,10,0:0:0:0:
48,80,41055,1,8,0:0:0:0:
298,69,41687,6,0,P|332:138|231:202,1,207,2|2,0:0|0:0,0:0:0:0:
165,214,42318,1,8,0:0:0:0:
328,277,42950,1,2,0:0:0:0:
487,303,43581,1,10,0:0:0:0:
97,326,44213,6,0,L|87:168,1,138,4|0,1:2|1:0,0:0:0:0:
154,170,44687,1,2,0:0:0:0:
226,160,44844,2,0,L|248:108,2,34.5,8|0|2,0:1|0:0|0:0,0:0:0:0:
145,83,45160,2,0,L|129:51,2,34.5,2|0|2,0:0|0:0|1:2,0:0:0:0:
216,155,45476,1,0,1:0:0:0:
371,206,45634,6,0,L|499:262,2,138,8|2|2,0:1|0:0|0:0,0:0:0:0:
293,207,46423,2,0,L|283:128,1,69,2|2,0:3|0:3,0:0:0:0:
441,86,46739,6,0,L|456:234,1,138,2|2,1:2|1:2,0:0:0:0:
293,318,47371,2,0,L|443:300,1,138,10|2,0:1|0:3,0:0:0:0:
357,257,47844,2,0,L|215:233,1,138,0|0,1:0|1:0,0:0:0:0:
148,221,48318,2,0,L|137:139,1,69,2|0,0:3|0:0,0:0:0:0:
226,140,48634,2,0,P|301:122|298:5,1,207,8|0,0:1|0:0,0:0:0:0:
150,24,49265,6,0,P|110:21|65:163,1,207,2|2,1:3|0:0,0:0:0:0:
131,188,49897,2,0,L|192:187,2,34.5,8|0|2,0:1|0:0|0:2,0:0:0:0:
54,187,50213,2,0,L|30:136,2,34.5,2|0|2,0:2|0:0|1:2,0:0:0:0:
134,226,50529,6,0,L|213:231,1,69,0|0,1:3|0:0,0:0:0:0:
358,303,50844,2,0,L|430:289,1,69,2|2,0:3|0:3,0:0:0:0:
347,255,51160,2,0,L|203:231,1,138,8|2,0:1|0:3,0:0:0:0:
200,148,51634,1,2,0:3:0:0:
354,118,51792,6,0,L|500:169,1,138,2|2,1:2|0:3,0:0:0:0:
332,230,52423,2,0,L|172:267,1,138,8|2,0:1|0:0,0:0:0:0:
279,297,52897,2,0,L|445:288,1,138,0|0,1:0|1:0,0:0:0:0:
450,216,53371,1,2,0:3:0:0:
418,291,53529,1,2,0:3:0:0:
263,205,53687,6,0,L|241:169,2,34.5,2|2|2,0:3|0:3|0:3,0:0:0:0:
338,211,54002,2,0,L|359:168,2,34.5,2|2|2,0:3|0:3|0:3,0:0:0:0:
176,246,54318,5,2,1:2:0:0:
256,192,54634,12,8,55265,1:2:0:0:
254,134,55581,6,0,L|85:113,1,138,4|10,1:2|0:0,0:0:0:0:
192,84,56055,2,0,L|333:68,1,138,2|2,1:2|1:2,0:0:0:0:
401,144,56529,2,0,L|324:152,1,69,10|2,0:2|0:2,0:0:0:0:
177,198,56844,6,0,L|139:268,2,69,2|2|10,1:2|1:2|0:0,0:0:0:0:
249,180,57318,1,2,0:0:0:0:
323,201,57476,2,0,L|447:208,2,103.5,2|0|2,0:0|0:0|0:0,0:0:0:0:
168,291,58108,6,0,P|152:239|222:195,1,138,2|10,1:2|0:2,0:0:0:0:
283,187,58581,1,2,0:2:0:0:
206,149,58739,2,0,L|115:142,2,69,2|2|10,0:2|1:2|0:0,0:0:0:0:
286,111,59213,6,0,L|324:48,2,69,2|2|2,0:0|1:2|1:2,0:0:0:0:
205,126,59687,2,0,L|54:140,1,138,10|2,0:0|0:2,0:0:0:0:
138,185,60160,1,2,1:2:0:0:
209,205,60318,2,0,L|255:205,2,34.5,10|0|2,0:2|0:0|1:2,0:0:0:0:
34,293,60634,6,0,L|34:159,1,124.199996209717,4|0,1:2|0:0,0:0:0:0:
146,144,61108,1,0,0:0:0:0:
220,129,61265,2,0,L|254:61,2,69,2|2|10,0:2|1:2|0:2,0:0:0:0:
146,144,61739,1,2,1:2:0:0:
303,204,61897,6,0,L|383:206,2,69,2|0|10,1:2|1:0|0:0,0:0:0:0:
220,227,62371,2,0,P|192:178|254:128,1,138,2|2,1:2|1:2,0:0:0:0:
314,111,62844,1,10,0:2:0:0:
385,116,63002,1,2,1:2:0:0:
231,48,63160,6,0,L|86:80,1,138,2|10,1:2|0:2,0:0:0:0:
144,118,63581,1,2,0:2:0:0:
198,131,63687,1,2,0:2:0:0:
252,141,63792,2,0,L|258:287,1,138,2|10,0:2|0:2,0:0:0:0:
190,295,64265,1,0,0:0:0:0:
34,215,64423,5,2,1:2:0:0:
103,173,64581,2,0,L|250:122,2,138,8|10|8,1:2|1:2|1:3,0:0:0:0:
30,242,65371,1,8,0:3:0:0:
63,250,65449,1,0,0:0:0:0:
96,259,65528,1,0,1:0:0:0:
262,318,65687,6,0,P|317:281|208:160,1,248.399992419434,4|0,1:2|0:0,0:0:0:0:
170,129,66318,2,0,L|72:117,2,69,2|2|10,1:2|1:2|0:0,0:0:0:0:
246,142,66792,1,2,0:0:0:0:
402,173,66950,6,0,L|448:102,2,69,2|2|10,1:2|1:2|0:0,0:0:0:0:
325,193,67423,2,0,L|167:215,1,138,2|2,1:2|1:2,0:0:0:0:
115,229,67897,2,0,L|90:184,2,34.5,10|0|2,0:0|0:0|0:0,0:0:0:0:
268,288,68213,6,0,L|425:255,1,138,2|10,1:2|0:0,0:0:0:0:
331,217,68687,1,2,1:2:0:0:
253,208,68844,2,0,L|230:161,2,34.5,2|0|2,1:2|0:0|1:2,0:0:0:0:
332,183,69160,2,0,L|395:171,2,34.5,10|0|2,0:0|0:0|0:0,0:0:0:0:
172,106,69476,6,0,L|52:89,1,103.5,2|4,1:2|1:2,0:0:0:0:
294,47,69950,2,0,P|321:95|261:162,1,138,4|2,1:2|1:2,0:0:0:0:
212,173,70423,1,10,0:0:0:0:
141,178,70581,1,2,0:0:0:0:
296,262,70739,6,0,L|442:278,1,138,4|10,1:2|0:0,0:0:0:0:
360,324,71213,2,0,L|221:343,1,138,2|2,0:0|1:2,0:0:0:0:
299,323,71687,2,0,L|305:251,1,69,10|2,0:0|0:0,0:0:0:0:
152,244,72002,6,0,L|76:246,2,69,2|2|10,1:2|1:2|0:0,0:0:0:0:
323,240,72476,2,0,P|349:191|188:71,1,298.080007277344,2|2,1:2|0:0,0:0:0:0:
44,123,73265,6,0,L|39:196,1,69,2|0,1:2|0:0,0:0:0:0:
114,218,73581,2,0,L|210:222,1,69,10|2,0:2|0:2,0:0:0:0:
106,262,73897,6,0,L|55:266,2,34.5,2|0|2,0:2|0:0|1:2,0:0:0:0:
190,269,74213,1,10,0:2:0:0:
224,272,74291,1,0,0:0:0:0:
258,275,74370,1,2,0:2:0:0:
104,364,74529,6,0,L|21:356,1,69,2|8,1:2|1:2,0:0:0:0:
305,312,75002,2,0,L|329:277,2,34.5,2|8|8,1:2|1:3|1:2,0:0:0:0:
239,318,75318,1,0,1:0:0:0:
87,295,75476,2,0,L|54:226,2,69,10|2|2,0:0|1:2|1:2,0:0:0:0:
413,348,76108,6,0,P|457:135|223:331,1,745.199977258301,14|0,1:2|0:0,0:0:0:0:
289,331,77687,2,0,L|436:324,1,138,2|0,0:0|0:0,0:0:0:0:
155,219,78318,6,0,L|6:182,2,138,2|10|0,1:2|0:0|0:0,0:0:0:0:
226,228,79108,1,0,1:0:0:0:
298,237,79265,1,10,0:0:0:0:
146,323,79581,5,2,1:2:0:0:
77,319,79738,1,0,1:0:0:0:
8,315,79896,1,10,0:0:0:0:
159,220,80213,1,2,0:0:0:0:
96,191,80370,1,0,1:0:0:0:
33,162,80528,1,8,0:0:0:0:
303,140,80844,6,0,L|452:127,2,138,6|10|0,1:2|0:0|0:0,0:0:0:0:
225,140,81634,2,0,L|220:66,1,69,0|8,1:0|0:0,0:0:0:0:
374,45,82108,2,0,L|375:132,1,69,2|0,1:2|1:0,0:0:0:0:
297,128,82423,1,10,0:0:0:0:
453,189,82739,2,0,L|479:260,2,69,2|0|10,0:0|1:0|0:0,0:0:0:0:
189,284,83371,6,0,L|330:274,2,138,2|10|2,1:2|0:0|0:0,0:0:0:0:
117,260,84160,1,0,1:0:0:0:
190,288,84318,1,8,0:0:0:0:
451,343,84634,1,2,1:2:0:0:
379,313,84792,6,0,L|217:293,3,138,2|0|0|0,1:2|1:0|1:0|1:0,0:0:0:0:
83,291,85897,6,0,L|23:190,2,103.5,6|2|2,1:2|0:0|0:3,0:0:0:0:
154,310,86529,1,2,1:2:0:0:
186,236,86687,1,2,1:2:0:0:
154,310,86844,1,8,0:0:0:0:
83,295,87002,1,0,0:0:0:0:
236,344,87160,6,0,L|355:312,2,103.5,2|0|2,1:2|0:0|1:3,0:0:0:0:
165,327,87792,1,2,0:3:0:0:
134,246,87950,1,2,1:2:0:0:
165,327,88108,1,8,0:0:0:0:
237,343,88265,1,0,0:0:0:0:
388,323,88423,6,0,L|453:236,2,103.5,2|0|2,1:2|0:0|0:3,0:0:0:0:
317,311,89055,2,0,L|230:296,2,69,2|2|8,1:3|1:2|0:0,0:0:0:0:
390,324,89529,1,0,0:0:0:0:
237,200,89687,6,0,L|103:177,1,103.5,6|6,1:2|1:2,0:0:0:0:
358,218,90160,2,0,P|375:166|306:109,1,138,2|2,1:2|1:2,0:0:0:0:
256,93,90634,1,10,0:0:0:0:
183,86,90792,1,0,0:0:0:0:
334,65,90950,6,0,L|447:82,2,103.5,6|0|2,1:2|0:0|0:3,0:0:0:0:
263,80,91581,1,2,0:3:0:0:
228,162,91739,1,2,1:2:0:0:
263,80,91897,1,8,0:0:0:0:
334,67,92055,1,0,0:0:0:0:
187,53,92213,6,0,L|72:80,2,103.5,2|0|2,1:2|0:0|0:3,0:0:0:0:
260,104,92844,2,0,L|334:111,2,69,2|0|8,0:3|0:0|0:0,0:0:0:0:
187,111,93318,1,0,0:0:0:0:
34,181,93476,6,0,L|34:328,1,138,6|0,1:2|0:0,0:0:0:0:
177,348,94108,2,0,L|262:334,1,69,4|0,0:3|1:0,0:0:0:0:
170,308,94423,2,0,L|82:305,1,69,8|4,0:0|0:3,0:0:0:0:
244,239,94739,6,0,L|375:226,2,103.5,0|4|4,1:0|0:3|0:3,0:0:0:0:
170,228,95371,1,8,0:3:0:0:
316,134,95687,1,0,3:0:0:0:
350,131,95765,1,0,3:0:0:0:
384,128,95844,1,0,3:0:0:0:
232,94,96002,5,0,1:0:0:0:
40,169,96634,1,2,0:0:0:0:
251,251,97265,2,0,L|277:204,2,34.5,0|0|0,1:0|3:0|3:0,0:0:0:0:
178,266,97581,2,0,L|104:275,2,69,0|8|2,1:0|3:3|3:2,0:0:0:0:
439,327,98213,5,8,1:2:0:0:
168,361,98529,6,0,L|49:335,2,103.5,6|2|2,1:2|0:0|0:0,0:0:0:0:
279,355,99239,1,2,0:0:0:0:
394,258,99476,2,0,L|307:250,1,69,10|2,0:0|0:0,0:0:0:0:
182,170,99792,6,0,L|279:109,2,103.5,2|2|2,1:2|0:0|0:0,0:0:0:0:
66,128,100502,1,2,0:0:0:0:
183,80,100739,2,0,L|260:72,1,69,10|2,0:0|0:0,0:0:0:0:
101,235,101055,6,0,L|41:144,2,103.5,2|2|2,1:2|0:0|0:0,0:0:0:0:
208,271,101765,1,2,0:0:0:0:
85,341,102002,2,0,L|165:338,1,69,10|2,0:0|0:0,0:0:0:0:
310,352,102318,6,0,L|464:293,1,138,2|8,1:2|0:0,0:0:0:0:
363,269,102792,2,0,L|215:235,1,138,2|2,0:0|0:0,0:0:0:0:
150,207,103265,2,0,L|122:159,2,34.5,10|2|2,1:2|0:0|0:0,0:0:0:0:
302,148,103581,6,0,L|413:130,2,103.5,6|2|2,1:2|0:0|0:0,0:0:0:0:
185,92,104292,1,2,0:0:0:0:
305,102,104529,2,0,L|383:96,1,69,10|2,0:0|0:0,0:0:0:0:
221,238,104844,6,0,L|108:213,2,103.5,2|2|2,1:2|0:0|0:0,0:0:0:0:
328,265,105555,1,2,0:0:0:0:
438,334,105792,2,0,L|351:353,1,69,10|2,0:0|0:0,0:0:0:0:
219,357,106108,6,0,L|165:261,2,103.5,2|2|2,1:2|0:0|0:0,0:0:0:0:
336,353,106818,1,2,0:0:0:0:
211,256,107055,2,0,L|165:250,2,34.5,8|0|0,3:2|3:2|3:2,0:0:0:0:
365,229,107371,6,0,L|437:220,1,69,2|2,1:2|3:2,0:0:0:0:
184,106,107844,2,0,L|96:98,1,69,2|2,1:2|3:2,0:0:0:0:
379,55,108318,6,0,L|389:204,1,138,2|2,1:2|0:0,0:0:0:0:
105,270,108950,5,6,1:2:0:0:
174,284,109108,2,0,L|283:297,2,103.5,2|2|10,0:0|0:0|0:0,0:0:0:0:
104,277,109739,1,2,0:0:0:0:
251,204,109897,6,0,L|375:181,2,103.5,2|2|2,1:2|0:0|0:0,0:0:0:0:
140,146,110608,1,2,0:0:0:0:
256,94,110844,2,0,L|324:86,1,69,10|2,0:0|0:0,0:0:0:0:
174,52,111160,6,0,L|59:26,2,103.5,2|2|2,1:2|0:0|0:0,0:0:0:0:
288,93,111871,1,2,0:0:0:0:
170,206,112108,2,0,L|83:226,1,69,10|2,0:0|0:0,0:0:0:0:
256,303,112423,6,0,L|417:291,1,138,2|8,1:2|0:0,0:0:0:0:
313,261,112897,2,0,L|174:243,1,138,2|2,0:0|0:0,0:0:0:0:
254,224,113371,2,0,L|272:190,2,34.5,10|2|2,1:2|0:0|0:0,0:0:0:0:
100,213,113687,6,0,L|41:121,2,103.5,2|2|2,1:2|0:0|0:0,0:0:0:0:
210,235,114397,1,2,0:0:0:0:
328,323,114634,2,0,L|249:335,1,69,10|2,0:0|0:0,0:0:0:0:
106,332,114950,6,0,L|50:231,2,103.5,2|2|2,1:2|0:0|0:0,0:0:0:0:
218,348,115660,1,2,0:0:0:0:
99,228,115897,2,0,L|6:222,1,69,10|2,0:0|0:0,0:0:0:0:
183,159,116213,6,0,L|259:150,2,69,0|0|8,1:0|1:0|1:2,0:0:0:0:
110,127,116687,2,0,L|69:57,2,69,0|0|0,1:0|1:0|1:0,0:0:0:0:
266,204,117160,2,0,L|283:164,2,34.5,8|0|0,1:2|1:0|1:0,0:0:0:0:
108,240,117476,6,0,L|35:250,1,69,0|0,1:0|1:0,0:0:0:0:
292,318,117950,2,0,L|385:331,1,69,0|0,1:0|1:0,0:0:0:0:
92,369,118423,6,0,L|78:222,1,138,2|2,1:2|1:2,0:0:0:0:
361,176,119055,5,4,1:2:0:0:
291,154,119213,2,0,L|168:137,2,103.5,2|2|10,0:0|0:0|0:0,0:0:0:0:
362,152,119844,1,2,0:0:0:0:
210,248,120002,6,0,L|101:228,2,103.5,2|2|2,1:2|0:0|0:0,0:0:0:0:
282,297,120634,2,0,L|130:324,1,138,2|10,1:2|0:0,0:0:0:0:
76,321,121108,1,2,0:0:0:0:
226,352,121265,6,0,L|337:340,2,103.5,2|2|2,1:2|0:0|0:0,0:0:0:0:
110,274,121976,1,2,0:0:0:0:
228,233,122213,2,0,L|313:219,1,69,10|2,0:0|0:0,0:0:0:0:
448,233,122529,6,0,P|463:180|390:116,1,138,2|8,1:2|0:0,0:0:0:0:
339,105,123002,2,0,L|187:81,1,138,2|2,0:0|0:0,0:0:0:0:
279,53,123476,2,0,L|299:95,2,34.5,10|2|2,1:2|0:0|1:2,0:0:0:0:
127,86,123792,6,0,L|25:137,2,103.5,6|2|2,1:2|0:0|0:0,0:0:0:0:
239,142,124502,1,2,0:0:0:0:
352,214,124739,2,0,L|257:234,1,69,10|2,0:0|0:0,0:0:0:0:
132,261,125055,6,0,L|73:145,2,103.5,2|2|2,1:2|0:0|0:0,0:0:0:0:
204,294,125687,2,0,L|51:314,1,138,2|10,1:2|0:0,0:0:0:0:
137,338,126160,1,2,0:0:0:0:
287,342,126318,6,0,L|401:293,2,103.5,2|2|2,1:2|0:0|0:0,0:0:0:0:
168,283,127029,1,2,0:0:0:0:
281,242,127265,2,0,L|366:233,1,69,8|0,3:2|3:2,0:0:0:0:
198,156,127581,6,0,L|113:149,1,69,2|2,1:2|3:2,0:0:0:0:
377,94,128055,2,0,L|462:82,1,69,2|2,1:2|3:2,0:0:0:0:
175,24,128529,6,0,L|168:177,1,138,2|2,1:2|0:0,0:0:0:0:
475,248,129160,6,0,P|485:173|296:303,1,538.19997536316,4|2,1:2|1:2,0:0:0:0:
334,282,130265,5,2,0:2:0:0:
368,213,130423,1,10,0:2:0:0:
334,282,130581,1,2,0:2:0:0:
261,283,130739,1,2,1:2:0:0:
227,208,130897,1,0,0:0:0:0:
261,283,131055,1,10,1:2:0:0:
334,282,131213,1,0,0:0:0:0:
183,348,131371,6,0,P|94:329|301:164,1,627.89997125702,2|2,1:2|0:0,0:0:0:0:
229,178,132634,5,2,1:2:0:0:
429,232,132871,2,0,L|428:106,1,103.5,6|6,1:2|1:2,0:0:0:0:
318,92,133344,1,6,1:2:0:0:
204,72,133581,2,0,L|300:52,1,69,2|2,1:2|1:2,0:0:0:0:
428,86,133897,6,0,L|435:239,1,138,6|2,1:2|0:2,0:0:0:0:
362,244,134371,1,2,0:2:0:0:
288,259,134529,2,0,L|275:184,1,69,2|2,0:2|0:2,0:0:0:0:
350,173,134844,2,0,L|429:161,1,69,2|2,0:2|1:2,0:0:0:0:
265,100,135160,6,0,L|126:79,1,138,2|2,1:2|0:2,0:0:0:0:
204,59,135634,1,2,0:2:0:0:
279,134,135792,2,0,L|195:142,1,69,2|2,0:2|0:2,0:0:0:0:
135,177,136108,2,0,L|237:185,1,69,2|2,0:2|1:2,0:0:0:0:
354,261,136423,6,0,P|370:218|245:128,1,207,2|0,1:2|0:0,0:0:0:0:
196,91,137055,2,0,L|111:84,1,69,0|0,1:0|1:0,0:0:0:0:
203,62,137371,2,0,L|292:58,1,69,2|0,0:0|0:0,0:0:0:0:
121,193,137687,6,0,L|37:183,2,69,2|2|2,1:2|1:2|1:2,0:0:0:0:
199,201,138160,2,0,L|203:276,1,69,2|2,1:2|1:2,0:0:0:0:
128,286,138476,1,2,1:2:0:0:
277,329,138634,5,8,1:2:0:0:
311,329,138712,1,0,1:0:0:0:
345,330,138791,1,8,1:2:0:0:
347,229,138950,1,0,1:0:0:0:
62,168,139265,5,6,1:2:0:0:
256,192,139581,12,4,144318,0:0:0:0:
