osu file format v14

[General]
AudioFilename: audio.mp3
AudioLeadIn: 0
PreviewTime: 95917
Countdown: 0
SampleSet: Soft
StackLeniency: 0.7
Mode: 2
LetterboxInBreaks: 0
WidescreenStoryboard: 1

[Editor]
DistanceSpacing: 1.5
BeatDivisor: 4
GridSize: 32
TimelineZoom: 2.5

[Metadata]
Title:Intuition
TitleUnicode:Intuition
Artist:technoplanet
ArtistUnicode:technoplanet
Creator:Jemzuu
Version:Rain
Source:
Tags:ハセガワシュン featured artist fa mappers' guild mg ajamez ctbi vii 7 qf quarterfinals nm1 no mod osu!catch international cup 7 instrumental electronic wub dubstep piano drum n bass and dnb d&b hardcore happycore core electric guitar stream Strange Story 2020
BeatmapID:3174648
BeatmapSetID:1553878

[Difficulty]
HPDrainRate:5
CircleSize:4
OverallDifficulty:9.2
ApproachRate:9.2
SliderMultiplier:1.8
SliderTickRate:2

[Events]
//Background and Video events
0,0,"adventure!!.jpg",0,0
//Break Periods
//Storyboard Layer 0 (Background)
//Storyboard Layer 1 (Fail)
//Storyboard Layer 2 (Pass)
//Storyboard Layer 3 (Foreground)
//Storyboard Layer 4 (Overlay)
//Storyboard Sound Samples

[TimingPoints]
1266,315.78947368421,4,2,1,70,1,0
4265,-100,4,2,4,70,0,0
4344,-100,4,2,1,70,0,0
27791,-100,4,2,1,70,0,0
28265,-100,4,2,1,70,0,0
28423,-100,4,2,1,70,0,0
34107,-100,4,2,2,60,0,0
44212,-100,4,2,1,70,0,0
50883,-100,4,2,1,5,0,0
51002,-100,4,2,1,70,0,0
51041,-100,4,2,1,5,0,0
51159,-100,4,2,1,70,0,0
53390,-100,4,2,1,5,0,0
53449,-100,4,2,1,70,0,0
53469,-100,4,2,1,5,0,0
53528,-100,4,2,1,70,0,0
53548,-100,4,2,1,5,0,0
53607,-100,4,2,1,70,0,0
53627,-100,4,2,1,5,0,0
53686,-100,4,2,1,70,0,0
53706,-100,4,2,1,5,0,0
53765,-100,4,2,1,70,0,0
53785,-100,4,2,1,5,0,0
53844,-100,4,2,1,70,0,0
53864,-100,4,2,1,5,0,0
53923,-100,4,2,1,70,0,0
53943,-100,4,2,1,5,0,0
54002,-100,4,2,1,70,0,0
54022,-100,4,2,1,5,0,0
54081,-100,4,2,1,70,0,0
54101,-100,4,2,1,5,0,0
54159,-100,4,2,1,70,0,0
54179,-100,4,2,1,5,0,0
54238,-100,4,2,1,70,0,0
54258,-100,4,2,1,5,0,0
54317,-100,4,2,1,70,0,0
55581,-100,4,2,1,70,0,0
58423,-100,4,2,1,60,0,0
58738,-100,4,2,1,50,0,0
59370,-100,4,2,1,60,0,0
59844,-100,4,2,1,65,0,0
60317,-100,4,2,1,70,0,0
60633,-100,4,2,1,70,0,0
61028,-100,4,2,1,70,0,0
61265,-100,4,2,1,70,0,0
65686,-100,4,2,1,70,0,0
66081,-100,4,2,1,70,0,0
66318,-100,4,2,1,70,0,0
72476,-83.3333333333333,4,2,1,70,0,0
72792,-100,4,2,98,70,0,0
72871,-100,4,2,1,70,0,0
72950,-100,4,2,99,70,0,0
73265,-100,4,2,1,70,0,0
76029,-100,4,2,1,5,0,0
76108,-76.9230769230769,4,2,1,80,0,1
76582,-100,4,2,98,80,0,1
76739,-100,4,2,99,80,0,1
76897,-100,4,2,1,80,0,1
77055,-100,4,2,98,80,0,1
77371,-100,4,2,99,80,0,1
77529,-100,4,2,1,80,0,1
77687,-100,4,2,1,60,0,0
77845,-100,4,2,98,60,0,0
78003,-100,4,2,99,60,0,0
78160,-100,4,2,1,60,0,0
85897,-100,4,2,1,65,0,0
86371,-100,4,2,3,70,0,0
94108,-100,4,2,1,60,0,0
95687,-100,4,2,1,75,0,0
96003,-100,4,2,1,70,0,0
96318,-100,4,2,1,55,0,0
97266,-100,4,2,1,60,0,0
98213,-100,4,2,1,70,0,0
98529,-100,4,2,4,80,0,1
98608,-100,4,2,5,80,0,1
103108,-100,4,2,1,80,0,1
103582,-100,4,2,5,80,0,1
108634,-100,4,2,13,80,0,0
108950,-100,4,2,4,80,0,1
109029,-100,4,2,5,80,0,1
113213,-100,4,2,1,80,0,1
113687,-100,4,2,5,80,0,1
118739,-100,4,2,14,80,0,0
119055,-100,4,2,4,80,0,1
119213,-100,4,2,5,80,0,1
128844,-100,4,2,13,80,0,0
129160,-76.9230769230769,4,2,4,80,0,1
129476,-100,4,2,98,80,0,1
129634,-100,4,2,1,80,0,1
129792,-100,4,2,99,80,0,1
129950,-100,4,2,1,80,0,1
130108,-100,4,2,1,80,0,1
131371,-83.3333333333333,4,2,1,80,0,1
131687,-100,4,2,99,80,0,1
131845,-100,4,2,1,80,0,1
132003,-100,4,2,98,80,0,1
132160,-100,4,2,1,80,0,1
132318,-100,4,2,99,80,0,1
132476,-100,4,2,1,80,0,1
133897,-100,4,2,1,80,0,0
136423,-88.4955752212389,4,2,1,80,0,0
137055,-100,4,2,98,80,0,0
137134,-100,4,2,1,80,0,0
137687,-100,4,2,1,80,0,0
139265,-100,4,2,15,90,0,1
139344,-100,4,2,1,60,0,0
140213,-100,4,2,1,50,0,0
140845,-100,4,2,1,45,0,0
141476,-100,4,2,1,40,0,0
142108,-100,4,2,1,30,0,0
142739,-100,4,2,1,25,0,0
143371,-100,4,2,1,15,0,0
143845,-100,4,2,4,10,0,0

[Colours]
Combo1 : 255,170,130
Combo2 : 60,157,255
Combo3 : 255,255,128
Combo4 : 157,157,255
Combo5 : 255,164,255

[HitObjects]
256,192,160,12,0,1108,0:0:0:0:
280,214,1266,5,0,1:0:0:0:
143,213,1423,2,0,L|137:89,1,90,0|2,1:0|0:1,0:0:0:0:
193,95,1660,1,0,0:0:0:0:
250,88,1739,1,2,0:1:0:0:
185,66,1818,2,0,L|23:51,1,135,2|2,0:0|0:1,0:0:0:0:
223,22,2265,2,0,L|228:108,1,60,0|2,0:0|0:0,0:0:0:0:
463,120,2529,5,10,0:0:0:0:
443,160,2607,1,2,0:0:0:0:
410,190,2686,1,2,0:0:0:0:
367,204,2765,1,2,0:0:0:0:
318,206,2844,2,0,L|252:203,2,45,2|2|2,0:0|0:0|0:0,0:0:0:0:
376,208,3081,6,0,L|384:324,1,90,2|2,0:0|0:0,0:0:0:0:
328,315,3318,1,2,0:0:0:0:
199,356,3476,2,0,L|255:355,1,45,4|4,0:3|0:3,0:0:0:0:
305,277,3634,2,0,L|248:271,1,45,4|4,0:3|0:3,0:0:0:0:
83,232,3792,5,0,1:0:0:0:
79,127,3950,2,0,L|201:120,1,90,0|2,1:0|0:0,0:0:0:0:
415,25,4265,6,0,L|444:78,2,45,12|2|2,0:0|0:0|0:0,0:0:0:0:
366,15,4502,1,2,0:0:0:0:
316,17,4581,1,2,0:0:0:0:
430,143,4739,6,0,L|450:209,3,45,2|2|2|2,0:0|0:0|0:0|0:0,0:0:0:0:
380,209,5055,2,0,L|317:203,2,45,2|2|2,0:0|0:0|0:0,0:0:0:0:
446,260,5292,2,0,L|341:270,1,90,2|2,0:0|0:0,0:0:0:0:
282,277,5529,2,0,P|212:257|275:173,1,180,0|2,0:0|0:0,0:0:0:0:
284,157,5923,1,0,0:0:0:0:
331,154,6002,1,0,0:0:0:0:
175,95,6081,2,0,L|107:91,2,45,0|2|2,0:0|0:0|0:0,0:0:0:0:
354,57,6318,6,0,P|375:108|269:157,1,180,4|10,1:2|0:0,0:0:0:0:
231,186,6713,1,2,0:0:0:0:
175,193,6792,1,2,0:0:0:0:
235,218,6871,2,0,L|360:225,1,90,2|2,0:0|0:0,0:0:0:0:
150,325,7108,1,2,1:2:0:0:
43,305,7265,2,0,L|18:257,2,45,10|2|2,0:0|0:0|0:0,0:0:0:0:
277,358,7581,5,0,1:0:0:0:
163,368,7739,1,0,1:0:0:0:
286,328,7897,2,0,L|352:325,2,45,10|2|2,0:0|0:0|0:0,0:0:0:0:
223,325,8134,2,0,L|217:224,1,90,2|2,0:0|0:0,0:0:0:0:
273,214,8371,1,2,1:2:0:0:
397,172,8529,2,0,L|355:141,1,45,10|2,0:0|0:0,0:0:0:0:
306,127,8687,2,0,L|234:120,1,45,2|2,0:0|0:0,0:0:0:0:
433,40,8844,6,0,L|437:152,1,90,2|0,1:2|1:0,0:0:0:0:
308,208,9160,2,0,L|232:214,2,45,10|2|2,0:0|0:2|0:2,0:0:0:0:
362,216,9397,2,0,L|387:263,2,45,2|2|2,0:2|0:2|0:2,0:0:0:0:
308,209,9634,1,2,1:2:0:0:
165,191,9792,2,0,L|201:165,1,45,10|2,0:2|0:2,0:0:0:0:
254,151,9950,2,0,L|335:148,1,45,2|2,0:2|0:2,0:0:0:0:
126,93,10108,6,0,L|23:85,1,90,2|2,1:2|0:0,0:0:0:0:
162,22,10423,1,10,0:0:0:0:
206,24,10501,1,0,0:0:0:0:
251,26,10580,1,0,0:0:0:0:
93,186,10660,2,0,L|15:194,2,45,10|10|0,0:0|0:0|0:0,0:0:0:0:
261,207,10897,2,0,L|321:208,1,45,4|0,0:3|0:0,0:0:0:0:
240,237,11055,2,0,L|207:188,2,45,8|0|0,0:0|0:0|1:0,0:0:0:0:
289,251,11292,1,0,0:0:0:0:
464,287,11371,6,0,L|471:178,1,90,6|4,1:2|0:3,0:0:0:0:
419,186,11608,1,2,0:0:0:0:
307,83,11765,2,0,L|239:80,1,45,4|4,0:3|0:3,0:0:0:0:
383,37,12002,1,4,0:3:0:0:
142,122,12160,6,0,L|133:226,1,90,4|4,3:2|0:3,0:0:0:0:
187,232,12397,1,4,0:3:0:0:
65,275,12555,2,0,L|1:278,1,45,4|4,0:3|0:3,0:0:0:0:
138,338,12792,1,4,0:3:0:0:
375,353,12950,6,0,L|403:309,2,45,6|2|2,1:2|0:0|0:1,0:0:0:0:
325,360,13187,1,2,0:0:0:0:
272,352,13265,2,0,L|244:308,2,45,2|2|2,0:0|0:0|0:0,0:0:0:0:
325,360,13502,1,2,0:0:0:0:
168,206,13581,2,0,L|106:200,1,45,2|2,0:0|0:0,0:0:0:0:
285,126,13739,2,0,L|371:123,1,45,2|2,0:0|0:0,0:0:0:0:
149,54,13897,6,0,L|2:85,1,135,4|2,1:2|0:0,0:0:0:0:
65,118,14213,1,8,0:0:0:0:
199,131,14371,1,2,0:2:0:0:
241,141,14449,1,2,0:2:0:0:
260,181,14528,1,2,0:2:0:0:
242,220,14607,1,2,0:2:0:0:
200,232,14687,1,2,1:2:0:0:
150,241,14765,1,2,0:2:0:0:
200,260,14844,1,10,0:2:0:0:
250,268,14923,1,2,0:2:0:0:
301,273,15002,1,2,0:2:0:0:
62,354,15160,6,0,L|53:248,1,90,0|0,1:0|1:0,0:0:0:0:
171,236,15476,1,10,0:0:0:0:
43,179,15634,2,0,L|10:133,2,45,2|2|2,0:0|0:0|0:0,0:0:0:0:
93,189,15871,1,2,0:0:0:0:
143,191,15950,1,2,1:2:0:0:
196,191,16029,1,2,0:0:0:0:
139,165,16108,2,0,L|113:117,2,45,10|2|2,0:0|0:0|0:0,0:0:0:0:
392,52,16423,6,0,L|279:54,1,90,2|0,1:2|0:0,0:0:0:0:
435,137,16739,2,0,L|461:91,2,45,8|2|2,0:0|0:2|0:2,0:0:0:0:
381,145,16976,1,2,0:2:0:0:
325,140,17055,2,0,L|296:95,2,45,2|2|2,0:2|0:2|1:2,0:0:0:0:
381,145,17292,1,2,0:2:0:0:
437,148,17371,2,0,L|501:145,2,45,10|2|2,0:2|0:2|0:2,0:0:0:0:
188,297,17687,6,0,L|309:287,1,90,2|2,1:2|1:2,0:0:0:0:
149,209,18002,2,0,L|98:206,2,45,10|2|2,0:2|0:2|0:2,0:0:0:0:
206,204,18239,2,0,L|234:160,2,45,2|2|2,0:2|0:2|0:2,0:0:0:0:
155,235,18476,1,2,1:2:0:0:
104,242,18555,1,2,0:2:0:0:
263,291,18634,1,10,0:2:0:0:
313,298,18713,2,0,L|338:253,2,45,2|2|2,0:2|0:2|0:2,0:0:0:0:
134,343,18950,6,0,L|32:353,1,90,4|0,1:2|0:0,0:0:0:0:
175,256,19265,1,8,0:0:0:0:
45,349,19423,2,0,L|13:293,2,45,2|2|2,0:2|0:2|0:2,0:0:0:0:
97,356,19660,1,2,0:2:0:0:
152,354,19739,2,0,L|219:346,1,45,2|2,1:2|0:2,0:0:0:0:
136,322,19897,2,0,L|99:269,2,45,10|2|2,0:2|0:2|0:2,0:0:0:0:
380,191,20213,6,0,L|277:189,1,90,2|2,1:2|1:2,0:0:0:0:
417,273,20529,1,8,0:0:0:0:
288,284,20687,1,2,0:2:0:0:
245,275,20765,1,2,0:2:0:0:
227,235,20844,1,2,0:2:0:0:
247,197,20923,1,2,0:2:0:0:
290,191,21002,1,2,1:2:0:0:
342,191,21081,1,2,0:2:0:0:
292,166,21160,1,10,0:2:0:0:
179,148,21318,1,2,0:2:0:0:
435,43,21476,6,0,L|445:165,1,90,2|0,1:2|0:0,0:0:0:0:
316,164,21792,1,8,0:0:0:0:
445,182,21950,2,0,L|473:131,2,45,2|2|2,0:2|0:2|0:2,0:0:0:0:
392,188,22187,1,2,0:2:0:0:
336,189,22265,2,0,L|310:246,2,45,2|2|10,1:2|0:2|0:2,0:0:0:0:
392,188,22502,1,2,0:2:0:0:
448,193,22581,1,2,0:2:0:0:
218,336,22739,6,0,L|118:342,1,90,2|2,1:2|1:2,0:0:0:0:
249,305,23055,1,0,3:0:0:0:
24,212,23213,2,0,L|137:205,1,90,2|10,1:2|0:2,0:0:0:0:
245,198,23529,1,2,1:2:0:0:
30,60,23687,2,0,L|25:169,1,90,10|2,0:2|1:2,0:0:0:0:
285,94,24002,6,0,L|85:81,1,180,4|8,1:2|0:0,0:0:0:0:
235,40,24476,2,0,L|302:42,1,45,2|2,0:2|0:2,0:0:0:0:
218,62,24634,2,0,L|185:111,2,45,2|2|2,0:2|0:2|1:2,0:0:0:0:
279,41,24871,1,2,0:2:0:0:
340,60,24950,2,0,L|371:113,2,45,10|2|2,0:2|0:2|0:2,0:0:0:0:
100,260,25265,6,0,L|215:268,1,90,0|0,1:0|1:0,0:0:0:0:
316,310,25581,1,10,0:0:0:0:
189,355,25739,2,0,L|126:355,1,45,2|2,0:0|0:0,0:0:0:0:
204,366,25897,2,0,L|239:321,2,45,2|2|2,0:0|0:0|1:2,0:0:0:0:
146,355,26134,1,2,0:0:0:0:
86,349,26213,2,0,L|56:303,2,45,10|2|2,0:0|0:0|0:0,0:0:0:0:
336,275,26529,6,0,L|346:146,1,90,2|0,1:2|0:0,0:0:0:0:
214,167,26844,2,0,L|183:113,2,45,8|2|2,0:0|0:2|0:2,0:0:0:0:
265,177,27081,1,2,0:2:0:0:
324,197,27160,2,0,L|246:208,1,45,2|2,0:2|0:2,0:0:0:0:
216,239,27318,2,0,L|278:247,1,45,2|2,1:2|0:2,0:0:0:0:
323,264,27476,2,0,L|350:222,2,45,10|2|2,0:2|0:2|0:2,0:0:0:0:
272,273,27713,1,2,0:2:0:0:
100,320,27792,6,0,P|46:302|57:218,1,135,6|6,1:2|1:2,0:0:0:0:
348,72,28265,2,0,L|466:79,1,90,6|2,1:2|0:2,0:0:0:0:
323,156,28581,1,2,1:2:0:0:
99,123,28739,2,0,L|72:78,2,45,10|2|2,0:2|0:2|0:2,0:0:0:0:
147,136,28976,1,2,0:2:0:0:
324,61,29055,6,0,L|500:125,1,180,4|8,1:2|0:0,0:0:0:0:
372,190,29529,2,0,L|307:194,1,45,2|2,0:2|0:2,0:0:0:0:
387,222,29687,2,0,L|415:266,2,45,2|2|2,0:2|0:2|1:2,0:0:0:0:
328,205,29923,1,2,0:2:0:0:
270,215,30002,1,10,0:2:0:0:
328,231,30081,1,2,0:2:0:0:
387,222,30160,1,2,0:2:0:0:
138,320,30318,6,0,L|9:326,1,90,2|2,1:2|1:2,0:0:0:0:
168,242,30634,1,8,0:0:0:0:
298,241,30792,1,2,0:2:0:0:
249,244,30871,1,2,0:2:0:0:
199,169,30950,2,0,L|172:127,2,45,2|2|2,0:2|0:2|1:2,0:0:0:0:
261,181,31187,1,2,0:2:0:0:
324,180,31265,2,0,L|387:180,2,45,10|2|2,0:2|0:2|0:2,0:0:0:0:
83,236,31581,6,0,L|79:123,1,90,2|0,1:2|0:0,0:0:0:0:
215,127,31897,2,0,L|243:88,2,45,8|0|0,0:0|0:0|0:0,0:0:0:0:
155,132,32134,1,0,0:0:0:0:
97,171,32213,2,0,L|157:179,1,45,2|2,0:2|0:2,0:0:0:0:
206,214,32371,2,0,L|147:223,1,45,2|2,1:2|0:2,0:0:0:0:
98,227,32529,2,0,L|67:180,2,45,10|2|2,0:2|0:2|0:2,0:0:0:0:
357,318,32844,6,0,L|482:327,1,90,2|2,1:2|1:2,0:0:0:0:
327,286,33160,1,0,3:0:0:0:
206,244,33318,2,0,L|266:218,1,45,0|0,0:0|0:0,0:0:0:0:
306,224,33476,2,0,L|310:108,1,90,10|2,0:2|1:2,0:0:0:0:
65,146,33792,2,0,L|55:50,1,90,10|2,0:2|1:2,0:0:0:0:
105,46,34029,1,2,0:2:0:0:
288,24,34108,6,0,P|317:86|175:191,1,270,6|2,1:2|0:0,0:0:0:0:
71,288,34739,2,0,P|186:106|447:380,1,720,10|8,0:0|0:0,0:0:0:0:
168,373,36634,6,0,P|142:295|285:218,1,270,2|2,0:0|0:0,0:0:0:0:
413,197,37265,2,0,P|394:143|202:61,1,270,8|0,0:0|0:0,0:0:0:0:
85,58,37897,2,0,P|48:243|181:350,1,360,2|10,0:0|0:0,0:0:0:0:
438,355,39160,6,0,P|358:351|355:172,1,270,2|2,0:0|0:0,0:0:0:0:
465,208,39792,2,0,P|475:155|154:253,1,720,10|8,0:0|0:0,0:0:0:0:
417,329,41687,6,0,L|442:39,1,270,2|2,0:0|0:0,0:0:0:0:
296,22,42318,2,0,P|232:20|145:198,1,270,8|0,0:0|0:0,0:0:0:0:
269,178,42950,2,0,P|344:189|354:359,1,270,2|2,0:0|0:0,0:0:0:0:
227,355,43581,2,0,P|51:255|92:144,1,315,10|0,0:0|0:0,0:0:0:0:
255,95,44213,5,4,1:2:0:0:
277,96,44252,1,0,0:0:0:0:
296,106,44291,1,0,0:0:0:0:
310,124,44331,1,0,0:0:0:0:
314,146,44370,1,0,0:0:0:0:
309,168,44410,1,0,0:0:0:0:
295,185,44449,1,0,0:0:0:0:
275,195,44489,1,0,0:0:0:0:
253,195,44528,1,0,1:0:0:0:
138,260,44687,2,0,L|208:267,1,45,2|2,0:0|0:0,0:0:0:0:
342,322,44844,6,0,L|401:319,1,45,8|0,0:1|0:0,0:0:0:0:
342,322,45002,2,0,L|264:315,1,45,2|2,0:0|0:0,0:0:0:0:
342,322,45160,2,0,L|424:315,1,45,2|2,0:0|0:1,0:0:0:0:
244,133,45318,2,0,L|176:127,2,45,2|2|0,1:2|0:0|1:0,0:0:0:0:
368,108,45634,6,0,L|380:79,4,22.5,8|0|0|0|0,0:1|0:0|0:0|0:0|0:0,0:0:0:0:
242,96,45950,6,0,L|238:60,4,22.5,2|0|0|0|8,0:0|0:0|0:0|0:0|0:1,0:0:0:0:
114,79,46265,6,0,L|102:50,4,22.5,2|0|0|0|2,0:0|0:0|0:0|0:0|0:3,0:0:0:0:
243,126,46581,1,2,0:3:0:0:
24,224,46739,6,0,L|58:261,1,45,2|2,1:2|0:2,0:0:0:0:
106,270,46897,2,0,L|186:268,1,45,2|2,0:2|0:2,0:0:0:0:
85,296,47055,2,0,P|30:285|38:216,1,135,2|0,1:2|0:0,0:0:0:0:
203,137,47371,5,10,0:1:0:0:
227,144,47410,1,0,0:0:0:0:
237,163,47449,1,0,0:0:0:0:
227,183,47489,1,0,0:0:0:0:
202,189,47528,1,0,0:0:0:0:
88,188,47687,1,2,0:3:0:0:
305,235,47844,5,0,1:0:0:0:
329,242,47883,1,0,0:0:0:0:
339,261,47922,1,0,0:0:0:0:
329,281,47962,1,0,0:0:0:0:
304,287,48001,1,0,0:0:0:0:
191,299,48160,1,0,1:0:0:0:
318,332,48318,6,0,L|330:296,6,22.5,2|0|0|0|0|0|0,0:3|0:0|0:0|0:0|0:0|0:0|0:0,0:0:0:0:
150,272,48634,5,8,0:1:0:0:
127,270,48673,1,0,0:0:0:0:
106,262,48712,1,0,0:0:0:0:
88,249,48752,1,0,0:0:0:0:
73,232,48791,1,0,0:0:0:0:
64,211,48831,1,0,0:0:0:0:
61,189,48870,1,0,0:0:0:0:
63,167,48910,1,0,0:0:0:0:
71,146,48949,1,0,0:0:0:0:
84,128,48989,1,0,0:0:0:0:
102,114,49028,1,0,0:0:0:0:
123,105,49068,1,0,0:0:0:0:
145,102,49107,1,0,0:0:0:0:
168,101,49147,1,0,0:0:0:0:
191,102,49186,1,0,0:0:0:0:
370,73,49265,6,0,P|432:86|344:206,1,270,2|2,1:3|0:0,0:0:0:0:
250,266,49897,2,0,L|199:271,1,45,8|0,0:1|0:0,0:0:0:0:
257,290,50055,2,0,L|329:298,1,45,2|2,0:2|0:2,0:0:0:0:
250,266,50213,2,0,L|194:263,1,45,2|2,0:2|0:2,0:0:0:0:
46,160,50371,5,2,1:2:0:0:
147,173,50529,2,0,L|152:84,1,90,0|0,1:3|0:0,0:0:0:0:
257,48,50844,2,0,L|290:44,1,22.5,2|0,0:3|0:0,0:0:0:0:
185,131,51002,2,0,L|148:135,1,22.5,2|0,0:3|0:0,0:0:0:0:
348,159,51160,5,8,0:1:0:0:
390,167,51238,1,2,0:0:0:0:
409,206,51317,1,2,0:0:0:0:
389,245,51396,1,2,0:0:0:0:
346,253,51475,1,2,0:3:0:0:
221,255,51634,1,2,0:3:0:0:
448,348,51792,6,0,L|457:273,1,45,2|2,1:2|0:2,0:0:0:0:
401,268,51950,2,0,L|332:268,1,45,2|2,0:2|0:2,0:0:0:0:
301,211,52108,2,0,L|475:187,1,135,2|0,0:3|0:0,0:0:0:0:
281,124,52423,6,0,L|141:98,1,135,8|0,0:1|0:0,0:0:0:0:
195,71,52739,1,2,0:0:0:0:
414,57,52897,2,0,P|441:116|363:150,1,135,0|0,1:0|0:0,0:0:0:0:
343,162,53213,1,0,1:0:0:0:
211,195,53371,6,0,L|198:257,1,45,2|2,0:3|0:3,0:0:0:0:
262,258,53529,2,0,L|270:315,1,45,2|2,0:3|0:3,0:0:0:0:
198,320,53687,2,0,L|190:376,1,45,2|2,0:3|0:3,0:0:0:0:
341,266,53844,2,0,L|368:317,1,45,2|2,0:3|0:3,0:0:0:0:
281,319,54002,2,0,L|262:366,1,45,2|2,0:3|0:3,0:0:0:0:
435,249,54160,2,0,L|487:289,1,45,2|2,0:3|0:3,0:0:0:0:
274,174,54318,5,2,1:2:0:0:
256,192,54476,12,8,55265,1:2:0:0:
248,117,55423,6,0,L|320:112,1,45,0|2,0:0|0:0,0:0:0:0:
106,184,55581,6,0,P|50:198|76:284,1,135,4|0,1:2|0:0,0:0:0:0:
99,287,55897,1,10,0:0:0:0:
229,326,56055,1,2,1:2:0:0:
181,319,56134,6,0,L|57:296,1,90,2|2,0:2|0:2,0:0:0:0:
138,273,56371,1,2,1:2:0:0:
185,266,56450,1,0,0:0:0:0:
247,245,56529,2,0,L|253:184,1,45,10|2,0:2|0:2,0:0:0:0:
181,189,56687,2,0,L|174:113,1,45,2|2,0:2|0:2,0:0:0:0:
329,106,56844,6,0,L|390:101,2,45,2|2|2,1:2|0:2|1:2,0:0:0:0:
206,98,57160,2,0,L|183:55,2,45,10|0|2,0:0|0:0|0:0,0:0:0:0:
255,108,57397,1,0,0:0:0:0:
405,236,57476,6,0,L|298:243,1,90,2|0,0:0|1:0,0:0:0:0:
293,288,57713,1,0,0:0:0:0:
315,241,57792,1,10,0:0:0:0:
436,313,57950,1,2,0:0:0:0:
214,355,58108,5,2,1:2:0:0:
163,349,58187,2,0,L|130:285,2,45,0|2|0,0:0|0:2|0:0,0:0:0:0:
231,273,58423,1,10,0:2:0:0:
282,267,58502,2,0,L|315:203,2,45,0|2|0,0:0|0:2|0:0,0:0:0:0:
231,273,58739,6,0,L|161:273,1,45,2|0,0:2|0:0,0:0:0:0:
336,212,58897,2,0,L|363:173,2,45,2|0|10,1:2|0:0|0:0,0:0:0:0:
285,218,59134,1,0,0:0:0:0:
231,176,59213,2,0,L|286:171,1,45,2|0,0:0|0:0,0:0:0:0:
129,95,59371,6,0,L|67:85,1,45,2|0,1:2|0:0,0:0:0:0:
134,71,59529,2,0,L|211:60,1,45,2|0,1:2|0:0,0:0:0:0:
123,46,59687,1,10,0:0:0:0:
75,38,59765,2,0,L|39:96,2,45,0|2|0,0:0|1:2|0:0,0:0:0:0:
126,30,60002,6,0,L|188:28,1,45,2|0,0:2|0:0,0:0:0:0:
125,51,60160,2,0,L|54:57,1,45,2|0,1:2|0:0,0:0:0:0:
230,122,60318,1,10,0:2:0:0:
279,129,60397,2,0,L|300:182,2,45,0|2|0,0:0|1:2|0:0,0:0:0:0:
112,158,60634,6,0,L|10:163,1,90,4|0,1:2|0:0,0:0:0:0:
248,301,60950,2,0,P|267:252|184:225,1,135,10|0,0:0|0:0,0:0:0:0:
164,207,61265,1,2,0:2:0:0:
144,168,61344,1,2,0:2:0:0:
165,130,61423,1,2,1:2:0:0:
208,126,61502,1,2,0:2:0:0:
262,126,61581,2,0,L|267:64,1,45,10|0,0:2|0:0,0:0:0:0:
201,77,61739,2,0,L|197:20,1,45,2|0,1:2|0:0,0:0:0:0:
363,49,61897,6,0,L|465:48,2,90,2|0|10,1:2|1:0|0:0,0:0:0:0:
139,281,62371,2,0,L|327:232,1,180,2|2,1:2|1:2,0:0:0:0:
198,195,62844,1,10,0:2:0:0:
146,190,62923,2,0,L|125:140,2,45,2|2|2,0:2|1:2|0:2,0:0:0:0:
312,246,63160,5,2,1:2:0:0:
380,266,63265,1,2,0:2:0:0:
310,295,63371,1,2,0:2:0:0:
232,303,63476,1,10,0:2:0:0:
160,286,63581,1,2,0:2:0:0:
228,271,63687,1,2,0:2:0:0:
302,255,63792,1,2,0:2:0:0:
327,188,63897,1,2,0:2:0:0:
292,120,64002,1,2,0:2:0:0:
212,94,64108,6,2,L|147:86,1,45,10|2,0:0|0:0,0:0:0:0:
216,69,64265,2,2,L|273:66,1,45
100,143,64423,5,2,1:2:0:0:
203,181,64581,2,0,L|211:281,1,90,8|2,1:2|0:0,0:0:0:0:
340,309,64897,1,10,1:2:0:0:
295,310,64975,1,0,0:0:0:0:
250,311,65054,1,2,0:0:0:0:
138,362,65213,2,0,L|192:361,1,45,8|0,1:3|0:0,0:0:0:0:
349,373,65371,1,8,0:3:0:0:
399,368,65450,2,0,L|427:306,2,45,0|0|0,0:0|1:0|0:0,0:0:0:0:
225,360,65687,6,0,P|211:306|302:248,1,180,4|10,1:2|0:0,0:0:0:0:
410,251,66160,1,0,0:0:0:0:
194,158,66318,1,2,1:2:0:0:
85,142,66476,1,2,1:2:0:0:
200,78,66634,2,0,L|322:75,1,90,10|2,0:0|0:0,0:0:0:0:
245,55,66871,1,2,0:0:0:0:
83,40,66950,6,0,L|17:46,2,45,2|0|2,1:2|0:0|1:2,0:0:0:0:
193,95,67265,1,10,0:0:0:0:
314,187,67423,2,0,L|220:183,1,90,2|2,1:2|0:0,0:0:0:0:
104,209,67739,1,2,1:2:0:0:
228,269,67897,2,0,L|231:325,1,45,10|0,0:0|0:0,0:0:0:0:
165,318,68055,2,0,L|159:367,1,45,2|0,0:0|0:0,0:0:0:0:
321,372,68213,6,0,L|448:363,2,90,2|2|10,1:2|0:0|0:0,0:0:0:0:
439,370,68687,1,2,1:2:0:0:
480,354,68765,1,0,0:0:0:0:
497,314,68844,1,2,1:2:0:0:
479,274,68923,1,0,0:0:0:0:
437,260,69002,1,2,1:2:0:0:
317,257,69160,2,0,L|306:195,1,45,10|0,0:0|0:0,0:0:0:0:
377,212,69318,2,0,L|382:164,1,45,2|0,0:0|0:0,0:0:0:0:
231,120,69476,6,0,L|120:106,1,90,2|2,1:2|0:0,0:0:0:0:
304,55,69713,2,0,L|401:48,1,90,4|0,1:2|0:0,0:0:0:0:
230,19,69950,2,0,L|41:94,1,180,4|2,1:2|1:2,0:0:0:0:
168,157,70423,1,10,0:0:0:0:
280,169,70581,1,2,0:0:0:0:
48,190,70739,6,0,P|30:260|126:294,1,180,4|10,1:2|0:0,0:0:0:0:
346,351,71213,2,0,L|160:312,1,180,2|2,0:0|1:2,0:0:0:0:
287,273,71687,1,10,0:0:0:0:
167,220,71844,1,2,0:0:0:0:
399,178,72002,1,2,1:2:0:0:
277,166,72160,2,0,L|269:36,1,90,2|10,1:2|0:0,0:0:0:0:
490,29,72476,6,0,P|397:36|498:234,1,431.999986816407,2|2,1:2|0:0,0:0:0:0:
257,309,73265,5,2,1:2:0:0:
206,311,73344,2,0,L|171:252,2,45,2|2|2,0:2|0:2|0:2,0:0:0:0:
276,278,73581,2,0,L|308:222,2,45,10|2|2,0:2|0:2|0:2,0:0:0:0:
224,289,73818,1,2,0:2:0:0:
161,231,73897,2,0,L|129:175,2,45,2|0|2,0:2|0:0|1:2,0:0:0:0:
213,242,74134,1,0,0:0:0:0:
155,255,74213,2,0,L|90:258,1,45,10|0,0:2|0:0,0:0:0:0:
162,278,74371,2,0,L|225:282,1,45,2|0,0:2|0:0,0:0:0:0:
369,338,74529,6,0,L|467:341,2,90,2|8|8,1:2|1:2|0:0,0:0:0:0:
140,164,75002,2,0,L|198:131,1,45,2|8,1:2|1:3,0:0:0:0:
228,133,75160,1,8,1:2:0:0:
336,130,75318,1,0,1:0:0:0:
111,39,75476,2,0,L|-1:43,1,90,10|2,0:0|1:2,0:0:0:0:
251,36,75792,6,0,L|259:191,1,135,2|0,1:2|0:0,0:0:0:0:
61,298,76108,6,0,P|27:211|205:386,1,1111.49994911957,14|0,1:2|0:0,0:0:0:0:
147,381,77687,6,0,P|121:309|272:182,1,270,2|0,0:0|0:0,0:0:0:0:
473,96,78318,6,0,L|268:83,1,180,2|10,1:2|0:0,0:0:0:0:
172,139,78792,1,0,0:0:0:0:
296,187,78950,1,0,0:0:0:0:
337,174,79028,1,0,0:0:0:0:
355,134,79107,1,0,1:0:0:0:
335,95,79186,1,0,0:0:0:0:
293,85,79265,2,0,L|185:82,1,90,10|0,0:0|0:0,0:0:0:0:
67,316,79581,6,0,L|182:325,1,90,2|0,1:2|1:0,0:0:0:0:
291,281,79897,2,0,P|313:223|213:169,1,180,10|2,0:0|0:0,0:0:0:0:
183,155,80292,1,0,0:0:0:0:
137,153,80371,1,0,1:0:0:0:
259,91,80529,2,0,L|368:83,1,90,8|0,0:0|0:0,0:0:0:0:
114,256,80844,6,0,L|101:152,1,90,6|0,1:2|0:0,0:0:0:0:
229,130,81160,2,0,L|35:110,1,180,10|0,0:0|0:0,0:0:0:0:
38,154,81554,1,0,0:0:0:0:
56,194,81633,1,0,1:0:0:0:
96,212,81712,1,0,0:0:0:0:
141,215,81792,2,0,L|260:209,1,90,8|0,0:0|0:0,0:0:0:0:
369,324,82108,6,0,L|265:317,1,90,2|0,1:2|1:0,0:0:0:0:
143,373,82423,2,0,P|120:326|216:248,1,180,10|2,0:0|0:0,0:0:0:0:
245,238,82818,1,0,0:0:0:0:
293,237,82897,1,0,1:0:0:0:
170,140,83055,2,0,L|59:135,1,90,10|0,0:0|0:0,0:0:0:0:
221,132,83371,6,0,L|228:42,1,90,2|0,1:2|0:0,0:0:0:0:
94,22,83687,2,0,P|64:73|145:142,1,180,10|2,0:0|0:0,0:0:0:0:
183,149,84080,1,0,0:0:0:0:
203,188,84159,1,0,1:0:0:0:
184,227,84238,1,0,0:0:0:0:
141,235,84318,2,0,L|36:237,1,90,8|0,0:0|0:0,0:0:0:0:
172,321,84634,5,2,1:2:0:0:
410,358,84792,2,0,L|282:350,1,90,2|0,1:2|0:0,0:0:0:0:
184,227,85108,2,0,L|291:220,1,90,0|2,1:0|0:0,0:0:0:0:
491,78,85423,2,0,L|493:187,1,90,0|0,1:0|0:0,0:0:0:0:
380,190,85739,1,0,1:0:0:0:
139,117,85897,6,0,L|313:97,1,135,6|2,1:2|0:0,0:0:0:0:
276,73,86213,1,10,0:0:0:0:
149,31,86371,1,2,0:3:0:0:
106,36,86449,1,2,0:3:0:0:
86,74,86528,1,2,1:2:0:0:
106,112,86607,1,2,0:3:0:0:
151,120,86687,2,0,L|206:116,2,45,2|0|8,1:2|0:0|0:0,0:0:0:0:
103,154,86923,2,0,L|166:161,1,45,0|0,0:0|0:0,0:0:0:0:
381,263,87160,6,0,L|207:283,1,135,2|0,1:2|0:0,0:0:0:0:
239,309,87476,1,10,0:0:0:0:
365,338,87634,2,0,L|370:284,1,45,2|2,1:3|0:3,0:0:0:0:
316,275,87792,2,0,L|255:266,1,45,2|2,0:3|0:3,0:0:0:0:
323,250,87950,2,0,L|384:248,1,45,2|0,1:2|0:0,0:0:0:0:
321,222,88108,1,8,0:0:0:0:
273,213,88187,1,0,0:0:0:0:
224,209,88265,1,0,0:0:0:0:
459,205,88423,6,0,P|480:153|411:111,1,135,2|0,1:2|0:0,0:0:0:0:
378,102,88739,1,10,0:0:0:0:
247,28,88897,1,2,0:3:0:0:
298,34,88975,1,2,0:3:0:0:
320,75,89054,1,2,1:3:0:0:
299,117,89133,1,2,0:3:0:0:
249,118,89213,2,0,L|187:118,1,45,2|0,1:2|0:0,0:0:0:0:
259,139,89371,2,0,L|317:142,2,45,8|0|0,0:0|0:0|0:0,0:0:0:0:
32,227,89687,6,0,L|143:244,1,90,6|0,1:2|0:0,0:0:0:0:
269,306,89923,2,0,L|170:324,1,90,6|0,1:2|0:0,0:0:0:0:
32,350,90160,2,0,L|30:284,1,45,2|2,1:2|0:3,0:0:0:0:
92,295,90318,1,2,0:3:0:0:
133,279,90396,1,2,0:3:0:0:
150,239,90475,1,2,1:2:0:0:
133,199,90554,1,0,0:0:0:0:
87,180,90634,2,0,L|14:176,2,45,10|0|0,0:0|0:0|0:0,0:0:0:0:
322,104,90950,6,0,L|160:92,1,135,6|0,1:2|0:0,0:0:0:0:
234,67,91265,1,10,0:0:0:0:
363,24,91423,2,0,L|306:20,1,45,2|2,0:3|0:3,0:0:0:0:
263,30,91581,2,0,L|319:48,1,45,2|2,0:3|0:3,0:0:0:0:
363,61,91739,2,0,L|393:111,1,45,2|0,1:2|0:0,0:0:0:0:
361,144,91897,1,8,0:0:0:0:
302,157,91976,1,0,0:0:0:0:
237,158,92055,1,0,0:0:0:0:
472,197,92213,6,0,L|479:300,1,90,2|0,1:2|1:0,0:0:0:0:
422,301,92450,1,0,0:0:0:0:
364,308,92529,2,0,L|488:320,1,90,10|2,0:0|0:3,0:0:0:0:
402,340,92765,1,2,0:3:0:0:
344,344,92844,1,2,0:3:0:0:
326,300,92922,1,0,0:0:0:0:
344,258,93001,1,0,0:0:0:0:
382,234,93080,1,0,0:0:0:0:
429,228,93160,2,0,L|489:227,2,45,8|0|0,0:0|0:0|0:0,0:0:0:0:
187,136,93476,6,0,L|352:115,1,135,6|0,1:2|0:0,0:0:0:0:
274,88,93792,1,8,0:0:0:0:
141,68,93950,1,2,1:2:0:0:
279,54,94108,1,4,0:3:0:0:
321,62,94186,1,0,0:0:0:0:
340,101,94265,1,0,1:0:0:0:
320,139,94344,1,0,0:0:0:0:
277,146,94423,2,0,L|161:144,1,90,8|4,0:0|0:3,0:0:0:0:
424,203,94739,6,0,L|431:310,1,90,0|8,1:0|0:3,0:0:0:0:
384,311,94976,1,4,0:3:0:0:
335,318,95055,1,4,0:3:0:0:
203,275,95213,2,0,L|264:246,1,45,4|4,0:3|0:3,0:0:0:0:
294,251,95371,2,0,L|391:256,1,90,8|4,0:3|0:3,0:0:0:0:
256,164,95687,2,0,L|181:164,1,45,0|0,3:0|3:0,0:0:0:0:
363,109,95844,2,0,L|441:115,1,45,0|0,3:0|3:0,0:0:0:0:
228,68,96002,5,0,1:0:0:0:
65,65,96318,1,0,1:0:0:0:
58,236,96634,1,2,0:0:0:0:
377,322,97265,2,0,L|402:282,2,45,0|0|0,1:0|3:0|3:0,0:0:0:0:
259,348,97581,1,0,1:0:0:0:
379,346,97739,2,0,L|455:346,1,45,8|8,3:3|3:3,0:0:0:0:
258,253,97897,6,0,L|54:226,1,180,2|8,3:2|1:2,0:0:0:0:
486,222,98529,6,0,L|490:75,1,135,6|2,1:2|0:0,0:0:0:0:
294,77,99002,2,0,L|389:101,1,90,2|0,0:0|1:0,0:0:0:0:
324,132,99239,2,0,L|220:141,1,90,2|0,0:0|0:0,0:0:0:0:
296,177,99476,2,0,L|363:176,2,45,10|0|2,0:0|0:0|0:0,0:0:0:0:
63,285,99792,6,0,L|216:285,1,135,2|2,1:2|0:0,0:0:0:0:
23,376,100265,2,0,L|14:259,1,90,2|0,0:0|0:0,0:0:0:0:
81,258,100502,2,0,L|201:256,1,90,2|0,0:0|0:0,0:0:0:0:
110,207,100739,2,0,L|27:208,2,45,10|0|2,0:0|0:0|0:0,0:0:0:0:
348,102,101055,6,0,L|192:82,1,135,2|2,1:2|0:0,0:0:0:0:
403,215,101529,2,0,L|513:239,1,90,2|0,0:0|1:0,0:0:0:0:
429,276,101765,2,0,L|306:285,1,90,2|0,0:0|0:0,0:0:0:0:
404,327,102002,2,0,L|429:285,2,45,10|0|2,0:0|0:0|0:0,0:0:0:0:
163,364,102318,6,0,P|197:306|294:297,1,135,2|0,1:2|0:0,0:0:0:0:
310,286,102634,1,8,0:0:0:0:
168,278,102792,2,0,P|156:219|259:165,1,180,2|2,0:0|0:0,0:0:0:0:
294,156,103187,1,2,0:0:0:0:
138,83,103265,2,0,L|71:88,2,45,10|2|2,1:2|0:0|0:0,0:0:0:0:
185,84,103502,1,10,0:0:0:0:
360,75,103581,6,0,P|385:124|307:164,1,135,6|2,1:2|0:0,0:0:0:0:
142,238,104055,2,0,L|271:257,1,90,2|0,0:0|1:0,0:0:0:0:
168,289,104292,2,0,L|59:310,1,90,2|0,0:0|0:0,0:0:0:0:
138,334,104529,1,10,0:0:0:0:
266,355,104687,1,2,0:0:0:0:
33,374,104844,6,0,L|26:197,1,135,2|2,1:2|0:0,0:0:0:0:
210,177,105318,2,0,L|88:164,1,90,2|0,0:0|1:2,0:0:0:0:
188,142,105555,2,0,L|281:134,1,90,2|0,0:0|0:0,0:0:0:0:
219,103,105792,1,10,0:0:0:0:
92,91,105950,1,2,0:0:0:0:
334,40,106108,6,0,L|192:20,1,135,2|2,1:2|0:0,0:0:0:0:
391,138,106581,2,0,L|395:231,1,90,2|0,0:0|1:0,0:0:0:0:
328,246,106818,2,0,L|230:266,1,90,2|0,0:0|0:0,0:0:0:0:
294,297,107055,2,0,L|350:305,1,45,8|0,3:2|3:2,0:0:0:0:
284,336,107213,2,0,L|222:342,1,45,0|0,3:2|3:2,0:0:0:0:
66,360,107371,6,0,L|103:350,1,22.5,2|0,1:2|1:0,0:0:0:0:
163,259,107529,2,0,L|286:264,1,90,2|0,3:2|3:0,0:0:0:0:
22,151,107844,2,0,L|63:142,1,22.5,2|0,1:2|1:0,0:0:0:0:
128,115,108002,2,0,L|222:110,1,90,2|0,3:2|3:0,0:0:0:0:
461,66,108318,6,0,L|487:114,2,45,2|0|2,1:2|3:0|3:2,0:0:0:0:
413,61,108555,1,0,3:0:0:0:
256,40,108634,2,0,L|247:177,1,135,2|0,0:0|0:0,0:0:0:0:
422,248,108950,5,6,1:2:0:0:
324,285,109108,2,0,L|199:294,1,90,2|0,0:0|1:0,0:0:0:0:
297,326,109344,2,0,L|399:340,1,90,2|0,0:0|0:0,0:0:0:0:
405,295,109581,1,10,0:0:0:0:
385,260,109660,1,0,0:0:0:0:
337,252,109739,1,2,0:0:0:0:
93,164,109897,6,0,L|254:143,1,135,2|2,1:2|0:0,0:0:0:0:
41,263,110371,2,0,L|34:157,1,90,2|0,0:0|0:0,0:0:0:0:
102,152,110608,2,0,L|204:135,1,90,2|0,0:0|0:0,0:0:0:0:
125,124,110844,2,0,L|98:71,2,45,10|0|2,0:0|0:0|0:0,0:0:0:0:
367,55,111160,6,0,L|222:48,1,135,2|2,1:2|0:0,0:0:0:0:
427,163,111634,2,0,L|317:178,1,90,2|0,0:0|1:0,0:0:0:0:
277,219,111871,2,0,L|377:233,1,90,2|0,0:0|0:0,0:0:0:0:
432,263,112108,2,0,L|456:319,2,45,10|0|2,0:0|0:0|0:0,0:0:0:0:
183,367,112423,6,0,L|277:321,1,90,2|0,1:2|0:0,0:0:0:0:
385,321,112739,1,8,0:0:0:0:
248,229,112897,2,0,L|53:211,1,180,2|2,0:0|0:0,0:0:0:0:
117,175,113292,1,2,0:0:0:0:
178,141,113371,2,0,L|125:133,1,45,10|2,1:2|0:0,0:0:0:0:
82,108,113529,2,0,L|135:98,1,45,2|2,0:0|0:0,0:0:0:0:
291,46,113687,6,0,L|453:73,1,135,2|2,1:2|0:0,0:0:0:0:
371,97,114002,1,8,0:0:0:0:
241,126,114160,2,0,L|232:220,1,90,2|0,0:0|1:0,0:0:0:0:
289,235,114397,2,0,L|366:233,2,45,2|0|0,0:0|0:0|0:0,0:0:0:0:
230,253,114634,1,10,0:0:0:0:
103,315,114792,1,2,0:0:0:0:
345,357,114950,6,0,L|227:352,1,90,2|0,1:2|0:0,0:0:0:0:
184,329,115187,2,0,L|152:276,2,45,2|8|0,0:0|0:0|0:0,0:0:0:0:
254,284,115423,2,0,L|345:278,1,90,2|0,0:0|1:2,0:0:0:0:
299,241,115660,1,2,0:0:0:0:
245,232,115739,1,0,0:0:0:0:
122,196,115897,1,10,0:0:0:0:
230,155,116055,1,2,0:0:0:0:
480,171,116213,6,0,L|486:71,1,90,0|0,1:0|1:0,0:0:0:0:
347,102,116529,2,0,L|343:0,1,90,8|0,1:2|1:0,0:0:0:0:
203,66,116844,2,0,L|277:77,1,45,0|0,1:0|1:0,0:0:0:0:
300,100,117002,2,0,L|226:109,1,45,0|0,1:0|1:0,0:0:0:0:
88,155,117160,5,8,1:2:0:0:
65,157,117199,1,0,1:0:0:0:
48,171,117238,1,0,1:0:0:0:
40,192,117278,1,0,1:0:0:0:
48,214,117317,1,0,1:0:0:0:
95,235,117397,1,0,1:0:0:0:
268,282,117476,5,0,1:0:0:0:
266,367,117634,2,0,L|138:370,1,90,0|0,1:0|3:0,0:0:0:0:
422,240,117950,1,0,1:0:0:0:
308,155,118108,2,0,L|191:149,1,90,0|0,1:0|3:0,0:0:0:0:
475,36,118423,2,0,L|478:197,1,135,2|0,1:2|3:0,0:0:0:0:
299,241,118739,6,0,L|149:248,1,135,2|0,1:2|0:0,0:0:0:0:
352,349,119055,5,4,1:2:0:0:
458,282,119213,2,0,L|338:282,1,90,2|0,0:0|0:0,0:0:0:0:
299,217,119450,2,0,L|296:103,1,90,2|0,0:0|0:0,0:0:0:0:
348,118,119687,1,10,0:0:0:0:
457,127,119844,1,2,0:0:0:0:
215,56,120002,6,0,L|110:73,1,90,2|0,1:2|0:0,0:0:0:0:
193,100,120239,2,0,L|293:111,1,90,2|0,0:0|0:0,0:0:0:0:
217,138,120476,1,2,0:0:0:0:
450,175,120634,2,0,L|461:282,1,90,2|0,1:2|0:0,0:0:0:0:
342,295,120950,1,10,0:0:0:0:
457,357,121108,2,0,L|401:364,1,45,2|0,0:0|0:0,0:0:0:0:
242,378,121265,6,0,L|145:360,1,90,2|0,1:2|0:0,0:0:0:0:
225,331,121502,2,0,L|357:318,1,90,2|0,0:0|0:0,0:0:0:0:
381,297,121739,1,2,0:0:0:0:
254,240,121897,2,0,L|306:233,1,45,0|2,0:0|0:0,0:0:0:0:
432,135,122134,2,0,L|367:128,1,45,0|10,0:0|0:0,0:0:0:0:
272,127,122371,1,2,0:0:0:0:
22,59,122529,6,0,L|146:48,1,90,2|0,1:2|0:0,0:0:0:0:
241,61,122844,1,8,0:0:0:0:
97,154,123002,2,0,P|77:219|175:262,1,180,2|2,0:0|0:0,0:0:0:0:
208,266,123397,1,0,0:0:0:0:
46,340,123476,2,0,L|22:300,2,45,10|2|2,1:2|0:0|1:2,0:0:0:0:
95,351,123713,1,10,0:0:0:0:
266,361,123792,6,0,L|357:348,1,90,6|0,1:2|0:0,0:0:0:0:
288,317,124029,2,0,L|191:308,1,90,2|0,0:0|0:0,0:0:0:0:
258,271,124265,2,0,L|350:269,1,90,2|0,0:0|1:0,0:0:0:0:
417,208,124502,2,0,L|304:199,1,90,2|0,0:0|0:0,0:0:0:0:
276,184,124739,1,10,0:0:0:0:
406,117,124897,1,2,0:0:0:0:
161,249,125055,6,0,L|155:148,1,90,2|0,1:2|0:0,0:0:0:0:
223,142,125292,2,0,L|345:131,1,90,2|0,0:0|0:0,0:0:0:0:
383,111,125529,1,2,0:0:0:0:
134,52,125687,2,0,L|32:58,1,90,2|2,1:2|0:0,0:0:0:0:
172,146,126002,1,10,0:0:0:0:
36,213,126160,2,0,L|93:212,1,45,2|0,0:0|0:0,0:0:0:0:
247,271,126318,6,0,L|356:279,1,90,2|0,1:2|0:0,0:0:0:0:
268,313,126555,2,0,L|170:326,1,90,2|0,0:0|0:0,0:0:0:0:
243,356,126792,2,0,L|359:356,1,90,2|0,0:0|1:0,0:0:0:0:
406,337,127029,2,0,L|407:239,1,90,2|0,0:0|0:0,0:0:0:0:
341,220,127265,2,0,L|277:212,1,45,8|0,3:2|3:2,0:0:0:0:
445,168,127423,2,0,L|496:166,1,45,0|0,3:2|3:2,0:0:0:0:
319,85,127581,5,2,1:2:0:0:
203,92,127739,2,0,L|189:192,1,90,2|0,3:2|3:0,0:0:0:0:
422,258,128055,1,2,1:2:0:0:
190,282,128213,2,0,L|72:277,1,90,2|0,3:2|3:0,0:0:0:0:
357,364,128529,6,0,L|363:203,1,135,2|0,1:2|3:0,0:0:0:0:
289,197,128844,2,0,L|129:185,1,135,2|0,0:0|0:0,0:0:0:0:
372,43,129160,6,0,P|463:113|184:368,1,643.499970542909,4|0,1:2|0:0,0:0:0:0:
160,365,130107,5,2,1:2:0:0:
141,325,130186,1,2,0:2:0:0:
155,284,130265,1,2,0:2:0:0:
193,263,130344,1,2,0:2:0:0:
242,258,130423,1,10,0:2:0:0:
298,258,130502,1,2,0:2:0:0:
252,226,130581,1,2,0:2:0:0:
192,217,130660,1,2,0:2:0:0:
257,195,130739,6,0,L|287:136,2,45,2|0|0,1:2|0:0|0:0,0:0:0:0:
206,204,130976,1,0,0:0:0:0:
45,225,131055,2,0,L|14:168,2,45,10|0|0,1:2|0:0|0:0,0:0:0:0:
95,240,131292,1,0,0:0:0:0:
277,337,131371,6,0,P|416:286|137:178,1,755.999976928712,2|2,1:2|0:0,0:0:0:0:
393,218,132634,6,0,L|501:228,1,90,2|0,1:2|0:0,0:0:0:0:
322,326,132871,2,0,L|203:329,1,90,6|0,1:2|0:0,0:0:0:0:
296,289,133108,2,0,L|399:289,1,90,6|0,1:2|0:0,0:0:0:0:
314,247,133344,2,0,L|205:248,1,90,6|0,1:2|0:0,0:0:0:0:
395,146,133581,2,0,L|501:142,1,90,2|2,1:2|1:2,0:0:0:0:
215,180,133897,6,0,P|188:110|276:84,1,180,6|2,1:2|0:2,0:0:0:0:
207,78,134292,2,0,L|179:126,2,45,2|2|2,0:2|0:2|0:2,0:0:0:0:
274,82,134529,2,0,L|300:138,2,45,2|2|2,0:2|0:2|0:2,0:0:0:0:
218,71,134765,1,2,0:2:0:0:
160,38,134844,2,0,L|221:31,1,45,2|2,0:2|0:2,0:0:0:0:
353,198,135002,2,0,L|418:202,1,45,2|2,1:2|1:2,0:0:0:0:
251,273,135160,6,0,L|127:293,1,90,2|2,1:2|0:2,0:0:0:0:
224,310,135397,1,2,0:2:0:0:
286,323,135476,2,0,L|314:271,2,45,2|2|2,0:2|0:2|0:2,0:0:0:0:
233,344,135713,1,2,0:2:0:0:
162,351,135792,2,0,L|134:293,2,45,2|2|2,0:2|0:2|0:2,0:0:0:0:
217,364,136029,1,2,0:2:0:0:
277,357,136108,2,0,L|214:352,1,45,2|2,0:2|0:2,0:0:0:0:
81,178,136265,2,0,L|15:181,1,45,2|2,1:2|0:2,0:0:0:0:
234,42,136423,6,0,B|328:73|328:73|362:171|362:171|324:264|324:264|219:258|219:258|288:331|288:331|377:380|377:380|423:320|423:320|421:238,1,762.750002327728,2|0,1:2|0:0,0:0:0:0:
219,192,137687,5,2,1:2:0:0:
115,201,137844,1,2,1:2:0:0:
219,192,138002,1,2,1:2:0:0:
468,43,138160,2,0,L|366:39,1,90,2|2,1:2|1:2,0:0:0:0:
331,49,138397,1,0,1:0:0:0:
379,71,138476,2,0,L|439:77,1,45,2|0,1:2|1:0,0:0:0:0:
261,143,138634,2,0,L|194:146,1,45,8|0,1:2|1:0,0:0:0:0:
266,168,138792,2,0,L|336:172,1,45,8|0,1:2|1:0,0:0:0:0:
144,240,138950,6,0,L|-20:265,1,135,0|0,1:0|0:0,0:0:0:0:
233,349,139265,5,6,1:2:0:0:
256,192,139423,12,4,144318,0:0:0:0:
