osu file format v14

[General]
AudioFilename: audio.mp3
AudioLeadIn: 0
PreviewTime: 95917
Countdown: 0
SampleSet: Soft
StackLeniency: 0.7
Mode: 2
LetterboxInBreaks: 0
WidescreenStoryboard: 1

[Editor]
DistanceSpacing: 1.5
BeatDivisor: 4
GridSize: 32
TimelineZoom: 2.3

[Metadata]
Title:Intuition
TitleUnicode:Intuition
Artist:technoplanet
ArtistUnicode:technoplanet
Creator:Jemzuu
Version:Platter
Source:
Tags:ハセガワシュン featured artist fa mappers' guild mg ajamez ctbi vii 7 qf quarterfinals nm1 no mod osu!catch international cup 7 instrumental electronic wub dubstep piano drum n bass and dnb d&b hardcore happycore core electric guitar stream Strange Story 2020
BeatmapID:3182091
BeatmapSetID:1553878

[Difficulty]
HPDrainRate:4.5
CircleSize:3.5
OverallDifficulty:8
ApproachRate:8
SliderMultiplier:1.5
SliderTickRate:1

[Events]
//Background and Video events
0,0,"adventure!!.jpg",0,0
//Break Periods
//Storyboard Layer 0 (Background)
//Storyboard Layer 1 (Fail)
//Storyboard Layer 2 (Pass)
//Storyboard Layer 3 (Foreground)
//Storyboard Layer 4 (Overlay)
//Storyboard Sound Samples

[TimingPoints]
1266,315.78947368421,4,2,1,70,1,0
4265,-100,4,2,4,70,0,0
4344,-100,4,2,1,70,0,0
27791,-100,4,2,1,70,0,0
28265,-100,4,2,1,70,0,0
28423,-100,4,2,1,70,0,0
34107,-100,4,2,2,60,0,0
44212,-100,4,2,1,70,0,0
50883,-100,4,2,1,5,0,0
51002,-100,4,2,1,70,0,0
51041,-100,4,2,1,5,0,0
51159,-100,4,2,1,70,0,0
53390,-100,4,2,1,5,0,0
53449,-100,4,2,1,70,0,0
53469,-100,4,2,1,5,0,0
53528,-100,4,2,1,70,0,0
53548,-100,4,2,1,5,0,0
53607,-100,4,2,1,70,0,0
53627,-100,4,2,1,5,0,0
53686,-100,4,2,1,70,0,0
53706,-100,4,2,1,5,0,0
53765,-100,4,2,1,70,0,0
53785,-100,4,2,1,5,0,0
53844,-100,4,2,1,70,0,0
53864,-100,4,2,1,5,0,0
53923,-100,4,2,1,70,0,0
53943,-100,4,2,1,5,0,0
54002,-100,4,2,1,70,0,0
54022,-100,4,2,1,5,0,0
54081,-100,4,2,1,70,0,0
54101,-100,4,2,1,5,0,0
54159,-100,4,2,1,70,0,0
54179,-100,4,2,1,5,0,0
54238,-100,4,2,1,70,0,0
54258,-100,4,2,1,5,0,0
54317,-100,4,2,1,70,0,0
55581,-100,4,2,1,70,0,0
58423,-100,4,2,1,60,0,0
58738,-100,4,2,1,50,0,0
59370,-100,4,2,1,60,0,0
59844,-100,4,2,1,65,0,0
60317,-100,4,2,1,70,0,0
60633,-83.3333333333333,4,2,1,70,0,0
61028,-100,4,2,1,70,0,0
61265,-100,4,2,1,70,0,0
65686,-83.3333333333333,4,2,1,70,0,0
66081,-100,4,2,1,70,0,0
66318,-100,4,2,1,70,0,0
72476,-92.5925925925926,4,2,1,70,0,0
72792,-100,4,2,98,70,0,0
72871,-100,4,2,1,70,0,0
72950,-100,4,2,99,70,0,0
73265,-100,4,2,1,70,0,0
76029,-100,4,2,1,5,0,0
76108,-83.3333333333333,4,2,1,80,0,1
76582,-100,4,2,98,80,0,1
76739,-100,4,2,99,80,0,1
76897,-100,4,2,1,80,0,1
77055,-100,4,2,98,80,0,1
77371,-100,4,2,99,80,0,1
77529,-100,4,2,1,80,0,1
77687,-100,4,2,1,60,0,0
77845,-100,4,2,98,60,0,0
78003,-100,4,2,99,60,0,0
78160,-100,4,2,1,60,0,0
85897,-100,4,2,1,65,0,0
86371,-100,4,2,3,70,0,0
94108,-100,4,2,1,60,0,0
95687,-100,4,2,1,75,0,0
96003,-100,4,2,1,70,0,0
96318,-100,4,2,1,55,0,0
97266,-100,4,2,1,60,0,0
98213,-100,4,2,1,70,0,0
98529,-100,4,2,4,80,0,1
98608,-100,4,2,5,80,0,1
103108,-100,4,2,1,80,0,1
103582,-100,4,2,5,80,0,1
108634,-100,4,2,13,80,0,0
108950,-100,4,2,4,80,0,1
109029,-100,4,2,5,80,0,1
113213,-100,4,2,1,80,0,1
113687,-100,4,2,5,80,0,1
118739,-100,4,2,14,80,0,0
119055,-100,4,2,4,80,0,1
119213,-100,4,2,5,80,0,1
128844,-100,4,2,13,80,0,0
129160,-76.9230769230769,4,2,4,80,0,1
129476,-100,4,2,98,80,0,1
129634,-100,4,2,1,80,0,1
129792,-100,4,2,99,80,0,1
129950,-100,4,2,1,80,0,1
130108,-100,4,2,1,80,0,1
131371,-76.9230769230769,4,2,1,80,0,1
131687,-100,4,2,99,80,0,1
131845,-100,4,2,1,80,0,1
132003,-100,4,2,98,80,0,1
132160,-100,4,2,1,80,0,1
132318,-100,4,2,99,80,0,1
132476,-100,4,2,1,80,0,1
133897,-100,4,2,1,80,0,0
136423,-100,4,2,1,80,0,0
137055,-100,4,2,98,80,0,0
137134,-100,4,2,1,80,0,0
137687,-100,4,2,1,80,0,0
139265,-100,4,2,15,90,0,1
139344,-100,4,2,1,60,0,0
140213,-100,4,2,1,50,0,0
140845,-100,4,2,1,45,0,0
141476,-100,4,2,1,40,0,0
142108,-100,4,2,1,30,0,0
142739,-100,4,2,1,25,0,0
143371,-100,4,2,1,15,0,0
143845,-100,4,2,4,10,0,0

[Colours]
Combo1 : 255,170,130
Combo2 : 60,157,255
Combo3 : 255,255,128
Combo4 : 157,157,255
Combo5 : 255,164,255

[HitObjects]
256,192,160,12,0,950,0:0:0:0:
251,231,1266,6,0,L|252:141,1,75,0|0,1:0|1:0,0:0:0:0:
170,127,1581,1,2,0:1:0:0:
253,106,1739,1,2,0:1:0:0:
292,105,1818,2,0,L|483:219,1,212.5,2|0,0:0|0:0,0:0:0:0:
233,232,2529,6,0,L|232:334,1,75,10|2,0:0|0:0,0:0:0:0:
314,329,2844,1,2,0:0:0:0:
396,259,3002,1,2,0:0:0:0:
358,253,3080,1,2,0:0:0:0:
321,247,3159,1,0,0:0:0:0:
234,220,3318,1,2,0:0:0:0:
386,137,3476,2,0,L|435:139,2,37.5,4|4|4,0:3|0:3|0:3,0:0:0:0:
155,60,3792,6,0,L|62:62,2,75,0|0|2,1:0|1:0|0:0,0:0:0:0:
314,63,4265,2,0,P|335:114|220:215,1,225,12|2,0:0|0:0,0:0:0:0:
148,223,4897,1,2,0:0:0:0:
286,302,5055,6,0,L|314:263,2,37.5,2|2|2,0:0|0:0|0:0,0:0:0:0:
246,318,5292,1,2,0:0:0:0:
164,350,5450,1,2,0:0:0:0:
123,341,5529,2,0,P|110:293|199:229,1,150,0|2,0:0|0:0,0:0:0:0:
337,210,6002,2,0,L|342:120,1,75,0|2,0:0|0:0,0:0:0:0:
117,63,6318,6,0,P|55:77|37:168,1,150,4|10,1:2|0:0,0:0:0:0:
115,189,6792,2,0,L|181:204,1,37.5,2|2,0:0|0:0,0:0:0:0:
240,260,7029,2,0,L|194:264,1,37.5,2|2,0:0|1:2,0:0:0:0:
63,318,7265,2,0,L|60:230,1,75,10|2,0:0|0:0,0:0:0:0:
217,136,7581,6,0,L|314:136,2,75,0|0|10,1:0|1:0|0:0,0:0:0:0:
77,145,8055,2,0,L|123:146,1,37.5,2|2,0:0|0:0,0:0:0:0:
207,56,8292,2,0,L|272:47,1,37.5,2|2,0:0|1:2,0:0:0:0:
101,23,8529,2,0,L|82:79,2,37.5,10|2|2,0:0|0:0|0:0,0:0:0:0:
328,173,8844,5,2,1:2:0:0:
327,267,9002,2,0,L|241:278,1,75,0|10,1:0|0:0,0:0:0:0:
291,297,9239,1,2,0:2:0:0:
373,350,9397,2,0,L|329:355,1,37.5,2|2,0:2|0:2,0:0:0:0:
239,357,9634,1,2,1:2:0:0:
381,250,9792,1,10,0:2:0:0:
418,251,9870,1,2,0:2:0:0:
455,252,9949,1,2,0:2:0:0:
225,140,10108,6,0,L|133:147,2,75,2|2|10,1:2|0:0|0:0,0:0:0:0:
377,70,10581,2,0,L|400:25,1,37.5,0|10,0:0|0:0,0:0:0:0:
377,70,10739,2,0,L|285:75,1,75,10|4,0:0|0:3,0:0:0:0:
450,181,11055,2,0,L|493:182,2,37.5,8|0|0,0:0|0:0|1:0,0:0:0:0:
215,286,11371,6,0,L|118:293,1,75,6|4,1:2|0:3,0:0:0:0:
136,314,11608,1,2,0:0:0:0:
218,166,11765,2,0,L|279:166,1,37.5,4|4,0:3|0:3,0:0:0:0:
338,119,12002,1,4,0:3:0:0:
105,78,12160,6,0,L|19:68,1,75,4|4,3:2|0:3,0:0:0:0:
26,105,12397,1,4,0:3:0:0:
157,165,12555,2,0,L|212:165,1,37.5,4|4,0:3|0:3,0:0:0:0:
117,255,12792,1,4,0:3:0:0:
277,309,12950,6,0,L|366:300,1,75,6|2,1:2|0:1,0:0:0:0:
205,360,13265,2,0,L|179:307,2,37.5,2|2|2,0:0|0:0|0:0,0:0:0:0:
367,377,13581,2,0,L|416:371,2,37.5,2|2|2,0:0|0:0|0:0,0:0:0:0:
129,236,13897,6,0,L|2:207,2,112.5,4|2|2,1:2|0:0|0:2,0:0:0:0:
274,188,14529,2,0,L|296:147,2,37.5,2|2|2,0:2|0:2|1:2,0:0:0:0:
123,114,14844,2,0,L|101:73,2,37.5,10|2|2,0:2|0:2|0:2,0:0:0:0:
360,61,15160,6,0,L|459:58,2,75,0|0|10,1:0|1:0|0:0,0:0:0:0:
267,53,15634,1,2,0:0:0:0:
411,161,15792,1,2,0:0:0:0:
448,162,15870,1,2,0:0:0:0:
485,164,15949,1,2,1:2:0:0:
404,268,16108,1,10,0:0:0:0:
367,263,16186,1,2,0:0:0:0:
330,259,16265,1,2,0:0:0:0:
105,344,16423,6,0,P|58:333|64:242,1,150,2|8,1:2|0:0,0:0:0:0:
167,230,16897,2,0,L|191:178,2,37.5,2|2|2,0:2|0:2|0:2,0:0:0:0:
59,246,17213,1,2,1:2:0:0:
213,306,17371,1,10,0:2:0:0:
250,306,17449,1,2,0:2:0:0:
287,306,17528,1,2,0:2:0:0:
63,146,17687,6,0,L|53:55,1,75,2|2,1:2|1:2,0:0:0:0:
148,48,18002,1,10,0:2:0:0:
299,100,18160,2,0,L|326:48,2,37.5,2|2|2,0:2|0:2|0:2,0:0:0:0:
203,132,18476,1,2,1:2:0:0:
54,170,18634,2,0,L|-3:175,2,37.5,10|2|2,0:2|0:2|0:2,0:0:0:0:
294,294,18950,6,0,P|309:239|228:189,1,150,4|8,1:2|0:0,0:0:0:0:
143,173,19423,2,0,L|117:121,2,37.5,2|2|2,0:2|0:2|0:2,0:0:0:0:
246,199,19739,1,2,1:2:0:0:
99,273,19897,1,10,0:2:0:0:
61,278,19975,1,2,0:2:0:0:
24,283,20054,1,2,0:2:0:0:
256,359,20213,6,0,L|340:351,2,75,2|2|8,1:2|1:2|0:0,0:0:0:0:
148,330,20687,2,0,L|91:335,2,37.5,2|2|2,0:2|0:2|0:2,0:0:0:0:
257,317,21002,1,2,1:2:0:0:
412,315,21160,2,0,L|436:271,2,37.5,10|0|2,0:2|0:0|0:2,0:0:0:0:
177,251,21476,6,0,P|157:197|229:154,1,150,2|8,1:2|0:0,0:0:0:0:
340,132,21950,2,0,L|399:124,2,37.5,2|2|2,0:2|0:2|0:2,0:0:0:0:
227,129,22265,1,2,1:2:0:0:
79,93,22423,2,0,L|56:53,2,37.5,10|2|2,0:2|0:2|0:2,0:0:0:0:
318,206,22739,6,0,L|319:295,1,75,2|2,1:2|1:2,0:0:0:0:
235,295,23055,1,0,3:0:0:0:
377,346,23213,2,0,L|457:351,1,75,2|10,1:2|0:2,0:0:0:0:
304,184,23529,2,0,L|201:171,2,75,2|10|2,1:2|0:2|1:2,0:0:0:0:
77,55,24002,6,0,P|49:104|128:135,1,150,4|8,1:2|0:0,0:0:0:0:
225,157,24476,2,0,L|251:117,2,37.5,2|2|2,0:2|0:2|0:2,0:0:0:0:
117,223,24792,1,2,1:2:0:0:
265,259,24950,1,10,0:2:0:0:
302,263,25028,1,2,0:2:0:0:
339,267,25107,1,2,0:2:0:0:
106,349,25265,6,0,L|18:351,2,75,0|0|10,1:0|1:0|0:0,0:0:0:0:
206,353,25739,1,2,0:0:0:0:
360,287,25897,1,2,0:0:0:0:
322,284,25975,1,2,0:0:0:0:
285,281,26054,1,2,1:2:0:0:
139,217,26213,2,0,L|132:123,1,75,10|2,0:0|0:0,0:0:0:0:
368,83,26529,6,0,P|415:89|426:182,1,150,2|8,1:2|0:0,0:0:0:0:
308,194,27002,2,0,L|275:148,2,37.5,2|2|2,0:2|0:2|0:2,0:0:0:0:
431,222,27318,1,2,1:2:0:0:
280,282,27476,1,10,0:2:0:0:
242,282,27554,1,2,0:2:0:0:
205,283,27633,1,2,0:2:0:0:
440,357,27792,6,0,L|454:233,1,112.5,6|6,1:2|1:2,0:0:0:0:
216,167,28265,2,0,L|377:111,1,150,6|2,1:2|1:2,0:0:0:0:
483,114,28739,2,0,L|502:68,2,37.5,10|2|2,0:2|0:2|0:2,0:0:0:0:
248,246,29055,6,0,L|82:216,1,150,4|8,1:2|0:0,0:0:0:0:
221,188,29529,2,0,L|241:148,2,37.5,2|2|2,0:2|0:2|0:2,0:0:0:0:
97,189,29844,1,2,1:2:0:0:
251,268,30002,1,10,0:2:0:0:
288,269,30080,1,2,0:2:0:0:
325,270,30159,1,2,0:2:0:0:
90,346,30318,6,0,L|77:256,1,75,2|2,1:2|1:2,0:0:0:0:
163,245,30634,1,8,0:0:0:0:
306,215,30792,2,0,L|355:218,2,37.5,2|2|2,0:2|0:2|0:2,0:0:0:0:
206,233,31108,1,2,1:2:0:0:
61,168,31265,2,0,L|25:117,2,37.5,10|2|2,0:2|0:2|0:2,0:0:0:0:
294,124,31581,6,0,L|454:149,1,150,2|8,1:2|0:0,0:0:0:0:
302,217,32055,1,0,0:0:0:0:
264,222,32133,1,0,0:0:0:0:
227,228,32212,1,2,0:2:0:0:
314,310,32371,1,2,1:2:0:0:
459,332,32529,2,0,L|482:277,2,37.5,10|2|2,0:2|0:2|0:2,0:0:0:0:
220,359,32844,6,0,L|117:356,2,75,2|2|0,1:2|1:2|3:0,0:0:0:0:
314,340,33318,1,0,0:0:0:0:
155,271,33476,2,0,L|141:172,1,75,10|2,0:2|1:2,0:0:0:0:
308,189,33792,2,0,L|404:182,1,75,10|2,0:2|1:2,0:0:0:0:
138,41,34108,6,0,P|82:49|86:185,1,225,6|2,1:2|0:0,0:0:0:0:
186,214,34739,1,10,0:0:0:0:
457,216,36002,1,8,0:0:0:0:
180,341,36634,6,0,P|111:334|133:192,1,225,2|2,0:0|0:0,0:0:0:0:
199,178,37265,1,8,0:0:0:0:
457,104,37897,2,0,L|139:69,1,300,2|10,0:0|0:0,0:0:0:0:
448,316,39160,6,0,P|461:255|318:164,1,225,2|2,0:0|0:0,0:0:0:0:
255,140,39792,1,10,0:0:0:0:
38,95,41055,1,8,0:0:0:0:
317,44,41687,6,0,P|374:50|407:191,1,225,2|2,0:0|0:0,0:0:0:0:
321,208,42318,1,8,0:0:0:0:
56,302,42950,2,0,L|365:313,1,300,2|10,0:0|0:0,0:0:0:0:
41,264,44213,6,0,P|21:205|115:171,1,150,4|0,1:2|1:0,0:0:0:0:
172,144,44687,1,2,0:0:0:0:
328,82,44844,1,8,0:1:0:0:
363,89,44922,1,0,0:0:0:0:
378,122,45001,1,2,0:0:0:0:
362,154,45080,1,2,0:0:0:0:
326,161,45160,6,0,L|224:161,1,75,2|2,0:0|1:2,0:0:0:0:
349,247,45476,1,0,1:0:0:0:
197,278,45634,2,0,L|41:219,2,150,8|2|2,0:1|0:0|0:0,0:0:0:0:
337,255,46423,2,0,L|346:350,1,75,2|2,0:3|0:3,0:0:0:0:
115,368,46739,6,0,L|59:373,2,37.5,2|2|2,1:2|0:2|0:2,0:0:0:0:
259,330,47055,2,0,L|349:330,1,75,2|0,1:2|0:0,0:0:0:0:
181,286,47371,2,0,P|128:280|124:188,1,150,10|2,0:1|0:3,0:0:0:0:
265,185,47844,2,0,P|321:179|320:78,1,150,0|0,1:0|1:0,0:0:0:0:
208,78,48318,2,0,L|186:31,2,37.5,2|0|0,0:3|0:0|0:0,0:0:0:0:
364,49,48634,5,8,0:1:0:0:
400,54,48712,1,0,0:0:0:0:
428,78,48791,1,0,0:0:0:0:
437,114,48870,1,0,0:0:0:0:
424,149,48949,1,0,0:0:0:0:
395,171,49028,1,0,0:0:0:0:
358,172,49107,1,0,0:0:0:0:
126,290,49265,6,0,L|296:282,1,150,2|0,1:3|0:0,0:0:0:0:
275,200,49739,1,2,0:0:0:0:
120,186,49897,1,8,0:1:0:0:
84,178,49975,1,0,0:0:0:0:
68,145,50054,1,2,0:2:0:0:
85,113,50133,1,2,0:2:0:0:
120,107,50213,2,0,L|218:102,1,75,2|2,0:2|1:2,0:0:0:0:
344,37,50529,6,0,L|258:28,1,75,0|0,1:3|0:0,0:0:0:0:
121,43,50844,2,0,L|117:144,1,75,2|2,0:3|0:3,0:0:0:0:
272,169,51160,2,0,L|297:212,2,37.5,8|2|2,0:1|0:0|0:0,0:0:0:0:
229,163,51397,1,2,0:0:0:0:
183,165,51476,2,0,L|86:178,1,75,2|2,0:3|0:3,0:0:0:0:
262,300,51792,6,0,L|327:312,1,37.5,2|2,1:2|0:2,0:0:0:0:
262,300,51950,2,0,L|205:308,1,37.5,2|2,0:2|0:2,0:0:0:0:
270,301,52108,2,0,L|360:302,1,75,2|0,0:3|0:0,0:0:0:0:
195,376,52423,2,0,P|163:323|235:280,1,150,8|2,0:1|0:0,0:0:0:0:
375,269,52897,2,0,P|419:263|426:164,1,150,0|0,1:0|1:0,0:0:0:0:
282,122,53371,5,2,0:3:0:0:
244,119,53449,1,2,0:3:0:0:
207,116,53528,1,2,0:3:0:0:
367,40,53687,1,2,0:3:0:0:
402,48,53765,1,2,0:3:0:0:
429,74,53844,1,2,0:3:0:0:
441,109,53923,1,2,0:3:0:0:
433,145,54002,1,2,0:3:0:0:
408,173,54081,1,2,0:3:0:0:
369,185,54160,1,2,0:3:0:0:
121,212,54318,5,2,1:2:0:0:
256,192,54476,12,8,55265,1:2:0:0:
254,118,55581,6,0,L|78:104,1,150,4|10,1:2|0:0,0:0:0:0:
253,209,56055,1,2,1:2:0:0:
294,221,56134,2,0,L|428:233,1,112.5,2|2,0:2|1:2,0:0:0:0:
257,308,56529,1,10,0:2:0:0:
219,310,56607,1,2,0:2:0:0:
182,312,56686,1,2,0:2:0:0:
410,361,56844,6,0,L|476:361,2,37.5,2|2|2,1:2|0:2|1:2,0:0:0:0:
277,362,57160,1,10,0:0:0:0:
274,324,57238,1,0,0:0:0:0:
271,287,57317,1,2,0:0:0:0:
411,270,57476,2,0,L|419:160,1,75,2|0,0:0|1:0,0:0:0:0:
276,190,57792,2,0,L|270:108,1,75,10|2,0:0|0:0,0:0:0:0:
121,67,58108,5,2,1:2:0:0:
158,62,58186,1,0,0:0:0:0:
195,58,58265,1,2,0:2:0:0:
332,244,58423,1,10,0:2:0:0:
294,239,58501,1,0,0:0:0:0:
257,235,58580,1,2,0:2:0:0:
106,312,58739,5,2,0:2:0:0:
70,307,58817,1,0,0:0:0:0:
53,275,58896,1,2,1:2:0:0:
69,243,58975,1,0,0:0:0:0:
105,237,59055,2,0,L|208:233,1,75,10|2,0:0|0:0,0:0:0:0:
338,124,59371,6,0,L|260:123,1,75,2|2,1:2|1:2,0:0:0:0:
126,124,59687,2,0,L|105:86,2,37.5,10|0|2,0:0|0:0|1:2,0:0:0:0:
270,209,60002,2,0,L|272:160,2,37.5,2|0|2,0:2|0:0|1:2,0:0:0:0:
416,244,60318,2,0,L|466:243,2,37.5,10|0|2,0:2|0:0|1:2,0:0:0:0:
174,354,60634,6,0,P|146:307|287:202,1,269.999991760254,4|0,1:2|0:0,0:0:0:0:
131,191,61265,1,2,0:2:0:0:
96,180,61343,1,2,0:2:0:0:
81,147,61422,1,2,1:2:0:0:
98,114,61501,1,2,0:2:0:0:
133,106,61581,2,0,L|221:98,1,75,10|2,0:2|1:2,0:0:0:0:
445,62,61897,6,0,L|453:153,1,75,2|0,1:2|1:0,0:0:0:0:
365,157,62213,1,10,0:0:0:0:
208,236,62371,2,0,L|383:275,1,150,2|2,1:2|1:2,0:0:0:0:
215,335,62844,1,10,0:2:0:0:
177,337,62922,1,2,0:2:0:0:
140,339,63001,1,2,1:2:0:0:
373,358,63160,5,2,1:2:0:0:
429,344,63265,1,2,0:2:0:0:
374,330,63371,1,2,0:2:0:0:
311,315,63476,1,10,0:2:0:0:
282,262,63581,1,2,0:2:0:0:
311,215,63687,1,2,0:2:0:0:
370,208,63792,5,2,0:2:0:0:
429,200,63897,1,2,0:2:0:0:
374,191,64002,1,2,0:2:0:0:
313,174,64108,1,10,0:2:0:0:
392,126,64265,1,0,0:0:0:0:
149,85,64423,5,2,1:2:0:0:
64,145,64581,2,0,L|233:185,1,150,8|10,1:2|1:2,0:0:0:0:
228,206,64976,1,0,0:0:0:0:
209,179,65055,1,2,0:0:0:0:
93,239,65213,1,8,1:3:0:0:
232,303,65371,1,8,0:3:0:0:
269,308,65449,1,0,0:0:0:0:
306,314,65528,1,0,1:0:0:0:
62,365,65687,6,0,P|41:313|188:215,1,269.999991760254,4|0,1:2|0:0,0:0:0:0:
332,147,66318,2,0,L|430:156,2,75,2|2|10,1:2|1:2|0:0,0:0:0:0:
248,122,66792,1,2,0:0:0:0:
399,68,66950,5,2,1:2:0:0:
434,77,67028,1,0,0:0:0:0:
449,110,67107,1,2,1:2:0:0:
433,142,67186,1,0,0:0:0:0:
397,150,67265,1,10,0:0:0:0:
246,168,67423,6,0,L|407:200,1,150,2|2,1:2|1:2,0:0:0:0:
392,295,67897,1,10,0:0:0:0:
354,299,67975,1,0,0:0:0:0:
317,303,68054,1,2,0:0:0:0:
155,357,68213,6,0,P|141:313|225:256,1,150,2|10,1:2|0:0,0:0:0:0:
295,251,68687,1,2,1:2:0:0:
147,175,68844,2,0,L|117:128,2,37.5,2|0|2,1:2|0:0|1:2,0:0:0:0:
297,108,69160,2,0,L|357:108,2,37.5,10|0|2,0:0|0:0|0:0,0:0:0:0:
61,39,69476,6,0,L|53:171,1,112.5,2|4,1:2|1:2,0:0:0:0:
290,262,69950,2,0,L|121:290,1,150,4|2,1:2|1:2,0:0:0:0:
49,218,70423,2,0,L|137:206,1,75,10|2,0:0|0:0,0:0:0:0:
355,264,70739,6,0,P|371:218|276:182,1,150,4|10,1:2|0:0,0:0:0:0:
435,216,71213,2,0,L|453:37,1,150,2|2,0:0|1:2,0:0:0:0:
307,40,71687,2,0,L|216:37,1,75,10|2,0:0|0:0,0:0:0:0:
376,150,72002,2,0,L|486:149,2,75,2|2|10,1:2|1:2|0:0,0:0:0:0:
126,342,72476,6,0,P|159:285|397:211,1,324.000007910156,2|2,1:2|0:0,0:0:0:0:
154,137,73265,6,0,L|25:122,1,112.5,2|2,1:2|0:2,0:0:0:0:
82,98,73581,1,10,0:2:0:0:
172,80,73739,1,2,0:2:0:0:
316,98,73897,6,0,L|341:147,2,37.5,2|0|2,0:2|0:0|1:2,0:0:0:0:
276,91,74134,1,0,0:0:0:0:
234,88,74213,2,0,L|177:86,2,37.5,10|0|2,0:2|0:0|0:2,0:0:0:0:
463,112,74529,6,0,L|469:193,1,75,2|8,1:2|1:2,0:0:0:0:
389,215,74844,1,8,0:0:0:0:
233,272,75002,2,0,L|207:223,2,37.5,2|8|8,1:2|1:3|1:2,0:0:0:0:
312,287,75318,1,0,1:0:0:0:
84,330,75476,2,0,L|0:329,1,75,10|2,0:0|1:2,0:0:0:0:
254,367,75792,6,0,L|348:358,1,75,2|0,1:2|0:0,0:0:0:0:
75,368,76108,6,0,P|194:82|306:389,1,809.999975280763,14|0,1:2|0:0,0:0:0:0:
166,371,77687,2,0,P|125:311|233:222,1,225,2|0,0:0|0:0,0:0:0:0:
450,254,78318,6,0,P|469:195|396:152,1,150,2|10,1:2|0:0,0:0:0:0:
238,89,78950,2,0,L|332:54,1,75,0|0,0:0|1:0,0:0:0:0:
394,58,79265,1,10,0:0:0:0:
147,245,79581,6,0,L|57:234,2,75,2|0|10,1:2|1:0|0:0,0:0:0:0:
243,298,80055,2,0,L|78:324,1,150,0|0,0:0|1:0,0:0:0:0:
212,359,80529,2,0,L|321:356,1,75,8|0,0:0|0:0,0:0:0:0:
52,330,80844,6,0,L|42:169,1,150,6|10,1:2|0:0,0:0:0:0:
271,111,81476,1,0,0:0:0:0:
233,106,81554,1,0,0:0:0:0:
196,101,81633,1,0,1:0:0:0:
79,97,81792,2,0,L|72:6,1,75,8|0,0:0|0:0,0:0:0:0:
226,209,82108,6,0,L|308:220,2,75,2|0|10,1:2|1:0|0:0,0:0:0:0:
407,307,82739,1,2,0:0:0:0:
444,310,82817,1,0,0:0:0:0:
481,314,82896,1,0,1:0:0:0:
405,346,83055,2,0,L|316:344,1,75,10|0,0:0|0:0,0:0:0:0:
103,267,83371,6,0,P|96:224|193:179,1,150,2|10,1:2|0:0,0:0:0:0:
250,172,83844,1,0,0:0:0:0:
392,157,84002,2,0,L|414:115,2,37.5,2|0|0,0:0|0:0|1:0,0:0:0:0:
292,88,84318,1,8,0:0:0:0:
54,68,84634,5,2,1:2:0:0:
159,148,84792,2,0,L|320:188,3,150,2|0|0|0,1:2|1:0|1:0|1:0,0:0:0:0:
69,286,85897,6,0,P|44:246|98:206,1,112.5,6|2,1:2|0:0,0:0:0:0:
124,196,86213,1,8,0:0:0:0:
267,192,86371,1,2,0:3:0:0:
302,182,86449,1,2,0:3:0:0:
317,149,86528,1,2,1:2:0:0:
302,117,86607,1,2,0:3:0:0:
267,107,86686,1,2,1:2:0:0:
138,99,86844,2,0,L|132:10,1,75,8|0,0:0|0:0,0:0:0:0:
284,13,87160,6,0,P|336:24|363:91,1,112.5,2|0,1:2|0:0,0:0:0:0:
366,114,87476,1,8,0:0:0:0:
229,138,87634,1,2,1:3:0:0:
193,145,87712,1,2,0:3:0:0:
178,178,87791,1,2,0:3:0:0:
197,209,87870,1,2,0:3:0:0:
233,212,87949,1,2,1:2:0:0:
375,260,88108,2,0,L|471:266,1,75,8|0,0:0|0:0,0:0:0:0:
294,341,88423,6,0,L|175:331,1,112.5,2|0,1:2|0:0,0:0:0:0:
221,299,88739,1,8,0:0:0:0:
361,269,88897,1,2,0:3:0:0:
395,258,88975,1,2,0:3:0:0:
410,225,89054,1,2,1:3:0:0:
394,193,89133,1,2,0:3:0:0:
358,185,89212,1,2,1:2:0:0:
217,140,89371,2,0,L|312:140,1,75,8|0,0:0|0:0,0:0:0:0:
64,45,89687,6,0,L|188:65,1,112.5,6|6,1:2|1:2,0:0:0:0:
392,326,90160,2,0,L|284:334,1,75,2|2,1:2|0:3,0:0:0:0:
281,323,90396,1,2,0:3:0:0:
266,291,90475,1,2,1:2:0:0:
282,258,90554,1,0,0:0:0:0:
318,252,90633,1,10,0:0:0:0:
396,245,90792,1,0,0:0:0:0:
165,153,90950,6,0,L|45:160,1,112.5,6|0,1:2|0:0,0:0:0:0:
92,128,91265,1,8,0:0:0:0:
241,79,91423,1,2,0:3:0:0:
276,87,91501,1,2,0:3:0:0:
290,120,91580,1,2,0:3:0:0:
272,152,91659,1,2,0:3:0:0:
236,156,91738,1,2,1:2:0:0:
88,188,91897,2,0,L|83:289,1,75,8|0,0:0|0:0,0:0:0:0:
245,282,92213,6,0,L|378:279,1,112.5,2|0,1:2|0:0,0:0:0:0:
318,257,92529,1,8,0:0:0:0:
174,228,92687,1,2,0:3:0:0:
138,223,92765,1,2,0:3:0:0:
122,191,92844,1,2,0:3:0:0:
139,159,92923,1,0,0:0:0:0:
175,156,93002,1,0,0:0:0:0:
321,145,93160,2,0,L|421:146,1,75,8|0,0:0|0:0,0:0:0:0:
160,60,93476,6,0,L|26:80,2,112.5,6|0|2,1:2|0:0|1:2,0:0:0:0:
309,104,94108,1,4,0:3:0:0:
343,114,94186,1,0,0:0:0:0:
358,147,94265,1,0,1:0:0:0:
342,180,94344,1,0,0:0:0:0:
308,190,94423,2,0,L|210:189,1,75,8|4,0:0|0:3,0:0:0:0:
382,278,94739,6,0,L|495:308,1,112.5,0|4,1:0|0:3,0:0:0:0:
296,377,95213,1,4,0:3:0:0:
260,369,95291,1,4,0:3:0:0:
245,336,95370,1,8,0:3:0:0:
262,304,95449,1,0,0:0:0:0:
297,299,95528,1,4,0:3:0:0:
443,275,95687,2,0,L|494:277,2,37.5,0|0|0,3:0|3:0|3:0,0:0:0:0:
201,166,96002,6,0,L|17:149,2,150,0|0|2,1:0|1:0|0:0,0:0:0:0:
463,89,97265,2,0,L|487:52,2,37.5,0|0|0,1:0|3:0|3:0,0:0:0:0:
369,133,97581,2,0,L|468:142,1,75,0|8,1:0|3:3,0:0:0:0:
318,212,97897,1,2,3:2:0:0:
53,250,98213,1,8,1:2:0:0:
455,333,98529,6,0,L|463:198,1,112.5,6|2,1:2|0:0,0:0:0:0:
323,154,99002,2,0,L|191:138,1,112.5,2|2,0:0|0:0,0:0:0:0:
450,52,99476,2,0,L|453:128,1,75,10|2,0:0|0:0,0:0:0:0:
300,152,99792,6,0,L|291:279,1,112.5,2|2,1:2|0:0,0:0:0:0:
85,353,100265,2,0,L|208:352,1,112.5,2|2,0:0|0:0,0:0:0:0:
390,200,100739,2,0,L|313:191,1,75,10|2,0:0|0:0,0:0:0:0:
95,224,101055,6,0,P|48:222|36:154,1,112.5,2|2,1:2|0:0,0:0:0:0:
248,89,101529,2,0,L|385:77,1,112.5,2|2,0:0|0:0,0:0:0:0:
148,21,102002,2,0,L|140:119,1,75,10|2,0:0|0:0,0:0:0:0:
370,120,102318,6,0,P|415:130|419:224,1,150,2|8,1:2|0:0,0:0:0:0:
260,237,102792,2,0,P|213:231|213:140,1,150,2|2,0:0|0:0,0:0:0:0:
345,97,103265,2,0,L|393:104,2,37.5,10|2|2,1:2|0:0|0:0,0:0:0:0:
115,68,103581,6,0,L|108:194,1,112.5,6|2,1:2|0:0,0:0:0:0:
305,253,104055,2,0,L|165:269,1,112.5,2|2,0:0|0:0,0:0:0:0:
397,361,104529,2,0,L|400:277,1,75,10|2,0:0|0:0,0:0:0:0:
173,292,104844,6,0,P|159:239|230:197,1,112.5,2|2,1:2|0:0,0:0:0:0:
412,201,105318,2,0,P|427:152|364:112,1,112.5,2|2,0:0|0:0,0:0:0:0:
166,69,105792,2,0,L|89:74,1,75,10|2,0:0|0:0,0:0:0:0:
249,160,106108,6,0,L|381:185,1,112.5,2|2,1:2|0:0,0:0:0:0:
135,313,106581,2,0,L|124:177,1,112.5,2|2,0:0|0:0,0:0:0:0:
350,159,107055,1,8,3:2:0:0:
387,156,107133,1,0,3:2:0:0:
424,153,107212,1,0,3:2:0:0:
194,94,107371,5,2,1:2:0:0:
112,109,107529,2,0,L|105:26,1,75,2|0,3:2|3:0,0:0:0:0:
256,206,107844,1,2,1:2:0:0:
118,248,108002,2,0,L|114:152,1,75,2|0,3:2|3:0,0:0:0:0:
342,294,108318,6,0,L|365:252,2,37.5,2|0|2,1:2|3:0|3:2,0:0:0:0:
202,327,108634,2,0,L|113:339,1,75,2|0,0:0|0:0,0:0:0:0:
361,361,108950,5,6,1:2:0:0:
441,298,109108,2,0,L|294:279,1,112.5,2|2,0:0|0:0,0:0:0:0:
100,274,109581,2,0,L|92:198,1,75,10|2,0:0|0:0,0:0:0:0:
252,160,109897,6,0,L|374:137,1,112.5,2|2,1:2|0:0,0:0:0:0:
134,65,110371,2,0,P|115:120|181:137,1,112.5,2|2,0:0|0:0,0:0:0:0:
372,269,110844,2,0,L|275:289,1,75,10|2,0:0|0:0,0:0:0:0:
66,325,111160,6,0,P|43:285|110:231,1,112.5,2|2,1:2|0:0,0:0:0:0:
296,154,111634,2,0,L|154:133,1,112.5,2|2,0:0|0:0,0:0:0:0:
395,79,112108,2,0,L|494:78,1,75,10|2,0:0|0:0,0:0:0:0:
238,37,112423,6,0,P|190:39|173:133,1,150,2|8,1:2|0:0,0:0:0:0:
324,154,112897,2,0,P|383:162|379:252,1,150,2|2,0:0|0:0,0:0:0:0:
245,280,113371,1,10,1:2:0:0:
207,286,113449,1,2,0:0:0:0:
170,292,113528,1,2,0:0:0:0:
403,353,113687,6,0,L|413:206,1,112.5,2|2,1:2|0:0,0:0:0:0:
197,235,114160,2,0,L|189:97,1,112.5,2|2,0:0|0:0,0:0:0:0:
422,48,114634,2,0,L|347:47,1,75,10|2,0:0|0:0,0:0:0:0:
119,187,114950,6,0,L|263:163,1,112.5,2|2,1:2|0:0,0:0:0:0:
453,350,115423,2,0,L|336:329,1,112.5,2|2,0:0|0:0,0:0:0:0:
118,364,115897,2,0,L|110:278,1,75,10|2,0:0|0:0,0:0:0:0:
343,219,116213,6,0,L|446:225,2,75,0|0|8,1:0|1:0|1:2,0:0:0:0:
183,135,116687,2,0,L|86:135,1,75,0|0,1:0|1:0,0:0:0:0:
146,109,116923,1,0,1:0:0:0:
185,98,117002,1,0,1:0:0:0:
346,86,117160,2,0,L|370:38,2,37.5,8|0|0,1:2|1:0|1:0,0:0:0:0:
115,200,117476,5,0,1:0:0:0:
37,173,117634,2,0,L|29:89,1,75,0|0,1:0|3:0,0:0:0:0:
193,150,117950,1,0,1:0:0:0:
272,176,118108,2,0,L|280:260,1,75,0|0,1:0|3:0,0:0:0:0:
46,296,118423,6,0,L|26:263,2,37.5,2|0|0,1:2|0:0|0:0,0:0:0:0:
209,345,118739,2,0,L|298:347,1,75,2|0,1:2|0:0,0:0:0:0:
49,369,119055,5,4,1:2:0:0:
60,264,119213,2,0,L|195:252,1,112.5,2|2,0:0|0:0,0:0:0:0:
395,138,119687,2,0,L|299:133,1,75,10|2,0:0|0:0,0:0:0:0:
158,204,120002,6,0,L|143:64,1,112.5,2|2,1:2|0:0,0:0:0:0:
268,46,120476,1,2,0:0:0:0:
427,77,120634,2,0,L|441:162,1,75,2|0,1:2|0:0,0:0:0:0:
283,201,120950,2,0,L|186:211,1,75,10|2,0:0|0:0,0:0:0:0:
437,321,121265,6,0,P|454:280|411:235,1,112.5,2|2,1:2|0:0,0:0:0:0:
190,240,121739,2,0,P|169:186|229:151,1,112.5,2|2,0:0|0:0,0:0:0:0:
425,82,122213,2,0,L|337:77,1,75,10|2,0:0|0:0,0:0:0:0:
117,51,122529,6,0,P|99:112|176:151,1,150,2|8,1:2|0:0,0:0:0:0:
319,199,123002,2,0,L|148:234,1,150,2|2,0:0|0:0,0:0:0:0:
37,245,123476,2,0,L|17:208,2,37.5,10|2|2,1:2|0:0|1:2,0:0:0:0:
270,312,123792,6,0,L|408:290,1,112.5,6|2,1:2|0:0,0:0:0:0:
184,172,124265,2,0,L|43:155,1,112.5,2|2,0:0|0:0,0:0:0:0:
296,96,124739,2,0,L|305:197,1,75,10|2,0:0|0:0,0:0:0:0:
70,317,125055,6,0,P|57:272|115:233,1,112.5,2|2,1:2|0:0,0:0:0:0:
224,212,125529,1,2,0:0:0:0:
377,224,125687,2,0,L|381:146,1,75,2|2,1:2|0:0,0:0:0:0:
224,95,126002,2,0,L|120:87,1,75,10|2,0:0|0:0,0:0:0:0:
381,55,126318,6,0,L|498:100,1,112.5,2|2,1:2|0:0,0:0:0:0:
260,191,126792,2,0,L|255:322,1,112.5,2|2,0:0|0:0,0:0:0:0:
472,320,127265,2,0,L|492:273,2,37.5,8|0|0,3:2|3:2|3:2,0:0:0:0:
239,374,127581,5,2,1:2:0:0:
159,331,127739,2,0,L|249:315,1,75,2|0,3:2|3:0,0:0:0:0:
377,288,128055,1,2,1:2:0:0:
243,231,128213,2,0,L|150:220,1,75,2|0,3:2|3:0,0:0:0:0:
403,200,128529,2,0,L|408:115,1,75,2|0,1:2|0:0,0:0:0:0:
355,53,128844,2,0,L|252:67,1,75,2|0,0:0|0:0,0:0:0:0:
41,24,129160,6,0,P|115:28|23:342,1,584.999973220826,4|2,1:2|1:2,0:0:0:0:
55,308,130187,1,2,0:2:0:0:
92,294,130265,1,2,0:2:0:0:
201,290,130423,2,0,L|201:249,2,37.5,10|2|2,0:2|0:2|0:2,0:0:0:0:
341,230,130739,6,0,L|361:196,2,37.5,2|0|0,1:2|0:0|0:0,0:0:0:0:
295,235,130976,1,0,0:0:0:0:
249,234,131055,2,0,L|189:233,2,37.5,10|0|0,1:2|0:0|0:0,0:0:0:0:
490,314,131371,6,0,P|461:171|191:390,1,682.499968757631,2|2,1:2|0:0,0:0:0:0:
251,371,132634,1,2,1:2:0:0:
457,324,132871,1,6,1:2:0:0:
299,248,133108,1,6,1:2:0:0:
459,211,133344,1,6,1:2:0:0:
355,87,133581,2,0,L|262:82,1,75,2|2,1:2|1:2,0:0:0:0:
45,266,133897,6,0,P|32:213|119:169,1,150,6|2,1:2|0:2,0:0:0:0:
139,163,134292,1,2,0:2:0:0:
176,161,134371,1,2,0:2:0:0:
325,133,134529,2,0,L|346:87,2,37.5,2|2|2,0:2|0:2|0:2,0:0:0:0:
166,72,134844,2,0,L|145:35,2,37.5,2|2|2,0:2|0:2|1:2,0:0:0:0:
397,193,135160,6,0,L|490:206,1,75,2|2,1:2|0:2,0:0:0:0:
326,276,135476,2,0,L|325:317,2,37.5,2|2|2,0:2|0:2|0:2,0:0:0:0:
174,221,135792,6,0,L|114:224,2,37.5,2|2|2,0:2|0:2|0:2,0:0:0:0:
330,159,136108,1,2,0:2:0:0:
367,160,136186,1,2,0:2:0:0:
404,161,136265,1,2,1:2:0:0:
180,31,136423,6,0,B|104:52|104:52|63:124|63:124|94:180|94:180|172:180|172:180|37:238|37:238|137:248,1,525,2|0,1:2|0:0,0:0:0:0:
354,303,137687,6,0,L|438:309,2,75,2|2|2,1:2|1:2|1:2,0:0:0:0:
194,339,138160,2,0,L|95:346,1,75,2|2,1:2|1:2,0:0:0:0:
97,307,138397,1,0,1:0:0:0:
119,344,138476,1,2,1:2:0:0:
346,362,138634,6,0,L|398:362,2,37.5,8|0|8,1:2|1:0|1:2,0:0:0:0:
197,207,138950,2,0,L|91:214,1,75,0|0,1:0|0:0,0:0:0:0:
376,155,139265,5,6,1:2:0:0:
256,192,139423,12,4,144318,0:0:0:0:
