osu file format v14

[General]
AudioFilename: audio.mp3
AudioLeadIn: 0
PreviewTime: 70200
Countdown: 0
SampleSet: Soft
StackLeniency: 0.7
Mode: 3
LetterboxInBreaks: 0
SpecialStyle: 0
WidescreenStoryboard: 0

[Editor]
DistanceSpacing: 0.8
BeatDivisor: 8
GridSize: 4
TimelineZoom: 2.999999

[Metadata]
Title:Inscape
TitleUnicode:Inscape
Artist:technoplanet
ArtistUnicode:technoplanet
Creator:Reba
Version:NOVICE
Source:SOUND VOLTEX IV HEAVENLY HAVEN
Tags:Production Confirmation Commemorative Original Song Contest Kayumai Piano Jakads Garalulu AscensionDTWhen
BeatmapID:1283896
BeatmapSetID:601607

[Difficulty]
HPDrainRate:7
CircleSize:7
OverallDifficulty:7
ApproachRate:5
SliderMultiplier:1.4
SliderTickRate:1

[Events]
//Background and Video events
0,0,"Inscape BG.jpg",0,0
//Break Periods
//Storyboard Layer 0 (Background)
//Storyboard Layer 1 (Fail)
//Storyboard Layer 2 (Pass)
//Storyboard Layer 3 (Foreground)
//Storyboard Sound Samples

[TimingPoints]
3000,300,4,2,1,50,1,0
89230,300,4,2,1,50,1,0
89430,300,4,2,1,50,1,0
92555,300,4,2,1,50,1,0
95115,300,4,2,1,50,1,0
98745,300,4,2,1,50,1,0
99035,300,4,2,1,50,1,0
100210,300,4,2,1,50,1,0
105010,298.507462686567,4,2,1,50,1,0
107398,317.460317460317,4,2,1,50,1,0
107398,-94.3396226415094,4,2,1,50,0,0
108191,294.117647058824,4,2,1,50,1,0
108191,-102.040816326531,4,2,1,50,0,0
108779,279.06976744186,4,2,1,50,1,0
108779,-107.52688172043,4,2,1,50,0,0
109337,298.507462686567,4,2,1,50,1,0
109635,262.008733624454,4,2,1,50,1,0
109635,-114.942528735632,4,2,1,50,0,0
109897,236.220472440945,4,2,1,50,1,0
109897,-126.582278481013,4,2,1,50,0,0
110133,250,4,2,1,50,1,0
110133,-120.481927710843,4,2,1,50,0,0
110633,441.176470588235,4,2,1,50,1,0
110633,-68.0272108843537,4,2,1,50,0,0
111074,419.58041958042,4,2,1,50,1,0
111074,-71.4285714285714,4,2,1,50,0,0

[HitObjects]
36,192,3000,5,0,0:0:0:50:CrashR.wav
475,192,3000,1,0,0:0:0:50:BaSS.wav
36,192,3225,1,0,0:0:0:0:
402,192,3450,1,0,0:0:0:0:
329,192,3600,1,0,0:0:0:0:
256,192,3750,1,0,0:0:0:50:BaSS.wav
182,192,3900,128,0,4200:0:0:0:50:KicK.wav
475,192,4200,1,0,0:0:0:50:BaSS.wav
475,192,4425,1,0,0:0:0:0:
109,192,4650,1,0,0:0:0:0:
182,192,4800,1,0,0:0:0:0:
256,192,4950,1,0,0:0:0:50:BaSS.wav
329,192,5100,128,0,5400:0:0:0:50:KicK.wav
109,192,5400,1,0,0:0:0:50:BaSS.wav
109,192,5625,1,0,0:0:0:0:
475,192,5850,1,0,0:0:0:0:
402,192,6000,1,0,0:0:0:0:
329,192,6150,1,0,0:0:0:50:BaSS.wav
256,192,6300,128,0,6600:0:0:0:50:KicK.wav
36,192,6600,1,0,0:0:0:50:CrashR.wav
475,192,6600,1,0,0:0:0:50:BaSS.wav
182,192,6750,1,0,0:0:0:0:
329,192,6900,1,0,0:0:0:0:
182,192,7050,1,0,0:0:0:50:BaSS.wav
182,192,7350,1,0,0:0:0:50:BaSS.wav
329,192,7500,1,0,0:0:0:50:KicK.wav
475,192,7650,1,0,0:0:0:50:Drum.wav
36,192,7800,128,0,8025:0:0:0:50:CrashR.wav
256,192,7800,1,0,0:0:0:50:BaSS.wav
182,192,8025,1,0,0:0:0:0:
329,192,8250,1,0,0:0:0:0:
256,192,8400,1,0,0:0:0:0:
182,192,8550,1,0,0:0:0:50:BaSS.wav
109,192,8700,1,0,0:0:0:50:KicK.wav
256,192,8850,1,0,0:0:0:0:
475,192,9000,128,0,9225:0:0:0:50:BaSS.wav
329,192,9225,1,0,0:0:0:0:
182,192,9450,1,0,0:0:0:0:
256,192,9600,1,0,0:0:0:0:
329,192,9750,1,0,0:0:0:50:BaSS.wav
402,192,9900,1,0,0:0:0:50:KicK.wav
256,192,10050,1,0,0:0:0:50:Snare.wav
36,192,10200,128,0,10500:0:0:0:50:BaSS.wav
182,192,10500,1,0,0:0:0:0:
182,192,10725,1,0,0:0:0:0:
329,192,10950,1,0,0:0:0:50:BaSS.wav
475,192,11100,1,0,0:0:0:50:KicK.wav
182,192,11100,1,0,0:0:0:0:
36,192,11400,1,0,0:0:0:50:CrashR.wav
256,192,11400,1,0,0:0:0:50:BaSS.wav
109,192,11625,1,0,0:0:0:50:CrashR.wav
329,192,11625,1,0,0:0:0:50:BaSS.wav
182,192,11850,1,0,0:0:0:50:CrashR.wav
402,192,11850,1,0,0:0:0:50:BaSS.wav
36,192,12000,128,0,12600:0:0:0:50:Tom.wav
475,192,12600,1,0,0:0:0:50:CrashR.wav
256,192,12600,1,0,0:0:0:50:BaSS.wav
256,192,12825,1,0,0:0:0:0:
475,192,13050,1,0,0:0:0:0:
329,192,13200,1,0,0:0:0:0:
182,192,13350,1,0,0:0:0:50:BaSS.wav
36,192,13500,1,0,0:0:0:50:KicK.wav
256,192,13650,1,0,0:0:0:0:
475,192,13800,128,0,13950:0:0:0:50:CrashR.wav
329,192,13950,128,0,14100:0:0:0:0:
182,192,14100,128,0,14250:0:0:0:0:
36,192,14250,128,0,14400:0:0:0:0:
402,192,14400,128,0,14550:0:0:0:0:
329,192,14550,128,0,14700:0:0:0:0:
256,192,14700,128,0,14850:0:0:0:50:Snare.wav
182,192,14850,128,0,15000:0:0:0:50:Snare.wav
36,192,15000,1,0,0:0:0:50:CrashR.wav
329,192,15000,1,0,0:0:0:50:BaSS.wav
402,192,15150,1,0,0:0:0:0:
475,192,15300,1,0,0:0:0:50:KicK.wav
329,192,15450,1,0,0:0:0:0:
182,192,15600,1,0,0:0:0:0:
36,192,15750,1,0,0:0:0:50:BaSS.wav
109,192,15900,1,0,0:0:0:50:KicK.wav
182,192,16050,1,0,0:0:0:0:
256,192,16200,1,0,0:0:0:50:BaSS.wav
475,192,16200,128,0,16350:0:0:0:0:
402,192,16350,128,0,16500:0:0:0:0:
329,192,16500,128,0,16650:0:0:0:50:Snare.wav
256,192,16650,128,0,16800:0:0:0:0:
475,192,16800,128,0,16950:0:0:0:50:Snare.wav
329,192,16950,128,0,17100:0:0:0:0:
182,192,17100,128,0,17250:0:0:0:50:Tom.wav
36,192,17250,128,0,17400:0:0:0:50:Tom.wav
475,192,17400,1,0,0:0:0:50:CrashR.wav
182,192,17400,1,0,0:0:0:50:BaSS.wav
329,192,17700,1,0,0:0:0:50:KicK.wav
256,192,17850,1,0,0:0:0:0:
182,192,18000,1,0,0:0:0:0:
329,192,18150,1,0,0:0:0:50:BaSS.wav
475,192,18300,1,0,0:0:0:50:KicK.wav
402,192,18450,1,0,0:0:0:0:
329,192,18600,128,0,18900:0:0:0:50:BaSS.wav
36,192,18900,128,0,19200:0:0:0:50:KicK.wav
256,192,19200,1,0,0:0:0:50:Drum.wav
329,192,19350,1,0,0:0:0:50:Drum.wav
402,192,19500,128,0,19800:0:0:0:0:
182,192,19800,1,0,0:0:0:50:CrashR.wav
36,192,19800,1,0,0:0:0:50:BaSS.wav
256,192,19950,1,0,0:0:0:50:BaSS.wav
329,192,20100,1,0,0:0:0:50:KicK.wav
402,192,20250,1,0,0:0:0:50:BaSS.wav
475,192,20400,1,0,0:0:0:0:
329,192,20550,1,0,0:0:0:50:BaSS.wav
182,192,20700,1,0,0:0:0:50:KicK.wav
36,192,20850,1,0,0:0:0:50:Drum.wav
402,192,21000,128,0,21300:0:0:0:50:CrashR.wav
256,192,21000,1,0,0:0:0:50:BaSS.wav
109,192,21300,1,0,0:0:0:50:KicK.wav
36,192,21300,1,0,0:0:0:0:
182,192,21450,1,0,0:0:0:50:BaSS.wav
256,192,21600,128,0,22200:0:0:0:50:BaSS.wav
475,192,22200,1,0,0:0:0:50:CrashR.wav
36,192,22200,1,0,0:0:0:50:BaSS.wav
109,192,22350,1,0,0:0:0:0:
182,192,22500,1,0,0:0:0:0:
256,192,22650,1,0,0:0:0:0:
329,192,22800,1,0,0:0:0:0:
182,192,22950,1,0,0:0:0:50:BaSS.wav
36,192,23100,1,0,0:0:0:0:
256,192,23250,1,0,0:0:0:0:
475,192,23400,1,0,0:0:0:50:BaSS.wav
402,192,23550,1,0,0:0:0:0:
329,192,23700,1,0,0:0:0:0:
256,192,23850,1,0,0:0:0:0:
182,192,24000,1,0,0:0:0:0:
329,192,24150,1,0,0:0:0:50:BaSS.wav
475,192,24300,1,0,0:0:0:0:
256,192,24450,1,0,0:0:0:0:
36,192,24600,1,0,0:0:0:50:CrashR.wav
475,192,24600,1,0,0:0:0:50:BaSS.wav
182,192,24750,1,0,0:0:0:0:
329,192,24900,1,0,0:0:0:50:KicK.wav
475,192,25050,1,0,0:0:0:0:
256,192,25200,1,0,0:0:0:0:
36,192,25350,1,0,0:0:0:50:BaSS.wav
109,192,25500,1,0,0:0:0:50:KicK.wav
182,192,25650,1,0,0:0:0:0:
256,192,25800,1,0,0:0:0:50:CrashR.wav
402,192,25800,1,0,0:0:0:50:BaSS.wav
182,192,26025,1,0,0:0:0:50:CrashR.wav
36,192,26025,1,0,0:0:0:0:
329,192,26250,1,0,0:0:0:50:CrashR.wav
475,192,26250,1,0,0:0:0:50:BaSS.wav
182,192,26400,128,0,26700:0:0:0:0:
36,192,26700,128,0,27000:0:0:0:50:Snare.wav
475,192,27000,1,0,0:0:0:50:CrashR.wav
182,192,27000,1,0,0:0:0:50:BaSS.wav
256,192,27150,1,0,0:0:0:0:
329,192,27300,1,0,0:0:0:50:KicK.wav
402,192,27450,1,0,0:0:0:0:
475,192,27600,1,0,0:0:0:0:
329,192,27750,1,0,0:0:0:50:BaSS.wav
182,192,27900,1,0,0:0:0:50:KicK.wav
36,192,28050,1,0,0:0:0:0:
329,192,28200,1,0,0:0:0:50:BaSS.wav
475,192,28200,1,0,0:0:0:0:
256,192,28350,1,0,0:0:0:0:
182,192,28500,1,0,0:0:0:50:KicK.wav
109,192,28650,1,0,0:0:0:0:
36,192,28800,1,0,0:0:0:0:
182,192,28950,1,0,0:0:0:50:BaSS.wav
329,192,29100,1,0,0:0:0:0:
475,192,29250,1,0,0:0:0:0:
256,192,29400,1,0,0:0:0:50:BaSS.wav
256,192,29550,1,0,0:0:0:50:BaSS.wav
109,192,29700,1,0,0:0:0:50:KicK.wav
402,192,29850,1,0,0:0:0:50:BaSS.wav
329,192,30000,1,0,0:0:0:50:BaSS.wav
256,192,30150,1,0,0:0:0:50:KicK.wav
182,192,30300,128,0,30600:0:0:0:50:Drum.wav
475,192,30600,128,0,30750:0:0:0:50:Drum.wav
329,192,30750,128,0,30900:0:0:0:50:Tom.wav
182,192,30900,128,0,31050:0:0:0:50:Tom.wav
36,192,31050,128,0,31200:0:0:0:50:Tom.wav
256,192,31200,128,0,31500:0:0:0:50:Snare.wav
475,192,31500,1,0,0:0:0:50:BaSS.wav
329,192,31650,1,0,0:0:0:50:BaSS.wav
182,192,31800,1,0,0:0:0:50:CrashR.wav
36,192,31800,1,0,0:0:0:50:BaSS.wav
256,192,31950,1,0,0:0:0:50:BaSS.wav
329,192,32100,1,0,0:0:0:50:KicK.wav
36,192,32250,1,0,0:0:0:50:BaSS.wav
182,192,32325,1,0,0:0:0:50:BaSS.wav
475,192,32475,1,0,0:0:0:50:BaSS.wav
329,192,32550,1,0,0:0:0:50:BaSS.wav
329,192,32700,1,0,0:0:0:50:KicK.wav
182,192,32850,1,0,0:0:0:50:BaSS.wav
36,192,33000,128,0,33300:0:0:0:50:BaSS.wav
475,192,33300,1,0,0:0:0:0:
256,192,33300,1,0,0:0:0:0:
182,192,33450,1,0,0:0:0:0:
109,192,33600,1,0,0:0:0:0:
256,192,33750,1,0,0:0:0:0:
402,192,33900,128,0,34200:0:0:0:0:
36,192,34200,1,0,0:0:0:50:BaSS.wav
182,192,34350,1,0,0:0:0:50:BaSS.wav
475,192,34500,1,0,0:0:0:50:KicK.wav
329,192,34650,1,0,0:0:0:50:BaSS.wav
329,192,34950,1,0,0:0:0:50:BaSS.wav
182,192,35100,128,0,35400:0:0:0:50:Snare.wav
36,192,35400,1,0,0:0:0:50:CrashR.wav
475,192,35400,1,0,0:0:0:50:BaSS.wav
329,192,35625,1,0,0:0:0:50:Drum.wav
182,192,35625,1,0,0:0:0:0:
475,192,35850,1,0,0:0:0:50:Drum.wav
36,192,35850,1,0,0:0:0:0:
256,192,36075,1,0,0:0:0:50:Tom.wav
36,192,36300,128,0,36600:0:0:0:50:Drum.wav
402,192,36600,1,0,0:0:0:50:CrashR.wav
182,192,36600,1,0,0:0:0:50:BaSS.wav
475,192,36900,1,0,0:0:0:50:KicK.wav
402,192,37050,1,0,0:0:0:0:
329,192,37200,1,0,0:0:0:0:
256,192,37350,1,0,0:0:0:50:BaSS.wav
182,192,37500,1,0,0:0:0:50:KicK.wav
109,192,37650,1,0,0:0:0:50:Tom.wav
36,192,37800,1,0,0:0:0:50:BaSS.wav
182,192,37950,1,0,0:0:0:0:
329,192,38100,1,0,0:0:0:50:KicK.wav
256,192,38250,1,0,0:0:0:0:
182,192,38400,1,0,0:0:0:0:
109,192,38550,1,0,0:0:0:50:BaSS.wav
256,192,38700,1,0,0:0:0:50:KicK.wav
402,192,38850,1,0,0:0:0:0:
182,192,39000,128,0,39300:0:0:0:50:BaSS.wav
36,192,39300,1,0,0:0:0:50:KicK.wav
329,192,39600,128,0,39900:0:0:0:50:Drum.wav
475,192,39900,1,0,0:0:0:50:KicK.wav
182,192,40200,1,0,0:0:0:50:CrashR.wav
36,192,40200,1,0,0:0:0:50:BaSS.wav
329,192,40350,128,0,40650:0:0:0:50:Snare.wav
475,192,40650,1,0,0:0:0:50:CrashR.wav
36,192,40650,1,0,0:0:0:50:BaSS.wav
182,192,40800,128,0,41100:0:0:0:50:Snare.wav
475,192,41100,128,0,41400:0:0:0:50:BaSS.wav
182,192,41400,1,0,0:0:0:50:CrashR.wav
36,192,41400,1,0,0:0:0:50:BaSS.wav
329,192,41700,1,0,0:0:0:0:
182,192,41850,1,0,0:0:0:0:
256,192,42000,1,0,0:0:0:0:
329,192,42150,1,0,0:0:0:0:
402,192,42300,1,0,0:0:0:0:
475,192,42450,1,0,0:0:0:0:
36,192,42750,128,0,43800:0:0:0:0:
475,192,43800,1,0,0:0:0:0:
475,192,45000,128,0,45300:0:0:0:0:
329,192,45300,128,0,45600:0:0:0:0:
182,192,45600,128,0,45900:0:0:0:0:
36,192,45900,128,0,46200:0:0:0:0:
475,192,46200,1,0,0:0:0:50:BaSS.wav
256,192,46200,128,0,46500:0:0:0:0:
182,192,46500,128,0,46800:0:0:0:0:
109,192,46800,128,0,47100:0:0:0:0:
36,192,47100,128,0,47400:0:0:0:0:
475,192,47400,128,0,47700:0:0:0:0:
329,192,47700,128,0,48000:0:0:0:0:
182,192,48000,128,0,48300:0:0:0:0:
36,192,48300,128,0,48600:0:0:0:50:BaSS.wav
329,192,48300,1,0,0:0:0:0:
475,192,48600,1,0,0:0:0:50:BaSS.wav
182,192,48600,128,0,49800:0:0:0:0:
329,192,49200,128,0,49800:0:0:0:30:BaSS.wav
475,192,49800,128,0,50100:0:0:0:0:
329,192,50100,1,0,0:0:0:0:
182,192,50250,1,0,0:0:0:0:
36,192,50400,128,0,50700:0:0:0:0:
256,192,50700,1,0,0:0:0:0:
329,192,50850,1,0,0:0:0:0:
402,192,51000,1,0,0:0:0:50:CrashR.wav
475,192,51000,1,0,0:0:0:50:BaSS.wav
36,192,51300,1,0,0:0:0:0:
36,192,51750,1,0,0:0:0:50:BaSS.wav
256,192,51900,1,0,0:0:0:0:
256,192,52200,1,0,0:0:0:50:BaSS.wav
475,192,52500,1,0,0:0:0:0:
475,192,52950,1,0,0:0:0:50:BaSS.wav
256,192,53100,1,0,0:0:0:0:
256,192,53400,1,0,0:0:0:50:BaSS.wav
109,192,53700,1,0,0:0:0:0:
109,192,54150,1,0,0:0:0:50:BaSS.wav
402,192,54300,1,0,0:0:0:0:
402,192,54600,1,0,0:0:0:50:BaSS.wav
256,192,54825,1,0,0:0:0:0:
109,192,55050,1,0,0:0:0:0:
109,192,55275,1,0,0:0:0:0:
329,192,55500,128,0,55800:0:0:0:0:
36,192,55800,1,0,0:0:0:50:BaSS.wav
36,192,56100,1,0,0:0:0:0:
256,192,56250,1,0,0:0:0:0:
256,192,56550,1,0,0:0:0:50:BaSS.wav
475,192,56700,128,0,57000:0:0:0:0:
109,192,57000,1,0,0:0:0:50:BaSS.wav
256,192,57150,1,0,0:0:0:0:
402,192,57300,1,0,0:0:0:0:
36,192,57600,128,0,57750:0:0:0:0:
182,192,57750,1,0,0:0:0:50:BaSS.wav
329,192,57900,1,0,0:0:0:0:
475,192,58050,128,0,58200:0:0:0:50:Snare.wav
256,192,58200,1,0,0:0:0:50:BaSS.wav
36,192,58200,1,0,0:0:0:0:
475,192,58500,1,0,0:0:0:0:
109,192,58950,1,0,0:0:0:50:BaSS.wav
256,192,59100,1,0,0:0:0:0:
36,192,59400,128,0,60000:0:0:0:50:BaSS.wav
475,192,60000,128,0,60600:0:0:0:0:
256,192,60600,1,0,0:0:0:50:BaSS.wav
475,192,61800,1,0,0:0:0:0:
256,192,62400,1,0,0:0:0:0:
36,192,63000,1,0,0:0:0:50:BaSS.wav
475,192,63600,1,0,0:0:0:30:BaSS.wav
36,192,64200,1,0,0:0:0:0:
182,192,64800,1,0,0:0:0:0:
329,192,65400,1,0,0:0:0:50:CrashR.wav
475,192,65400,128,0,65700:0:0:0:50:BaSS.wav
182,192,65700,1,0,0:0:0:50:KicK.wav
36,192,66000,128,0,66300:0:0:0:0:
475,192,66150,1,0,0:0:0:50:BaSS.wav
329,192,66300,1,0,0:0:0:50:KicK.wav
109,192,66600,128,0,66900:0:0:0:50:BaSS.wav
329,192,66600,1,0,0:0:0:0:
256,192,66900,1,0,0:0:0:50:KicK.wav
402,192,67050,1,0,0:0:0:50:BaSS.wav
182,192,67200,128,0,67500:0:0:0:0:
475,192,67350,1,0,0:0:0:50:BaSS.wav
329,192,67500,1,0,0:0:0:50:KicK.wav
475,192,67800,128,0,68100:0:0:0:50:BaSS.wav
36,192,67800,1,0,0:0:0:0:
182,192,68100,1,0,0:0:0:50:BaSS.wav
402,192,68400,128,0,68700:0:0:0:50:BaSS.wav
36,192,68400,1,0,0:0:0:0:
109,192,68700,1,0,0:0:0:50:BaSS.wav
329,192,69000,128,0,69300:0:0:0:50:BaSS.wav
182,192,69000,1,0,0:0:0:0:
109,192,69300,1,0,0:0:0:50:BaSS.wav
36,192,69600,1,0,0:0:0:50:BaSS.wav
256,192,69600,128,0,69900:0:0:0:0:
475,192,69900,1,0,0:0:0:50:BaSS.wav
475,192,70200,128,0,70350:0:0:0:0:
402,192,70350,128,0,70500:0:0:0:0:
329,192,70500,128,0,70650:0:0:0:0:
256,192,70650,128,0,70800:0:0:0:0:
182,192,70800,128,0,70950:0:0:0:0:
475,192,70950,128,0,71100:0:0:0:0:
329,192,71100,128,0,71250:0:0:0:0:
182,192,71250,128,0,71400:0:0:0:0:
36,192,71400,128,0,71550:0:0:0:0:
109,192,71550,128,0,71700:0:0:0:0:
182,192,71700,128,0,71850:0:0:0:0:
256,192,71850,128,0,72000:0:0:0:0:
109,192,72000,128,0,72150:0:0:0:0:
182,192,72150,128,0,72300:0:0:0:0:
256,192,72300,128,0,72450:0:0:0:0:
329,192,72450,128,0,72600:0:0:0:0:
475,192,72600,1,0,0:0:0:50:CrashR.wav
36,192,72600,1,0,0:0:0:50:BaSS.wav
182,192,72750,1,0,0:0:0:0:
329,192,72900,1,0,0:0:0:50:KicK.wav
475,192,73050,128,0,73350:0:0:0:50:BaSS.wav
256,192,73350,1,0,0:0:0:50:BaSS.wav
182,192,73500,1,0,0:0:0:50:Snare.wav
109,192,73650,1,0,0:0:0:0:
256,192,73800,1,0,0:0:0:50:BaSS.wav
402,192,73950,1,0,0:0:0:50:CrashR.wav
475,192,73950,1,0,0:0:0:0:
329,192,74100,1,0,0:0:0:50:Snare.wav
256,192,74250,1,0,0:0:0:0:
182,192,74400,1,0,0:0:0:50:CrashR.wav
36,192,74400,1,0,0:0:0:50:BaSS.wav
329,192,74625,1,0,0:0:0:50:CrashR.wav
475,192,74625,1,0,0:0:0:50:BaSS.wav
256,192,74850,1,0,0:0:0:50:CrashR.wav
109,192,74850,1,0,0:0:0:50:BaSS.wav
402,192,75000,128,0,75300:0:0:0:50:CrashR.wav
475,192,75000,128,0,75300:0:0:0:50:BaSS.wav
36,192,75300,1,0,0:0:0:50:KicK.wav
109,192,75450,1,0,0:0:0:0:
182,192,75600,1,0,0:0:0:0:
256,192,75750,1,0,0:0:0:50:BaSS.wav
329,192,75900,1,0,0:0:0:50:KicK.wav
182,192,76050,1,0,0:0:0:0:
36,192,76200,128,0,76500:0:0:0:50:BaSS.wav
402,192,76500,1,0,0:0:0:50:KicK.wav
256,192,76500,1,0,0:0:0:0:
475,192,76800,128,0,77100:0:0:0:50:BaSS.wav
182,192,77100,1,0,0:0:0:50:KicK.wav
36,192,77100,1,0,0:0:0:0:
402,192,77400,1,0,0:0:0:0:
475,192,77400,1,0,0:0:0:0:
329,192,77550,1,0,0:0:0:50:Drum.wav
256,192,77700,1,0,0:0:0:50:Drum.wav
182,192,77850,1,0,0:0:0:50:Drum.wav
109,192,78000,1,0,0:0:0:50:Drum.wav
256,192,78150,1,0,0:0:0:50:BaSS.wav
402,192,78300,1,0,0:0:0:50:Snare.wav
329,192,78450,1,0,0:0:0:50:Snare.wav
36,192,78600,128,0,78800:0:0:0:50:BaSS.wav
256,192,78600,1,0,0:0:0:0:
182,192,78800,1,0,0:0:0:0:
475,192,78900,128,0,79100:0:0:0:0:
329,192,79100,1,0,0:0:0:0:
36,192,79200,128,0,79400:0:0:0:0:
182,192,79400,1,0,0:0:0:0:
475,192,79500,128,0,79700:0:0:0:0:
329,192,79700,1,0,0:0:0:0:
109,192,79800,1,0,0:0:0:50:CrashR.wav
36,192,79800,1,0,0:0:0:50:BaSS.wav
182,192,80100,1,0,0:0:0:50:KicK.wav
475,192,80250,1,0,0:0:0:0:
329,192,80250,1,0,0:0:0:0:
256,192,80550,1,0,0:0:0:50:BaSS.wav
109,192,80550,1,0,0:0:0:0:
329,192,80700,1,0,0:0:0:50:KicK.wav
402,192,80850,1,0,0:0:0:0:
36,192,80850,1,0,0:0:0:0:
475,192,81000,128,0,81300:0:0:0:50:BaSS.wav
182,192,81300,1,0,0:0:0:50:CrashR.wav
36,192,81300,1,0,0:0:0:50:BaSS.wav
402,192,81450,1,0,0:0:0:0:
475,192,81450,1,0,0:0:0:0:
256,192,81750,1,0,0:0:0:50:BaSS.wav
109,192,81750,1,0,0:0:0:0:
475,192,81900,1,0,0:0:0:50:Tom.wav
182,192,82050,1,0,0:0:0:50:Drum.wav
36,192,82050,1,0,0:0:0:0:
475,192,82200,1,0,0:0:0:50:CrashR.wav
402,192,82200,1,0,0:0:0:50:BaSS.wav
329,192,82350,1,0,0:0:0:50:BaSS.wav
256,192,82500,1,0,0:0:0:50:KicK.wav
182,192,82650,1,0,0:0:0:50:BaSS.wav
36,192,82650,1,0,0:0:0:0:
402,192,82950,1,0,0:0:0:50:BaSS.wav
256,192,82950,1,0,0:0:0:0:
182,192,83100,1,0,0:0:0:50:KicK.wav
109,192,83250,1,0,0:0:0:50:Drum.wav
475,192,83400,128,0,83550:0:0:0:50:BaSS.wav
402,192,83550,128,0,83700:0:0:0:0:
329,192,83700,128,0,83850:0:0:0:50:Drum.wav
256,192,83850,128,0,84000:0:0:0:50:Drum.wav
475,192,84000,128,0,84150:0:0:0:0:
329,192,84150,128,0,84300:0:0:0:50:BaSS.wav
182,192,84300,128,0,84450:0:0:0:50:Snare.wav
36,192,84450,128,0,84600:0:0:0:50:Snare.wav
402,192,84600,1,0,0:0:0:50:CrashR.wav
475,192,84600,1,0,0:0:0:50:BaSS.wav
256,192,84750,1,0,0:0:0:0:
109,192,84900,1,0,0:0:0:50:KicK.wav
36,192,84900,1,0,0:0:0:0:
182,192,85050,1,0,0:0:0:50:BaSS.wav
256,192,85200,1,0,0:0:0:0:
329,192,85350,1,0,0:0:0:0:
475,192,85500,1,0,0:0:0:50:KicK.wav
182,192,85500,1,0,0:0:0:0:
402,192,85650,1,0,0:0:0:50:Snare.wav
329,192,85800,1,0,0:0:0:50:CrashR.wav
36,192,85800,1,0,0:0:0:0:
109,192,85950,1,0,0:0:0:0:
182,192,86100,1,0,0:0:0:50:KicK.wav
329,192,86100,1,0,0:0:0:0:
402,192,86250,1,0,0:0:0:50:BaSS.wav
475,192,86400,1,0,0:0:0:0:
36,192,86550,128,0,86700:0:0:0:50:Snare.wav
182,192,86700,1,0,0:0:0:50:BaSS.wav
475,192,86850,128,0,87000:0:0:0:50:Drum.wav
36,192,87000,1,0,0:0:0:50:BaSS.wav
329,192,87000,1,0,0:0:0:0:
182,192,87150,1,0,0:0:0:0:
329,192,87300,1,0,0:0:0:0:
475,192,87450,1,0,0:0:0:0:
109,192,87600,1,0,0:0:0:0:
182,192,87750,1,0,0:0:0:50:BaSS.wav
256,192,87900,1,0,0:0:0:0:
329,192,88050,1,0,0:0:0:50:BaSS.wav
475,192,88200,1,0,0:0:0:50:CrashR.wav
402,192,88200,1,0,0:0:0:50:BaSS.wav
182,192,88400,1,0,0:0:0:50:CrashR.wav
36,192,88400,1,0,0:0:0:50:BaSS.wav
329,192,88600,1,0,0:0:0:50:CrashR.wav
475,192,88600,1,0,0:0:0:50:BaSS.wav
256,192,88800,1,0,0:0:0:50:CrashR.wav
109,192,88800,1,0,0:0:0:50:BaSS.wav
402,192,89000,1,0,0:0:0:50:CrashR.wav
475,192,89000,1,0,0:0:0:50:BaSS.wav
36,192,89230,1,0,0:0:0:50:CrashR.wav
182,192,89230,1,0,0:0:0:50:BaSS.wav
475,192,89430,128,0,89730:0:0:0:0:
256,192,89730,1,0,0:0:0:50:CrashR.wav
36,192,89730,1,0,0:0:0:50:BaSS.wav
329,192,89880,1,0,0:0:0:0:
402,192,90030,1,0,0:0:0:0:
475,192,90180,1,0,0:0:0:50:BaSS.wav
329,192,90330,1,0,0:0:0:0:
182,192,90480,1,0,0:0:0:0:
36,192,90630,128,0,90930:0:0:0:50:BaSS.wav
475,192,90630,1,0,0:0:0:0:
402,192,90780,1,0,0:0:0:50:Snare.wav
182,192,90930,128,0,91230:0:0:0:50:Snare.wav
329,192,90930,1,0,0:0:0:0:
475,192,91080,1,0,0:0:0:50:Snare.wav
329,192,91230,128,0,91530:0:0:0:50:BaSS.wav
36,192,91230,1,0,0:0:0:0:
182,192,91380,1,0,0:0:0:50:Tom.wav
475,192,91530,128,0,91830:0:0:0:50:Tom.wav
109,192,91530,1,0,0:0:0:0:
36,192,91680,1,0,0:0:0:50:Tom.wav
182,192,91830,1,0,0:0:0:50:CrashR.wav
329,192,91830,1,0,0:0:0:50:BaSS.wav
475,192,92130,1,0,0:0:0:50:Snare.wav
329,192,92280,128,0,92430:0:0:0:50:BaSS.wav
36,192,92430,1,0,0:0:0:0:
182,192,92555,128,0,92705:0:0:0:0:
329,192,92705,128,0,92855:0:0:0:0:
475,192,92855,128,0,93005:0:0:0:0:
256,192,93005,1,0,0:0:0:50:BaSS.wav
182,192,93230,1,0,0:0:0:0:
109,192,93455,1,0,0:0:0:0:
402,192,93605,128,0,93755:0:0:0:50:CrashR.wav
329,192,93755,128,0,93905:0:0:0:50:BaSS.wav
256,192,93905,128,0,94055:0:0:0:50:KicK.wav
182,192,94055,128,0,94205:0:0:0:50:BaSS.wav
475,192,94205,1,0,0:0:0:50:CrashR.wav
402,192,94205,1,0,0:0:0:50:BaSS.wav
36,192,94505,128,0,94655:0:0:0:50:BaSS.wav
329,192,94655,1,0,0:0:0:50:CrashR.wav
182,192,94655,1,0,0:0:0:50:BaSS.wav
475,192,94955,128,0,95115:0:0:0:50:BaSS.wav
329,192,95115,1,0,0:0:0:50:Tom.wav
182,192,95115,1,0,0:0:0:0:
109,192,95265,1,0,0:0:0:50:Tom.wav
36,192,95415,1,0,0:0:0:50:Tom.wav
475,192,95415,1,0,0:0:0:0:
402,192,95565,1,0,0:0:0:0:
329,192,95715,1,0,0:0:0:50:KicK.wav
182,192,95715,1,0,0:0:0:0:
109,192,95865,1,0,0:0:0:50:BaSS.wav
36,192,96015,1,0,0:0:0:0:
182,192,96165,1,0,0:0:0:50:BaSS.wav
329,192,96315,1,0,0:0:0:50:KicK.wav
475,192,96315,1,0,0:0:0:0:
256,192,96465,1,0,0:0:0:0:
475,192,96615,1,0,0:0:0:50:CrashR.wav
182,192,96615,128,0,96915:0:0:0:0:
402,192,96765,1,0,0:0:0:50:Drum.wav
329,192,96915,1,0,0:0:0:50:Drum.wav
36,192,96915,128,0,97215:0:0:0:0:
475,192,97065,1,0,0:0:0:50:Drum.wav
182,192,97215,1,0,0:0:0:50:Drum.wav
329,192,97215,128,0,97515:0:0:0:0:
109,192,97365,1,0,0:0:0:50:Drum.wav
36,192,97515,1,0,0:0:0:50:Snare.wav
475,192,97515,128,0,97815:0:0:0:0:
182,192,97665,1,0,0:0:0:50:Snare.wav
329,192,97815,1,0,0:0:0:50:BaSS.wav
36,192,97815,1,0,0:0:0:0:
182,192,98040,128,0,98190:0:0:0:0:
36,192,98190,128,0,98340:0:0:0:0:
329,192,98340,1,0,0:0:0:0:
475,192,98415,1,0,0:0:0:0:
182,192,98415,1,0,0:0:0:0:
109,192,98745,1,0,0:0:0:0:
36,192,99035,1,0,0:0:0:50:KicK.wav
475,192,99035,1,0,0:0:0:0:
402,192,99485,1,0,0:0:0:0:
329,192,99910,1,0,0:0:0:0:
256,192,100210,128,0,100510:0:0:0:0:
109,192,100510,1,0,0:0:0:0:
36,192,100960,128,0,101260:0:0:0:0:
182,192,101260,1,0,0:0:0:0:
329,192,101410,128,0,101860:0:0:0:0:
475,192,101860,1,0,0:0:0:0:
182,192,102610,1,0,0:0:0:0:
329,192,102910,1,0,0:0:0:0:
475,192,103210,1,0,0:0:0:0:
256,192,103510,1,0,0:0:0:0:
36,192,103810,1,0,0:0:0:0:
109,192,103960,1,0,0:0:0:0:
182,192,104110,1,0,0:0:0:0:
256,192,104260,128,0,104710:0:0:0:0:
36,192,104710,1,0,0:0:0:0:
475,192,105010,1,0,0:0:0:0:
329,192,105233,128,0,105457:0:0:0:0:
182,192,105457,1,0,0:0:0:0:
109,192,105905,1,0,0:0:0:0:
36,192,106204,128,0,106502:0:0:0:0:
182,192,106502,128,0,106801:0:0:0:0:
329,192,106801,128,0,107099:0:0:0:0:
475,192,107099,128,0,107398:0:0:0:0:
182,192,107398,1,0,0:0:0:0:
36,192,107398,1,0,0:0:0:0:
256,192,108032,1,0,0:0:0:0:
109,192,108191,128,0,108779:0:0:0:0:
475,192,108779,1,0,0:0:0:0:
329,192,109337,1,0,0:0:0:0:
256,192,109635,1,0,0:0:0:0:
182,192,109897,1,0,0:0:0:0:
109,192,110133,1,0,0:0:0:0:
36,192,110383,1,0,0:0:0:0:
329,192,110633,1,0,0:0:0:0:
475,192,111074,1,0,0:0:0:0:
36,192,111913,1,0,0:0:0:0:
