osu file format v14

[General]
AudioFilename: audio.mp3
AudioLeadIn: 0
PreviewTime: 70200
Countdown: 0
SampleSet: Soft
StackLeniency: 0.7
Mode: 3
LetterboxInBreaks: 0
SpecialStyle: 0
WidescreenStoryboard: 0

[Editor]
DistanceSpacing: 0.8
BeatDivisor: 8
GridSize: 4
TimelineZoom: 2.999999

[Metadata]
Title:Inscape
TitleUnicode:Inscape
Artist:technoplanet
ArtistUnicode:technoplanet
Creator:Reba
Version:BASIC
Source:SOUND VOLTEX IV HEAVENLY HAVEN
Tags:Production Confirmation Commemorative Original Song Contest Kayumai Piano Jakads Garalulu AscensionDTWhen
BeatmapID:1283895
BeatmapSetID:601607

[Difficulty]
HPDrainRate:6
CircleSize:7
OverallDifficulty:7
ApproachRate:5
SliderMultiplier:1.4
SliderTickRate:1

[Events]
//Background and Video events
0,0,"Inscape BG.jpg",0,0
//Break Periods
//Storyboard Layer 0 (Background)
//Storyboard Layer 1 (Fail)
//Storyboard Layer 2 (Pass)
//Storyboard Layer 3 (Foreground)
//Storyboard Sound Samples

[TimingPoints]
3000,300,4,2,1,50,1,0
89230,300,4,2,1,50,1,0
89430,300,4,2,1,50,1,0
92555,300,4,2,1,50,1,0
95115,300,4,2,1,50,1,0
98745,300,4,2,1,50,1,0
99035,300,4,2,1,50,1,0
100210,300,4,2,1,50,1,0
105010,298.507462686567,4,2,1,50,1,0
107398,317.460317460317,4,2,1,50,1,0
107398,-94.3396226415094,4,2,1,50,0,0
108191,294.117647058824,4,2,1,50,1,0
108191,-102.040816326531,4,2,1,50,0,0
108779,279.06976744186,4,2,1,50,1,0
108779,-107.52688172043,4,2,1,50,0,0
109337,298.507462686567,4,2,1,50,1,0
109635,262.008733624454,4,2,1,50,1,0
109635,-114.942528735632,4,2,1,50,0,0
109897,236.220472440945,4,2,1,50,1,0
109897,-126.582278481013,4,2,1,50,0,0
110133,250,4,2,1,50,1,0
110133,-120.481927710843,4,2,1,50,0,0
110633,441.176470588235,4,2,1,50,1,0
110633,-68.0272108843537,4,2,1,50,0,0
111074,419.58041958042,4,2,1,50,1,0
111074,-71.4285714285714,4,2,1,50,0,0

[HitObjects]
475,192,3000,5,0,0:0:0:50:CrashR.wav
36,192,3000,1,0,0:0:0:50:BaSS.wav
182,192,3900,128,0,4200:0:0:0:50:KicK.wav
475,192,4200,1,0,0:0:0:50:BaSS.wav
329,192,5100,128,0,5400:0:0:0:50:KicK.wav
36,192,5400,1,0,0:0:0:50:BaSS.wav
256,192,6300,128,0,6600:0:0:0:50:KicK.wav
475,192,6600,1,0,0:0:0:50:CrashR.wav
402,192,7050,1,0,0:0:0:50:BaSS.wav
329,192,7500,1,0,0:0:0:50:KicK.wav
329,192,7800,1,0,0:0:0:50:CrashR.wav
36,192,7800,1,0,0:0:0:50:BaSS.wav
109,192,8700,128,0,9000:0:0:0:50:KicK.wav
256,192,9000,1,0,0:0:0:50:BaSS.wav
402,192,9900,128,0,10200:0:0:0:50:KicK.wav
182,192,10200,1,0,0:0:0:50:BaSS.wav
36,192,10500,1,0,0:0:0:0:
475,192,10725,1,0,0:0:0:0:
109,192,11400,1,0,0:0:0:50:CrashR.wav
402,192,11625,1,0,0:0:0:50:CrashR.wav
109,192,11850,1,0,0:0:0:50:CrashR.wav
36,192,12600,1,0,0:0:0:50:CrashR.wav
475,192,12600,1,0,0:0:0:50:BaSS.wav
109,192,12900,1,0,0:0:0:50:KicK.wav
182,192,13200,1,0,0:0:0:0:
256,192,13500,1,0,0:0:0:50:KicK.wav
475,192,13800,128,0,14100:0:0:0:50:CrashR.wav
329,192,14100,128,0,14400:0:0:0:0:
182,192,14400,128,0,14700:0:0:0:0:
36,192,14700,128,0,15000:0:0:0:50:Snare.wav
329,192,15000,1,0,0:0:0:50:CrashR.wav
475,192,15000,1,0,0:0:0:50:BaSS.wav
182,192,15300,1,0,0:0:0:50:KicK.wav
36,192,15600,1,0,0:0:0:0:
256,192,15900,1,0,0:0:0:50:KicK.wav
475,192,16200,128,0,17400:0:0:0:50:BaSS.wav
182,192,17400,1,0,0:0:0:50:CrashR.wav
36,192,17400,1,0,0:0:0:50:BaSS.wav
256,192,17700,1,0,0:0:0:50:KicK.wav
329,192,18000,1,0,0:0:0:0:
402,192,18300,1,0,0:0:0:50:KicK.wav
475,192,18600,128,0,18900:0:0:0:50:BaSS.wav
182,192,18900,1,0,0:0:0:50:KicK.wav
36,192,19200,128,0,19500:0:0:0:50:Drum.wav
256,192,19500,1,0,0:0:0:0:
475,192,19800,1,0,0:0:0:50:CrashR.wav
329,192,19800,1,0,0:0:0:50:BaSS.wav
182,192,20100,1,0,0:0:0:50:KicK.wav
36,192,20400,1,0,0:0:0:0:
256,192,20700,1,0,0:0:0:50:KicK.wav
475,192,21000,128,0,21600:0:0:0:50:CrashR.wav
36,192,21600,128,0,22200:0:0:0:50:BaSS.wav
402,192,22200,1,0,0:0:0:50:CrashR.wav
256,192,22200,1,0,0:0:0:50:BaSS.wav
182,192,22500,1,0,0:0:0:0:
109,192,22800,1,0,0:0:0:0:
36,192,23100,1,0,0:0:0:0:
329,192,23400,1,0,0:0:0:50:BaSS.wav
256,192,23700,1,0,0:0:0:0:
182,192,24000,1,0,0:0:0:0:
109,192,24300,1,0,0:0:0:0:
256,192,24600,1,0,0:0:0:50:CrashR.wav
402,192,24900,1,0,0:0:0:50:KicK.wav
329,192,25200,1,0,0:0:0:0:
256,192,25500,1,0,0:0:0:50:KicK.wav
182,192,25800,1,0,0:0:0:50:CrashR.wav
329,192,26025,1,0,0:0:0:50:CrashR.wav
182,192,26250,1,0,0:0:0:50:CrashR.wav
475,192,26400,128,0,26700:0:0:0:0:
329,192,26700,128,0,27000:0:0:0:50:Snare.wav
109,192,27000,1,0,0:0:0:50:CrashR.wav
36,192,27000,1,0,0:0:0:50:BaSS.wav
182,192,27300,1,0,0:0:0:50:KicK.wav
256,192,27600,1,0,0:0:0:0:
329,192,27900,1,0,0:0:0:50:KicK.wav
182,192,28200,1,0,0:0:0:50:BaSS.wav
36,192,28500,1,0,0:0:0:50:KicK.wav
109,192,28800,1,0,0:0:0:0:
182,192,29100,1,0,0:0:0:0:
256,192,29400,128,0,30600:0:0:0:50:BaSS.wav
36,192,30600,128,0,31200:0:0:0:50:Drum.wav
182,192,31200,128,0,31500:0:0:0:50:Snare.wav
329,192,31500,128,0,31800:0:0:0:50:BaSS.wav
475,192,31800,1,0,0:0:0:50:CrashR.wav
36,192,31800,1,0,0:0:0:50:BaSS.wav
329,192,32100,1,0,0:0:0:50:KicK.wav
182,192,32400,1,0,0:0:0:0:
36,192,32700,1,0,0:0:0:50:KicK.wav
329,192,33000,128,0,33300:0:0:0:50:BaSS.wav
182,192,33300,1,0,0:0:0:0:
109,192,33600,1,0,0:0:0:0:
36,192,33900,128,0,34200:0:0:0:0:
475,192,34200,1,0,0:0:0:50:BaSS.wav
329,192,34500,1,0,0:0:0:50:KicK.wav
182,192,34800,1,0,0:0:0:0:
36,192,35100,128,0,35400:0:0:0:50:Snare.wav
329,192,35400,1,0,0:0:0:50:CrashR.wav
182,192,35625,1,0,0:0:0:50:Drum.wav
329,192,35850,1,0,0:0:0:50:Drum.wav
256,192,36075,1,0,0:0:0:50:Tom.wav
182,192,36300,128,0,36600:0:0:0:50:Drum.wav
475,192,36600,1,0,0:0:0:50:CrashR.wav
402,192,36600,1,0,0:0:0:50:BaSS.wav
182,192,36900,128,0,37200:0:0:0:50:KicK.wav
109,192,37200,128,0,37500:0:0:0:0:
36,192,37500,128,0,37800:0:0:0:50:KicK.wav
182,192,37800,1,0,0:0:0:50:BaSS.wav
329,192,38100,1,0,0:0:0:50:KicK.wav
475,192,38400,1,0,0:0:0:0:
402,192,38700,1,0,0:0:0:50:KicK.wav
329,192,39000,128,0,39300:0:0:0:50:BaSS.wav
36,192,39300,1,0,0:0:0:50:KicK.wav
182,192,39600,128,0,39900:0:0:0:50:Drum.wav
329,192,39900,1,0,0:0:0:50:KicK.wav
475,192,40200,128,0,40800:0:0:0:50:CrashR.wav
36,192,40800,128,0,41400:0:0:0:50:Snare.wav
256,192,41400,1,0,0:0:0:50:CrashR.wav
475,192,41400,1,0,0:0:0:50:BaSS.wav
109,192,41700,128,0,42450:0:0:0:0:
402,192,42450,1,0,0:0:0:0:
182,192,42750,128,0,43800:0:0:0:0:
475,192,43800,1,0,0:0:0:0:
475,192,45000,128,0,45600:0:0:0:0:
329,192,45600,128,0,46200:0:0:0:0:
182,192,46200,1,0,0:0:0:50:BaSS.wav
36,192,46500,1,0,0:0:0:0:
182,192,46800,1,0,0:0:0:0:
329,192,47100,1,0,0:0:0:0:
475,192,47400,1,0,0:0:0:0:
402,192,47700,1,0,0:0:0:0:
329,192,48000,1,0,0:0:0:0:
256,192,48300,1,0,0:0:0:50:BaSS.wav
182,192,48600,128,0,49800:0:0:0:50:BaSS.wav
329,192,49200,128,0,49800:0:0:0:30:BaSS.wav
36,192,50100,128,0,51000:0:0:0:0:
475,192,51000,1,0,0:0:0:50:CrashR.wav
329,192,51000,1,0,0:0:0:50:BaSS.wav
182,192,51300,1,0,0:0:0:0:
182,192,51900,1,0,0:0:0:0:
402,192,52500,1,0,0:0:0:0:
402,192,53100,1,0,0:0:0:0:
36,192,53700,1,0,0:0:0:0:
36,192,54300,1,0,0:0:0:0:
475,192,54600,128,0,55800:0:0:0:50:BaSS.wav
36,192,55800,1,0,0:0:0:50:BaSS.wav
36,192,56550,1,0,0:0:0:50:BaSS.wav
402,192,57000,1,0,0:0:0:50:BaSS.wav
402,192,57750,1,0,0:0:0:50:BaSS.wav
109,192,58200,1,0,0:0:0:50:BaSS.wav
109,192,58950,1,0,0:0:0:50:BaSS.wav
256,192,59400,128,0,60600:0:0:0:50:BaSS.wav
36,192,60600,1,0,0:0:0:50:BaSS.wav
475,192,61800,1,0,0:0:0:0:
329,192,62400,1,0,0:0:0:0:
182,192,63000,1,0,0:0:0:50:BaSS.wav
36,192,63600,1,0,0:0:0:30:BaSS.wav
109,192,64200,1,0,0:0:0:0:
182,192,64800,1,0,0:0:0:0:
256,192,65400,128,0,65700:0:0:0:50:CrashR.wav
182,192,66000,128,0,66300:0:0:0:0:
109,192,66600,128,0,66900:0:0:0:50:BaSS.wav
36,192,67200,128,0,67500:0:0:0:0:
475,192,67800,128,0,68100:0:0:0:50:BaSS.wav
402,192,68400,128,0,68700:0:0:0:50:BaSS.wav
329,192,69000,128,0,69300:0:0:0:50:BaSS.wav
256,192,69600,128,0,69900:0:0:0:50:BaSS.wav
475,192,70200,128,0,72600:0:0:0:0:
36,192,71400,128,0,72600:0:0:0:0:
329,192,72600,1,0,0:0:0:50:CrashR.wav
182,192,72600,1,0,0:0:0:50:BaSS.wav
475,192,73050,128,0,73350:0:0:0:50:BaSS.wav
329,192,73350,1,0,0:0:0:50:BaSS.wav
182,192,73500,1,0,0:0:0:50:Snare.wav
36,192,73650,1,0,0:0:0:0:
36,192,74100,1,0,0:0:0:50:Snare.wav
329,192,74400,1,0,0:0:0:50:CrashR.wav
182,192,74625,1,0,0:0:0:50:CrashR.wav
36,192,74850,1,0,0:0:0:50:CrashR.wav
256,192,75000,1,0,0:0:0:50:CrashR.wav
36,192,75300,128,0,76200:0:0:0:50:KicK.wav
182,192,76200,1,0,0:0:0:50:BaSS.wav
329,192,76500,1,0,0:0:0:50:KicK.wav
475,192,76800,128,0,77400:0:0:0:50:BaSS.wav
329,192,77100,128,0,77400:0:0:0:50:KicK.wav
182,192,77400,1,0,0:0:0:0:
109,192,77700,1,0,0:0:0:50:Drum.wav
36,192,78000,1,0,0:0:0:50:Drum.wav
475,192,78300,128,0,78600:0:0:0:50:Snare.wav
36,192,78600,128,0,78900:0:0:0:50:BaSS.wav
182,192,78900,128,0,79200:0:0:0:0:
329,192,79200,128,0,79500:0:0:0:0:
475,192,79500,128,0,79800:0:0:0:0:
256,192,79800,1,0,0:0:0:50:CrashR.wav
36,192,79800,1,0,0:0:0:50:BaSS.wav
36,192,80250,1,0,0:0:0:0:
182,192,80550,1,0,0:0:0:50:BaSS.wav
182,192,80850,1,0,0:0:0:0:
329,192,81000,128,0,81300:0:0:0:50:BaSS.wav
109,192,81450,1,0,0:0:0:0:
109,192,81750,1,0,0:0:0:50:BaSS.wav
329,192,82050,1,0,0:0:0:50:Drum.wav
475,192,82200,128,0,82500:0:0:0:50:CrashR.wav
182,192,82650,128,0,82800:0:0:0:50:BaSS.wav
109,192,82950,128,0,83100:0:0:0:50:BaSS.wav
36,192,83250,128,0,83400:0:0:0:50:Drum.wav
475,192,83400,128,0,84600:0:0:0:50:BaSS.wav
36,192,84600,128,0,84900:0:0:0:50:CrashR.wav
182,192,84900,128,0,85200:0:0:0:50:KicK.wav
329,192,85200,128,0,85500:0:0:0:0:
256,192,85500,128,0,85800:0:0:0:50:KicK.wav
182,192,85800,128,0,86100:0:0:0:50:CrashR.wav
109,192,86100,128,0,86400:0:0:0:50:KicK.wav
256,192,86400,128,0,86700:0:0:0:0:
402,192,86700,128,0,87000:0:0:0:50:BaSS.wav
36,192,87000,128,0,88200:0:0:0:50:BaSS.wav
329,192,88200,1,0,0:0:0:50:CrashR.wav
182,192,88400,1,0,0:0:0:50:CrashR.wav
36,192,88600,1,0,0:0:0:50:CrashR.wav
109,192,88800,1,0,0:0:0:50:CrashR.wav
182,192,89000,1,0,0:0:0:50:CrashR.wav
256,192,89230,1,0,0:0:0:50:CrashR.wav
475,192,89430,128,0,89730:0:0:0:0:
36,192,89730,1,0,0:0:0:50:CrashR.wav
182,192,89730,1,0,0:0:0:50:BaSS.wav
329,192,90030,1,0,0:0:0:0:
182,192,90330,1,0,0:0:0:0:
36,192,90630,128,0,90930:0:0:0:50:BaSS.wav
109,192,90930,128,0,91230:0:0:0:50:Snare.wav
182,192,91230,128,0,91530:0:0:0:50:BaSS.wav
256,192,91530,128,0,91830:0:0:0:50:Tom.wav
475,192,91830,1,0,0:0:0:50:CrashR.wav
36,192,91830,1,0,0:0:0:50:BaSS.wav
256,192,93005,1,0,0:0:0:50:BaSS.wav
475,192,93605,128,0,94205:0:0:0:50:CrashR.wav
36,192,94205,1,0,0:0:0:50:CrashR.wav
256,192,94205,1,0,0:0:0:50:BaSS.wav
329,192,94505,128,0,94655:0:0:0:50:BaSS.wav
182,192,94655,1,0,0:0:0:50:CrashR.wav
36,192,95115,128,0,95415:0:0:0:50:Tom.wav
256,192,95415,1,0,0:0:0:50:Tom.wav
329,192,95715,1,0,0:0:0:50:KicK.wav
402,192,96015,128,0,96315:0:0:0:0:
182,192,96315,1,0,0:0:0:50:KicK.wav
36,192,96615,128,0,97815:0:0:0:50:CrashR.wav
182,192,97815,1,0,0:0:0:50:BaSS.wav
329,192,98040,128,0,98415:0:0:0:0:
475,192,98415,1,0,0:0:0:0:
402,192,98745,1,0,0:0:0:0:
329,192,99035,1,0,0:0:0:50:KicK.wav
182,192,99035,128,0,100210:0:0:0:0:
475,192,100210,1,0,0:0:0:0:
36,192,100960,128,0,101410:0:0:0:0:
329,192,101410,1,0,0:0:0:0:
475,192,101860,1,0,0:0:0:0:
109,192,102610,128,0,103810:0:0:0:0:
256,192,103810,1,0,0:0:0:0:
402,192,104260,128,0,104710:0:0:0:0:
182,192,105010,1,0,0:0:0:0:
36,192,105457,128,0,105905:0:0:0:0:
256,192,106204,128,0,107398:0:0:0:0:
475,192,107398,1,0,0:0:0:0:
36,192,108032,128,0,108779:0:0:0:0:
475,192,108779,1,0,0:0:0:0:
256,192,109337,1,0,0:0:0:0:
182,192,109635,1,0,0:0:0:0:
109,192,109897,1,0,0:0:0:0:
36,192,110133,1,0,0:0:0:0:
256,192,110383,1,0,0:0:0:0:
475,192,110633,1,0,0:0:0:0:
182,192,111074,1,0,0:0:0:0:
36,192,111913,1,0,0:0:0:0:
