osu file format v14

[General]
AudioFilename: audio.mp3
AudioLeadIn: 0
PreviewTime: 70200
Countdown: 0
SampleSet: Soft
StackLeniency: 0.7
Mode: 3
LetterboxInBreaks: 0
SpecialStyle: 0
WidescreenStoryboard: 0

[Editor]
DistanceSpacing: 0.8
BeatDivisor: 4
GridSize: 4
TimelineZoom: 2.999999

[Metadata]
Title:Inscape
TitleUnicode:Inscape
Artist:technoplanet
ArtistUnicode:technoplanet
Creator:Reba
Version:ADVANCED
Source:SOUND VOLTEX IV HEAVENLY HAVEN
Tags:Production Confirmation Commemorative Original Song Contest Kayumai Piano Jakads Garalulu AscensionDTWhen
BeatmapID:1283894
BeatmapSetID:601607

[Difficulty]
HPDrainRate:7.5
CircleSize:7
OverallDifficulty:7.5
ApproachRate:5
SliderMultiplier:1.4
SliderTickRate:1

[Events]
//Background and Video events
0,0,"Inscape BG.jpg",0,0
//Break Periods
//Storyboard Layer 0 (Background)
//Storyboard Layer 1 (Fail)
//Storyboard Layer 2 (Pass)
//Storyboard Layer 3 (Foreground)
//Storyboard Sound Samples

[TimingPoints]
3000,300,4,2,1,50,1,0
11400,-58.8235294117647,4,2,1,50,0,0
11512,-333.333333333333,4,2,1,50,0,0
11625,-58.8235294117647,4,2,1,50,0,0
11737,-333.333333333333,4,2,1,50,0,0
11850,-100,4,2,1,50,0,0
74400,-58.8235294117647,4,2,1,50,0,0
74512,-333.333333333333,4,2,1,50,0,0
74625,-58.8235294117647,4,2,1,50,0,0
74737,-333.333333333333,4,2,1,50,0,0
74850,-100,4,2,1,50,0,0
88200,-66.6666666666667,4,2,1,50,0,0
88300,-200,4,2,1,50,0,0
88400,-66.6666666666667,4,2,1,50,0,0
88500,-200,4,2,1,50,0,0
88600,-66.6666666666667,4,2,1,50,0,0
88700,-200,4,2,1,50,0,0
88800,-66.6666666666667,4,2,1,50,0,0
88900,-200,4,2,1,50,0,0
89000,-66.6666666666667,4,2,1,50,0,0
89118,-200,4,2,1,50,0,0
89230,300,4,2,1,50,1,0
89230,-66.6666666666667,4,2,1,50,0,0
89330,-200,4,2,1,50,0,0
89430,300,4,2,1,50,1,0
89430,-100,4,2,1,50,0,0
92555,300,4,2,1,50,1,0
95115,300,4,2,1,50,1,0
98745,300,4,2,1,50,1,0
99035,300,4,2,1,50,1,0
100210,300,4,2,1,50,1,0
105010,298.507462686567,4,2,1,50,1,0
107398,317.460317460317,4,2,1,50,1,0
107398,-94.3396226415094,4,2,1,50,0,0
108191,294.117647058824,4,2,1,50,1,0
108191,-102.040816326531,4,2,1,50,0,0
108779,279.06976744186,4,2,1,50,1,0
108779,-107.52688172043,4,2,1,50,0,0
109337,298.507462686567,4,2,1,50,1,0
109635,262.008733624454,4,2,1,50,1,0
109635,-114.942528735632,4,2,1,50,0,0
109897,236.220472440945,4,2,1,50,1,0
109897,-126.582278481013,4,2,1,50,0,0
110133,250,4,2,1,50,1,0
110133,-120.481927710843,4,2,1,50,0,0
110633,441.176470588235,4,2,1,50,1,0
110633,-68.0272108843537,4,2,1,50,0,0
111074,419.58041958042,4,2,1,50,1,0
111074,-71.4285714285714,4,2,1,50,0,0

[HitObjects]
475,192,3000,5,0,0:0:0:50:CrashR.wav
182,192,3000,128,0,3150:0:0:0:50:BaSS.wav
36,192,3000,128,0,3150:0:0:0:0:
36,192,3225,1,0,0:0:0:0:
182,192,3225,1,0,0:0:0:0:
402,192,3450,1,0,0:0:0:0:
475,192,3450,1,0,0:0:0:0:
329,192,3600,1,0,0:0:0:0:
182,192,3600,1,0,0:0:0:0:
36,192,3750,1,0,0:0:0:50:BaSS.wav
109,192,3750,1,0,0:0:0:0:
475,192,3900,1,0,0:0:0:50:KicK.wav
329,192,3975,1,0,0:0:0:0:
182,192,4050,1,0,0:0:0:0:
256,192,4125,1,0,0:0:0:0:
329,192,4200,128,0,4350:0:0:0:50:BaSS.wav
475,192,4200,128,0,4350:0:0:0:0:
329,192,4425,1,0,0:0:0:0:
475,192,4425,1,0,0:0:0:0:
109,192,4650,1,0,0:0:0:0:
36,192,4650,1,0,0:0:0:0:
329,192,4800,1,0,0:0:0:0:
182,192,4800,1,0,0:0:0:0:
402,192,4950,1,0,0:0:0:50:BaSS.wav
475,192,4950,1,0,0:0:0:0:
256,192,5100,1,0,0:0:0:50:KicK.wav
329,192,5175,1,0,0:0:0:0:
402,192,5250,1,0,0:0:0:0:
256,192,5325,1,0,0:0:0:0:
109,192,5400,128,0,5550:0:0:0:50:BaSS.wav
36,192,5400,128,0,5550:0:0:0:0:
36,192,5625,1,0,0:0:0:0:
109,192,5625,1,0,0:0:0:0:
475,192,5850,1,0,0:0:0:0:
402,192,5850,1,0,0:0:0:0:
329,192,6000,1,0,0:0:0:0:
182,192,6000,1,0,0:0:0:0:
36,192,6150,1,0,0:0:0:50:BaSS.wav
109,192,6150,1,0,0:0:0:0:
256,192,6300,1,0,0:0:0:50:KicK.wav
182,192,6375,1,0,0:0:0:0:
109,192,6450,1,0,0:0:0:0:
256,192,6525,1,0,0:0:0:0:
402,192,6600,128,0,6750:0:0:0:50:CrashR.wav
475,192,6600,128,0,6750:0:0:0:50:BaSS.wav
182,192,6750,1,0,0:0:0:0:
36,192,6750,1,0,0:0:0:0:
256,192,6900,1,0,0:0:0:0:
109,192,6900,1,0,0:0:0:0:
182,192,7050,1,0,0:0:0:50:BaSS.wav
329,192,7050,1,0,0:0:0:0:
402,192,7125,1,0,0:0:0:0:
475,192,7200,1,0,0:0:0:0:
329,192,7275,1,0,0:0:0:0:
182,192,7350,1,0,0:0:0:50:BaSS.wav
36,192,7350,1,0,0:0:0:0:
256,192,7425,1,0,0:0:0:0:
329,192,7500,1,0,0:0:0:50:KicK.wav
402,192,7500,1,0,0:0:0:0:
182,192,7575,1,0,0:0:0:0:
36,192,7650,1,0,0:0:0:50:Drum.wav
109,192,7725,1,0,0:0:0:50:Drum.wav
182,192,7800,1,0,0:0:0:50:CrashR.wav
402,192,7800,128,0,7950:0:0:0:50:BaSS.wav
475,192,7800,128,0,7950:0:0:0:0:
475,192,8025,1,0,0:0:0:0:
402,192,8025,1,0,0:0:0:0:
182,192,8100,1,0,0:0:0:50:KicK.wav
36,192,8100,1,0,0:0:0:0:
475,192,8250,1,0,0:0:0:0:
329,192,8250,1,0,0:0:0:0:
402,192,8400,1,0,0:0:0:0:
256,192,8400,1,0,0:0:0:0:
329,192,8550,1,0,0:0:0:50:BaSS.wav
182,192,8550,1,0,0:0:0:0:
109,192,8625,1,0,0:0:0:0:
36,192,8700,1,0,0:0:0:50:KicK.wav
256,192,8700,1,0,0:0:0:0:
329,192,8775,1,0,0:0:0:0:
402,192,8850,1,0,0:0:0:0:
256,192,8925,1,0,0:0:0:0:
109,192,9000,128,0,9150:0:0:0:50:BaSS.wav
36,192,9000,128,0,9150:0:0:0:0:
109,192,9225,1,0,0:0:0:0:
36,192,9225,1,0,0:0:0:0:
329,192,9300,1,0,0:0:0:50:KicK.wav
475,192,9300,1,0,0:0:0:0:
182,192,9450,1,0,0:0:0:0:
36,192,9450,1,0,0:0:0:0:
109,192,9600,1,0,0:0:0:0:
256,192,9600,1,0,0:0:0:0:
329,192,9675,1,0,0:0:0:0:
402,192,9750,1,0,0:0:0:50:BaSS.wav
475,192,9750,1,0,0:0:0:0:
182,192,9825,1,0,0:0:0:50:BaSS.wav
36,192,9825,1,0,0:0:0:0:
475,192,9900,1,0,0:0:0:50:KicK.wav
329,192,9900,1,0,0:0:0:0:
256,192,9975,1,0,0:0:0:0:
182,192,10050,1,0,0:0:0:50:Snare.wav
329,192,10125,1,0,0:0:0:50:Snare.wav
475,192,10200,1,0,0:0:0:50:BaSS.wav
36,192,10200,128,0,10425:0:0:0:0:
36,192,10500,128,0,10575:0:0:0:0:
182,192,10650,1,0,0:0:0:0:
475,192,10725,128,0,10800:0:0:0:0:
256,192,10800,1,0,0:0:0:0:
182,192,10875,1,0,0:0:0:0:
109,192,10950,1,0,0:0:0:50:BaSS.wav
36,192,10950,1,0,0:0:0:0:
256,192,11025,1,0,0:0:0:0:
402,192,11100,1,0,0:0:0:50:KicK.wav
475,192,11100,1,0,0:0:0:0:
329,192,11175,1,0,0:0:0:0:
256,192,11250,1,0,0:0:0:50:Drum.wav
182,192,11325,1,0,0:0:0:50:Drum.wav
109,192,11400,1,0,0:0:0:50:CrashR.wav
36,192,11400,1,0,0:0:0:50:BaSS.wav
329,192,11400,1,0,0:0:0:0:
109,192,11625,1,0,0:0:0:50:CrashR.wav
182,192,11625,1,0,0:0:0:50:BaSS.wav
402,192,11625,1,0,0:0:0:0:
256,192,11850,1,0,0:0:0:50:CrashR.wav
475,192,11850,1,0,0:0:0:50:BaSS.wav
182,192,11850,1,0,0:0:0:0:
36,192,12000,1,0,0:0:0:50:Tom.wav
329,192,12000,1,0,0:0:0:0:
182,192,12075,1,0,0:0:0:50:Tom.wav
402,192,12150,1,0,0:0:0:50:Tom.wav
256,192,12225,1,0,0:0:0:50:Tom.wav
36,192,12300,1,0,0:0:0:50:KicK.wav
182,192,12375,1,0,0:0:0:50:Drum.wav
402,192,12450,1,0,0:0:0:50:Drum.wav
256,192,12525,1,0,0:0:0:50:Drum.wav
109,192,12600,128,0,12750:0:0:0:50:CrashR.wav
36,192,12600,128,0,12750:0:0:0:50:BaSS.wav
475,192,12600,1,0,0:0:0:0:
109,192,12825,1,0,0:0:0:0:
36,192,12825,1,0,0:0:0:0:
329,192,12900,1,0,0:0:0:50:KicK.wav
475,192,12900,1,0,0:0:0:0:
182,192,13050,1,0,0:0:0:0:
36,192,13050,1,0,0:0:0:0:
256,192,13200,1,0,0:0:0:0:
402,192,13200,1,0,0:0:0:0:
182,192,13275,1,0,0:0:0:0:
109,192,13350,1,0,0:0:0:50:BaSS.wav
36,192,13350,1,0,0:0:0:0:
256,192,13425,1,0,0:0:0:0:
402,192,13500,1,0,0:0:0:50:KicK.wav
475,192,13500,1,0,0:0:0:0:
329,192,13575,1,0,0:0:0:0:
256,192,13650,1,0,0:0:0:0:
182,192,13725,1,0,0:0:0:0:
109,192,13800,1,0,0:0:0:50:CrashR.wav
475,192,13800,128,0,13875:0:0:0:0:
402,192,13875,128,0,13950:0:0:0:0:
329,192,13950,128,0,14025:0:0:0:0:
256,192,14025,128,0,14100:0:0:0:0:
402,192,14100,128,0,14175:0:0:0:0:
329,192,14175,128,0,14250:0:0:0:0:
256,192,14250,128,0,14325:0:0:0:0:
182,192,14325,128,0,14400:0:0:0:0:
329,192,14400,128,0,14475:0:0:0:0:
256,192,14475,128,0,14550:0:0:0:0:
182,192,14550,128,0,14625:0:0:0:0:
109,192,14625,128,0,14700:0:0:0:0:
36,192,14700,128,0,14775:0:0:0:50:Snare.wav
182,192,14775,128,0,14850:0:0:0:50:Snare.wav
329,192,14850,128,0,14925:0:0:0:50:Snare.wav
475,192,14925,128,0,15000:0:0:0:50:Snare.wav
329,192,15000,1,0,0:0:0:50:CrashR.wav
36,192,15000,1,0,0:0:0:50:BaSS.wav
109,192,15000,1,0,0:0:0:0:
256,192,15075,1,0,0:0:0:0:
182,192,15150,1,0,0:0:0:0:
329,192,15225,1,0,0:0:0:0:
475,192,15300,1,0,0:0:0:50:KicK.wav
109,192,15300,1,0,0:0:0:0:
256,192,15375,1,0,0:0:0:0:
402,192,15450,1,0,0:0:0:0:
329,192,15525,1,0,0:0:0:0:
256,192,15600,1,0,0:0:0:0:
182,192,15675,1,0,0:0:0:0:
109,192,15750,1,0,0:0:0:50:BaSS.wav
36,192,15750,1,0,0:0:0:0:
256,192,15825,1,0,0:0:0:0:
402,192,15900,1,0,0:0:0:50:KicK.wav
475,192,15900,1,0,0:0:0:0:
329,192,15975,1,0,0:0:0:0:
256,192,16050,1,0,0:0:0:0:
182,192,16125,1,0,0:0:0:0:
109,192,16200,1,0,0:0:0:50:BaSS.wav
475,192,16200,128,0,16275:0:0:0:0:
329,192,16275,128,0,16350:0:0:0:0:
182,192,16350,128,0,16425:0:0:0:0:
36,192,16425,128,0,16500:0:0:0:0:
109,192,16500,128,0,16575:0:0:0:50:Snare.wav
475,192,16500,1,0,0:0:0:0:
182,192,16575,128,0,16650:0:0:0:0:
256,192,16650,128,0,16725:0:0:0:0:
329,192,16725,128,0,16800:0:0:0:0:
402,192,16800,128,0,16875:0:0:0:50:Snare.wav
36,192,16800,1,0,0:0:0:0:
256,192,16875,128,0,16950:0:0:0:0:
109,192,16950,128,0,17025:0:0:0:0:
182,192,17025,128,0,17100:0:0:0:0:
256,192,17100,128,0,17175:0:0:0:50:Tom.wav
475,192,17100,1,0,0:0:0:0:
329,192,17175,128,0,17250:0:0:0:50:Tom.wav
402,192,17250,128,0,17325:0:0:0:50:Tom.wav
475,192,17325,128,0,17400:0:0:0:50:Tom.wav
256,192,17400,1,0,0:0:0:50:CrashR.wav
109,192,17400,1,0,0:0:0:50:BaSS.wav
36,192,17400,1,0,0:0:0:0:
329,192,17700,1,0,0:0:0:50:KicK.wav
182,192,17700,1,0,0:0:0:0:
109,192,17775,1,0,0:0:0:0:
36,192,17850,1,0,0:0:0:0:
182,192,17925,1,0,0:0:0:0:
329,192,18000,1,0,0:0:0:0:
475,192,18075,1,0,0:0:0:0:
256,192,18150,1,0,0:0:0:50:BaSS.wav
109,192,18150,1,0,0:0:0:0:
329,192,18225,1,0,0:0:0:0:
402,192,18300,1,0,0:0:0:50:KicK.wav
182,192,18300,1,0,0:0:0:0:
109,192,18375,1,0,0:0:0:0:
36,192,18450,1,0,0:0:0:0:
182,192,18525,1,0,0:0:0:0:
329,192,18600,128,0,18825:0:0:0:50:BaSS.wav
475,192,18600,128,0,18825:0:0:0:0:
329,192,18900,1,0,0:0:0:50:KicK.wav
475,192,18900,1,0,0:0:0:0:
36,192,18975,1,0,0:0:0:0:
182,192,18975,1,0,0:0:0:0:
182,192,19125,1,0,0:0:0:0:
36,192,19125,1,0,0:0:0:0:
329,192,19200,1,0,0:0:0:50:Drum.wav
475,192,19200,128,0,19500:0:0:0:0:
109,192,19275,1,0,0:0:0:50:Drum.wav
256,192,19350,1,0,0:0:0:50:Drum.wav
36,192,19425,1,0,0:0:0:50:Drum.wav
182,192,19500,128,0,19800:0:0:0:0:
36,192,19800,1,0,0:0:0:50:CrashR.wav
475,192,19800,1,0,0:0:0:50:BaSS.wav
402,192,19800,1,0,0:0:0:0:
329,192,19875,1,0,0:0:0:0:
256,192,19950,1,0,0:0:0:50:BaSS.wav
182,192,20025,1,0,0:0:0:0:
109,192,20100,1,0,0:0:0:50:KicK.wav
36,192,20175,1,0,0:0:0:0:
182,192,20250,1,0,0:0:0:50:BaSS.wav
329,192,20325,1,0,0:0:0:0:
475,192,20400,1,0,0:0:0:0:
256,192,20475,1,0,0:0:0:0:
36,192,20550,1,0,0:0:0:50:BaSS.wav
182,192,20625,1,0,0:0:0:0:
329,192,20700,1,0,0:0:0:50:KicK.wav
256,192,20775,1,0,0:0:0:0:
182,192,20850,1,0,0:0:0:50:Drum.wav
109,192,20925,1,0,0:0:0:50:Drum.wav
329,192,21000,1,0,0:0:0:50:CrashR.wav
475,192,21000,1,0,0:0:0:50:BaSS.wav
36,192,21000,128,0,21300:0:0:0:0:
402,192,21300,1,0,0:0:0:50:KicK.wav
256,192,21300,1,0,0:0:0:0:
109,192,21450,1,0,0:0:0:50:BaSS.wav
36,192,21450,1,0,0:0:0:0:
475,192,21600,1,0,0:0:0:50:BaSS.wav
329,192,21675,1,0,0:0:0:50:BaSS.wav
36,192,21750,1,0,0:0:0:50:BaSS.wav
182,192,21825,1,0,0:0:0:50:BaSS.wav
329,192,21900,1,0,0:0:0:50:KicK.wav
475,192,21975,1,0,0:0:0:50:BaSS.wav
182,192,22050,1,0,0:0:0:50:BaSS.wav
36,192,22125,1,0,0:0:0:50:BaSS.wav
475,192,22200,128,0,23400:0:0:0:50:CrashR.wav
256,192,22200,1,0,0:0:0:50:BaSS.wav
402,192,22200,1,0,0:0:0:0:
182,192,22350,1,0,0:0:0:0:
109,192,22500,1,0,0:0:0:0:
36,192,22650,1,0,0:0:0:0:
402,192,22800,1,0,0:0:0:0:
256,192,22950,1,0,0:0:0:50:BaSS.wav
109,192,22950,1,0,0:0:0:0:
402,192,23100,1,0,0:0:0:0:
329,192,23250,1,0,0:0:0:0:
36,192,23400,128,0,24600:0:0:0:50:BaSS.wav
256,192,23400,1,0,0:0:0:0:
329,192,23550,1,0,0:0:0:0:
402,192,23700,1,0,0:0:0:0:
256,192,23850,1,0,0:0:0:0:
475,192,24000,1,0,0:0:0:0:
182,192,24150,1,0,0:0:0:50:BaSS.wav
329,192,24150,1,0,0:0:0:0:
109,192,24300,1,0,0:0:0:0:
182,192,24450,1,0,0:0:0:0:
475,192,24600,128,0,25800:0:0:0:50:CrashR.wav
256,192,24600,1,0,0:0:0:50:BaSS.wav
329,192,24600,1,0,0:0:0:0:
182,192,24750,1,0,0:0:0:0:
109,192,24900,1,0,0:0:0:50:KicK.wav
36,192,24900,1,0,0:0:0:0:
256,192,25050,1,0,0:0:0:0:
402,192,25200,1,0,0:0:0:0:
182,192,25350,1,0,0:0:0:50:BaSS.wav
36,192,25350,1,0,0:0:0:0:
256,192,25500,1,0,0:0:0:50:KicK.wav
402,192,25500,1,0,0:0:0:0:
182,192,25650,1,0,0:0:0:0:
329,192,25800,1,0,0:0:0:50:CrashR.wav
36,192,25800,1,0,0:0:0:50:BaSS.wav
109,192,25800,1,0,0:0:0:0:
36,192,25950,1,0,0:0:0:50:BaSS.wav
109,192,25950,1,0,0:0:0:0:
256,192,26025,128,0,26100:0:0:0:50:CrashR.wav
402,192,26100,1,0,0:0:0:50:KicK.wav
475,192,26100,1,0,0:0:0:0:
256,192,26250,1,0,0:0:0:50:CrashR.wav
109,192,26250,1,0,0:0:0:50:BaSS.wav
36,192,26250,1,0,0:0:0:0:
475,192,26400,128,0,26550:0:0:0:0:
182,192,26550,1,0,0:0:0:50:BaSS.wav
256,192,26625,1,0,0:0:0:50:BaSS.wav
329,192,26700,1,0,0:0:0:50:Snare.wav
182,192,26775,1,0,0:0:0:50:Tom.wav
36,192,26850,1,0,0:0:0:50:Drum.wav
109,192,26925,1,0,0:0:0:50:Drum.wav
182,192,27000,1,0,0:0:0:50:CrashR.wav
475,192,27000,128,0,28200:0:0:0:50:BaSS.wav
402,192,27000,1,0,0:0:0:0:
329,192,27150,1,0,0:0:0:0:
256,192,27300,1,0,0:0:0:50:KicK.wav
109,192,27300,1,0,0:0:0:0:
329,192,27450,1,0,0:0:0:0:
402,192,27600,1,0,0:0:0:0:
182,192,27750,1,0,0:0:0:50:BaSS.wav
36,192,27750,1,0,0:0:0:0:
402,192,27900,1,0,0:0:0:50:KicK.wav
329,192,27900,1,0,0:0:0:0:
256,192,28050,1,0,0:0:0:0:
36,192,28200,128,0,29400:0:0:0:50:BaSS.wav
182,192,28200,1,0,0:0:0:0:
329,192,28350,1,0,0:0:0:0:
475,192,28500,1,0,0:0:0:50:KicK.wav
109,192,28500,1,0,0:0:0:0:
256,192,28650,1,0,0:0:0:0:
402,192,28800,1,0,0:0:0:0:
182,192,28950,1,0,0:0:0:50:BaSS.wav
109,192,28950,1,0,0:0:0:0:
329,192,29025,1,0,0:0:0:50:KicK.wav
475,192,29100,1,0,0:0:0:0:
182,192,29250,1,0,0:0:0:0:
256,192,29400,1,0,0:0:0:50:BaSS.wav
402,192,29400,1,0,0:0:0:0:
182,192,29550,1,0,0:0:0:50:BaSS.wav
36,192,29550,1,0,0:0:0:0:
329,192,29700,1,0,0:0:0:50:KicK.wav
475,192,29700,1,0,0:0:0:0:
256,192,29850,1,0,0:0:0:50:BaSS.wav
109,192,29850,1,0,0:0:0:0:
402,192,30000,1,0,0:0:0:50:BaSS.wav
475,192,30000,1,0,0:0:0:0:
182,192,30150,1,0,0:0:0:50:KicK.wav
36,192,30150,1,0,0:0:0:0:
329,192,30300,1,0,0:0:0:50:Drum.wav
256,192,30375,1,0,0:0:0:50:Drum.wav
182,192,30450,1,0,0:0:0:50:Drum.wav
329,192,30525,1,0,0:0:0:50:Drum.wav
475,192,30600,1,0,0:0:0:50:Drum.wav
36,192,30675,128,0,30750:0:0:0:50:Tom.wav
182,192,30750,128,0,30825:0:0:0:50:Tom.wav
475,192,30825,128,0,30900:0:0:0:50:Tom.wav
329,192,30900,128,0,30975:0:0:0:50:Tom.wav
36,192,30975,128,0,31050:0:0:0:50:Tom.wav
182,192,31050,128,0,31125:0:0:0:50:Tom.wav
329,192,31125,128,0,31200:0:0:0:50:Tom.wav
475,192,31200,128,0,31500:0:0:0:50:Snare.wav
36,192,31350,128,0,31500:0:0:0:50:Snare.wav
402,192,31500,1,0,0:0:0:50:BaSS.wav
256,192,31575,1,0,0:0:0:50:BaSS.wav
109,192,31650,1,0,0:0:0:50:BaSS.wav
182,192,31725,1,0,0:0:0:50:BaSS.wav
256,192,31800,1,0,0:0:0:50:CrashR.wav
402,192,31800,1,0,0:0:0:50:BaSS.wav
475,192,31800,1,0,0:0:0:0:
182,192,31950,1,0,0:0:0:50:BaSS.wav
36,192,31950,1,0,0:0:0:0:
475,192,32100,1,0,0:0:0:50:KicK.wav
329,192,32100,1,0,0:0:0:0:
256,192,32175,1,0,0:0:0:0:
182,192,32250,1,0,0:0:0:50:BaSS.wav
109,192,32325,1,0,0:0:0:50:BaSS.wav
256,192,32400,1,0,0:0:0:0:
402,192,32475,1,0,0:0:0:50:BaSS.wav
329,192,32550,1,0,0:0:0:50:BaSS.wav
256,192,32625,1,0,0:0:0:0:
182,192,32700,1,0,0:0:0:50:KicK.wav
329,192,32775,1,0,0:0:0:0:
475,192,32850,1,0,0:0:0:50:BaSS.wav
402,192,32925,1,0,0:0:0:0:
329,192,33000,1,0,0:0:0:50:BaSS.wav
36,192,33000,128,0,33300:0:0:0:0:
109,192,33000,1,0,0:0:0:0:
475,192,33300,1,0,0:0:0:0:
402,192,33300,1,0,0:0:0:0:
36,192,33450,128,0,33525:0:0:0:0:
475,192,33525,1,0,0:0:0:0:
329,192,33525,1,0,0:0:0:0:
182,192,33600,1,0,0:0:0:0:
182,192,33750,1,0,0:0:0:0:
329,192,33900,128,0,33975:0:0:0:0:
182,192,33975,1,0,0:0:0:0:
475,192,34200,128,0,35400:0:0:0:50:BaSS.wav
109,192,34200,1,0,0:0:0:0:
36,192,34200,1,0,0:0:0:0:
109,192,34350,1,0,0:0:0:50:BaSS.wav
36,192,34350,1,0,0:0:0:0:
402,192,34500,1,0,0:0:0:50:KicK.wav
256,192,34500,1,0,0:0:0:0:
36,192,34650,1,0,0:0:0:50:BaSS.wav
182,192,34650,1,0,0:0:0:0:
109,192,34950,1,0,0:0:0:50:BaSS.wav
256,192,34950,1,0,0:0:0:0:
402,192,35100,1,0,0:0:0:50:Snare.wav
329,192,35100,1,0,0:0:0:0:
256,192,35175,1,0,0:0:0:50:Snare.wav
182,192,35250,1,0,0:0:0:50:Snare.wav
109,192,35325,1,0,0:0:0:50:Snare.wav
36,192,35400,128,0,36600:0:0:0:50:CrashR.wav
402,192,35400,1,0,0:0:0:50:BaSS.wav
256,192,35400,1,0,0:0:0:0:
329,192,35625,1,0,0:0:0:50:Drum.wav
182,192,35625,1,0,0:0:0:0:
256,192,35850,1,0,0:0:0:50:Drum.wav
109,192,35850,1,0,0:0:0:0:
402,192,36075,1,0,0:0:0:50:Tom.wav
475,192,36075,1,0,0:0:0:0:
256,192,36150,1,0,0:0:0:50:Drum.wav
109,192,36150,1,0,0:0:0:0:
329,192,36300,1,0,0:0:0:50:Drum.wav
182,192,36375,1,0,0:0:0:50:Drum.wav
329,192,36450,1,0,0:0:0:50:Drum.wav
182,192,36525,1,0,0:0:0:50:Drum.wav
475,192,36600,128,0,37800:0:0:0:50:CrashR.wav
329,192,36600,1,0,0:0:0:50:BaSS.wav
402,192,36600,1,0,0:0:0:0:
182,192,36900,1,0,0:0:0:50:KicK.wav
329,192,36900,1,0,0:0:0:0:
109,192,37050,1,0,0:0:0:0:
36,192,37200,1,0,0:0:0:0:
402,192,37350,1,0,0:0:0:50:BaSS.wav
256,192,37350,1,0,0:0:0:0:
109,192,37500,1,0,0:0:0:50:KicK.wav
36,192,37500,1,0,0:0:0:0:
182,192,37575,1,0,0:0:0:50:Tom.wav
256,192,37650,1,0,0:0:0:50:Tom.wav
329,192,37725,1,0,0:0:0:50:Tom.wav
36,192,37800,128,0,39000:0:0:0:50:BaSS.wav
109,192,37800,1,0,0:0:0:0:
402,192,37800,1,0,0:0:0:0:
256,192,37950,1,0,0:0:0:0:
402,192,38100,1,0,0:0:0:50:KicK.wav
475,192,38100,1,0,0:0:0:0:
329,192,38250,1,0,0:0:0:0:
256,192,38400,1,0,0:0:0:0:
182,192,38550,1,0,0:0:0:50:BaSS.wav
109,192,38550,1,0,0:0:0:0:
329,192,38700,1,0,0:0:0:50:KicK.wav
475,192,38700,1,0,0:0:0:0:
256,192,38850,1,0,0:0:0:0:
475,192,39000,128,0,40200:0:0:0:50:BaSS.wav
182,192,39000,1,0,0:0:0:0:
109,192,39000,1,0,0:0:0:0:
329,192,39150,1,0,0:0:0:50:Drum.wav
109,192,39300,1,0,0:0:0:50:KicK.wav
36,192,39300,1,0,0:0:0:0:
256,192,39450,1,0,0:0:0:50:Drum.wav
402,192,39600,1,0,0:0:0:50:Drum.wav
329,192,39750,1,0,0:0:0:50:Drum.wav
256,192,39900,1,0,0:0:0:50:KicK.wav
109,192,39900,1,0,0:0:0:0:
36,192,40050,128,0,40200:0:0:0:50:BaSS.wav
182,192,40200,1,0,0:0:0:50:CrashR.wav
329,192,40200,1,0,0:0:0:50:BaSS.wav
475,192,40350,1,0,0:0:0:50:Snare.wav
329,192,40425,1,0,0:0:0:50:Snare.wav
182,192,40500,1,0,0:0:0:50:Snare.wav
36,192,40575,1,0,0:0:0:50:Snare.wav
256,192,40650,1,0,0:0:0:50:CrashR.wav
402,192,40725,1,0,0:0:0:50:Snare.wav
36,192,40800,1,0,0:0:0:50:Snare.wav
182,192,40875,1,0,0:0:0:50:Snare.wav
475,192,40950,1,0,0:0:0:50:Snare.wav
329,192,41025,1,0,0:0:0:50:Snare.wav
109,192,41100,1,0,0:0:0:50:BaSS.wav
256,192,41175,1,0,0:0:0:50:Snare.wav
475,192,41250,1,0,0:0:0:50:Snare.wav
329,192,41325,1,0,0:0:0:50:Snare.wav
182,192,41400,1,0,0:0:0:50:CrashR.wav
36,192,41400,1,0,0:0:0:50:BaSS.wav
36,192,41700,128,0,41850:0:0:0:0:
109,192,41850,128,0,42000:0:0:0:0:
182,192,42000,128,0,42150:0:0:0:0:
256,192,42150,128,0,42300:0:0:0:0:
329,192,42300,128,0,42600:0:0:0:0:
475,192,42450,128,0,42600:0:0:0:0:
36,192,42750,128,0,42875:0:0:0:0:
182,192,42875,1,0,0:0:0:0:
475,192,43000,128,0,43125:0:0:0:0:
329,192,43125,1,0,0:0:0:0:
36,192,43300,128,0,43450:0:0:0:0:
182,192,43450,1,0,0:0:0:0:
475,192,43600,128,0,43750:0:0:0:0:
329,192,43750,1,0,0:0:0:0:
182,192,43800,128,0,45000:0:0:0:0:
329,192,45000,128,0,45150:0:0:0:0:
36,192,45150,128,0,45300:0:0:0:0:
182,192,45300,128,0,45450:0:0:0:0:
329,192,45450,128,0,45600:0:0:0:0:
256,192,45600,128,0,45750:0:0:0:0:
182,192,45750,128,0,45900:0:0:0:0:
109,192,45900,128,0,46050:0:0:0:0:
36,192,46050,128,0,46200:0:0:0:0:
475,192,46200,128,0,46725:0:0:0:50:BaSS.wav
182,192,46200,1,0,0:0:0:0:
329,192,46350,1,0,0:0:0:0:
256,192,46500,1,0,0:0:0:0:
182,192,46650,1,0,0:0:0:0:
36,192,46725,128,0,48600:0:0:0:0:
329,192,46800,1,0,0:0:0:0:
475,192,46950,1,0,0:0:0:0:
402,192,47100,1,0,0:0:0:0:
329,192,47250,1,0,0:0:0:0:
475,192,47400,1,0,0:0:0:0:
402,192,47550,1,0,0:0:0:0:
329,192,47700,1,0,0:0:0:0:
256,192,47850,1,0,0:0:0:0:
182,192,48000,1,0,0:0:0:0:
329,192,48150,1,0,0:0:0:0:
475,192,48300,1,0,0:0:0:50:BaSS.wav
402,192,48450,1,0,0:0:0:0:
329,192,48600,128,0,49200:0:0:0:50:BaSS.wav
182,192,48600,1,0,0:0:0:0:
36,192,48900,1,0,0:0:0:40:BaSS.wav
475,192,49200,128,0,51000:0:0:0:30:BaSS.wav
36,192,49200,1,0,0:0:0:0:
182,192,49500,1,0,0:0:0:20:BaSS.wav
329,192,49800,1,0,0:0:0:0:
182,192,49950,1,0,0:0:0:0:
36,192,50100,1,0,0:0:0:0:
109,192,50250,1,0,0:0:0:0:
182,192,50400,1,0,0:0:0:0:
256,192,50550,1,0,0:0:0:0:
329,192,50700,1,0,0:0:0:0:
182,192,50775,1,0,0:0:0:0:
329,192,50850,1,0,0:0:0:0:
182,192,50925,1,0,0:0:0:0:
329,192,51000,1,0,0:0:0:50:CrashR.wav
36,192,51000,1,0,0:0:0:50:BaSS.wav
402,192,51000,1,0,0:0:0:0:
256,192,51300,1,0,0:0:0:0:
402,192,51450,1,0,0:0:0:0:
36,192,51750,1,0,0:0:0:50:BaSS.wav
182,192,51750,1,0,0:0:0:0:
256,192,51900,1,0,0:0:0:0:
329,192,52050,1,0,0:0:0:0:
475,192,52200,1,0,0:0:0:50:BaSS.wav
402,192,52200,1,0,0:0:0:0:
256,192,52500,1,0,0:0:0:0:
109,192,52650,1,0,0:0:0:0:
475,192,52950,1,0,0:0:0:50:BaSS.wav
329,192,52950,1,0,0:0:0:0:
256,192,53100,1,0,0:0:0:0:
182,192,53250,1,0,0:0:0:0:
109,192,53400,1,0,0:0:0:50:BaSS.wav
36,192,53400,1,0,0:0:0:0:
475,192,53700,1,0,0:0:0:0:
329,192,53850,1,0,0:0:0:0:
109,192,54150,1,0,0:0:0:50:BaSS.wav
36,192,54150,1,0,0:0:0:0:
256,192,54300,1,0,0:0:0:0:
402,192,54450,1,0,0:0:0:0:
182,192,54600,1,0,0:0:0:50:BaSS.wav
36,192,54600,1,0,0:0:0:0:
182,192,54825,1,0,0:0:0:0:
36,192,54825,1,0,0:0:0:0:
329,192,55050,1,0,0:0:0:0:
475,192,55050,1,0,0:0:0:0:
329,192,55275,1,0,0:0:0:0:
475,192,55275,1,0,0:0:0:0:
109,192,55500,1,0,0:0:0:0:
36,192,55500,1,0,0:0:0:0:
182,192,55650,1,0,0:0:0:0:
329,192,55650,1,0,0:0:0:0:
402,192,55800,1,0,0:0:0:50:BaSS.wav
475,192,55800,1,0,0:0:0:0:
36,192,56100,1,0,0:0:0:0:
182,192,56250,1,0,0:0:0:0:
402,192,56550,1,0,0:0:0:50:BaSS.wav
329,192,56550,1,0,0:0:0:0:
256,192,56700,1,0,0:0:0:0:
182,192,56850,1,0,0:0:0:0:
329,192,57000,1,0,0:0:0:50:BaSS.wav
475,192,57000,1,0,0:0:0:0:
109,192,57150,1,0,0:0:0:0:
109,192,57300,1,0,0:0:0:0:
36,192,57600,1,0,0:0:0:0:
182,192,57750,1,0,0:0:0:50:BaSS.wav
329,192,57750,1,0,0:0:0:0:
475,192,57900,128,0,58050:0:0:0:0:
329,192,58050,1,0,0:0:0:50:Snare.wav
182,192,58125,1,0,0:0:0:50:Snare.wav
36,192,58200,1,0,0:0:0:50:BaSS.wav
402,192,58200,1,0,0:0:0:0:
475,192,58200,1,0,0:0:0:0:
329,192,58350,1,0,0:0:0:0:
256,192,58500,1,0,0:0:0:0:
182,192,58650,1,0,0:0:0:0:
329,192,58800,1,0,0:0:0:0:
182,192,58950,1,0,0:0:0:50:BaSS.wav
36,192,58950,1,0,0:0:0:0:
329,192,59100,1,0,0:0:0:0:
475,192,59250,1,0,0:0:0:0:
256,192,59400,1,0,0:0:0:50:BaSS.wav
109,192,59400,1,0,0:0:0:0:
329,192,59550,1,0,0:0:0:0:
402,192,59700,1,0,0:0:0:0:
256,192,59850,1,0,0:0:0:0:
109,192,60000,1,0,0:0:0:0:
329,192,60150,1,0,0:0:0:50:BaSS.wav
475,192,60150,1,0,0:0:0:0:
256,192,60300,1,0,0:0:0:0:
182,192,60450,1,0,0:0:0:0:
109,192,60600,1,0,0:0:0:50:BaSS.wav
402,192,60600,1,0,0:0:0:0:
475,192,61800,1,0,0:0:0:0:
329,192,61800,1,0,0:0:0:0:
256,192,62400,1,0,0:0:0:0:
182,192,63000,1,0,0:0:0:50:BaSS.wav
109,192,63000,1,0,0:0:0:0:
329,192,63600,1,0,0:0:0:30:BaSS.wav
475,192,64200,1,0,0:0:0:0:
109,192,64200,1,0,0:0:0:0:
182,192,64350,1,0,0:0:0:0:
256,192,64500,1,0,0:0:0:50:CrashR.wav
402,192,64500,1,0,0:0:0:0:
182,192,64800,1,0,0:0:0:0:
36,192,64800,1,0,0:0:0:0:
256,192,65400,1,0,0:0:0:50:CrashR.wav
36,192,65400,1,0,0:0:0:50:BaSS.wav
475,192,65400,128,0,65700:0:0:0:0:
182,192,65700,1,0,0:0:0:50:KicK.wav
109,192,65700,1,0,0:0:0:0:
329,192,65850,1,0,0:0:0:0:
475,192,66000,128,0,66300:0:0:0:0:
329,192,66150,1,0,0:0:0:50:BaSS.wav
182,192,66150,1,0,0:0:0:0:
109,192,66300,1,0,0:0:0:50:KicK.wav
36,192,66300,1,0,0:0:0:0:
36,192,66600,128,0,66900:0:0:0:50:BaSS.wav
475,192,66600,1,0,0:0:0:0:
329,192,66600,1,0,0:0:0:0:
256,192,66900,1,0,0:0:0:50:KicK.wav
109,192,66900,1,0,0:0:0:0:
402,192,67050,1,0,0:0:0:50:BaSS.wav
475,192,67050,1,0,0:0:0:0:
36,192,67200,128,0,67500:0:0:0:0:
475,192,67350,1,0,0:0:0:50:BaSS.wav
329,192,67350,1,0,0:0:0:0:
109,192,67500,1,0,0:0:0:50:KicK.wav
182,192,67500,1,0,0:0:0:0:
256,192,67575,1,0,0:0:0:50:Drum.wav
329,192,67650,1,0,0:0:0:50:Drum.wav
402,192,67725,1,0,0:0:0:50:Drum.wav
475,192,67800,128,0,68100:0:0:0:50:BaSS.wav
36,192,67800,1,0,0:0:0:0:
109,192,67800,1,0,0:0:0:0:
182,192,67950,1,0,0:0:0:0:
402,192,68100,1,0,0:0:0:50:BaSS.wav
256,192,68100,1,0,0:0:0:0:
182,192,68250,1,0,0:0:0:0:
475,192,68400,128,0,68700:0:0:0:50:BaSS.wav
109,192,68400,1,0,0:0:0:0:
329,192,68400,1,0,0:0:0:0:
256,192,68550,1,0,0:0:0:0:
182,192,68700,1,0,0:0:0:50:BaSS.wav
36,192,68700,1,0,0:0:0:0:
256,192,68850,1,0,0:0:0:0:
329,192,69000,1,0,0:0:0:50:BaSS.wav
402,192,69000,1,0,0:0:0:0:
36,192,69150,1,0,0:0:0:50:BaSS.wav
182,192,69150,1,0,0:0:0:0:
475,192,69300,1,0,0:0:0:50:BaSS.wav
329,192,69300,1,0,0:0:0:0:
256,192,69450,1,0,0:0:0:50:BaSS.wav
109,192,69450,1,0,0:0:0:0:
475,192,69600,1,0,0:0:0:50:BaSS.wav
329,192,69675,1,0,0:0:0:50:BaSS.wav
36,192,69750,1,0,0:0:0:50:BaSS.wav
182,192,69825,1,0,0:0:0:50:BaSS.wav
329,192,69900,128,0,70200:0:0:0:50:BaSS.wav
475,192,70200,1,0,0:0:0:0:
402,192,70275,1,0,0:0:0:0:
329,192,70350,1,0,0:0:0:0:
256,192,70425,1,0,0:0:0:0:
182,192,70500,1,0,0:0:0:0:
329,192,70575,1,0,0:0:0:0:
475,192,70650,1,0,0:0:0:0:
256,192,70725,1,0,0:0:0:0:
36,192,70800,1,0,0:0:0:0:
109,192,70875,1,0,0:0:0:0:
182,192,70950,1,0,0:0:0:0:
256,192,71025,1,0,0:0:0:0:
329,192,71100,1,0,0:0:0:0:
402,192,71175,1,0,0:0:0:0:
475,192,71250,1,0,0:0:0:0:
256,192,71325,1,0,0:0:0:0:
36,192,71400,1,0,0:0:0:0:
182,192,71475,1,0,0:0:0:0:
329,192,71550,1,0,0:0:0:0:
475,192,71625,1,0,0:0:0:0:
256,192,71700,1,0,0:0:0:0:
182,192,71775,1,0,0:0:0:0:
109,192,71850,1,0,0:0:0:0:
36,192,71925,1,0,0:0:0:0:
475,192,72000,1,0,0:0:0:0:
329,192,72075,1,0,0:0:0:0:
182,192,72150,1,0,0:0:0:0:
36,192,72225,1,0,0:0:0:0:
256,192,72300,1,0,0:0:0:0:
329,192,72375,1,0,0:0:0:0:
402,192,72450,1,0,0:0:0:0:
475,192,72525,1,0,0:0:0:0:
256,192,72600,1,0,0:0:0:50:CrashR.wav
36,192,72600,128,0,72750:0:0:0:50:BaSS.wav
109,192,72600,128,0,72750:0:0:0:0:
329,192,72750,1,0,0:0:0:0:
402,192,72900,1,0,0:0:0:50:KicK.wav
475,192,72900,1,0,0:0:0:0:
109,192,73050,128,0,73200:0:0:0:50:BaSS.wav
36,192,73050,128,0,73200:0:0:0:0:
329,192,73200,1,0,0:0:0:0:
475,192,73350,1,0,0:0:0:50:BaSS.wav
402,192,73350,1,0,0:0:0:0:
256,192,73500,1,0,0:0:0:50:Snare.wav
109,192,73500,1,0,0:0:0:0:
475,192,73650,1,0,0:0:0:0:
329,192,73650,1,0,0:0:0:0:
36,192,73800,1,0,0:0:0:50:BaSS.wav
182,192,73800,1,0,0:0:0:0:
475,192,73950,1,0,0:0:0:50:CrashR.wav
402,192,73950,1,0,0:0:0:0:
36,192,74100,128,0,74250:0:0:0:50:Snare.wav
109,192,74100,128,0,74250:0:0:0:0:
329,192,74250,1,0,0:0:0:0:
475,192,74400,1,0,0:0:0:50:CrashR.wav
402,192,74400,1,0,0:0:0:50:BaSS.wav
182,192,74400,1,0,0:0:0:0:
109,192,74625,1,0,0:0:0:50:CrashR.wav
36,192,74625,1,0,0:0:0:50:BaSS.wav
329,192,74625,1,0,0:0:0:0:
256,192,74850,1,0,0:0:0:50:CrashR.wav
475,192,74850,1,0,0:0:0:50:BaSS.wav
402,192,74850,1,0,0:0:0:0:
329,192,75000,1,0,0:0:0:50:CrashR.wav
182,192,75000,1,0,0:0:0:50:BaSS.wav
36,192,75000,1,0,0:0:0:0:
475,192,75300,1,0,0:0:0:50:KicK.wav
109,192,75300,1,0,0:0:0:0:
329,192,75375,1,0,0:0:0:0:
182,192,75450,1,0,0:0:0:0:
36,192,75525,1,0,0:0:0:0:
109,192,75600,1,0,0:0:0:0:
182,192,75675,1,0,0:0:0:0:
256,192,75750,1,0,0:0:0:50:BaSS.wav
402,192,75750,1,0,0:0:0:0:
182,192,75825,1,0,0:0:0:0:
109,192,75900,1,0,0:0:0:50:KicK.wav
36,192,75900,1,0,0:0:0:0:
256,192,75975,1,0,0:0:0:0:
402,192,76050,1,0,0:0:0:0:
182,192,76125,1,0,0:0:0:0:
329,192,76200,1,0,0:0:0:50:BaSS.wav
36,192,76200,1,0,0:0:0:0:
256,192,76300,1,0,0:0:0:0:
182,192,76400,1,0,0:0:0:0:
329,192,76500,1,0,0:0:0:50:KicK.wav
475,192,76500,1,0,0:0:0:0:
256,192,76600,1,0,0:0:0:0:
182,192,76700,1,0,0:0:0:0:
36,192,76800,128,0,77000:0:0:0:50:BaSS.wav
329,192,76800,1,0,0:0:0:0:
182,192,77000,1,0,0:0:0:0:
329,192,77100,1,0,0:0:0:50:KicK.wav
475,192,77100,1,0,0:0:0:0:
109,192,77200,1,0,0:0:0:0:
256,192,77300,1,0,0:0:0:0:
402,192,77400,1,0,0:0:0:0:
475,192,77400,1,0,0:0:0:0:
36,192,77400,128,0,77550:0:0:0:0:
182,192,77550,1,0,0:0:0:50:Drum.wav
329,192,77625,1,0,0:0:0:50:Drum.wav
475,192,77700,1,0,0:0:0:50:Drum.wav
256,192,77775,1,0,0:0:0:50:Drum.wav
109,192,77850,1,0,0:0:0:50:Drum.wav
329,192,77925,1,0,0:0:0:50:Drum.wav
475,192,78000,1,0,0:0:0:50:Drum.wav
182,192,78075,1,0,0:0:0:50:Drum.wav
36,192,78150,1,0,0:0:0:50:BaSS.wav
402,192,78225,1,0,0:0:0:0:
256,192,78300,1,0,0:0:0:50:Snare.wav
36,192,78375,1,0,0:0:0:50:Snare.wav
182,192,78450,1,0,0:0:0:50:Snare.wav
329,192,78525,1,0,0:0:0:50:Snare.wav
475,192,78600,128,0,78700:0:0:0:50:BaSS.wav
109,192,78600,1,0,0:0:0:0:
402,192,78700,128,0,78800:0:0:0:0:
329,192,78800,128,0,78900:0:0:0:0:
182,192,78900,128,0,79000:0:0:0:0:
109,192,79000,128,0,79100:0:0:0:0:
36,192,79100,128,0,79200:0:0:0:0:
329,192,79200,128,0,79300:0:0:0:0:
402,192,79300,128,0,79400:0:0:0:0:
475,192,79400,128,0,79500:0:0:0:0:
36,192,79500,128,0,79600:0:0:0:0:
109,192,79600,128,0,79700:0:0:0:0:
182,192,79700,128,0,79800:0:0:0:0:
256,192,79800,1,0,0:0:0:50:CrashR.wav
475,192,79800,1,0,0:0:0:50:BaSS.wav
402,192,79800,1,0,0:0:0:0:
182,192,79950,1,0,0:0:0:0:
36,192,80100,1,0,0:0:0:50:KicK.wav
109,192,80100,1,0,0:0:0:0:
329,192,80250,1,0,0:0:0:0:
475,192,80250,1,0,0:0:0:0:
256,192,80400,1,0,0:0:0:0:
182,192,80550,1,0,0:0:0:50:BaSS.wav
36,192,80550,1,0,0:0:0:0:
475,192,80700,1,0,0:0:0:50:KicK.wav
402,192,80700,1,0,0:0:0:0:
256,192,80850,1,0,0:0:0:0:
109,192,80850,1,0,0:0:0:0:
475,192,81000,1,0,0:0:0:50:BaSS.wav
329,192,81000,1,0,0:0:0:0:
182,192,81075,1,0,0:0:0:50:Snare.wav
329,192,81150,1,0,0:0:0:50:Snare.wav
182,192,81225,1,0,0:0:0:50:Snare.wav
36,192,81300,1,0,0:0:0:50:CrashR.wav
329,192,81300,1,0,0:0:0:50:BaSS.wav
475,192,81450,128,0,81600:0:0:0:0:
256,192,81600,1,0,0:0:0:0:
109,192,81750,1,0,0:0:0:50:BaSS.wav
36,192,81750,1,0,0:0:0:0:
475,192,81900,1,0,0:0:0:50:Tom.wav
329,192,81900,1,0,0:0:0:0:
182,192,82050,128,0,82200:0:0:0:50:Drum.wav
475,192,82200,1,0,0:0:0:50:CrashR.wav
402,192,82200,1,0,0:0:0:50:BaSS.wav
36,192,82200,1,0,0:0:0:0:
256,192,82350,1,0,0:0:0:50:BaSS.wav
109,192,82350,1,0,0:0:0:0:
475,192,82500,1,0,0:0:0:50:KicK.wav
329,192,82500,1,0,0:0:0:0:
182,192,82650,128,0,82800:0:0:0:50:BaSS.wav
36,192,82650,1,0,0:0:0:0:
475,192,82800,1,0,0:0:0:0:
329,192,82950,128,0,83100:0:0:0:50:BaSS.wav
182,192,82950,1,0,0:0:0:0:
475,192,83100,1,0,0:0:0:50:KicK.wav
402,192,83100,1,0,0:0:0:0:
182,192,83250,128,0,83400:0:0:0:50:Drum.wav
36,192,83250,1,0,0:0:0:0:
475,192,83400,1,0,0:0:0:50:BaSS.wav
329,192,83400,1,0,0:0:0:0:
256,192,83475,1,0,0:0:0:0:
182,192,83550,1,0,0:0:0:0:
109,192,83625,1,0,0:0:0:0:
36,192,83700,1,0,0:0:0:50:Drum.wav
182,192,83775,1,0,0:0:0:50:Drum.wav
402,192,83850,1,0,0:0:0:50:Drum.wav
256,192,83925,1,0,0:0:0:50:Drum.wav
109,192,84000,1,0,0:0:0:0:
182,192,84075,1,0,0:0:0:0:
256,192,84150,1,0,0:0:0:50:BaSS.wav
109,192,84225,1,0,0:0:0:50:Snare.wav
329,192,84300,1,0,0:0:0:50:Snare.wav
182,192,84375,1,0,0:0:0:50:Snare.wav
36,192,84450,1,0,0:0:0:50:Snare.wav
109,192,84525,1,0,0:0:0:50:Snare.wav
182,192,84600,1,0,0:0:0:50:CrashR.wav
475,192,84600,1,0,0:0:0:50:BaSS.wav
402,192,84600,1,0,0:0:0:0:
329,192,84675,1,0,0:0:0:0:
256,192,84750,1,0,0:0:0:0:
182,192,84825,1,0,0:0:0:0:
109,192,84900,1,0,0:0:0:50:KicK.wav
256,192,84975,1,0,0:0:0:0:
402,192,85050,1,0,0:0:0:50:BaSS.wav
182,192,85125,1,0,0:0:0:0:
36,192,85200,1,0,0:0:0:0:
329,192,85275,1,0,0:0:0:0:
475,192,85350,1,0,0:0:0:0:
109,192,85425,1,0,0:0:0:0:
256,192,85500,1,0,0:0:0:50:KicK.wav
402,192,85575,1,0,0:0:0:0:
329,192,85650,1,0,0:0:0:50:Snare.wav
256,192,85725,1,0,0:0:0:50:Snare.wav
475,192,85800,1,0,0:0:0:50:CrashR.wav
182,192,85800,1,0,0:0:0:0:
36,192,85800,1,0,0:0:0:0:
329,192,85875,1,0,0:0:0:0:
182,192,85950,1,0,0:0:0:0:
329,192,86025,1,0,0:0:0:0:
475,192,86100,1,0,0:0:0:50:KicK.wav
402,192,86175,1,0,0:0:0:0:
329,192,86250,1,0,0:0:0:50:BaSS.wav
256,192,86325,1,0,0:0:0:0:
182,192,86400,1,0,0:0:0:0:
329,192,86475,1,0,0:0:0:0:
475,192,86550,1,0,0:0:0:50:Snare.wav
402,192,86625,1,0,0:0:0:50:Snare.wav
36,192,86700,1,0,0:0:0:50:BaSS.wav
329,192,86700,1,0,0:0:0:0:
109,192,86700,1,0,0:0:0:0:
182,192,86775,1,0,0:0:0:0:
256,192,86850,1,0,0:0:0:50:Drum.wav
329,192,86925,1,0,0:0:0:50:Drum.wav
402,192,87000,1,0,0:0:0:50:BaSS.wav
475,192,87000,1,0,0:0:0:0:
36,192,87000,128,0,87075:0:0:0:0:
109,192,87075,128,0,87150:0:0:0:0:
182,192,87150,128,0,87225:0:0:0:0:
256,192,87225,128,0,87300:0:0:0:0:
329,192,87300,128,0,87375:0:0:0:0:
182,192,87375,128,0,87450:0:0:0:0:
36,192,87450,128,0,87525:0:0:0:0:
256,192,87525,128,0,87600:0:0:0:0:
475,192,87600,128,0,87675:0:0:0:0:
402,192,87675,128,0,87750:0:0:0:0:
329,192,87750,128,0,87825:0:0:0:50:BaSS.wav
256,192,87825,128,0,87900:0:0:0:0:
182,192,87900,128,0,87975:0:0:0:0:
329,192,87975,128,0,88050:0:0:0:0:
475,192,88050,128,0,88125:0:0:0:50:BaSS.wav
256,192,88125,128,0,88200:0:0:0:0:
36,192,88200,1,0,0:0:0:50:CrashR.wav
329,192,88200,1,0,0:0:0:50:BaSS.wav
109,192,88200,1,0,0:0:0:0:
182,192,88400,1,0,0:0:0:50:CrashR.wav
402,192,88400,1,0,0:0:0:50:BaSS.wav
475,192,88400,1,0,0:0:0:0:
256,192,88600,1,0,0:0:0:50:CrashR.wav
36,192,88600,1,0,0:0:0:50:BaSS.wav
109,192,88600,1,0,0:0:0:0:
475,192,88800,1,0,0:0:0:50:CrashR.wav
182,192,88800,1,0,0:0:0:50:BaSS.wav
329,192,88800,1,0,0:0:0:0:
402,192,89000,1,0,0:0:0:50:CrashR.wav
36,192,89000,1,0,0:0:0:50:BaSS.wav
256,192,89000,1,0,0:0:0:0:
475,192,89230,1,0,0:0:0:50:CrashR.wav
329,192,89230,1,0,0:0:0:50:BaSS.wav
109,192,89230,1,0,0:0:0:0:
256,192,89430,1,0,0:0:0:0:
36,192,89430,128,0,89655:0:0:0:0:
182,192,89655,1,0,0:0:0:0:
329,192,89730,1,0,0:0:0:50:CrashR.wav
402,192,89730,1,0,0:0:0:50:BaSS.wav
475,192,89730,1,0,0:0:0:0:
256,192,89805,1,0,0:0:0:0:
182,192,89880,1,0,0:0:0:0:
329,192,89955,1,0,0:0:0:0:
475,192,90030,1,0,0:0:0:0:
402,192,90105,1,0,0:0:0:0:
329,192,90180,1,0,0:0:0:50:BaSS.wav
182,192,90180,1,0,0:0:0:0:
109,192,90255,1,0,0:0:0:0:
36,192,90330,1,0,0:0:0:0:
182,192,90405,1,0,0:0:0:0:
329,192,90480,1,0,0:0:0:0:
475,192,90555,1,0,0:0:0:0:
256,192,90630,1,0,0:0:0:50:BaSS.wav
109,192,90630,1,0,0:0:0:0:
402,192,90705,1,0,0:0:0:50:Snare.wav
256,192,90780,1,0,0:0:0:50:Snare.wav
402,192,90855,1,0,0:0:0:50:Snare.wav
182,192,90930,1,0,0:0:0:50:Snare.wav
36,192,91005,1,0,0:0:0:50:Snare.wav
182,192,91080,1,0,0:0:0:50:Snare.wav
36,192,91155,1,0,0:0:0:50:Snare.wav
475,192,91230,1,0,0:0:0:50:BaSS.wav
329,192,91305,1,0,0:0:0:50:Tom.wav
475,192,91380,1,0,0:0:0:50:Tom.wav
329,192,91455,1,0,0:0:0:50:Tom.wav
109,192,91530,1,0,0:0:0:50:Tom.wav
256,192,91605,1,0,0:0:0:50:Tom.wav
109,192,91680,1,0,0:0:0:50:Tom.wav
256,192,91755,1,0,0:0:0:50:Tom.wav
402,192,91830,1,0,0:0:0:50:CrashR.wav
475,192,91830,1,0,0:0:0:50:BaSS.wav
36,192,91830,128,0,92130:0:0:0:0:
475,192,92130,1,0,0:0:0:50:Snare.wav
329,192,92130,1,0,0:0:0:0:
256,192,92280,1,0,0:0:0:50:BaSS.wav
109,192,92280,1,0,0:0:0:0:
329,192,92355,1,0,0:0:0:0:
402,192,92430,128,0,92555:0:0:0:0:
182,192,92555,1,0,0:0:0:0:
109,192,92630,1,0,0:0:0:0:
36,192,92705,1,0,0:0:0:0:
182,192,92780,1,0,0:0:0:0:
329,192,92855,1,0,0:0:0:0:
475,192,92855,1,0,0:0:0:0:
182,192,93005,1,0,0:0:0:50:BaSS.wav
36,192,93005,1,0,0:0:0:0:
256,192,93230,1,0,0:0:0:0:
182,192,93455,1,0,0:0:0:0:
329,192,93530,1,0,0:0:0:0:
475,192,93605,1,0,0:0:0:50:CrashR.wav
402,192,93680,1,0,0:0:0:0:
329,192,93755,1,0,0:0:0:50:BaSS.wav
182,192,93755,1,0,0:0:0:0:
109,192,93830,1,0,0:0:0:0:
36,192,93905,1,0,0:0:0:50:KicK.wav
256,192,93905,1,0,0:0:0:0:
329,192,93980,1,0,0:0:0:0:
402,192,94055,1,0,0:0:0:50:BaSS.wav
475,192,94055,1,0,0:0:0:0:
182,192,94130,1,0,0:0:0:50:BaSS.wav
36,192,94130,1,0,0:0:0:0:
256,192,94205,1,0,0:0:0:50:CrashR.wav
329,192,94205,1,0,0:0:0:50:BaSS.wav
475,192,94205,1,0,0:0:0:0:
36,192,94355,128,0,94505:0:0:0:0:
475,192,94505,1,0,0:0:0:50:BaSS.wav
329,192,94505,1,0,0:0:0:0:
109,192,94580,1,0,0:0:0:50:BaSS.wav
256,192,94580,1,0,0:0:0:0:
475,192,94655,1,0,0:0:0:50:CrashR.wav
402,192,94655,1,0,0:0:0:50:BaSS.wav
182,192,94880,128,0,95030:0:0:0:0:
329,192,94955,1,0,0:0:0:50:BaSS.wav
475,192,95115,1,0,0:0:0:50:Tom.wav
329,192,95190,1,0,0:0:0:50:Tom.wav
36,192,95265,1,0,0:0:0:50:Tom.wav
182,192,95340,1,0,0:0:0:50:Tom.wav
329,192,95415,128,0,95565:0:0:0:50:Tom.wav
256,192,95565,1,0,0:0:0:0:
182,192,95640,1,0,0:0:0:0:
109,192,95715,1,0,0:0:0:50:KicK.wav
36,192,95715,1,0,0:0:0:0:
256,192,95790,1,0,0:0:0:0:
402,192,95865,1,0,0:0:0:50:BaSS.wav
475,192,95865,1,0,0:0:0:0:
329,192,95940,1,0,0:0:0:0:
256,192,96015,1,0,0:0:0:0:
182,192,96090,1,0,0:0:0:0:
329,192,96165,1,0,0:0:0:50:BaSS.wav
36,192,96165,1,0,0:0:0:0:
402,192,96240,1,0,0:0:0:0:
475,192,96315,1,0,0:0:0:50:KicK.wav
256,192,96315,1,0,0:0:0:0:
109,192,96315,1,0,0:0:0:0:
329,192,96390,1,0,0:0:0:0:
402,192,96465,1,0,0:0:0:0:
256,192,96540,1,0,0:0:0:0:
109,192,96615,1,0,0:0:0:50:CrashR.wav
36,192,96615,1,0,0:0:0:0:
475,192,96615,128,0,97815:0:0:0:0:
182,192,96690,1,0,0:0:0:0:
256,192,96765,1,0,0:0:0:50:Drum.wav
329,192,96840,1,0,0:0:0:50:Drum.wav
182,192,96915,1,0,0:0:0:50:Drum.wav
36,192,96990,1,0,0:0:0:50:Drum.wav
256,192,97065,1,0,0:0:0:50:Drum.wav
402,192,97140,1,0,0:0:0:50:Drum.wav
36,192,97215,1,0,0:0:0:50:Drum.wav
182,192,97290,1,0,0:0:0:0:
402,192,97365,1,0,0:0:0:50:Drum.wav
256,192,97440,1,0,0:0:0:0:
109,192,97515,1,0,0:0:0:50:Snare.wav
182,192,97590,1,0,0:0:0:50:Snare.wav
256,192,97665,1,0,0:0:0:50:Snare.wav
329,192,97740,1,0,0:0:0:50:Snare.wav
402,192,97815,1,0,0:0:0:50:BaSS.wav
109,192,97815,1,0,0:0:0:0:
36,192,97815,1,0,0:0:0:0:
36,192,98040,5,0,0:0:0:0:
109,192,98115,1,0,0:0:0:0:
182,192,98190,1,0,0:0:0:0:
256,192,98265,1,0,0:0:0:0:
329,192,98340,1,0,0:0:0:0:
402,192,98415,1,0,0:0:0:0:
475,192,98415,1,0,0:0:0:0:
329,192,98745,1,0,0:0:0:0:
182,192,98745,1,0,0:0:0:0:
475,192,99035,1,0,0:0:0:50:KicK.wav
36,192,99035,1,0,0:0:0:0:
329,192,99185,1,0,0:0:0:0:
182,192,99297,1,0,0:0:0:0:
36,192,99485,1,0,0:0:0:0:
475,192,99610,1,0,0:0:0:0:
402,192,99760,1,0,0:0:0:0:
329,192,99910,1,0,0:0:0:0:
256,192,100060,1,0,0:0:0:0:
182,192,100210,1,0,0:0:0:0:
36,192,100210,1,0,0:0:0:0:
402,192,100360,1,0,0:0:0:0:
402,192,100510,1,0,0:0:0:0:
36,192,100960,1,0,0:0:0:0:
109,192,101110,1,0,0:0:0:0:
182,192,101260,1,0,0:0:0:0:
256,192,101410,128,0,101860:0:0:0:0:
475,192,101860,1,0,0:0:0:0:
329,192,101860,1,0,0:0:0:0:
109,192,102160,1,0,0:0:0:0:
109,192,102460,1,0,0:0:0:0:
475,192,102610,1,0,0:0:0:0:
329,192,102610,1,0,0:0:0:0:
182,192,102760,1,0,0:0:0:0:
36,192,102910,1,0,0:0:0:0:
256,192,103060,1,0,0:0:0:0:
402,192,103210,1,0,0:0:0:0:
329,192,103360,1,0,0:0:0:0:
256,192,103510,1,0,0:0:0:0:
182,192,103660,1,0,0:0:0:0:
109,192,103810,1,0,0:0:0:0:
36,192,103810,1,0,0:0:0:0:
182,192,103960,1,0,0:0:0:0:
329,192,103960,1,0,0:0:0:0:
256,192,104110,1,0,0:0:0:0:
402,192,104110,1,0,0:0:0:0:
475,192,104260,1,0,0:0:0:0:
329,192,104260,1,0,0:0:0:0:
182,192,104410,1,0,0:0:0:0:
36,192,104560,1,0,0:0:0:0:
256,192,104710,1,0,0:0:0:0:
475,192,104710,1,0,0:0:0:0:
329,192,104860,1,0,0:0:0:0:
402,192,105010,1,0,0:0:0:0:
182,192,105010,1,0,0:0:0:0:
109,192,105159,1,0,0:0:0:0:
256,192,105233,1,0,0:0:0:0:
36,192,105308,1,0,0:0:0:0:
329,192,105457,1,0,0:0:0:0:
475,192,105457,1,0,0:0:0:0:
256,192,105607,1,0,0:0:0:0:
182,192,105756,1,0,0:0:0:0:
109,192,105905,1,0,0:0:0:0:
475,192,105905,1,0,0:0:0:0:
329,192,106054,1,0,0:0:0:0:
182,192,106204,1,0,0:0:0:0:
36,192,106204,1,0,0:0:0:0:
475,192,106204,1,0,0:0:0:0:
256,192,106353,1,0,0:0:0:0:
329,192,106502,1,0,0:0:0:0:
402,192,106651,1,0,0:0:0:0:
475,192,106651,1,0,0:0:0:0:
109,192,106801,1,0,0:0:0:0:
182,192,106950,1,0,0:0:0:0:
475,192,106950,1,0,0:0:0:0:
256,192,107099,1,0,0:0:0:0:
329,192,107248,1,0,0:0:0:0:
402,192,107398,1,0,0:0:0:0:
475,192,107398,1,0,0:0:0:0:
182,192,108032,1,0,0:0:0:0:
256,192,108072,1,0,0:0:0:0:
329,192,108112,1,0,0:0:0:0:
475,192,108191,1,0,0:0:0:0:
475,192,108779,1,0,0:0:0:0:
256,192,109337,1,0,0:0:0:0:
182,192,109635,1,0,0:0:0:0:
109,192,109897,1,0,0:0:0:0:
36,192,110133,1,0,0:0:0:0:
256,192,110383,1,0,0:0:0:0:
402,192,110633,1,0,0:0:0:0:
475,192,111074,1,0,0:0:0:0:
36,192,111913,1,0,0:0:0:0:
