osu file format v14

[General]
AudioFilename: audio.mp3
AudioLeadIn: 0
PreviewTime: 53712
Countdown: 0
SampleSet: Soft
StackLeniency: 0.7
Mode: 3
LetterboxInBreaks: 0
SpecialStyle: 0
WidescreenStoryboard: 1

[Editor]
Bookmarks: 7184,17254,27323,32358,37393,44946,53757,73897
DistanceSpacing: 0.8
BeatDivisor: 6
GridSize: 16
TimelineZoom: 1.6

[Metadata]
Title:Fly Like You
TitleUnicode:Fly Like You
Artist:technoplanet
ArtistUnicode:technoplanet
Creator:UnluckyCroco
Version:Scotty's BASIC
Source:SOUND VOLTEX IV HEAVENLY HAVEN
Tags:-mint- qqqant sdvx 4 KONAMI RASIS 旋律世界 KeppSado Scotty ΩDimension BEMANI senritsu sekai electronic instrumental video game 3 III GRAVITY WARS コナステ's REGULAR
BeatmapID:2324687
BeatmapSetID:1107384

[Difficulty]
HPDrainRate:6.5
CircleSize:4
OverallDifficulty:6.5
ApproachRate:5
SliderMultiplier:1.4
SliderTickRate:1

[Events]
//Background and Video events
0,0,"croco.jpg",0,0
//Break Periods
//Storyboard Layer 0 (Background)
//Storyboard Layer 1 (Fail)
//Storyboard Layer 2 (Pass)
//Storyboard Layer 3 (Foreground)
//Storyboard Layer 4 (Overlay)
//Storyboard Sound Samples

[TimingPoints]
268,209.79020979021,3,2,1,50,1,0
7191,-100,3,2,1,60,0,0
27383,-100,3,2,1,40,0,0
32365,-100,3,2,1,60,0,0
53764,-100,3,2,1,60,0,1
63834,-100,3,2,1,60,0,0
66351,-100,3,2,1,60,0,1
72645,-100,3,2,1,60,0,0
73974,-100,3,2,1,50,0,0
76421,-100,3,2,1,60,0,1
81456,-100,3,2,1,60,0,0
83974,-100,3,2,1,60,0,1
89009,217.391304347826,3,2,1,55,1,0
89009,-97.0873786407767,3,2,1,55,0,0
89661,234.375,3,2,1,50,1,0
89661,-89.2857142857143,3,2,1,50,0,0
90364,265.486725663717,3,2,1,45,1,0
90364,-78.7401574803149,3,2,1,45,0,0
91159,306.122448979592,3,2,1,40,1,0
91159,-68.4931506849315,3,2,1,40,0,0
93919,209.79020979021,3,2,1,60,1,1
98953,288.461538461538,2,2,1,50,1,0
98953,-72.7272727272727,2,2,1,50,0,0
103564,288.461538461538,2,2,1,40,1,0
103564,-72.463768115942,4,2,1,40,0,0

[HitObjects]
448,192,582,128,0,897:0:0:0:0:
64,192,897,1,4,0:0:0:0:
192,192,897,1,2,0:0:0:0:
320,192,1107,1,0,0:0:0:0:
64,192,1316,128,0,1526:0:0:0:0:
448,192,1526,1,0,0:0:0:0:
320,192,1736,1,0,0:0:0:0:
64,192,1946,1,0,0:0:0:0:
448,192,2156,1,0,0:0:0:0:
64,192,2575,1,0,0:0:0:0:
320,192,2785,1,0,0:0:0:0:
192,192,2995,1,0,0:0:0:0:
64,192,3205,1,0,0:0:0:0:
448,192,3414,1,6,0:0:0:0:
192,192,3624,1,0,0:0:0:0:
320,192,3834,128,0,4044:0:0:0:0:
64,192,4044,1,0,0:0:0:0:
448,192,4254,1,0,0:0:0:0:
192,192,4463,1,0,0:0:0:0:
320,192,4673,128,4,5302:0:0:0:0:
64,192,5302,128,4,5932:0:0:0:0:
64,192,7191,1,2,0:0:0:0:
448,192,7191,1,4,0:0:0:0:
448,192,7610,1,8,0:0:0:0:
64,192,7820,1,2,0:0:0:0:
320,192,8030,1,8,0:0:0:0:
320,192,8240,1,8,0:0:0:0:
192,192,8449,1,2,0:0:0:0:
192,192,8869,1,8,0:0:0:0:
320,192,9079,128,2,9498:0:0:0:0:
192,192,9498,1,8,0:0:0:0:
448,192,9708,1,10,0:0:0:0:
64,192,9918,1,10,0:0:0:0:
192,192,10128,128,0,10337:0:0:0:0:
320,192,10337,1,10,0:0:0:0:
64,192,10547,1,10,0:0:0:0:
448,192,10757,128,0,10967:0:0:0:0:
192,192,10967,1,10,0:0:0:0:
320,192,11177,1,10,0:0:0:0:
64,192,11386,1,10,0:0:0:0:
192,192,11596,1,10,0:0:0:0:
448,192,11806,1,10,0:0:0:0:
320,192,12016,1,10,0:0:0:0:
64,192,12226,1,4,0:0:0:0:
192,192,12226,1,2,0:0:0:0:
320,192,12645,1,8,0:0:0:0:
64,192,12855,128,2,13274:0:0:0:0:
448,192,13274,1,8,0:0:0:0:
192,192,13484,1,2,0:0:0:0:
320,192,13694,1,0,0:0:0:0:
64,192,13904,1,8,0:0:0:0:
448,192,14114,128,2,14428:0:0:0:0:
192,192,14428,128,2,14743:0:0:0:0:
320,192,14743,1,6,0:0:0:0:
448,192,14743,1,8,0:0:0:0:
64,192,14953,1,0,0:0:0:0:
448,192,15163,128,0,15372:0:0:0:0:
192,192,15372,1,4,0:0:0:0:
64,192,15582,1,0,0:0:0:0:
448,192,15792,1,0,0:0:0:0:
192,192,16002,128,10,16421:0:0:0:0:
320,192,16421,1,10,0:0:0:0:
448,192,16631,1,10,0:0:0:0:
64,192,16841,1,10,0:0:0:0:
192,192,17051,1,10,0:0:0:0:
320,192,17261,128,6,17575:0:0:0:0:
192,192,17575,128,10,17890:0:0:0:0:
448,192,17890,1,2,0:0:0:0:
64,192,18100,1,10,0:0:0:0:
64,192,18309,1,10,0:0:0:0:
320,192,18519,128,2,18834:0:0:0:0:
448,192,18834,128,10,19149:0:0:0:0:
64,192,19149,1,2,0:0:0:0:
320,192,19358,1,10,0:0:0:0:
320,192,19568,1,10,0:0:0:0:
64,192,19778,128,6,20407:0:0:0:0:
448,192,20407,1,0,0:0:0:0:
64,192,20617,1,0,0:0:0:0:
192,192,20827,1,0,0:0:0:0:
448,192,21037,1,8,0:0:0:0:
320,192,21247,1,8,0:0:0:0:
192,192,21456,1,8,0:0:0:0:
64,192,21666,1,2,0:0:0:0:
320,192,21876,1,0,0:0:0:0:
192,192,22086,1,8,0:0:0:0:
64,192,22295,1,4,0:0:0:0:
448,192,22295,128,2,22610:0:0:0:0:
192,192,22610,128,8,22925:0:0:0:0:
320,192,22925,1,2,0:0:0:0:
64,192,23135,1,10,0:0:0:0:
64,192,23344,1,10,0:0:0:0:
448,192,23554,128,2,23869:0:0:0:0:
64,192,23869,128,10,24184:0:0:0:0:
320,192,24184,1,2,0:0:0:0:
448,192,24393,128,8,24603:0:0:0:0:
192,192,24603,1,8,0:0:0:0:
320,192,24813,1,6,0:0:0:0:
64,192,25023,128,0,25442:0:0:0:0:
448,192,25442,1,0,0:0:0:0:
192,192,25652,1,0,0:0:0:0:
320,192,25862,1,0,0:0:0:0:
448,192,26072,1,8,0:0:0:0:
64,192,26281,1,8,0:0:0:0:
320,192,26491,1,8,0:0:0:0:
448,192,26701,128,2,27016:0:0:0:0:
192,192,27016,128,2,27330:0:0:0:0:
320,192,27330,1,14,0:0:0:0:
64,192,27750,1,0,0:0:0:0:
448,192,27960,1,0,0:0:0:0:
320,192,28379,1,0,0:0:0:0:
192,192,28589,1,2,0:0:0:0:
64,192,29009,128,2,29219:0:0:0:0:
448,192,29219,1,0,0:0:0:0:
192,192,29638,1,0,0:0:0:0:
448,192,29848,128,0,30687:0:0:0:0:
64,192,30687,128,0,31107:0:0:0:0:
192,192,31107,1,0,0:0:0:0:
448,192,31316,1,0,0:0:0:0:
320,192,31526,1,0,0:0:0:0:
192,192,31736,128,0,32365:0:0:0:0:
448,192,32365,1,6,0:0:0:0:
64,192,32785,128,0,32995:0:0:0:0:
320,192,32995,128,8,33414:0:0:0:0:
192,192,33414,128,0,33624:0:0:0:0:
448,192,33624,128,2,34044:0:0:0:0:
320,192,34044,128,0,34254:0:0:0:0:
64,192,34254,128,8,34673:0:0:0:0:
448,192,34673,128,0,34883:0:0:0:0:
192,192,34883,128,2,35302:0:0:0:0:
448,192,35302,128,0,35512:0:0:0:0:
64,192,35512,128,2,35722:0:0:0:0:
320,192,35722,128,0,35932:0:0:0:0:
192,192,35932,128,0,36142:0:0:0:0:
64,192,36142,128,2,36771:0:0:0:0:
320,192,36771,128,8,36981:0:0:0:0:
192,192,36981,1,0,0:0:0:0:
448,192,37191,1,0,0:0:0:0:
64,192,37400,1,4,0:0:0:0:
192,192,37400,1,2,0:0:0:0:
320,192,37610,128,0,38030:0:0:0:0:
192,192,38030,1,2,0:0:0:0:
448,192,38240,1,8,0:0:0:0:
448,192,38449,1,8,0:0:0:0:
64,192,38659,128,2,39079:0:0:0:0:
448,192,39079,128,8,39288:0:0:0:0:
192,192,39288,128,2,39708:0:0:0:0:
64,192,39708,128,8,39918:0:0:0:0:
320,192,39918,128,2,40337:0:0:0:0:
448,192,40337,128,8,40547:0:0:0:0:
192,192,40547,128,2,40757:0:0:0:0:
320,192,40757,1,8,0:0:0:0:
320,192,40967,1,8,0:0:0:0:
64,192,41177,128,2,41806:0:0:0:0:
448,192,41806,1,2,0:0:0:0:
192,192,42016,1,8,0:0:0:0:
192,192,42226,1,8,0:0:0:0:
448,192,42435,1,2,0:0:0:0:
64,192,42645,1,0,0:0:0:0:
192,192,42855,1,8,0:0:0:0:
448,192,43065,1,2,0:0:0:0:
320,192,43274,1,8,0:0:0:0:
192,192,43484,1,0,0:0:0:0:
64,192,43694,1,10,0:0:0:0:
320,192,44009,1,10,0:0:0:0:
448,192,44323,128,2,44953:0:0:0:0:
64,192,44743,128,8,44953:0:0:0:0:
192,192,44953,1,6,0:0:0:0:
448,192,45582,1,0,0:0:0:0:
64,192,46212,1,0,0:0:0:0:
320,192,46841,1,0,0:0:0:0:
192,192,47051,1,0,0:0:0:0:
64,192,47261,1,0,0:0:0:0:
320,192,47470,1,4,0:0:0:0:
448,192,47470,128,2,48100:0:0:0:0:
192,192,48100,128,2,48729:0:0:0:0:
64,192,48729,128,2,49358:0:0:0:0:
320,192,49358,128,2,49988:0:0:0:0:
448,192,49988,128,2,50617:0:0:0:0:
192,192,50617,128,2,51247:0:0:0:0:
64,192,51247,128,10,51876:0:0:0:0:
448,192,51876,128,8,52505:0:0:0:0:
64,192,53764,1,2,0:0:0:0:
448,192,53764,1,4,0:0:0:0:
64,192,54184,1,8,0:0:0:0:
320,192,54393,1,2,0:0:0:0:
192,192,54603,1,8,0:0:0:0:
192,192,54813,1,8,0:0:0:0:
448,192,55023,1,2,0:0:0:0:
448,192,55442,1,8,0:0:0:0:
64,192,55652,128,2,56072:0:0:0:0:
448,192,56072,1,8,0:0:0:0:
320,192,56281,1,10,0:0:0:0:
64,192,56491,1,10,0:0:0:0:
320,192,56701,128,0,56911:0:0:0:0:
192,192,56911,1,10,0:0:0:0:
64,192,57121,1,10,0:0:0:0:
448,192,57330,128,0,57540:0:0:0:0:
192,192,57540,1,10,0:0:0:0:
320,192,57750,1,10,0:0:0:0:
448,192,57960,1,10,0:0:0:0:
64,192,58170,1,10,0:0:0:0:
320,192,58379,1,10,0:0:0:0:
192,192,58589,1,10,0:0:0:0:
64,192,58799,1,4,0:0:0:0:
448,192,58799,1,2,0:0:0:0:
320,192,59219,1,8,0:0:0:0:
192,192,59428,128,2,59848:0:0:0:0:
448,192,59848,1,8,0:0:0:0:
320,192,60058,1,2,0:0:0:0:
64,192,60268,1,0,0:0:0:0:
320,192,60477,1,8,0:0:0:0:
192,192,60687,128,2,61002:0:0:0:0:
448,192,61002,128,2,61316:0:0:0:0:
64,192,61316,1,6,0:0:0:0:
192,192,61316,1,8,0:0:0:0:
320,192,61526,1,0,0:0:0:0:
64,192,61736,128,0,61946:0:0:0:0:
448,192,61946,1,4,0:0:0:0:
192,192,62156,1,0,0:0:0:0:
320,192,62365,1,0,0:0:0:0:
448,192,62575,1,10,0:0:0:0:
448,192,62785,1,10,0:0:0:0:
192,192,62995,128,10,63205:0:0:0:0:
320,192,63205,1,10,0:0:0:0:
64,192,63414,1,10,0:0:0:0:
64,192,63624,1,10,0:0:0:0:
320,192,63834,1,4,0:0:0:0:
448,192,63834,1,2,0:0:0:0:
448,192,64254,1,0,0:0:0:0:
192,192,64463,1,2,0:0:0:0:
64,192,64463,1,4,0:0:0:0:
320,192,64673,1,0,0:0:0:0:
320,192,64883,1,0,0:0:0:0:
64,192,65093,1,4,0:0:0:0:
448,192,65093,1,2,0:0:0:0:
192,192,65512,1,0,0:0:0:0:
320,192,65722,128,6,66142:0:0:0:0:
192,192,66142,1,8,0:0:0:0:
448,192,66351,1,6,0:0:0:0:
64,192,66561,1,10,0:0:0:0:
192,192,66771,128,0,66981:0:0:0:0:
320,192,66981,1,10,0:0:0:0:
64,192,67191,1,10,0:0:0:0:
448,192,67400,128,0,67610:0:0:0:0:
64,192,67610,1,10,0:0:0:0:
192,192,67820,1,10,0:0:0:0:
320,192,68030,1,10,0:0:0:0:
64,192,68240,1,10,0:0:0:0:
448,192,68449,1,10,0:0:0:0:
320,192,68659,1,10,0:0:0:0:
64,192,68869,128,4,69288:0:0:0:0:
192,192,68869,1,2,0:0:0:0:
320,192,69288,1,8,0:0:0:0:
448,192,69498,128,2,69708:0:0:0:0:
192,192,69708,128,8,69918:0:0:0:0:
64,192,69918,128,8,70128:0:0:0:0:
320,192,70128,128,2,70337:0:0:0:0:
192,192,70337,128,0,70547:0:0:0:0:
448,192,70547,128,8,70757:0:0:0:0:
320,192,70757,128,2,71072:0:0:0:0:
64,192,71072,128,2,71386:0:0:0:0:
448,192,71386,1,6,0:0:0:0:
320,192,71596,1,0,0:0:0:0:
192,192,71806,128,0,72016:0:0:0:0:
320,192,72016,128,4,72645:0:0:0:0:
64,192,72645,128,10,72855:0:0:0:0:
192,192,72855,128,8,73065:0:0:0:0:
448,192,73065,128,8,73274:0:0:0:0:
192,192,73274,128,8,73484:0:0:0:0:
320,192,73484,128,8,73694:0:0:0:0:
448,192,73694,128,8,73904:0:0:0:0:
64,192,73904,128,4,74533:0:0:0:0:
192,192,73904,1,2,0:0:0:0:
320,192,74533,128,0,75163:0:0:0:0:
192,192,75163,128,0,75792:0:0:0:0:
64,192,75792,128,0,76421:0:0:0:0:
448,192,76421,1,14,0:0:0:0:
192,192,76631,1,10,0:0:0:0:
320,192,76841,128,0,77051:0:0:0:0:
192,192,77051,1,10,0:0:0:0:
448,192,77261,1,10,0:0:0:0:
64,192,77470,128,0,77680:0:0:0:0:
320,192,77680,1,10,0:0:0:0:
192,192,77890,1,10,0:0:0:0:
64,192,78100,1,10,0:0:0:0:
448,192,78309,1,10,0:0:0:0:
64,192,78519,1,10,0:0:0:0:
320,192,78729,1,10,0:0:0:0:
64,192,78939,1,4,0:0:0:0:
448,192,78939,1,2,0:0:0:0:
192,192,79149,128,0,79568:0:0:0:0:
320,192,79568,1,2,0:0:0:0:
64,192,79778,1,8,0:0:0:0:
448,192,79988,128,8,80198:0:0:0:0:
64,192,80198,1,2,0:0:0:0:
320,192,80407,1,0,0:0:0:0:
192,192,80617,128,8,80827:0:0:0:0:
448,192,80827,1,2,0:0:0:0:
64,192,81037,1,8,0:0:0:0:
192,192,81247,1,8,0:0:0:0:
320,192,81456,1,4,0:0:0:0:
448,192,81456,1,2,0:0:0:0:
192,192,81666,128,0,82086:0:0:0:0:
64,192,82086,128,4,82715:0:0:0:0:
448,192,82715,1,2,0:0:0:0:
320,192,83030,1,2,0:0:0:0:
192,192,83344,1,2,0:0:0:0:
320,192,83659,128,2,83974:0:0:0:0:
64,192,83974,128,4,84603:0:0:0:0:
448,192,83974,1,2,0:0:0:0:
192,192,84603,1,2,0:0:0:0:
448,192,84603,128,0,85233:0:0:0:0:
64,192,85233,1,4,0:0:0:0:
192,192,85233,1,2,0:0:0:0:
320,192,85442,1,0,0:0:0:0:
448,192,85652,1,0,0:0:0:0:
192,192,85862,1,6,0:0:0:0:
64,192,86072,128,8,86491:0:0:0:0:
448,192,86491,1,14,0:0:0:0:
192,192,86701,1,10,0:0:0:0:
320,192,86911,128,0,87121:0:0:0:0:
64,192,87121,1,10,0:0:0:0:
192,192,87330,1,10,0:0:0:0:
448,192,87540,128,0,87750:0:0:0:0:
320,192,87750,1,10,0:0:0:0:
192,192,87960,1,10,0:0:0:0:
64,192,88170,1,10,0:0:0:0:
320,192,88379,1,10,0:0:0:0:
192,192,88589,1,10,0:0:0:0:
448,192,88799,1,10,0:0:0:0:
64,192,89009,1,4,0:0:0:0:
192,192,89009,1,2,0:0:0:0:
320,192,89226,128,0,89661:0:0:0:0:
192,192,89661,128,0,90364:0:0:0:0:
448,192,90364,1,0,0:0:0:0:
320,192,90629,1,0,0:0:0:0:
64,192,90894,1,0,0:0:0:0:
320,192,91197,128,0,91809:0:0:0:0:
448,192,91809,128,0,92077:0:0:0:0:
64,192,92077,128,0,92995:0:0:0:0:
448,192,92995,1,0,0:0:0:0:
320,192,93340,128,0,93646:0:0:0:0:
192,192,93646,128,0,93919:0:0:0:0:
64,192,93919,1,4,0:0:0:0:
448,192,93919,1,2,0:0:0:0:
320,192,94128,1,0,0:0:0:0:
192,192,94338,128,0,94548:0:0:0:0:
448,192,94548,1,4,0:0:0:0:
320,192,94758,1,0,0:0:0:0:
64,192,94967,1,0,0:0:0:0:
448,192,95177,1,10,0:0:0:0:
448,192,95387,1,10,0:0:0:0:
64,192,95597,1,10,0:0:0:0:
192,192,95807,128,10,96436:0:0:0:0:
64,192,96436,1,4,0:0:0:0:
448,192,96436,128,2,97065:0:0:0:0:
64,192,97065,128,10,97695:0:0:0:0:
320,192,97695,128,4,98324:0:0:0:0:
448,192,97695,1,2,0:0:0:0:
448,192,98324,128,10,98953:0:0:0:0:
64,192,98953,128,4,99529:0:0:0:0:
192,192,98953,1,2,0:0:0:0:
320,192,99529,128,2,100106:0:0:0:0:
192,192,100106,128,2,100683:0:0:0:0:
448,192,100683,128,2,101260:0:0:0:0:
192,192,101260,1,0,0:0:0:0:
320,192,101549,1,0,0:0:0:0:
64,192,101837,1,0,0:0:0:0:
192,192,102126,1,0,0:0:0:0:
448,192,102414,1,0,0:0:0:0:
320,192,102703,1,0,0:0:0:0:
192,192,102991,1,0,0:0:0:0:
64,192,103279,1,0,0:0:0:0:
448,192,103564,1,0,0:0:0:0:
64,192,103852,128,0,104717:0:0:0:0:
320,192,104717,1,10,0:0:0:0:
192,192,105006,128,0,105294:0:0:0:0:
64,192,105294,1,4,0:0:0:0:
448,192,105294,1,2,0:0:0:0:
