osu file format v14

[General]
AudioFilename: audio.mp3
AudioLeadIn: 0
PreviewTime: 53712
Countdown: 0
SampleSet: Soft
StackLeniency: 0.7
Mode: 3
LetterboxInBreaks: 0
SpecialStyle: 0
WidescreenStoryboard: 1

[Editor]
Bookmarks: 878,7172,17242,27311,32346,44934,53745,63815,73885,81437,83955,87166,88990,93900,98934,103545,105275
DistanceSpacing: 0.8
BeatDivisor: 8
GridSize: 16
TimelineZoom: 2.6

[Metadata]
Title:Fly Like You
TitleUnicode:Fly Like You
Artist:technoplanet
ArtistUnicode:technoplanet
Creator:UnluckyCroco
Version:EXHAUST
Source:SOUND VOLTEX IV HEAVENLY HAVEN
Tags:-mint- qqqant sdvx 4 KONAMI RASIS 旋律世界 KeppSado Scotty ΩDimension BEMANI senritsu sekai electronic instrumental video game 3 III GRAVITY WARS コナステ's REGULAR
BeatmapID:2320012
BeatmapSetID:1107384

[Difficulty]
HPDrainRate:8
CircleSize:4
OverallDifficulty:8
ApproachRate:5
SliderMultiplier:1.4
SliderTickRate:1

[Events]
//Background and Video events
0,0,"croco.jpg",0,0
//Break Periods
//Storyboard Layer 0 (Background)
//Storyboard Layer 1 (Fail)
//Storyboard Layer 2 (Pass)
//Storyboard Layer 3 (Foreground)
//Storyboard Layer 4 (Overlay)
//Storyboard Sound Samples

[TimingPoints]
268,209.79020979021,3,2,1,50,1,0
7191,-100,3,2,1,60,0,0
27383,-100,3,2,1,40,0,0
32365,-100,3,2,1,60,0,0
53764,-100,3,2,1,60,0,1
63834,-100,3,2,1,60,0,0
66351,-100,3,2,1,60,0,1
72645,-100,3,2,1,60,0,0
73974,-100,3,2,1,50,0,0
76421,-100,3,2,1,60,0,1
81456,-100,3,2,1,60,0,0
83974,-100,3,2,1,60,0,1
89009,217.391304347826,3,2,1,55,1,0
89009,-97.0873786407767,3,2,1,55,0,0
89661,234.375,3,2,1,50,1,0
89661,-89.2857142857143,3,2,1,50,0,0
90364,265.486725663717,3,2,1,45,1,0
90364,-78.7401574803149,3,2,1,45,0,0
91159,306.122448979592,3,2,1,40,1,0
91159,-68.4931506849315,3,2,1,40,0,0
93919,209.79020979021,3,2,1,60,1,1
98953,288.461538461538,2,2,1,50,1,0
98953,-72.7272727272727,2,2,1,50,0,0
103564,288.461538461538,2,2,1,40,1,0
103564,-72.463768115942,4,2,1,40,0,0

[HitObjects]
192,192,582,5,0,0:0:0:0:
320,192,635,1,0,0:0:0:0:
448,192,687,1,0,0:0:0:0:
64,192,740,1,0,0:0:0:0:
192,192,792,1,0,0:0:0:0:
320,192,844,1,0,0:0:0:0:
64,192,897,1,4,0:0:0:0:
448,192,897,128,2,1002:0:0:0:0:
192,192,1107,128,0,1212:0:0:0:0:
64,192,1316,128,0,1421:0:0:0:0:
448,192,1421,128,0,1526:0:0:0:0:
320,192,1526,128,0,1631:0:0:0:0:
64,192,1736,128,0,1841:0:0:0:0:
192,192,1946,128,0,2051:0:0:0:0:
192,192,2156,128,0,2470:0:0:0:0:
448,192,2156,1,0,0:0:0:0:
192,192,2575,128,0,2785:0:0:0:0:
64,192,2785,128,0,2995:0:0:0:0:
320,192,2785,1,0,0:0:0:0:
192,192,2995,1,0,0:0:0:0:
320,192,2995,128,0,3205:0:0:0:0:
192,192,3205,128,0,3414:0:0:0:0:
448,192,3205,1,0,0:0:0:0:
64,192,3414,1,2,0:0:0:0:
320,192,3414,128,4,3519:0:0:0:0:
448,192,3414,128,0,3624:0:0:0:0:
192,192,3624,128,0,3729:0:0:0:0:
320,192,3624,128,0,3834:0:0:0:0:
64,192,3834,128,0,3939:0:0:0:0:
192,192,3834,128,0,3939:0:0:0:0:
320,192,3939,128,0,4044:0:0:0:0:
448,192,3939,128,0,4044:0:0:0:0:
64,192,4044,128,0,4254:0:0:0:0:
192,192,4044,128,0,4149:0:0:0:0:
192,192,4254,128,0,4463:0:0:0:0:
320,192,4254,128,0,4358:0:0:0:0:
320,192,4463,128,0,4673:0:0:0:0:
448,192,4463,128,0,4568:0:0:0:0:
64,192,4673,1,4,0:0:0:0:
192,192,4673,1,0,0:0:0:0:
448,192,4673,128,0,5302:0:0:0:0:
64,192,4883,1,0,0:0:0:0:
64,192,5093,1,0,0:0:0:0:
64,192,5302,1,4,0:0:0:0:
320,192,5302,1,0,0:0:0:0:
192,192,5372,1,0,0:0:0:0:
320,192,5442,1,0,0:0:0:0:
192,192,5512,1,0,0:0:0:0:
320,192,5582,1,0,0:0:0:0:
192,192,5652,1,0,0:0:0:0:
320,192,5722,1,0,0:0:0:0:
192,192,5792,1,0,0:0:0:0:
320,192,5862,1,0,0:0:0:0:
64,192,6351,128,0,7086:0:0:0:0:
448,192,6404,128,0,7086:0:0:0:0:
64,192,7191,128,2,7505:0:0:0:0:
192,192,7191,1,4,0:0:0:0:
320,192,7191,1,0,0:0:0:0:
448,192,7191,128,0,7505:0:0:0:0:
192,192,7505,1,2,0:0:0:0:
320,192,7505,1,0,0:0:0:0:
64,192,7610,128,8,7715:0:0:0:0:
192,192,7610,1,0,0:0:0:0:
448,192,7610,128,0,7715:0:0:0:0:
192,192,7820,128,2,8030:0:0:0:0:
320,192,7820,128,0,7925:0:0:0:0:
64,192,8030,128,8,8135:0:0:0:0:
320,192,8030,1,0,0:0:0:0:
448,192,8030,128,0,8240:0:0:0:0:
64,192,8240,1,8,0:0:0:0:
192,192,8240,128,0,8449:0:0:0:0:
320,192,8240,128,0,8344:0:0:0:0:
320,192,8449,128,2,8764:0:0:0:0:
448,192,8449,128,0,8764:0:0:0:0:
64,192,8764,1,2,0:0:0:0:
192,192,8764,1,0,0:0:0:0:
64,192,8869,1,8,0:0:0:0:
320,192,8869,128,0,8974:0:0:0:0:
448,192,8869,128,0,8974:0:0:0:0:
64,192,9079,1,2,0:0:0:0:
192,192,9079,1,0,0:0:0:0:
64,192,9184,1,2,0:0:0:0:
192,192,9184,1,0,0:0:0:0:
320,192,9288,1,8,0:0:0:0:
448,192,9288,1,0,0:0:0:0:
320,192,9393,1,2,0:0:0:0:
448,192,9393,1,0,0:0:0:0:
64,192,9498,1,8,0:0:0:0:
192,192,9498,1,0,0:0:0:0:
64,192,9603,1,2,0:0:0:0:
192,192,9603,1,0,0:0:0:0:
320,192,9656,1,2,0:0:0:0:
64,192,9708,128,2,9813:0:0:0:0:
448,192,9708,128,8,9918:0:0:0:0:
64,192,9918,1,2,0:0:0:0:
192,192,9918,128,8,10128:0:0:0:0:
320,192,9918,128,0,10023:0:0:0:0:
320,192,10128,1,0,0:0:0:0:
64,192,10337,128,2,10442:0:0:0:0:
192,192,10337,1,8,0:0:0:0:
448,192,10337,128,0,10547:0:0:0:0:
64,192,10547,1,2,0:0:0:0:
192,192,10547,128,8,10652:0:0:0:0:
320,192,10547,128,0,10757:0:0:0:0:
192,192,10757,1,0,0:0:0:0:
448,192,10809,1,0,0:0:0:0:
64,192,10862,1,0,0:0:0:0:
320,192,10914,1,0,0:0:0:0:
192,192,10967,1,8,0:0:0:0:
448,192,10967,1,2,0:0:0:0:
448,192,11072,1,0,0:0:0:0:
64,192,11177,1,2,0:0:0:0:
320,192,11177,1,8,0:0:0:0:
320,192,11281,1,0,0:0:0:0:
192,192,11386,1,2,0:0:0:0:
448,192,11386,1,8,0:0:0:0:
192,192,11491,1,0,0:0:0:0:
64,192,11596,1,2,0:0:0:0:
320,192,11596,1,8,0:0:0:0:
64,192,11701,1,0,0:0:0:0:
320,192,11806,1,2,0:0:0:0:
448,192,11806,1,8,0:0:0:0:
320,192,11911,1,0,0:0:0:0:
64,192,12016,1,2,0:0:0:0:
192,192,12016,1,8,0:0:0:0:
448,192,12068,1,8,0:0:0:0:
320,192,12121,1,8,0:0:0:0:
192,192,12173,1,8,0:0:0:0:
64,192,12226,128,4,12540:0:0:0:0:
448,192,12226,128,2,12540:0:0:0:0:
192,192,12540,1,2,0:0:0:0:
320,192,12540,1,0,0:0:0:0:
64,192,12645,128,8,12750:0:0:0:0:
320,192,12645,1,0,0:0:0:0:
448,192,12645,128,0,12750:0:0:0:0:
64,192,12855,1,2,0:0:0:0:
192,192,12855,1,0,0:0:0:0:
64,192,12960,1,0,0:0:0:0:
192,192,13065,1,8,0:0:0:0:
448,192,13065,1,0,0:0:0:0:
192,192,13170,1,0,0:0:0:0:
64,192,13274,1,8,0:0:0:0:
320,192,13274,1,0,0:0:0:0:
320,192,13379,1,0,0:0:0:0:
192,192,13484,1,2,0:0:0:0:
448,192,13484,128,0,13694:0:0:0:0:
64,192,13694,1,0,0:0:0:0:
192,192,13694,128,0,13799:0:0:0:0:
320,192,13799,1,2,0:0:0:0:
448,192,13799,1,0,0:0:0:0:
64,192,13904,128,8,14114:0:0:0:0:
192,192,13904,1,0,0:0:0:0:
320,192,13904,1,0,0:0:0:0:
448,192,14009,1,0,0:0:0:0:
192,192,14114,1,2,0:0:0:0:
320,192,14114,1,0,0:0:0:0:
64,192,14219,1,2,0:0:0:0:
448,192,14219,1,0,0:0:0:0:
192,192,14323,1,8,0:0:0:0:
320,192,14323,1,0,0:0:0:0:
320,192,14428,1,2,0:0:0:0:
448,192,14428,1,0,0:0:0:0:
64,192,14533,1,8,0:0:0:0:
192,192,14533,1,0,0:0:0:0:
320,192,14638,1,2,0:0:0:0:
448,192,14638,1,0,0:0:0:0:
192,192,14691,1,2,0:0:0:0:
64,192,14743,128,6,14953:0:0:0:0:
448,192,14743,128,8,15163:0:0:0:0:
320,192,14953,128,0,15163:0:0:0:0:
192,192,15163,128,0,15372:0:0:0:0:
448,192,15268,128,0,15372:0:0:0:0:
64,192,15372,128,4,15792:0:0:0:0:
320,192,15372,128,0,15582:0:0:0:0:
192,192,15582,128,0,15792:0:0:0:0:
320,192,15792,128,0,16002:0:0:0:0:
64,192,16002,1,2,0:0:0:0:
192,192,16002,128,8,16212:0:0:0:0:
448,192,16002,1,0,0:0:0:0:
64,192,16212,1,2,0:0:0:0:
320,192,16212,1,8,0:0:0:0:
448,192,16212,1,0,0:0:0:0:
64,192,16421,1,2,0:0:0:0:
192,192,16421,128,8,16526:0:0:0:0:
448,192,16421,1,0,0:0:0:0:
64,192,16631,1,2,0:0:0:0:
448,192,16631,1,8,0:0:0:0:
192,192,16684,1,8,0:0:0:0:
320,192,16736,1,10,0:0:0:0:
448,192,16788,1,8,0:0:0:0:
192,192,16841,1,10,0:0:0:0:
320,192,16893,1,8,0:0:0:0:
64,192,16946,1,10,0:0:0:0:
192,192,16998,1,8,0:0:0:0:
320,192,17051,1,10,0:0:0:0:
448,192,17103,1,8,0:0:0:0:
192,192,17156,1,10,0:0:0:0:
320,192,17208,1,8,0:0:0:0:
64,192,17261,1,4,0:0:0:0:
448,192,17261,128,2,17470:0:0:0:0:
320,192,17365,128,0,17470:0:0:0:0:
64,192,17470,1,0,0:0:0:0:
64,192,17575,128,2,17890:0:0:0:0:
192,192,17575,1,8,0:0:0:0:
448,192,17575,1,0,0:0:0:0:
192,192,17890,128,2,18100:0:0:0:0:
320,192,17890,128,0,17995:0:0:0:0:
64,192,18100,128,2,18205:0:0:0:0:
320,192,18100,128,8,18309:0:0:0:0:
448,192,18100,1,0,0:0:0:0:
64,192,18309,1,8,0:0:0:0:
192,192,18309,128,2,18519:0:0:0:0:
448,192,18309,128,0,18414:0:0:0:0:
64,192,18519,128,2,18729:0:0:0:0:
448,192,18519,1,0,0:0:0:0:
320,192,18729,128,0,18781:0:0:0:0:
64,192,18834,1,2,0:0:0:0:
320,192,18834,128,8,18886:0:0:0:0:
448,192,18834,1,0,0:0:0:0:
192,192,18939,128,0,18991:0:0:0:0:
192,192,19044,128,0,19096:0:0:0:0:
64,192,19149,128,2,19358:0:0:0:0:
448,192,19149,128,0,19254:0:0:0:0:
192,192,19358,128,2,19463:0:0:0:0:
320,192,19358,1,8,0:0:0:0:
448,192,19358,128,0,19568:0:0:0:0:
64,192,19568,128,8,19778:0:0:0:0:
192,192,19568,1,2,0:0:0:0:
320,192,19568,128,0,19673:0:0:0:0:
192,192,19778,1,4,0:0:0:0:
320,192,19778,1,2,0:0:0:0:
448,192,19778,1,0,0:0:0:0:
64,192,19988,1,0,0:0:0:0:
192,192,19988,1,0,0:0:0:0:
320,192,20058,1,0,0:0:0:0:
64,192,20128,1,0,0:0:0:0:
192,192,20198,1,0,0:0:0:0:
448,192,20198,1,0,0:0:0:0:
320,192,20268,1,0,0:0:0:0:
192,192,20337,1,0,0:0:0:0:
64,192,20407,128,0,20512:0:0:0:0:
448,192,20407,1,0,0:0:0:0:
320,192,20512,1,0,0:0:0:0:
192,192,20617,128,0,20722:0:0:0:0:
448,192,20617,1,0,0:0:0:0:
64,192,20722,1,0,0:0:0:0:
320,192,20827,128,0,20932:0:0:0:0:
448,192,20827,1,0,0:0:0:0:
64,192,21037,1,8,0:0:0:0:
192,192,21037,1,0,0:0:0:0:
448,192,21037,128,0,21142:0:0:0:0:
64,192,21247,1,8,0:0:0:0:
320,192,21247,128,0,21351:0:0:0:0:
448,192,21247,1,0,0:0:0:0:
192,192,21456,128,8,21561:0:0:0:0:
320,192,21456,1,0,0:0:0:0:
448,192,21456,1,0,0:0:0:0:
64,192,21666,1,2,0:0:0:0:
192,192,21666,1,0,0:0:0:0:
64,192,21771,1,2,0:0:0:0:
192,192,21771,1,0,0:0:0:0:
448,192,21876,128,0,22086:0:0:0:0:
64,192,22086,128,8,22295:0:0:0:0:
192,192,22086,1,0,0:0:0:0:
320,192,22086,1,0,0:0:0:0:
192,192,22295,1,4,0:0:0:0:
320,192,22295,128,2,22505:0:0:0:0:
448,192,22295,1,0,0:0:0:0:
64,192,22400,128,0,22505:0:0:0:0:
448,192,22505,1,0,0:0:0:0:
64,192,22610,1,8,0:0:0:0:
192,192,22610,1,0,0:0:0:0:
448,192,22610,128,0,22925:0:0:0:0:
64,192,22925,128,2,23030:0:0:0:0:
192,192,22925,128,0,23135:0:0:0:0:
64,192,23135,1,2,0:0:0:0:
320,192,23135,128,8,23240:0:0:0:0:
448,192,23135,128,0,23344:0:0:0:0:
64,192,23344,128,2,23449:0:0:0:0:
192,192,23344,128,8,23554:0:0:0:0:
320,192,23344,1,0,0:0:0:0:
64,192,23554,1,2,0:0:0:0:
448,192,23554,1,0,0:0:0:0:
192,192,23659,128,0,23712:0:0:0:0:
192,192,23764,128,0,23816:0:0:0:0:
64,192,23869,1,2,0:0:0:0:
320,192,23869,1,8,0:0:0:0:
448,192,23869,1,0,0:0:0:0:
192,192,23974,128,0,24026:0:0:0:0:
192,192,24079,128,0,24131:0:0:0:0:
64,192,24184,128,2,24393:0:0:0:0:
320,192,24184,128,0,24288:0:0:0:0:
192,192,24393,1,8,0:0:0:0:
320,192,24393,1,0,0:0:0:0:
448,192,24393,1,0,0:0:0:0:
320,192,24498,1,8,0:0:0:0:
448,192,24498,1,0,0:0:0:0:
64,192,24603,128,8,24813:0:0:0:0:
192,192,24603,128,0,24708:0:0:0:0:
192,192,24813,1,4,0:0:0:0:
320,192,24813,128,2,24918:0:0:0:0:
448,192,24813,128,0,24918:0:0:0:0:
64,192,25023,128,0,25093:0:0:0:0:
448,192,25023,1,0,0:0:0:0:
192,192,25093,128,0,25163:0:0:0:0:
320,192,25163,128,0,25233:0:0:0:0:
64,192,25233,128,0,25302:0:0:0:0:
448,192,25233,128,0,25302:0:0:0:0:
192,192,25302,128,0,25372:0:0:0:0:
320,192,25372,128,0,25442:0:0:0:0:
64,192,25442,128,0,25652:0:0:0:0:
448,192,25442,1,0,0:0:0:0:
192,192,25652,128,0,25862:0:0:0:0:
320,192,25652,1,0,0:0:0:0:
64,192,25862,1,0,0:0:0:0:
320,192,25862,128,0,26072:0:0:0:0:
192,192,26072,1,8,0:0:0:0:
448,192,26072,1,0,0:0:0:0:
448,192,26177,1,0,0:0:0:0:
64,192,26281,1,8,0:0:0:0:
320,192,26281,1,0,0:0:0:0:
320,192,26386,1,0,0:0:0:0:
64,192,26491,1,8,0:0:0:0:
192,192,26491,1,0,0:0:0:0:
192,192,26596,1,0,0:0:0:0:
320,192,26701,1,2,0:0:0:0:
448,192,26701,1,0,0:0:0:0:
64,192,26806,1,2,0:0:0:0:
192,192,26806,1,0,0:0:0:0:
320,192,26911,1,8,0:0:0:0:
448,192,26911,1,0,0:0:0:0:
64,192,27016,1,2,0:0:0:0:
448,192,27016,1,0,0:0:0:0:
192,192,27121,1,8,0:0:0:0:
320,192,27121,1,0,0:0:0:0:
64,192,27226,1,8,0:0:0:0:
448,192,27226,1,0,0:0:0:0:
64,192,27330,1,8,0:0:0:0:
192,192,27330,1,4,0:0:0:0:
320,192,27330,1,2,0:0:0:0:
192,192,27750,1,0,0:0:0:0:
320,192,27960,1,0,0:0:0:0:
448,192,27960,1,0,0:0:0:0:
192,192,28170,1,0,0:0:0:0:
448,192,28379,1,0,0:0:0:0:
64,192,28589,1,2,0:0:0:0:
320,192,28589,1,0,0:0:0:0:
192,192,28799,1,0,0:0:0:0:
320,192,28904,1,2,0:0:0:0:
448,192,28904,1,0,0:0:0:0:
64,192,29009,1,2,0:0:0:0:
192,192,29009,1,0,0:0:0:0:
192,192,29114,1,0,0:0:0:0:
64,192,29219,1,0,0:0:0:0:
448,192,29219,1,0,0:0:0:0:
320,192,29428,1,0,0:0:0:0:
192,192,29533,1,0,0:0:0:0:
448,192,29638,1,0,0:0:0:0:
64,192,29848,128,0,30740:0:0:0:0:
320,192,29848,1,0,0:0:0:0:
320,192,30740,128,0,30949:0:0:0:0:
192,192,30949,128,0,31107:0:0:0:0:
64,192,31107,1,0,0:0:0:0:
448,192,31107,1,0,0:0:0:0:
192,192,31212,1,0,0:0:0:0:
448,192,31316,1,0,0:0:0:0:
320,192,31421,1,0,0:0:0:0:
64,192,31526,1,0,0:0:0:0:
192,192,31631,1,0,0:0:0:0:
64,192,31736,128,0,31806:0:0:0:0:
448,192,31736,1,0,0:0:0:0:
192,192,31806,128,0,31876:0:0:0:0:
448,192,31876,128,0,31946:0:0:0:0:
64,192,31946,128,0,32016:0:0:0:0:
320,192,32016,128,0,32086:0:0:0:0:
448,192,32086,128,0,32156:0:0:0:0:
64,192,32156,128,0,32226:0:0:0:0:
192,192,32226,128,0,32295:0:0:0:0:
320,192,32295,128,0,32365:0:0:0:0:
64,192,32365,1,2,0:0:0:0:
192,192,32365,1,4,0:0:0:0:
448,192,32365,1,0,0:0:0:0:
192,192,32575,1,0,0:0:0:0:
64,192,32785,128,0,32995:0:0:0:0:
320,192,32785,1,0,0:0:0:0:
192,192,32995,128,8,33205:0:0:0:0:
448,192,32995,1,0,0:0:0:0:
64,192,33100,128,0,33205:0:0:0:0:
320,192,33205,128,0,33414:0:0:0:0:
192,192,33309,128,0,33414:0:0:0:0:
448,192,33414,128,0,33624:0:0:0:0:
320,192,33519,128,0,33624:0:0:0:0:
64,192,33624,128,2,33939:0:0:0:0:
192,192,33624,128,0,33834:0:0:0:0:
448,192,33834,1,0,0:0:0:0:
192,192,33939,1,2,0:0:0:0:
320,192,33939,1,0,0:0:0:0:
448,192,34044,128,0,34254:0:0:0:0:
64,192,34254,1,8,0:0:0:0:
192,192,34254,128,0,34883:0:0:0:0:
320,192,34254,1,0,0:0:0:0:
448,192,34463,1,0,0:0:0:0:
64,192,34673,128,0,34883:0:0:0:0:
320,192,34883,1,2,0:0:0:0:
448,192,34883,128,0,35093:0:0:0:0:
192,192,35093,1,0,0:0:0:0:
64,192,35302,1,0,0:0:0:0:
448,192,35355,1,0,0:0:0:0:
64,192,35407,1,0,0:0:0:0:
448,192,35460,1,0,0:0:0:0:
64,192,35512,1,2,0:0:0:0:
192,192,35512,128,0,35722:0:0:0:0:
320,192,35722,128,0,35932:0:0:0:0:
448,192,35932,1,0,0:0:0:0:
64,192,35984,1,0,0:0:0:0:
448,192,36037,1,0,0:0:0:0:
64,192,36089,1,0,0:0:0:0:
320,192,36142,1,2,0:0:0:0:
448,192,36142,128,0,36561:0:0:0:0:
64,192,36351,1,2,0:0:0:0:
192,192,36351,1,0,0:0:0:0:
320,192,36561,1,0,0:0:0:0:
64,192,36771,1,8,0:0:0:0:
192,192,36771,128,0,36981:0:0:0:0:
448,192,36771,1,0,0:0:0:0:
64,192,36981,128,0,37086:0:0:0:0:
320,192,36981,1,0,0:0:0:0:
192,192,37191,128,0,37295:0:0:0:0:
448,192,37191,1,0,0:0:0:0:
64,192,37400,1,4,0:0:0:0:
320,192,37400,128,2,37610:0:0:0:0:
448,192,37400,1,0,0:0:0:0:
64,192,37610,1,0,0:0:0:0:
448,192,37680,1,0,0:0:0:0:
192,192,37715,1,2,0:0:0:0:
320,192,37715,1,0,0:0:0:0:
64,192,37750,1,0,0:0:0:0:
320,192,37820,1,8,0:0:0:0:
448,192,37820,1,0,0:0:0:0:
64,192,37925,1,0,0:0:0:0:
320,192,38030,1,2,0:0:0:0:
448,192,38030,128,0,38240:0:0:0:0:
192,192,38135,128,0,38240:0:0:0:0:
64,192,38240,1,8,0:0:0:0:
320,192,38240,128,0,38449:0:0:0:0:
448,192,38344,128,0,38449:0:0:0:0:
64,192,38449,1,8,0:0:0:0:
192,192,38449,128,0,38659:0:0:0:0:
320,192,38554,128,0,38659:0:0:0:0:
64,192,38659,128,2,38869:0:0:0:0:
448,192,38659,1,0,0:0:0:0:
192,192,38869,1,0,0:0:0:0:
320,192,38974,1,2,0:0:0:0:
448,192,38974,1,0,0:0:0:0:
64,192,39079,128,8,39288:0:0:0:0:
192,192,39079,1,0,0:0:0:0:
448,192,39079,1,0,0:0:0:0:
320,192,39288,1,2,0:0:0:0:
448,192,39288,1,0,0:0:0:0:
320,192,39393,1,2,0:0:0:0:
448,192,39393,1,0,0:0:0:0:
64,192,39498,1,8,0:0:0:0:
192,192,39498,1,0,0:0:0:0:
320,192,39603,1,2,0:0:0:0:
448,192,39603,1,0,0:0:0:0:
64,192,39708,1,8,0:0:0:0:
192,192,39708,1,0,0:0:0:0:
320,192,39813,1,2,0:0:0:0:
448,192,39813,1,0,0:0:0:0:
192,192,39865,1,2,0:0:0:0:
64,192,39918,128,2,40233:0:0:0:0:
448,192,39918,1,0,0:0:0:0:
448,192,40128,128,0,40233:0:0:0:0:
192,192,40233,1,2,0:0:0:0:
320,192,40233,1,0,0:0:0:0:
64,192,40337,128,8,40547:0:0:0:0:
320,192,40337,1,0,0:0:0:0:
448,192,40337,1,0,0:0:0:0:
192,192,40547,1,2,0:0:0:0:
448,192,40547,1,0,0:0:0:0:
320,192,40617,1,0,0:0:0:0:
448,192,40687,1,0,0:0:0:0:
64,192,40757,1,8,0:0:0:0:
320,192,40757,1,0,0:0:0:0:
192,192,40827,1,0,0:0:0:0:
64,192,40897,1,0,0:0:0:0:
192,192,40967,1,8,0:0:0:0:
448,192,40967,1,0,0:0:0:0:
320,192,41037,1,0,0:0:0:0:
448,192,41107,1,0,0:0:0:0:
64,192,41177,128,2,41491:0:0:0:0:
320,192,41177,1,0,0:0:0:0:
192,192,41386,128,0,41491:0:0:0:0:
320,192,41491,1,2,0:0:0:0:
448,192,41491,1,0,0:0:0:0:
64,192,41596,1,8,0:0:0:0:
192,192,41596,1,0,0:0:0:0:
448,192,41596,128,0,41806:0:0:0:0:
64,192,41806,1,2,0:0:0:0:
192,192,41806,1,0,0:0:0:0:
64,192,41911,1,2,0:0:0:0:
192,192,41911,1,0,0:0:0:0:
320,192,42016,1,8,0:0:0:0:
448,192,42016,1,0,0:0:0:0:
64,192,42121,1,2,0:0:0:0:
192,192,42121,1,0,0:0:0:0:
64,192,42226,1,8,0:0:0:0:
448,192,42226,1,0,0:0:0:0:
192,192,42330,1,2,0:0:0:0:
320,192,42330,1,0,0:0:0:0:
64,192,42435,128,2,42540:0:0:0:0:
320,192,42435,1,0,0:0:0:0:
448,192,42540,1,0,0:0:0:0:
192,192,42645,128,0,42750:0:0:0:0:
64,192,42750,1,2,0:0:0:0:
448,192,42750,1,0,0:0:0:0:
192,192,42855,1,8,0:0:0:0:
320,192,42855,128,0,42960:0:0:0:0:
64,192,42960,1,0,0:0:0:0:
320,192,43065,1,2,0:0:0:0:
448,192,43065,128,0,43170:0:0:0:0:
192,192,43170,1,0,0:0:0:0:
64,192,43274,128,8,43379:0:0:0:0:
320,192,43274,1,0,0:0:0:0:
448,192,43274,1,0,0:0:0:0:
192,192,43379,1,0,0:0:0:0:
448,192,43484,128,0,43589:0:0:0:0:
320,192,43589,1,0,0:0:0:0:
64,192,43694,128,8,43904:0:0:0:0:
192,192,43694,128,2,43904:0:0:0:0:
448,192,43694,128,0,43904:0:0:0:0:
192,192,44009,128,2,44219:0:0:0:0:
320,192,44009,128,8,44219:0:0:0:0:
448,192,44009,128,0,44219:0:0:0:0:
64,192,44323,1,2,0:0:0:0:
192,192,44323,1,0,0:0:0:0:
448,192,44323,1,0,0:0:0:0:
64,192,44428,1,2,0:0:0:0:
192,192,44428,1,0,0:0:0:0:
320,192,44533,1,8,0:0:0:0:
448,192,44533,1,0,0:0:0:0:
320,192,44638,1,2,0:0:0:0:
448,192,44638,1,0,0:0:0:0:
64,192,44743,1,8,0:0:0:0:
192,192,44743,1,0,0:0:0:0:
192,192,44848,1,2,0:0:0:0:
320,192,44848,1,0,0:0:0:0:
64,192,44953,1,4,0:0:0:0:
320,192,44953,1,2,0:0:0:0:
448,192,44953,1,0,0:0:0:0:
192,192,45582,1,0,0:0:0:0:
64,192,46212,1,0,0:0:0:0:
320,192,46212,1,0,0:0:0:0:
448,192,46841,1,0,0:0:0:0:
320,192,47051,1,0,0:0:0:0:
192,192,47261,1,0,0:0:0:0:
64,192,47470,1,4,0:0:0:0:
320,192,47470,1,2,0:0:0:0:
448,192,47470,128,0,47785:0:0:0:0:
64,192,47785,128,8,48100:0:0:0:0:
192,192,47785,1,0,0:0:0:0:
320,192,47785,1,0,0:0:0:0:
192,192,48100,1,2,0:0:0:0:
320,192,48100,128,0,48309:0:0:0:0:
64,192,48309,128,0,48519:0:0:0:0:
448,192,48414,1,0,0:0:0:0:
192,192,48519,128,0,48729:0:0:0:0:
320,192,48624,1,0,0:0:0:0:
64,192,48729,1,2,0:0:0:0:
448,192,48729,128,0,48939:0:0:0:0:
64,192,48939,1,8,0:0:0:0:
320,192,48939,1,0,0:0:0:0:
192,192,49009,1,0,0:0:0:0:
320,192,49079,1,0,0:0:0:0:
64,192,49149,1,8,0:0:0:0:
448,192,49149,1,0,0:0:0:0:
192,192,49219,1,0,0:0:0:0:
320,192,49288,1,0,0:0:0:0:
192,192,49358,1,2,0:0:0:0:
448,192,49358,1,0,0:0:0:0:
64,192,49428,1,0,0:0:0:0:
320,192,49498,1,0,0:0:0:0:
64,192,49568,1,8,0:0:0:0:
192,192,49568,1,0,0:0:0:0:
448,192,49638,1,0,0:0:0:0:
192,192,49673,1,2,0:0:0:0:
320,192,49673,1,0,0:0:0:0:
64,192,49708,1,0,0:0:0:0:
448,192,49778,1,0,0:0:0:0:
320,192,49848,1,0,0:0:0:0:
192,192,49918,1,0,0:0:0:0:
64,192,49988,1,2,0:0:0:0:
448,192,49988,1,0,0:0:0:0:
192,192,50093,1,2,0:0:0:0:
320,192,50093,1,0,0:0:0:0:
64,192,50198,1,8,0:0:0:0:
448,192,50198,1,0,0:0:0:0:
448,192,50302,1,0,0:0:0:0:
192,192,50407,1,8,0:0:0:0:
320,192,50407,1,0,0:0:0:0:
192,192,50512,1,0,0:0:0:0:
320,192,50617,1,2,0:0:0:0:
448,192,50617,1,0,0:0:0:0:
64,192,50687,1,0,0:0:0:0:
192,192,50722,1,2,0:0:0:0:
320,192,50722,1,0,0:0:0:0:
448,192,50757,1,0,0:0:0:0:
64,192,50827,1,8,0:0:0:0:
192,192,50827,1,0,0:0:0:0:
320,192,50897,1,0,0:0:0:0:
448,192,50967,1,0,0:0:0:0:
64,192,51037,1,0,0:0:0:0:
192,192,51107,1,0,0:0:0:0:
320,192,51177,1,0,0:0:0:0:
64,192,51247,1,2,0:0:0:0:
448,192,51247,1,8,0:0:0:0:
192,192,51351,1,8,0:0:0:0:
320,192,51351,1,0,0:0:0:0:
192,192,51456,1,8,0:0:0:0:
448,192,51456,1,0,0:0:0:0:
64,192,51561,1,8,0:0:0:0:
320,192,51561,1,0,0:0:0:0:
64,192,51666,1,8,0:0:0:0:
192,192,51666,1,0,0:0:0:0:
320,192,51771,1,8,0:0:0:0:
448,192,51771,1,0,0:0:0:0:
64,192,51876,1,8,0:0:0:0:
192,192,51876,1,0,0:0:0:0:
320,192,51928,1,8,0:0:0:0:
448,192,51981,1,8,0:0:0:0:
64,192,52033,1,8,0:0:0:0:
192,192,52086,1,8,0:0:0:0:
448,192,52138,1,8,0:0:0:0:
64,192,52191,1,8,0:0:0:0:
320,192,52243,1,8,0:0:0:0:
448,192,52295,1,8,0:0:0:0:
64,192,52348,1,8,0:0:0:0:
192,192,52400,1,8,0:0:0:0:
320,192,52453,1,8,0:0:0:0:
192,192,52820,128,0,53135:0:0:0:0:
320,192,52925,128,0,53135:0:0:0:0:
448,192,53030,128,0,53135:0:0:0:0:
64,192,53135,1,0,0:0:0:0:
192,192,53205,1,0,0:0:0:0:
320,192,53274,1,0,0:0:0:0:
448,192,53344,1,0,0:0:0:0:
192,192,53414,1,0,0:0:0:0:
320,192,53484,1,0,0:0:0:0:
64,192,53554,1,0,0:0:0:0:
192,192,53624,1,0,0:0:0:0:
320,192,53694,1,0,0:0:0:0:
64,192,53764,1,2,0:0:0:0:
192,192,53764,128,4,54079:0:0:0:0:
448,192,53764,128,0,54079:0:0:0:0:
64,192,54079,1,2,0:0:0:0:
320,192,54079,1,0,0:0:0:0:
64,192,54184,1,8,0:0:0:0:
192,192,54184,128,0,54288:0:0:0:0:
448,192,54184,128,0,54288:0:0:0:0:
64,192,54393,128,2,54603:0:0:0:0:
320,192,54393,128,0,54498:0:0:0:0:
192,192,54603,128,8,54708:0:0:0:0:
320,192,54603,1,0,0:0:0:0:
448,192,54603,128,0,54813:0:0:0:0:
64,192,54813,128,8,55023:0:0:0:0:
192,192,54813,1,0,0:0:0:0:
320,192,54813,128,0,54918:0:0:0:0:
320,192,55023,128,2,55337:0:0:0:0:
448,192,55023,128,0,55337:0:0:0:0:
64,192,55337,1,2,0:0:0:0:
192,192,55337,1,0,0:0:0:0:
64,192,55442,1,8,0:0:0:0:
320,192,55442,128,0,55547:0:0:0:0:
448,192,55442,128,0,55547:0:0:0:0:
64,192,55652,1,2,0:0:0:0:
192,192,55652,1,0,0:0:0:0:
64,192,55757,1,2,0:0:0:0:
192,192,55757,1,0,0:0:0:0:
320,192,55862,1,8,0:0:0:0:
448,192,55862,1,0,0:0:0:0:
320,192,55967,1,2,0:0:0:0:
448,192,55967,1,0,0:0:0:0:
64,192,56072,1,8,0:0:0:0:
192,192,56072,1,0,0:0:0:0:
64,192,56177,1,2,0:0:0:0:
192,192,56177,1,0,0:0:0:0:
320,192,56229,1,2,0:0:0:0:
64,192,56281,128,2,56386:0:0:0:0:
448,192,56281,128,8,56491:0:0:0:0:
64,192,56491,1,2,0:0:0:0:
192,192,56491,128,8,56701:0:0:0:0:
320,192,56491,128,0,56596:0:0:0:0:
320,192,56701,1,0,0:0:0:0:
64,192,56911,1,2,0:0:0:0:
192,192,56911,128,8,57016:0:0:0:0:
448,192,56911,128,0,57121:0:0:0:0:
64,192,57121,128,2,57330:0:0:0:0:
192,192,57121,1,8,0:0:0:0:
320,192,57121,128,0,57226:0:0:0:0:
320,192,57330,1,0,0:0:0:0:
448,192,57383,1,0,0:0:0:0:
192,192,57435,1,0,0:0:0:0:
320,192,57488,1,0,0:0:0:0:
64,192,57540,1,8,0:0:0:0:
448,192,57540,1,2,0:0:0:0:
448,192,57645,1,0,0:0:0:0:
64,192,57750,1,2,0:0:0:0:
320,192,57750,1,8,0:0:0:0:
320,192,57855,1,0,0:0:0:0:
192,192,57960,1,2,0:0:0:0:
448,192,57960,1,8,0:0:0:0:
192,192,58065,1,0,0:0:0:0:
64,192,58170,1,2,0:0:0:0:
320,192,58170,1,8,0:0:0:0:
64,192,58274,1,0,0:0:0:0:
320,192,58379,1,2,0:0:0:0:
448,192,58379,1,8,0:0:0:0:
448,192,58484,1,0,0:0:0:0:
64,192,58589,1,2,0:0:0:0:
320,192,58589,1,8,0:0:0:0:
448,192,58642,1,8,0:0:0:0:
192,192,58694,1,8,0:0:0:0:
320,192,58747,1,8,0:0:0:0:
64,192,58799,128,4,59114:0:0:0:0:
448,192,58799,128,2,59114:0:0:0:0:
192,192,59114,1,2,0:0:0:0:
320,192,59114,1,0,0:0:0:0:
64,192,59219,128,8,59323:0:0:0:0:
320,192,59219,1,0,0:0:0:0:
448,192,59219,128,0,59323:0:0:0:0:
192,192,59428,1,2,0:0:0:0:
320,192,59428,1,0,0:0:0:0:
192,192,59533,1,0,0:0:0:0:
320,192,59638,1,8,0:0:0:0:
448,192,59638,1,0,0:0:0:0:
320,192,59743,1,0,0:0:0:0:
64,192,59848,1,8,0:0:0:0:
448,192,59848,1,0,0:0:0:0:
64,192,59953,1,0,0:0:0:0:
320,192,60058,1,2,0:0:0:0:
448,192,60058,128,0,60268:0:0:0:0:
64,192,60268,1,0,0:0:0:0:
192,192,60268,128,0,60372:0:0:0:0:
320,192,60372,1,2,0:0:0:0:
448,192,60372,1,0,0:0:0:0:
64,192,60477,128,8,60687:0:0:0:0:
192,192,60477,1,0,0:0:0:0:
448,192,60477,128,0,60582:0:0:0:0:
192,192,60687,1,2,0:0:0:0:
448,192,60687,1,0,0:0:0:0:
64,192,60792,1,2,0:0:0:0:
320,192,60792,1,0,0:0:0:0:
192,192,60897,1,8,0:0:0:0:
448,192,60897,1,0,0:0:0:0:
320,192,61002,1,2,0:0:0:0:
448,192,61002,1,0,0:0:0:0:
64,192,61107,1,8,0:0:0:0:
192,192,61107,1,0,0:0:0:0:
320,192,61212,1,2,0:0:0:0:
448,192,61212,1,0,0:0:0:0:
192,192,61264,1,2,0:0:0:0:
64,192,61316,1,6,0:0:0:0:
448,192,61316,128,8,61526:0:0:0:0:
192,192,61526,128,0,61736:0:0:0:0:
64,192,61736,128,0,61946:0:0:0:0:
320,192,61841,128,0,61946:0:0:0:0:
192,192,61946,128,4,62365:0:0:0:0:
448,192,61946,128,0,62156:0:0:0:0:
64,192,62156,128,0,62365:0:0:0:0:
320,192,62365,128,0,62575:0:0:0:0:
64,192,62575,1,8,0:0:0:0:
192,192,62575,1,2,0:0:0:0:
448,192,62575,1,0,0:0:0:0:
320,192,62645,1,0,0:0:0:0:
192,192,62715,1,0,0:0:0:0:
64,192,62785,1,2,0:0:0:0:
320,192,62785,1,8,0:0:0:0:
448,192,62855,1,0,0:0:0:0:
192,192,62925,1,0,0:0:0:0:
320,192,62995,1,2,0:0:0:0:
448,192,62995,1,8,0:0:0:0:
64,192,63047,1,0,0:0:0:0:
192,192,63100,1,0,0:0:0:0:
320,192,63152,1,0,0:0:0:0:
64,192,63205,1,2,0:0:0:0:
448,192,63205,1,8,0:0:0:0:
192,192,63309,1,2,0:0:0:0:
320,192,63309,1,0,0:0:0:0:
320,192,63414,1,2,0:0:0:0:
448,192,63414,1,8,0:0:0:0:
64,192,63519,1,2,0:0:0:0:
192,192,63519,1,0,0:0:0:0:
320,192,63624,1,8,0:0:0:0:
448,192,63624,1,2,0:0:0:0:
64,192,63677,1,8,0:0:0:0:
192,192,63729,1,8,0:0:0:0:
320,192,63781,1,8,0:0:0:0:
64,192,63834,128,4,64149:0:0:0:0:
448,192,63834,128,2,64149:0:0:0:0:
448,192,64254,128,0,64358:0:0:0:0:
64,192,64463,128,4,64568:0:0:0:0:
192,192,64463,128,2,64568:0:0:0:0:
448,192,64673,128,0,64778:0:0:0:0:
64,192,64883,128,0,64988:0:0:0:0:
192,192,65093,1,4,0:0:0:0:
320,192,65093,128,2,65407:0:0:0:0:
448,192,65093,128,0,65407:0:0:0:0:
320,192,65512,128,0,65617:0:0:0:0:
64,192,65722,1,4,0:0:0:0:
192,192,65722,1,2,0:0:0:0:
64,192,65827,1,2,0:0:0:0:
192,192,65827,1,0,0:0:0:0:
320,192,65932,1,8,0:0:0:0:
448,192,65932,1,0,0:0:0:0:
320,192,66037,1,2,0:0:0:0:
448,192,66037,1,0,0:0:0:0:
64,192,66142,1,8,0:0:0:0:
192,192,66142,1,0,0:0:0:0:
64,192,66247,1,2,0:0:0:0:
192,192,66247,1,0,0:0:0:0:
320,192,66299,1,2,0:0:0:0:
64,192,66351,128,4,66456:0:0:0:0:
448,192,66351,128,2,66561:0:0:0:0:
64,192,66561,1,2,0:0:0:0:
192,192,66561,128,8,66771:0:0:0:0:
320,192,66561,128,0,66666:0:0:0:0:
320,192,66771,1,0,0:0:0:0:
64,192,66981,128,2,67086:0:0:0:0:
192,192,66981,1,8,0:0:0:0:
448,192,66981,128,0,67191:0:0:0:0:
64,192,67191,1,2,0:0:0:0:
192,192,67191,128,8,67400:0:0:0:0:
320,192,67191,128,0,67295:0:0:0:0:
320,192,67400,1,0,0:0:0:0:
448,192,67453,1,0,0:0:0:0:
64,192,67505,1,0,0:0:0:0:
192,192,67558,1,0,0:0:0:0:
320,192,67610,1,8,0:0:0:0:
448,192,67610,1,2,0:0:0:0:
320,192,67715,1,0,0:0:0:0:
64,192,67820,1,2,0:0:0:0:
192,192,67820,1,8,0:0:0:0:
192,192,67925,1,0,0:0:0:0:
320,192,68030,1,2,0:0:0:0:
448,192,68030,1,8,0:0:0:0:
448,192,68135,1,0,0:0:0:0:
64,192,68240,1,2,0:0:0:0:
320,192,68240,1,8,0:0:0:0:
64,192,68344,1,0,0:0:0:0:
192,192,68449,1,2,0:0:0:0:
448,192,68449,1,8,0:0:0:0:
192,192,68554,1,0,0:0:0:0:
64,192,68659,1,2,0:0:0:0:
320,192,68659,1,8,0:0:0:0:
448,192,68712,1,8,0:0:0:0:
192,192,68764,1,8,0:0:0:0:
320,192,68816,1,8,0:0:0:0:
64,192,68869,128,4,69184:0:0:0:0:
448,192,68869,128,2,69079:0:0:0:0:
320,192,69079,1,0,0:0:0:0:
192,192,69184,1,2,0:0:0:0:
448,192,69184,1,0,0:0:0:0:
64,192,69288,128,8,69393:0:0:0:0:
320,192,69288,128,0,69498:0:0:0:0:
448,192,69288,1,0,0:0:0:0:
64,192,69498,1,2,0:0:0:0:
192,192,69498,1,0,0:0:0:0:
448,192,69568,1,0,0:0:0:0:
192,192,69638,1,0,0:0:0:0:
64,192,69708,1,8,0:0:0:0:
320,192,69708,1,0,0:0:0:0:
448,192,69778,1,0,0:0:0:0:
64,192,69848,1,0,0:0:0:0:
192,192,69918,1,8,0:0:0:0:
448,192,69918,1,0,0:0:0:0:
320,192,69988,1,0,0:0:0:0:
192,192,70058,1,0,0:0:0:0:
64,192,70128,128,2,70233:0:0:0:0:
448,192,70128,128,0,70337:0:0:0:0:
64,192,70337,1,0,0:0:0:0:
192,192,70337,128,0,70442:0:0:0:0:
320,192,70442,1,2,0:0:0:0:
448,192,70442,1,0,0:0:0:0:
64,192,70547,128,8,70757:0:0:0:0:
192,192,70547,1,0,0:0:0:0:
448,192,70547,128,0,70652:0:0:0:0:
192,192,70757,1,2,0:0:0:0:
320,192,70757,1,0,0:0:0:0:
64,192,70862,1,2,0:0:0:0:
448,192,70862,1,0,0:0:0:0:
192,192,70967,1,8,0:0:0:0:
320,192,70967,1,0,0:0:0:0:
64,192,71072,1,2,0:0:0:0:
192,192,71072,1,0,0:0:0:0:
320,192,71177,1,8,0:0:0:0:
448,192,71177,1,0,0:0:0:0:
64,192,71281,1,2,0:0:0:0:
192,192,71281,1,0,0:0:0:0:
320,192,71334,1,2,0:0:0:0:
64,192,71386,128,4,72016:0:0:0:0:
448,192,71386,128,2,71596:0:0:0:0:
192,192,71596,128,0,71806:0:0:0:0:
448,192,71806,128,0,71911:0:0:0:0:
320,192,71911,128,0,72016:0:0:0:0:
192,192,72016,1,4,0:0:0:0:
448,192,72016,1,0,0:0:0:0:
64,192,72068,1,0,0:0:0:0:
320,192,72121,1,0,0:0:0:0:
448,192,72173,1,0,0:0:0:0:
192,192,72226,1,0,0:0:0:0:
64,192,72278,1,0,0:0:0:0:
320,192,72330,1,0,0:0:0:0:
448,192,72383,1,0,0:0:0:0:
192,192,72435,1,0,0:0:0:0:
64,192,72488,1,0,0:0:0:0:
320,192,72540,1,0,0:0:0:0:
448,192,72593,1,0,0:0:0:0:
64,192,72645,1,2,0:0:0:0:
192,192,72645,1,8,0:0:0:0:
320,192,72750,1,8,0:0:0:0:
448,192,72750,1,0,0:0:0:0:
192,192,72855,1,8,0:0:0:0:
448,192,72855,1,0,0:0:0:0:
64,192,72960,1,8,0:0:0:0:
320,192,72960,1,0,0:0:0:0:
64,192,73065,1,8,0:0:0:0:
448,192,73065,1,0,0:0:0:0:
192,192,73170,1,8,0:0:0:0:
320,192,73170,1,0,0:0:0:0:
64,192,73274,1,8,0:0:0:0:
448,192,73274,1,0,0:0:0:0:
192,192,73327,1,8,0:0:0:0:
320,192,73379,1,8,0:0:0:0:
448,192,73432,1,8,0:0:0:0:
192,192,73484,1,8,0:0:0:0:
64,192,73537,1,8,0:0:0:0:
320,192,73589,1,8,0:0:0:0:
192,192,73642,1,8,0:0:0:0:
448,192,73694,1,8,0:0:0:0:
320,192,73747,1,8,0:0:0:0:
64,192,73799,1,8,0:0:0:0:
192,192,73851,1,8,0:0:0:0:
320,192,73904,1,4,0:0:0:0:
448,192,73904,1,2,0:0:0:0:
64,192,73974,1,0,0:0:0:0:
448,192,74044,1,0,0:0:0:0:
192,192,74114,1,0,0:0:0:0:
320,192,74184,1,0,0:0:0:0:
64,192,74254,1,0,0:0:0:0:
448,192,74323,1,0,0:0:0:0:
192,192,74393,1,0,0:0:0:0:
320,192,74463,1,0,0:0:0:0:
64,192,74533,1,0,0:0:0:0:
192,192,74533,1,0,0:0:0:0:
448,192,74603,1,0,0:0:0:0:
320,192,74673,1,0,0:0:0:0:
64,192,74743,1,0,0:0:0:0:
192,192,74813,1,0,0:0:0:0:
448,192,74883,1,0,0:0:0:0:
64,192,74953,1,0,0:0:0:0:
192,192,75023,1,0,0:0:0:0:
320,192,75093,1,0,0:0:0:0:
448,192,75163,1,0,0:0:0:0:
320,192,75215,1,0,0:0:0:0:
192,192,75268,1,0,0:0:0:0:
64,192,75320,1,0,0:0:0:0:
448,192,75372,1,0,0:0:0:0:
320,192,75425,1,0,0:0:0:0:
64,192,75477,1,0,0:0:0:0:
192,192,75530,1,0,0:0:0:0:
320,192,75582,1,0,0:0:0:0:
448,192,75635,1,0,0:0:0:0:
64,192,75687,1,0,0:0:0:0:
192,192,75740,1,0,0:0:0:0:
448,192,75792,1,0,0:0:0:0:
320,192,75844,1,0,0:0:0:0:
192,192,75897,1,0,0:0:0:0:
64,192,75949,1,0,0:0:0:0:
448,192,76002,1,0,0:0:0:0:
320,192,76054,1,0,0:0:0:0:
64,192,76107,1,0,0:0:0:0:
192,192,76159,1,0,0:0:0:0:
320,192,76212,1,0,0:0:0:0:
448,192,76264,1,0,0:0:0:0:
192,192,76316,1,0,0:0:0:0:
320,192,76369,1,0,0:0:0:0:
64,192,76421,128,12,76526:0:0:0:0:
448,192,76421,128,2,76631:0:0:0:0:
64,192,76631,1,2,0:0:0:0:
192,192,76631,128,8,76841:0:0:0:0:
320,192,76631,128,0,76736:0:0:0:0:
320,192,76841,1,0,0:0:0:0:
64,192,77051,1,2,0:0:0:0:
192,192,77051,128,8,77156:0:0:0:0:
448,192,77051,128,0,77261:0:0:0:0:
64,192,77261,128,2,77470:0:0:0:0:
192,192,77261,1,8,0:0:0:0:
320,192,77261,128,0,77365:0:0:0:0:
320,192,77470,128,0,77680:0:0:0:0:
192,192,77575,128,0,77680:0:0:0:0:
64,192,77680,1,2,0:0:0:0:
448,192,77680,1,8,0:0:0:0:
320,192,77750,1,0,0:0:0:0:
192,192,77820,1,0,0:0:0:0:
64,192,77890,1,2,0:0:0:0:
320,192,77890,1,8,0:0:0:0:
448,192,77960,1,0,0:0:0:0:
64,192,78030,1,0,0:0:0:0:
192,192,78100,1,2,0:0:0:0:
448,192,78100,1,8,0:0:0:0:
320,192,78170,1,0,0:0:0:0:
192,192,78240,1,0,0:0:0:0:
64,192,78309,1,2,0:0:0:0:
320,192,78309,1,8,0:0:0:0:
448,192,78379,1,0,0:0:0:0:
192,192,78449,1,0,0:0:0:0:
320,192,78519,1,2,0:0:0:0:
448,192,78519,1,8,0:0:0:0:
64,192,78589,1,0,0:0:0:0:
320,192,78659,1,0,0:0:0:0:
64,192,78729,1,2,0:0:0:0:
192,192,78729,1,8,0:0:0:0:
448,192,78781,1,8,0:0:0:0:
320,192,78834,1,8,0:0:0:0:
192,192,78886,1,8,0:0:0:0:
64,192,78939,128,4,79149:0:0:0:0:
448,192,78939,128,2,79044:0:0:0:0:
448,192,79149,1,0,0:0:0:0:
64,192,79219,1,0,0:0:0:0:
192,192,79254,1,2,0:0:0:0:
320,192,79254,1,0,0:0:0:0:
448,192,79288,1,0,0:0:0:0:
64,192,79358,1,8,0:0:0:0:
192,192,79358,1,0,0:0:0:0:
320,192,79428,1,0,0:0:0:0:
64,192,79498,1,0,0:0:0:0:
192,192,79568,1,2,0:0:0:0:
448,192,79568,1,0,0:0:0:0:
320,192,79638,1,0,0:0:0:0:
192,192,79708,1,0,0:0:0:0:
64,192,79778,128,8,79883:0:0:0:0:
320,192,79778,1,0,0:0:0:0:
448,192,79778,128,0,79988:0:0:0:0:
64,192,79988,1,8,0:0:0:0:
320,192,79988,1,0,0:0:0:0:
192,192,80058,1,0,0:0:0:0:
320,192,80128,1,0,0:0:0:0:
64,192,80198,128,2,80407:0:0:0:0:
448,192,80198,128,0,80302:0:0:0:0:
320,192,80407,1,0,0:0:0:0:
448,192,80407,128,0,80512:0:0:0:0:
64,192,80512,1,2,0:0:0:0:
192,192,80512,1,0,0:0:0:0:
64,192,80617,1,8,0:0:0:0:
320,192,80617,128,0,80722:0:0:0:0:
448,192,80617,128,0,80827:0:0:0:0:
192,192,80722,128,0,80827:0:0:0:0:
64,192,80827,1,2,0:0:0:0:
320,192,80827,1,0,0:0:0:0:
192,192,80932,1,2,0:0:0:0:
448,192,80932,1,0,0:0:0:0:
192,192,81037,1,8,0:0:0:0:
320,192,81037,1,0,0:0:0:0:
64,192,81142,1,2,0:0:0:0:
448,192,81142,1,0,0:0:0:0:
320,192,81247,1,8,0:0:0:0:
448,192,81247,1,0,0:0:0:0:
64,192,81351,1,2,0:0:0:0:
192,192,81351,1,0,0:0:0:0:
320,192,81404,1,2,0:0:0:0:
64,192,81456,128,4,81666:0:0:0:0:
448,192,81456,128,2,81561:0:0:0:0:
448,192,81666,1,0,0:0:0:0:
320,192,81719,1,0,0:0:0:0:
192,192,81771,1,0,0:0:0:0:
64,192,81823,1,0,0:0:0:0:
320,192,81876,1,0,0:0:0:0:
192,192,81928,1,0,0:0:0:0:
448,192,81981,1,0,0:0:0:0:
320,192,82033,1,0,0:0:0:0:
64,192,82086,1,4,0:0:0:0:
192,192,82086,1,0,0:0:0:0:
320,192,82138,1,0,0:0:0:0:
448,192,82191,1,0,0:0:0:0:
192,192,82243,1,0,0:0:0:0:
320,192,82295,1,0,0:0:0:0:
64,192,82348,1,0,0:0:0:0:
448,192,82400,1,0,0:0:0:0:
192,192,82453,1,0,0:0:0:0:
64,192,82505,1,0,0:0:0:0:
320,192,82558,1,0,0:0:0:0:
192,192,82610,1,0,0:0:0:0:
448,192,82663,1,0,0:0:0:0:
64,192,82715,1,2,0:0:0:0:
320,192,82715,1,0,0:0:0:0:
192,192,82820,1,8,0:0:0:0:
192,192,82925,1,8,0:0:0:0:
64,192,83030,1,2,0:0:0:0:
448,192,83030,1,0,0:0:0:0:
320,192,83135,1,8,0:0:0:0:
320,192,83240,1,8,0:0:0:0:
64,192,83344,1,2,0:0:0:0:
192,192,83344,1,0,0:0:0:0:
448,192,83449,1,8,0:0:0:0:
448,192,83554,1,8,0:0:0:0:
64,192,83659,1,2,0:0:0:0:
320,192,83659,1,0,0:0:0:0:
192,192,83764,1,8,0:0:0:0:
448,192,83764,1,0,0:0:0:0:
64,192,83816,1,8,0:0:0:0:
320,192,83869,1,8,0:0:0:0:
192,192,83921,1,8,0:0:0:0:
64,192,83974,128,4,84603:0:0:0:0:
448,192,83974,1,2,0:0:0:0:
320,192,84603,1,2,0:0:0:0:
448,192,84603,1,0,0:0:0:0:
192,192,84673,1,0,0:0:0:0:
64,192,84743,1,0,0:0:0:0:
448,192,84813,1,0,0:0:0:0:
320,192,84883,1,0,0:0:0:0:
64,192,84953,1,0,0:0:0:0:
448,192,85023,1,0,0:0:0:0:
320,192,85093,1,0,0:0:0:0:
192,192,85163,1,0,0:0:0:0:
64,192,85233,1,4,0:0:0:0:
320,192,85233,128,2,85337:0:0:0:0:
448,192,85233,1,0,0:0:0:0:
192,192,85337,1,0,0:0:0:0:
448,192,85442,128,0,85547:0:0:0:0:
64,192,85547,1,0,0:0:0:0:
192,192,85652,128,0,85862:0:0:0:0:
320,192,85862,1,4,0:0:0:0:
448,192,85862,1,2,0:0:0:0:
64,192,85967,1,2,0:0:0:0:
192,192,85967,1,0,0:0:0:0:
320,192,86072,1,8,0:0:0:0:
448,192,86072,1,0,0:0:0:0:
192,192,86177,1,2,0:0:0:0:
320,192,86177,1,0,0:0:0:0:
64,192,86281,1,8,0:0:0:0:
192,192,86281,1,0,0:0:0:0:
64,192,86386,1,2,0:0:0:0:
448,192,86386,1,0,0:0:0:0:
192,192,86491,1,8,0:0:0:0:
320,192,86491,1,4,0:0:0:0:
448,192,86491,1,2,0:0:0:0:
192,192,86596,1,0,0:0:0:0:
320,192,86701,1,2,0:0:0:0:
448,192,86701,1,8,0:0:0:0:
320,192,86806,1,0,0:0:0:0:
64,192,86911,1,0,0:0:0:0:
448,192,86911,1,0,0:0:0:0:
192,192,86981,1,0,0:0:0:0:
320,192,87051,1,0,0:0:0:0:
64,192,87121,1,2,0:0:0:0:
448,192,87121,1,8,0:0:0:0:
64,192,87226,1,0,0:0:0:0:
320,192,87330,1,2,0:0:0:0:
448,192,87330,1,8,0:0:0:0:
448,192,87435,1,0,0:0:0:0:
64,192,87540,128,0,87750:0:0:0:0:
192,192,87645,128,0,87750:0:0:0:0:
320,192,87750,1,8,0:0:0:0:
448,192,87750,1,2,0:0:0:0:
64,192,87820,1,0,0:0:0:0:
320,192,87890,1,0,0:0:0:0:
192,192,87960,1,2,0:0:0:0:
448,192,87960,1,8,0:0:0:0:
64,192,88030,1,0,0:0:0:0:
448,192,88100,1,0,0:0:0:0:
64,192,88170,1,2,0:0:0:0:
320,192,88170,1,8,0:0:0:0:
192,192,88240,1,0,0:0:0:0:
448,192,88309,1,0,0:0:0:0:
64,192,88379,1,2,0:0:0:0:
192,192,88379,1,8,0:0:0:0:
320,192,88449,1,0,0:0:0:0:
64,192,88519,1,0,0:0:0:0:
192,192,88589,1,2,0:0:0:0:
448,192,88589,1,8,0:0:0:0:
320,192,88659,1,0,0:0:0:0:
64,192,88729,1,0,0:0:0:0:
320,192,88799,1,2,0:0:0:0:
448,192,88799,1,8,0:0:0:0:
192,192,88851,1,8,0:0:0:0:
64,192,88904,1,8,0:0:0:0:
320,192,88956,1,8,0:0:0:0:
192,192,89009,1,4,0:0:0:0:
448,192,89009,1,2,0:0:0:0:
448,192,89226,1,0,0:0:0:0:
448,192,89443,1,0,0:0:0:0:
448,192,89661,1,0,0:0:0:0:
320,192,89719,1,0,0:0:0:0:
192,192,89778,1,0,0:0:0:0:
64,192,89836,1,0,0:0:0:0:
320,192,89895,1,0,0:0:0:0:
192,192,89953,1,0,0:0:0:0:
448,192,90012,1,0,0:0:0:0:
320,192,90071,1,0,0:0:0:0:
64,192,90129,1,0,0:0:0:0:
192,192,90188,1,0,0:0:0:0:
320,192,90246,1,0,0:0:0:0:
64,192,90305,1,0,0:0:0:0:
192,192,90364,1,0,0:0:0:0:
448,192,90364,1,0,0:0:0:0:
64,192,90629,1,0,0:0:0:0:
192,192,90662,1,0,0:0:0:0:
320,192,90894,1,0,0:0:0:0:
64,192,91159,1,0,0:0:0:0:
192,192,91197,1,0,0:0:0:0:
320,192,91273,1,0,0:0:0:0:
448,192,91312,1,0,0:0:0:0:
192,192,91516,1,0,0:0:0:0:
448,192,91618,1,0,0:0:0:0:
64,192,91732,1,0,0:0:0:0:
320,192,91771,1,0,0:0:0:0:
448,192,91873,1,0,0:0:0:0:
64,192,91924,1,0,0:0:0:0:
192,192,91975,1,0,0:0:0:0:
320,192,92026,1,0,0:0:0:0:
448,192,92077,128,0,93340:0:0:0:0:
64,192,92995,1,0,0:0:0:0:
192,192,93034,1,0,0:0:0:0:
64,192,93340,128,0,93646:0:0:0:0:
320,192,93646,128,0,93919:0:0:0:0:
64,192,93919,1,4,0:0:0:0:
192,192,93919,128,2,94338:0:0:0:0:
448,192,93919,128,0,94128:0:0:0:0:
320,192,94128,128,0,94338:0:0:0:0:
448,192,94338,128,0,94548:0:0:0:0:
64,192,94443,128,0,94548:0:0:0:0:
192,192,94548,128,4,94967:0:0:0:0:
320,192,94548,128,0,94758:0:0:0:0:
64,192,94758,128,0,94967:0:0:0:0:
320,192,94967,128,0,95177:0:0:0:0:
64,192,95177,1,2,0:0:0:0:
192,192,95177,128,8,95282:0:0:0:0:
448,192,95177,128,0,95387:0:0:0:0:
64,192,95387,128,2,95597:0:0:0:0:
192,192,95387,1,8,0:0:0:0:
320,192,95387,1,0,0:0:0:0:
192,192,95597,128,2,95702:0:0:0:0:
320,192,95597,128,8,95807:0:0:0:0:
448,192,95597,1,0,0:0:0:0:
64,192,95807,1,2,0:0:0:0:
192,192,95807,1,8,0:0:0:0:
448,192,95807,1,0,0:0:0:0:
320,192,95859,1,0,0:0:0:0:
192,192,95912,1,10,0:0:0:0:
64,192,95964,1,0,0:0:0:0:
320,192,96016,1,10,0:0:0:0:
448,192,96069,1,0,0:0:0:0:
64,192,96121,1,10,0:0:0:0:
192,192,96174,1,0,0:0:0:0:
448,192,96226,1,10,0:0:0:0:
64,192,96279,1,0,0:0:0:0:
192,192,96331,1,10,0:0:0:0:
320,192,96384,1,0,0:0:0:0:
64,192,96436,1,4,0:0:0:0:
448,192,96436,1,2,0:0:0:0:
320,192,96506,1,0,0:0:0:0:
192,192,96576,1,0,0:0:0:0:
448,192,96646,1,0,0:0:0:0:
320,192,96716,1,0,0:0:0:0:
64,192,96786,1,0,0:0:0:0:
448,192,96856,1,0,0:0:0:0:
192,192,96925,1,0,0:0:0:0:
64,192,96995,1,0,0:0:0:0:
320,192,97065,1,8,0:0:0:0:
448,192,97065,1,2,0:0:0:0:
192,192,97135,1,0,0:0:0:0:
64,192,97205,1,0,0:0:0:0:
448,192,97275,1,0,0:0:0:0:
320,192,97345,1,0,0:0:0:0:
64,192,97415,1,0,0:0:0:0:
192,192,97485,1,0,0:0:0:0:
448,192,97555,1,0,0:0:0:0:
64,192,97625,1,0,0:0:0:0:
192,192,97695,1,4,0:0:0:0:
320,192,97695,1,2,0:0:0:0:
448,192,97695,128,0,98324:0:0:0:0:
320,192,97905,1,0,0:0:0:0:
192,192,98009,1,0,0:0:0:0:
64,192,98114,128,0,98324:0:0:0:0:
192,192,98324,1,2,0:0:0:0:
320,192,98324,1,8,0:0:0:0:
448,192,98377,1,8,0:0:0:0:
64,192,98429,1,10,0:0:0:0:
192,192,98481,1,8,0:0:0:0:
448,192,98534,1,10,0:0:0:0:
320,192,98586,1,8,0:0:0:0:
192,192,98639,1,10,0:0:0:0:
448,192,98691,1,8,0:0:0:0:
64,192,98744,1,10,0:0:0:0:
192,192,98796,1,8,0:0:0:0:
320,192,98849,1,10,0:0:0:0:
64,192,98901,1,8,0:0:0:0:
192,192,98953,1,4,0:0:0:0:
448,192,98953,1,2,0:0:0:0:
64,192,99049,1,0,0:0:0:0:
320,192,99145,1,0,0:0:0:0:
64,192,99241,1,0,0:0:0:0:
192,192,99337,1,0,0:0:0:0:
320,192,99433,1,0,0:0:0:0:
64,192,99529,1,2,0:0:0:0:
448,192,99529,1,0,0:0:0:0:
192,192,99626,1,0,0:0:0:0:
448,192,99722,1,0,0:0:0:0:
64,192,99818,1,0,0:0:0:0:
192,192,99914,1,0,0:0:0:0:
320,192,100010,1,0,0:0:0:0:
192,192,100106,1,2,0:0:0:0:
448,192,100106,1,0,0:0:0:0:
64,192,100203,1,0,0:0:0:0:
320,192,100299,1,0,0:0:0:0:
192,192,100395,1,0,0:0:0:0:
448,192,100491,1,0,0:0:0:0:
64,192,100587,1,0,0:0:0:0:
320,192,100683,1,2,0:0:0:0:
448,192,100683,1,0,0:0:0:0:
192,192,100779,1,0,0:0:0:0:
448,192,100876,1,0,0:0:0:0:
64,192,100972,1,0,0:0:0:0:
320,192,101068,1,0,0:0:0:0:
448,192,101164,1,0,0:0:0:0:
64,192,101260,1,0,0:0:0:0:
192,192,101317,1,0,0:0:0:0:
320,192,101375,1,0,0:0:0:0:
64,192,101433,1,0,0:0:0:0:
192,192,101490,1,0,0:0:0:0:
448,192,101548,1,0,0:0:0:0:
320,192,101606,1,0,0:0:0:0:
192,192,101663,1,0,0:0:0:0:
64,192,101721,1,0,0:0:0:0:
320,192,101779,1,0,0:0:0:0:
192,192,101836,1,0,0:0:0:0:
448,192,101894,1,0,0:0:0:0:
64,192,101952,1,0,0:0:0:0:
192,192,102010,1,0,0:0:0:0:
320,192,102067,1,0,0:0:0:0:
448,192,102125,1,0,0:0:0:0:
192,192,102183,1,0,0:0:0:0:
64,192,102240,1,0,0:0:0:0:
320,192,102298,1,0,0:0:0:0:
192,192,102356,1,0,0:0:0:0:
64,192,102413,1,0,0:0:0:0:
320,192,102471,1,0,0:0:0:0:
448,192,102529,1,0,0:0:0:0:
64,192,102587,1,0,0:0:0:0:
192,192,102644,1,0,0:0:0:0:
448,192,102702,1,0,0:0:0:0:
320,192,102760,1,0,0:0:0:0:
64,192,102817,1,0,0:0:0:0:
448,192,102875,1,0,0:0:0:0:
192,192,102933,1,0,0:0:0:0:
64,192,102990,1,0,0:0:0:0:
320,192,103048,1,0,0:0:0:0:
448,192,103106,1,0,0:0:0:0:
192,192,103164,1,0,0:0:0:0:
320,192,103221,1,0,0:0:0:0:
448,192,103279,1,0,0:0:0:0:
192,192,103337,1,0,0:0:0:0:
64,192,103394,1,0,0:0:0:0:
320,192,103452,1,0,0:0:0:0:
192,192,103510,1,0,0:0:0:0:
64,192,103564,1,0,0:0:0:0:
448,192,103564,128,0,103852:0:0:0:0:
64,192,103852,1,0,0:0:0:0:
192,192,103924,1,0,0:0:0:0:
320,192,103996,1,0,0:0:0:0:
64,192,104068,1,0,0:0:0:0:
448,192,104140,1,0,0:0:0:0:
192,192,104213,1,0,0:0:0:0:
320,192,104285,1,0,0:0:0:0:
64,192,104357,1,0,0:0:0:0:
448,192,104429,1,0,0:0:0:0:
320,192,104501,1,0,0:0:0:0:
64,192,104573,1,0,0:0:0:0:
192,192,104645,1,0,0:0:0:0:
320,192,104717,1,8,0:0:0:0:
448,192,104717,1,2,0:0:0:0:
64,192,105006,1,0,0:0:0:0:
192,192,105006,1,0,0:0:0:0:
320,192,105078,1,0,0:0:0:0:
448,192,105078,1,0,0:0:0:0:
64,192,105150,1,0,0:0:0:0:
192,192,105150,1,0,0:0:0:0:
320,192,105222,1,0,0:0:0:0:
64,192,105294,1,4,0:0:0:0:
192,192,105294,1,2,0:0:0:0:
448,192,105294,1,0,0:0:0:0:
