osu file format v14

[General]
AudioFilename: audio.mp3
AudioLeadIn: 0
PreviewTime: 53712
Countdown: 0
SampleSet: Soft
StackLeniency: 0.7
Mode: 3
LetterboxInBreaks: 0
SpecialStyle: 0
WidescreenStoryboard: 1

[Editor]
Bookmarks: 878,7172,17242,27311,32346,44934,53745,63815,73885,81437,83955,88990,93900,98934,103545,105275
DistanceSpacing: 0.8
BeatDivisor: 8
GridSize: 16
TimelineZoom: 2.1

[Metadata]
Title:Fly Like You
TitleUnicode:Fly Like You
Artist:technoplanet
ArtistUnicode:technoplanet
Creator:UnluckyCroco
Version:ADVANCED
Source:SOUND VOLTEX IV HEAVENLY HAVEN
Tags:-mint- qqqant sdvx 4 KONAMI RASIS 旋律世界 KeppSado Scotty ΩDimension BEMANI senritsu sekai electronic instrumental video game 3 III GRAVITY WARS コナステ's REGULAR
BeatmapID:2315115
BeatmapSetID:1107384

[Difficulty]
HPDrainRate:7.5
CircleSize:4
OverallDifficulty:7.5
ApproachRate:5
SliderMultiplier:1.4
SliderTickRate:1

[Events]
//Background and Video events
0,0,"croco.jpg",0,0
//Break Periods
//Storyboard Layer 0 (Background)
//Storyboard Layer 1 (Fail)
//Storyboard Layer 2 (Pass)
//Storyboard Layer 3 (Foreground)
//Storyboard Layer 4 (Overlay)
//Storyboard Sound Samples

[TimingPoints]
268,209.79020979021,3,2,1,50,1,0
7191,-100,3,2,1,60,0,0
27383,-100,3,2,1,40,0,0
32365,-100,3,2,1,60,0,0
53764,-100,3,2,1,60,0,1
63834,-100,3,2,1,60,0,0
66351,-100,3,2,1,60,0,1
72645,-100,3,2,1,60,0,0
73974,-100,3,2,1,50,0,0
76421,-100,3,2,1,60,0,1
81456,-100,3,2,1,60,0,0
83974,-100,3,2,1,60,0,1
89009,217.391304347826,3,2,1,55,1,0
89009,-97.0873786407767,3,2,1,55,0,0
89661,234.375,3,2,1,50,1,0
89661,-89.2857142857143,3,2,1,50,0,0
90364,265.486725663717,3,2,1,45,1,0
90364,-78.7401574803149,3,2,1,45,0,0
91159,306.122448979592,3,2,1,40,1,0
91159,-68.4931506849315,3,2,1,40,0,0
93919,209.79020979021,3,2,1,60,1,1
98953,288.461538461538,2,2,1,50,1,0
98953,-72.7272727272727,2,2,1,50,0,0
103564,288.461538461538,2,2,1,40,1,0
103564,-72.463768115942,4,2,1,40,0,0

[HitObjects]
192,192,582,128,0,687:0:0:0:0:
448,192,687,128,0,792:0:0:0:0:
64,192,792,128,0,897:0:0:0:0:
192,192,897,1,4,0:0:0:0:
320,192,897,128,2,1002:0:0:0:0:
448,192,897,1,0,0:0:0:0:
64,192,1107,128,0,1212:0:0:0:0:
448,192,1316,1,0,0:0:0:0:
320,192,1421,1,0,0:0:0:0:
192,192,1526,128,0,1631:0:0:0:0:
64,192,1736,128,0,1841:0:0:0:0:
320,192,1946,128,0,2051:0:0:0:0:
192,192,2156,1,0,0:0:0:0:
320,192,2156,128,0,2470:0:0:0:0:
320,192,2575,128,0,2680:0:0:0:0:
64,192,2785,128,0,2890:0:0:0:0:
448,192,2785,1,0,0:0:0:0:
192,192,2995,128,0,3100:0:0:0:0:
320,192,2995,1,0,0:0:0:0:
64,192,3205,1,0,0:0:0:0:
320,192,3205,128,0,3309:0:0:0:0:
64,192,3414,1,2,0:0:0:0:
192,192,3414,1,4,0:0:0:0:
448,192,3414,128,0,3624:0:0:0:0:
192,192,3624,128,0,3834:0:0:0:0:
320,192,3834,128,0,4044:0:0:0:0:
64,192,3939,128,0,4044:0:0:0:0:
192,192,4044,128,0,4254:0:0:0:0:
320,192,4254,128,0,4463:0:0:0:0:
448,192,4463,128,0,4673:0:0:0:0:
64,192,4673,128,4,5302:0:0:0:0:
192,192,4673,1,0,0:0:0:0:
320,192,5302,1,4,0:0:0:0:
448,192,5302,128,0,5862:0:0:0:0:
320,192,6351,128,0,6561:0:0:0:0:
64,192,6561,128,0,7086:0:0:0:0:
192,192,7191,1,2,0:0:0:0:
320,192,7191,1,4,0:0:0:0:
448,192,7191,128,0,7505:0:0:0:0:
64,192,7505,1,2,0:0:0:0:
320,192,7505,1,0,0:0:0:0:
192,192,7610,1,8,0:0:0:0:
448,192,7610,128,0,7715:0:0:0:0:
64,192,7820,128,2,7925:0:0:0:0:
320,192,7820,1,0,0:0:0:0:
192,192,8030,1,8,0:0:0:0:
448,192,8030,128,0,8135:0:0:0:0:
64,192,8240,128,8,8344:0:0:0:0:
320,192,8240,1,0,0:0:0:0:
192,192,8449,128,2,8764:0:0:0:0:
448,192,8449,1,0,0:0:0:0:
64,192,8764,1,2,0:0:0:0:
448,192,8764,1,0,0:0:0:0:
192,192,8869,128,8,8974:0:0:0:0:
320,192,8869,1,0,0:0:0:0:
64,192,9079,1,2,0:0:0:0:
448,192,9079,1,0,0:0:0:0:
192,192,9184,1,2,0:0:0:0:
64,192,9288,1,8,0:0:0:0:
448,192,9288,1,0,0:0:0:0:
320,192,9393,1,2,0:0:0:0:
64,192,9498,1,8,0:0:0:0:
448,192,9498,1,0,0:0:0:0:
192,192,9603,128,2,9708:0:0:0:0:
64,192,9708,128,2,9918:0:0:0:0:
448,192,9708,1,8,0:0:0:0:
192,192,9918,128,2,10128:0:0:0:0:
320,192,9918,1,8,0:0:0:0:
64,192,10128,1,0,0:0:0:0:
192,192,10337,1,2,0:0:0:0:
448,192,10337,128,8,10547:0:0:0:0:
64,192,10547,1,2,0:0:0:0:
320,192,10547,128,8,10757:0:0:0:0:
448,192,10757,1,0,0:0:0:0:
64,192,10809,1,0,0:0:0:0:
192,192,10862,1,0,0:0:0:0:
320,192,10914,1,0,0:0:0:0:
64,192,10967,1,8,0:0:0:0:
448,192,10967,128,2,11072:0:0:0:0:
192,192,11177,1,2,0:0:0:0:
320,192,11177,128,8,11281:0:0:0:0:
192,192,11386,128,2,11491:0:0:0:0:
448,192,11386,1,8,0:0:0:0:
64,192,11596,128,2,11701:0:0:0:0:
320,192,11596,1,8,0:0:0:0:
320,192,11806,1,2,0:0:0:0:
448,192,11806,128,8,11911:0:0:0:0:
64,192,12016,1,2,0:0:0:0:
192,192,12016,128,8,12226:0:0:0:0:
320,192,12121,128,8,12226:0:0:0:0:
64,192,12226,1,4,0:0:0:0:
448,192,12226,128,2,12540:0:0:0:0:
64,192,12540,1,2,0:0:0:0:
192,192,12540,1,0,0:0:0:0:
320,192,12645,1,8,0:0:0:0:
448,192,12645,128,0,12750:0:0:0:0:
64,192,12855,1,2,0:0:0:0:
320,192,12855,1,0,0:0:0:0:
192,192,12960,1,0,0:0:0:0:
320,192,13065,1,8,0:0:0:0:
448,192,13065,1,0,0:0:0:0:
64,192,13170,1,0,0:0:0:0:
192,192,13274,1,8,0:0:0:0:
448,192,13274,1,0,0:0:0:0:
320,192,13379,1,0,0:0:0:0:
64,192,13484,1,2,0:0:0:0:
192,192,13484,128,0,13694:0:0:0:0:
320,192,13694,1,0,0:0:0:0:
64,192,13799,1,2,0:0:0:0:
448,192,13799,1,0,0:0:0:0:
192,192,13904,1,8,0:0:0:0:
320,192,13904,128,0,14114:0:0:0:0:
64,192,14114,1,2,0:0:0:0:
448,192,14114,1,0,0:0:0:0:
192,192,14219,1,2,0:0:0:0:
320,192,14323,1,8,0:0:0:0:
64,192,14428,1,2,0:0:0:0:
192,192,14428,1,0,0:0:0:0:
448,192,14533,1,8,0:0:0:0:
64,192,14638,128,2,14743:0:0:0:0:
320,192,14743,128,6,14953:0:0:0:0:
448,192,14743,1,8,0:0:0:0:
64,192,14953,128,0,15163:0:0:0:0:
448,192,15163,128,0,15372:0:0:0:0:
192,192,15268,128,0,15372:0:0:0:0:
64,192,15372,1,4,0:0:0:0:
320,192,15372,128,0,15582:0:0:0:0:
192,192,15582,128,0,15792:0:0:0:0:
320,192,15792,128,0,16002:0:0:0:0:
64,192,16002,1,2,0:0:0:0:
448,192,16002,1,8,0:0:0:0:
64,192,16212,1,2,0:0:0:0:
448,192,16212,1,8,0:0:0:0:
192,192,16421,1,2,0:0:0:0:
320,192,16421,1,8,0:0:0:0:
320,192,16631,1,2,0:0:0:0:
448,192,16631,128,8,16841:0:0:0:0:
64,192,16736,128,10,16841:0:0:0:0:
192,192,16841,1,2,0:0:0:0:
320,192,16841,128,8,17051:0:0:0:0:
448,192,16946,128,10,17051:0:0:0:0:
64,192,17051,1,2,0:0:0:0:
192,192,17051,128,8,17261:0:0:0:0:
448,192,17156,128,10,17261:0:0:0:0:
64,192,17261,128,4,17470:0:0:0:0:
320,192,17261,1,2,0:0:0:0:
448,192,17470,1,0,0:0:0:0:
64,192,17575,1,2,0:0:0:0:
192,192,17575,128,8,17890:0:0:0:0:
64,192,17890,128,2,18100:0:0:0:0:
448,192,17890,1,0,0:0:0:0:
192,192,18100,1,2,0:0:0:0:
320,192,18100,128,8,18309:0:0:0:0:
64,192,18309,128,8,18519:0:0:0:0:
448,192,18309,1,2,0:0:0:0:
320,192,18519,1,2,0:0:0:0:
448,192,18519,128,0,18729:0:0:0:0:
64,192,18729,1,0,0:0:0:0:
320,192,18834,1,2,0:0:0:0:
448,192,18834,1,8,0:0:0:0:
64,192,18939,1,0,0:0:0:0:
448,192,19044,1,0,0:0:0:0:
192,192,19149,128,2,19358:0:0:0:0:
320,192,19149,1,0,0:0:0:0:
64,192,19358,1,2,0:0:0:0:
448,192,19358,128,8,19568:0:0:0:0:
192,192,19568,128,8,19778:0:0:0:0:
320,192,19568,1,2,0:0:0:0:
64,192,19778,1,4,0:0:0:0:
320,192,19778,128,2,19988:0:0:0:0:
448,192,19988,1,0,0:0:0:0:
192,192,20058,1,0,0:0:0:0:
320,192,20128,1,0,0:0:0:0:
64,192,20198,1,0,0:0:0:0:
192,192,20268,1,0,0:0:0:0:
320,192,20337,1,0,0:0:0:0:
64,192,20407,128,0,20512:0:0:0:0:
448,192,20407,1,0,0:0:0:0:
192,192,20617,128,0,20722:0:0:0:0:
320,192,20827,128,0,20932:0:0:0:0:
64,192,21037,1,8,0:0:0:0:
448,192,21037,128,0,21142:0:0:0:0:
192,192,21247,1,8,0:0:0:0:
320,192,21247,128,0,21351:0:0:0:0:
64,192,21456,128,8,21561:0:0:0:0:
448,192,21456,1,0,0:0:0:0:
320,192,21666,1,2,0:0:0:0:
448,192,21666,1,0,0:0:0:0:
64,192,21771,1,2,0:0:0:0:
192,192,21771,1,0,0:0:0:0:
448,192,21876,128,0,22086:0:0:0:0:
64,192,22086,128,8,22295:0:0:0:0:
192,192,22086,1,0,0:0:0:0:
192,192,22295,1,4,0:0:0:0:
320,192,22295,128,2,22505:0:0:0:0:
448,192,22295,1,0,0:0:0:0:
64,192,22505,1,0,0:0:0:0:
320,192,22610,1,8,0:0:0:0:
448,192,22610,128,0,22925:0:0:0:0:
64,192,22925,1,2,0:0:0:0:
192,192,22925,128,0,23135:0:0:0:0:
320,192,23135,128,2,23344:0:0:0:0:
448,192,23135,1,8,0:0:0:0:
64,192,23344,1,2,0:0:0:0:
192,192,23344,128,8,23554:0:0:0:0:
320,192,23554,1,2,0:0:0:0:
448,192,23554,1,0,0:0:0:0:
64,192,23659,1,0,0:0:0:0:
192,192,23764,1,0,0:0:0:0:
320,192,23869,1,2,0:0:0:0:
448,192,23869,1,8,0:0:0:0:
64,192,23974,1,0,0:0:0:0:
192,192,24079,1,0,0:0:0:0:
320,192,24184,128,2,24393:0:0:0:0:
448,192,24184,1,0,0:0:0:0:
64,192,24393,1,8,0:0:0:0:
448,192,24393,1,0,0:0:0:0:
192,192,24498,1,8,0:0:0:0:
320,192,24498,1,0,0:0:0:0:
64,192,24603,128,8,24813:0:0:0:0:
448,192,24603,1,0,0:0:0:0:
192,192,24813,128,4,25023:0:0:0:0:
320,192,24813,1,2,0:0:0:0:
64,192,25023,1,0,0:0:0:0:
320,192,25093,1,0,0:0:0:0:
448,192,25163,1,0,0:0:0:0:
192,192,25233,1,0,0:0:0:0:
320,192,25302,1,0,0:0:0:0:
64,192,25372,1,0,0:0:0:0:
192,192,25442,128,0,25652:0:0:0:0:
320,192,25652,128,0,25862:0:0:0:0:
448,192,25862,128,0,26072:0:0:0:0:
64,192,26072,1,8,0:0:0:0:
320,192,26072,128,0,26177:0:0:0:0:
192,192,26281,128,8,26386:0:0:0:0:
448,192,26281,1,0,0:0:0:0:
64,192,26491,128,8,26596:0:0:0:0:
320,192,26491,1,0,0:0:0:0:
192,192,26701,1,2,0:0:0:0:
448,192,26701,1,0,0:0:0:0:
320,192,26806,1,2,0:0:0:0:
64,192,26911,1,8,0:0:0:0:
320,192,27016,1,2,0:0:0:0:
448,192,27016,1,0,0:0:0:0:
192,192,27121,1,8,0:0:0:0:
64,192,27226,1,8,0:0:0:0:
320,192,27330,1,12,0:0:0:0:
448,192,27330,1,2,0:0:0:0:
192,192,27750,1,0,0:0:0:0:
320,192,27960,1,0,0:0:0:0:
64,192,28170,1,0,0:0:0:0:
448,192,28379,1,0,0:0:0:0:
192,192,28589,1,2,0:0:0:0:
320,192,28904,1,2,0:0:0:0:
448,192,29009,1,2,0:0:0:0:
64,192,29114,1,0,0:0:0:0:
192,192,29219,1,0,0:0:0:0:
64,192,29428,1,0,0:0:0:0:
448,192,29638,1,0,0:0:0:0:
192,192,29848,128,0,30740:0:0:0:0:
448,192,30740,128,0,30949:0:0:0:0:
320,192,30949,128,0,31107:0:0:0:0:
64,192,31107,128,0,31316:0:0:0:0:
448,192,31316,128,0,31526:0:0:0:0:
192,192,31526,128,0,31736:0:0:0:0:
64,192,31736,1,0,0:0:0:0:
320,192,31806,1,0,0:0:0:0:
448,192,31876,1,0,0:0:0:0:
64,192,31946,1,0,0:0:0:0:
192,192,32016,1,0,0:0:0:0:
448,192,32086,1,0,0:0:0:0:
64,192,32156,1,0,0:0:0:0:
192,192,32226,1,0,0:0:0:0:
320,192,32295,1,0,0:0:0:0:
64,192,32365,1,2,0:0:0:0:
448,192,32365,1,4,0:0:0:0:
192,192,32575,1,0,0:0:0:0:
320,192,32785,128,0,32995:0:0:0:0:
64,192,32995,1,8,0:0:0:0:
448,192,32995,1,0,0:0:0:0:
320,192,33100,1,0,0:0:0:0:
192,192,33205,1,0,0:0:0:0:
448,192,33309,1,0,0:0:0:0:
320,192,33414,1,0,0:0:0:0:
64,192,33519,1,0,0:0:0:0:
192,192,33624,1,2,0:0:0:0:
448,192,33624,128,0,33939:0:0:0:0:
192,192,33939,1,2,0:0:0:0:
320,192,33939,1,0,0:0:0:0:
64,192,34044,128,0,34254:0:0:0:0:
320,192,34254,128,8,34883:0:0:0:0:
448,192,34254,1,0,0:0:0:0:
192,192,34673,128,0,34883:0:0:0:0:
64,192,34883,128,2,35093:0:0:0:0:
448,192,34883,1,0,0:0:0:0:
320,192,35093,1,0,0:0:0:0:
64,192,35302,1,0,0:0:0:0:
192,192,35355,1,0,0:0:0:0:
320,192,35407,1,0,0:0:0:0:
448,192,35460,1,0,0:0:0:0:
64,192,35512,128,2,35722:0:0:0:0:
192,192,35512,1,0,0:0:0:0:
448,192,35722,128,0,35932:0:0:0:0:
64,192,35932,1,0,0:0:0:0:
192,192,35984,1,0,0:0:0:0:
320,192,36037,1,0,0:0:0:0:
448,192,36089,1,0,0:0:0:0:
64,192,36142,1,2,0:0:0:0:
192,192,36142,128,0,36771:0:0:0:0:
320,192,36351,1,2,0:0:0:0:
448,192,36351,1,0,0:0:0:0:
320,192,36771,1,8,0:0:0:0:
448,192,36771,128,0,36981:0:0:0:0:
64,192,36981,128,0,37086:0:0:0:0:
320,192,37191,128,0,37295:0:0:0:0:
64,192,37400,1,4,0:0:0:0:
192,192,37400,1,2,0:0:0:0:
448,192,37400,128,0,37610:0:0:0:0:
320,192,37610,1,0,0:0:0:0:
64,192,37680,1,0,0:0:0:0:
448,192,37750,1,0,0:0:0:0:
64,192,37820,1,8,0:0:0:0:
192,192,37820,1,0,0:0:0:0:
320,192,37925,1,0,0:0:0:0:
64,192,38030,1,2,0:0:0:0:
448,192,38030,128,0,38135:0:0:0:0:
192,192,38135,1,0,0:0:0:0:
320,192,38240,128,8,38344:0:0:0:0:
448,192,38240,1,0,0:0:0:0:
192,192,38344,1,0,0:0:0:0:
64,192,38449,128,8,38554:0:0:0:0:
320,192,38449,1,0,0:0:0:0:
448,192,38554,1,0,0:0:0:0:
192,192,38659,128,2,38974:0:0:0:0:
320,192,38659,1,0,0:0:0:0:
320,192,38974,1,2,0:0:0:0:
448,192,38974,1,0,0:0:0:0:
64,192,39079,1,8,0:0:0:0:
192,192,39079,128,0,39288:0:0:0:0:
320,192,39288,1,2,0:0:0:0:
448,192,39288,1,0,0:0:0:0:
64,192,39393,1,2,0:0:0:0:
320,192,39498,1,8,0:0:0:0:
448,192,39498,1,0,0:0:0:0:
192,192,39603,1,2,0:0:0:0:
64,192,39708,1,8,0:0:0:0:
448,192,39708,1,0,0:0:0:0:
320,192,39813,128,2,39918:0:0:0:0:
64,192,39918,128,2,40233:0:0:0:0:
448,192,39918,1,0,0:0:0:0:
320,192,40233,1,2,0:0:0:0:
448,192,40233,1,0,0:0:0:0:
64,192,40337,128,8,40547:0:0:0:0:
192,192,40337,1,0,0:0:0:0:
320,192,40547,1,2,0:0:0:0:
448,192,40547,1,0,0:0:0:0:
192,192,40617,1,0,0:0:0:0:
64,192,40687,1,0,0:0:0:0:
448,192,40757,1,8,0:0:0:0:
320,192,40827,1,0,0:0:0:0:
64,192,40897,1,0,0:0:0:0:
448,192,40967,1,8,0:0:0:0:
192,192,41037,1,0,0:0:0:0:
64,192,41107,1,0,0:0:0:0:
320,192,41177,128,2,41491:0:0:0:0:
448,192,41177,1,0,0:0:0:0:
64,192,41491,1,2,0:0:0:0:
192,192,41491,1,0,0:0:0:0:
320,192,41596,128,8,41806:0:0:0:0:
448,192,41596,1,0,0:0:0:0:
64,192,41806,1,2,0:0:0:0:
192,192,41806,1,0,0:0:0:0:
448,192,41911,1,2,0:0:0:0:
192,192,42016,1,8,0:0:0:0:
320,192,42016,1,0,0:0:0:0:
64,192,42121,1,2,0:0:0:0:
320,192,42226,1,8,0:0:0:0:
448,192,42226,1,0,0:0:0:0:
192,192,42330,1,2,0:0:0:0:
64,192,42435,128,2,42540:0:0:0:0:
448,192,42435,1,0,0:0:0:0:
192,192,42645,128,0,42750:0:0:0:0:
64,192,42750,1,2,0:0:0:0:
448,192,42750,1,0,0:0:0:0:
192,192,42855,1,8,0:0:0:0:
320,192,42855,128,0,42960:0:0:0:0:
64,192,43065,1,2,0:0:0:0:
448,192,43065,128,0,43170:0:0:0:0:
192,192,43274,128,8,43379:0:0:0:0:
320,192,43274,1,0,0:0:0:0:
64,192,43484,128,0,43694:0:0:0:0:
192,192,43694,128,8,43904:0:0:0:0:
320,192,43694,1,2,0:0:0:0:
448,192,43694,128,0,43904:0:0:0:0:
64,192,44009,1,2,0:0:0:0:
320,192,44009,128,8,44219:0:0:0:0:
448,192,44009,128,0,44219:0:0:0:0:
64,192,44323,1,2,0:0:0:0:
192,192,44323,1,0,0:0:0:0:
320,192,44428,1,2,0:0:0:0:
64,192,44533,1,8,0:0:0:0:
448,192,44533,1,0,0:0:0:0:
192,192,44638,1,2,0:0:0:0:
320,192,44743,1,8,0:0:0:0:
448,192,44743,1,0,0:0:0:0:
64,192,44848,1,2,0:0:0:0:
192,192,44848,1,0,0:0:0:0:
320,192,44953,1,4,0:0:0:0:
448,192,44953,1,2,0:0:0:0:
192,192,45582,1,0,0:0:0:0:
64,192,46212,1,0,0:0:0:0:
448,192,46841,1,0,0:0:0:0:
320,192,47051,1,0,0:0:0:0:
192,192,47261,1,0,0:0:0:0:
64,192,47470,128,4,48100:0:0:0:0:
320,192,47470,1,2,0:0:0:0:
448,192,47470,1,0,0:0:0:0:
192,192,47785,1,8,0:0:0:0:
320,192,47785,1,0,0:0:0:0:
192,192,48100,1,2,0:0:0:0:
448,192,48100,1,0,0:0:0:0:
320,192,48309,1,0,0:0:0:0:
64,192,48519,1,0,0:0:0:0:
192,192,48729,1,2,0:0:0:0:
448,192,48729,1,0,0:0:0:0:
64,192,48939,1,8,0:0:0:0:
448,192,48939,1,0,0:0:0:0:
192,192,49009,1,0,0:0:0:0:
320,192,49079,1,0,0:0:0:0:
448,192,49149,1,8,0:0:0:0:
192,192,49219,1,0,0:0:0:0:
64,192,49288,1,0,0:0:0:0:
320,192,49358,1,2,0:0:0:0:
192,192,49428,1,0,0:0:0:0:
448,192,49498,1,0,0:0:0:0:
64,192,49568,1,8,0:0:0:0:
320,192,49638,1,0,0:0:0:0:
448,192,49708,1,0,0:0:0:0:
192,192,49778,128,0,49988:0:0:0:0:
64,192,49988,1,2,0:0:0:0:
320,192,49988,1,0,0:0:0:0:
448,192,50093,1,2,0:0:0:0:
64,192,50198,1,8,0:0:0:0:
192,192,50198,1,0,0:0:0:0:
320,192,50302,1,0,0:0:0:0:
192,192,50407,1,8,0:0:0:0:
448,192,50407,1,0,0:0:0:0:
320,192,50512,1,0,0:0:0:0:
64,192,50617,1,2,0:0:0:0:
448,192,50617,1,0,0:0:0:0:
192,192,50687,1,0,0:0:0:0:
320,192,50757,1,0,0:0:0:0:
64,192,50827,1,8,0:0:0:0:
192,192,50897,1,0,0:0:0:0:
448,192,50967,1,0,0:0:0:0:
64,192,51037,1,0,0:0:0:0:
320,192,51107,1,0,0:0:0:0:
448,192,51177,1,0,0:0:0:0:
64,192,51247,1,2,0:0:0:0:
192,192,51247,1,8,0:0:0:0:
320,192,51351,1,8,0:0:0:0:
192,192,51456,1,8,0:0:0:0:
320,192,51561,1,8,0:0:0:0:
192,192,51666,1,8,0:0:0:0:
320,192,51771,1,8,0:0:0:0:
64,192,51876,1,8,0:0:0:0:
192,192,51876,128,0,52086:0:0:0:0:
448,192,51981,128,8,52086:0:0:0:0:
64,192,52086,128,8,52295:0:0:0:0:
320,192,52191,128,8,52295:0:0:0:0:
192,192,52295,128,8,52505:0:0:0:0:
448,192,52400,128,8,52505:0:0:0:0:
64,192,52820,128,0,53135:0:0:0:0:
448,192,53135,128,0,53764:0:0:0:0:
64,192,53764,1,2,0:0:0:0:
192,192,53764,1,4,0:0:0:0:
320,192,53764,128,0,54079:0:0:0:0:
64,192,54079,1,2,0:0:0:0:
448,192,54079,1,0,0:0:0:0:
192,192,54184,1,8,0:0:0:0:
320,192,54184,128,0,54288:0:0:0:0:
64,192,54393,128,2,54498:0:0:0:0:
448,192,54393,1,0,0:0:0:0:
192,192,54603,1,8,0:0:0:0:
320,192,54603,128,0,54708:0:0:0:0:
64,192,54813,128,8,54918:0:0:0:0:
448,192,54813,1,0,0:0:0:0:
192,192,55023,128,2,55337:0:0:0:0:
320,192,55023,1,0,0:0:0:0:
320,192,55337,1,2,0:0:0:0:
448,192,55337,1,0,0:0:0:0:
64,192,55442,1,8,0:0:0:0:
192,192,55442,128,0,55547:0:0:0:0:
64,192,55652,1,2,0:0:0:0:
448,192,55652,1,0,0:0:0:0:
320,192,55757,1,2,0:0:0:0:
64,192,55862,1,8,0:0:0:0:
448,192,55862,1,0,0:0:0:0:
192,192,55967,1,2,0:0:0:0:
64,192,56072,1,8,0:0:0:0:
448,192,56072,1,0,0:0:0:0:
320,192,56177,128,2,56281:0:0:0:0:
64,192,56281,1,2,0:0:0:0:
448,192,56281,128,8,56491:0:0:0:0:
192,192,56491,128,2,56701:0:0:0:0:
320,192,56491,1,8,0:0:0:0:
448,192,56701,1,0,0:0:0:0:
64,192,56911,1,2,0:0:0:0:
320,192,56911,128,8,57121:0:0:0:0:
192,192,57121,128,2,57330:0:0:0:0:
448,192,57121,1,8,0:0:0:0:
320,192,57330,1,0,0:0:0:0:
448,192,57383,1,0,0:0:0:0:
64,192,57435,1,0,0:0:0:0:
192,192,57488,1,0,0:0:0:0:
320,192,57540,1,8,0:0:0:0:
448,192,57540,128,2,57645:0:0:0:0:
64,192,57750,1,2,0:0:0:0:
192,192,57750,128,8,57855:0:0:0:0:
192,192,57960,1,2,0:0:0:0:
320,192,57960,128,8,58065:0:0:0:0:
64,192,58170,128,2,58274:0:0:0:0:
448,192,58170,1,8,0:0:0:0:
192,192,58379,1,2,0:0:0:0:
448,192,58379,128,8,58484:0:0:0:0:
64,192,58589,1,2,0:0:0:0:
320,192,58589,128,8,58799:0:0:0:0:
192,192,58694,128,8,58799:0:0:0:0:
64,192,58799,1,4,0:0:0:0:
448,192,58799,128,2,59114:0:0:0:0:
192,192,59114,1,2,0:0:0:0:
320,192,59114,1,0,0:0:0:0:
64,192,59219,1,8,0:0:0:0:
448,192,59219,128,0,59323:0:0:0:0:
64,192,59428,1,2,0:0:0:0:
192,192,59428,1,0,0:0:0:0:
320,192,59533,1,0,0:0:0:0:
64,192,59638,1,8,0:0:0:0:
448,192,59638,1,0,0:0:0:0:
192,192,59743,1,0,0:0:0:0:
320,192,59848,1,8,0:0:0:0:
448,192,59848,1,0,0:0:0:0:
64,192,59953,1,0,0:0:0:0:
192,192,60058,1,2,0:0:0:0:
320,192,60058,128,0,60268:0:0:0:0:
64,192,60268,1,0,0:0:0:0:
192,192,60372,1,2,0:0:0:0:
448,192,60372,1,0,0:0:0:0:
64,192,60477,128,8,60687:0:0:0:0:
320,192,60477,1,0,0:0:0:0:
192,192,60687,1,2,0:0:0:0:
448,192,60687,1,0,0:0:0:0:
320,192,60792,1,2,0:0:0:0:
192,192,60897,1,8,0:0:0:0:
64,192,61002,1,2,0:0:0:0:
320,192,61002,1,0,0:0:0:0:
448,192,61107,1,8,0:0:0:0:
192,192,61212,128,2,61316:0:0:0:0:
64,192,61316,1,6,0:0:0:0:
320,192,61316,128,8,61526:0:0:0:0:
64,192,61526,128,0,61736:0:0:0:0:
448,192,61736,128,0,61946:0:0:0:0:
192,192,61841,128,0,61946:0:0:0:0:
64,192,61946,128,4,62365:0:0:0:0:
320,192,61946,128,0,62156:0:0:0:0:
192,192,62156,128,0,62365:0:0:0:0:
448,192,62365,128,0,62575:0:0:0:0:
64,192,62575,1,8,0:0:0:0:
192,192,62575,1,2,0:0:0:0:
320,192,62645,1,0,0:0:0:0:
448,192,62715,1,0,0:0:0:0:
64,192,62785,1,10,0:0:0:0:
192,192,62855,1,0,0:0:0:0:
320,192,62925,1,0,0:0:0:0:
448,192,62995,128,10,63205:0:0:0:0:
192,192,63100,128,0,63205:0:0:0:0:
64,192,63205,1,2,0:0:0:0:
320,192,63205,1,8,0:0:0:0:
192,192,63309,1,2,0:0:0:0:
320,192,63414,1,2,0:0:0:0:
448,192,63414,1,8,0:0:0:0:
64,192,63519,1,2,0:0:0:0:
192,192,63624,1,8,0:0:0:0:
320,192,63624,128,2,63834:0:0:0:0:
64,192,63834,1,4,0:0:0:0:
448,192,63834,128,2,64149:0:0:0:0:
448,192,64254,128,0,64358:0:0:0:0:
64,192,64463,128,4,64568:0:0:0:0:
192,192,64463,1,2,0:0:0:0:
448,192,64673,128,0,64778:0:0:0:0:
64,192,64883,128,0,64988:0:0:0:0:
320,192,65093,1,4,0:0:0:0:
448,192,65093,128,2,65407:0:0:0:0:
448,192,65512,128,0,65617:0:0:0:0:
64,192,65722,1,4,0:0:0:0:
192,192,65722,1,2,0:0:0:0:
320,192,65827,1,2,0:0:0:0:
64,192,65932,1,8,0:0:0:0:
448,192,65932,1,0,0:0:0:0:
192,192,66037,1,2,0:0:0:0:
320,192,66142,1,8,0:0:0:0:
448,192,66142,1,0,0:0:0:0:
64,192,66247,128,2,66351:0:0:0:0:
320,192,66351,1,4,0:0:0:0:
448,192,66351,128,2,66561:0:0:0:0:
64,192,66561,128,2,66771:0:0:0:0:
192,192,66561,1,8,0:0:0:0:
448,192,66771,1,0,0:0:0:0:
192,192,66981,1,2,0:0:0:0:
320,192,66981,128,8,67191:0:0:0:0:
64,192,67191,128,2,67400:0:0:0:0:
448,192,67191,1,8,0:0:0:0:
448,192,67400,1,0,0:0:0:0:
320,192,67453,1,0,0:0:0:0:
192,192,67505,1,0,0:0:0:0:
64,192,67558,1,0,0:0:0:0:
320,192,67610,1,8,0:0:0:0:
448,192,67610,128,2,67715:0:0:0:0:
192,192,67820,1,2,0:0:0:0:
320,192,67820,128,8,67925:0:0:0:0:
192,192,68030,128,2,68135:0:0:0:0:
448,192,68030,1,8,0:0:0:0:
64,192,68240,128,2,68344:0:0:0:0:
320,192,68240,1,8,0:0:0:0:
64,192,68449,1,2,0:0:0:0:
192,192,68449,128,8,68554:0:0:0:0:
320,192,68659,1,2,0:0:0:0:
448,192,68659,128,8,68869:0:0:0:0:
64,192,68764,128,8,68869:0:0:0:0:
192,192,68869,128,4,69184:0:0:0:0:
320,192,68869,1,2,0:0:0:0:
320,192,69184,1,2,0:0:0:0:
448,192,69184,1,0,0:0:0:0:
64,192,69288,128,8,69498:0:0:0:0:
192,192,69288,1,0,0:0:0:0:
192,192,69498,1,2,0:0:0:0:
448,192,69498,1,0,0:0:0:0:
320,192,69568,1,0,0:0:0:0:
64,192,69638,1,0,0:0:0:0:
448,192,69708,1,8,0:0:0:0:
192,192,69778,1,0,0:0:0:0:
320,192,69848,1,0,0:0:0:0:
64,192,69918,1,8,0:0:0:0:
192,192,69988,1,0,0:0:0:0:
320,192,70058,1,0,0:0:0:0:
64,192,70128,1,2,0:0:0:0:
448,192,70128,128,0,70337:0:0:0:0:
192,192,70337,128,0,70442:0:0:0:0:
320,192,70442,1,2,0:0:0:0:
448,192,70442,1,0,0:0:0:0:
64,192,70547,128,8,70757:0:0:0:0:
192,192,70547,1,0,0:0:0:0:
320,192,70757,1,2,0:0:0:0:
448,192,70757,1,0,0:0:0:0:
192,192,70862,1,2,0:0:0:0:
448,192,70967,1,8,0:0:0:0:
64,192,71072,1,2,0:0:0:0:
320,192,71072,1,0,0:0:0:0:
192,192,71177,1,8,0:0:0:0:
448,192,71281,128,2,71386:0:0:0:0:
64,192,71386,1,4,0:0:0:0:
320,192,71386,128,2,71491:0:0:0:0:
64,192,71596,128,0,71701:0:0:0:0:
448,192,71806,128,0,71911:0:0:0:0:
192,192,71911,128,0,72016:0:0:0:0:
64,192,72016,1,4,0:0:0:0:
448,192,72016,128,0,72121:0:0:0:0:
320,192,72121,128,0,72226:0:0:0:0:
64,192,72226,128,0,72330:0:0:0:0:
192,192,72330,128,0,72435:0:0:0:0:
448,192,72435,128,0,72540:0:0:0:0:
320,192,72540,128,0,72645:0:0:0:0:
64,192,72645,1,2,0:0:0:0:
192,192,72645,1,8,0:0:0:0:
320,192,72750,1,8,0:0:0:0:
64,192,72855,1,8,0:0:0:0:
448,192,72855,1,0,0:0:0:0:
192,192,72960,1,8,0:0:0:0:
320,192,73065,1,8,0:0:0:0:
448,192,73065,1,0,0:0:0:0:
64,192,73170,1,8,0:0:0:0:
192,192,73274,128,8,73484:0:0:0:0:
448,192,73274,1,0,0:0:0:0:
64,192,73379,128,8,73484:0:0:0:0:
320,192,73484,128,8,73694:0:0:0:0:
192,192,73589,128,8,73694:0:0:0:0:
448,192,73694,128,8,73904:0:0:0:0:
320,192,73799,128,8,73904:0:0:0:0:
64,192,73904,1,4,0:0:0:0:
192,192,73904,1,2,0:0:0:0:
320,192,73974,1,0,0:0:0:0:
448,192,74044,1,0,0:0:0:0:
64,192,74114,1,0,0:0:0:0:
192,192,74184,1,0,0:0:0:0:
320,192,74254,1,0,0:0:0:0:
448,192,74323,1,0,0:0:0:0:
192,192,74393,1,0,0:0:0:0:
320,192,74463,1,0,0:0:0:0:
64,192,74533,1,0,0:0:0:0:
192,192,74603,1,0,0:0:0:0:
448,192,74673,1,0,0:0:0:0:
320,192,74743,1,0,0:0:0:0:
64,192,74813,1,0,0:0:0:0:
192,192,74883,1,0,0:0:0:0:
448,192,74953,1,0,0:0:0:0:
320,192,75023,1,0,0:0:0:0:
64,192,75093,1,0,0:0:0:0:
448,192,75163,128,0,75268:0:0:0:0:
192,192,75268,128,0,75372:0:0:0:0:
320,192,75372,128,0,75477:0:0:0:0:
64,192,75477,128,0,75582:0:0:0:0:
448,192,75582,128,0,75687:0:0:0:0:
320,192,75687,128,0,75792:0:0:0:0:
192,192,75792,128,0,75897:0:0:0:0:
448,192,75897,128,0,76002:0:0:0:0:
64,192,76002,128,0,76107:0:0:0:0:
320,192,76107,128,0,76212:0:0:0:0:
448,192,76212,128,0,76316:0:0:0:0:
192,192,76316,128,0,76421:0:0:0:0:
64,192,76421,1,8,0:0:0:0:
320,192,76421,128,4,76631:0:0:0:0:
448,192,76421,128,2,76631:0:0:0:0:
64,192,76631,128,2,76841:0:0:0:0:
192,192,76631,128,8,76841:0:0:0:0:
320,192,76841,1,0,0:0:0:0:
64,192,77051,128,2,77261:0:0:0:0:
448,192,77051,128,8,77261:0:0:0:0:
192,192,77261,128,2,77470:0:0:0:0:
320,192,77261,128,8,77470:0:0:0:0:
64,192,77470,128,0,77680:0:0:0:0:
192,192,77680,1,2,0:0:0:0:
448,192,77680,1,8,0:0:0:0:
320,192,77750,1,0,0:0:0:0:
64,192,77820,1,0,0:0:0:0:
448,192,77890,1,10,0:0:0:0:
192,192,77960,1,0,0:0:0:0:
64,192,78030,1,0,0:0:0:0:
448,192,78100,1,10,0:0:0:0:
320,192,78170,1,0,0:0:0:0:
192,192,78240,1,0,0:0:0:0:
64,192,78309,1,10,0:0:0:0:
320,192,78379,1,0,0:0:0:0:
448,192,78449,1,0,0:0:0:0:
64,192,78519,1,10,0:0:0:0:
192,192,78589,1,0,0:0:0:0:
320,192,78659,1,0,0:0:0:0:
64,192,78729,128,2,78939:0:0:0:0:
448,192,78729,1,8,0:0:0:0:
192,192,78834,128,8,78939:0:0:0:0:
320,192,78939,1,4,0:0:0:0:
448,192,78939,128,2,79149:0:0:0:0:
192,192,79149,1,0,0:0:0:0:
320,192,79219,1,0,0:0:0:0:
448,192,79288,1,0,0:0:0:0:
64,192,79358,1,8,0:0:0:0:
192,192,79428,1,0,0:0:0:0:
448,192,79498,1,0,0:0:0:0:
64,192,79568,1,2,0:0:0:0:
192,192,79638,1,0,0:0:0:0:
320,192,79708,1,0,0:0:0:0:
64,192,79778,1,8,0:0:0:0:
448,192,79778,128,0,79988:0:0:0:0:
64,192,79988,1,8,0:0:0:0:
192,192,79988,1,0,0:0:0:0:
320,192,80058,1,0,0:0:0:0:
64,192,80128,1,0,0:0:0:0:
192,192,80198,128,2,80407:0:0:0:0:
448,192,80198,1,0,0:0:0:0:
320,192,80407,128,0,80512:0:0:0:0:
64,192,80512,1,2,0:0:0:0:
192,192,80512,1,0,0:0:0:0:
320,192,80617,1,8,0:0:0:0:
448,192,80617,128,0,80827:0:0:0:0:
192,192,80722,128,0,80827:0:0:0:0:
64,192,80827,1,2,0:0:0:0:
320,192,80827,1,0,0:0:0:0:
192,192,80932,1,2,0:0:0:0:
320,192,81037,1,8,0:0:0:0:
448,192,81037,1,0,0:0:0:0:
64,192,81142,1,2,0:0:0:0:
192,192,81247,1,8,0:0:0:0:
320,192,81247,1,0,0:0:0:0:
448,192,81351,128,2,81456:0:0:0:0:
64,192,81456,128,4,81666:0:0:0:0:
192,192,81456,1,2,0:0:0:0:
448,192,81666,128,0,81771:0:0:0:0:
192,192,81771,128,0,81876:0:0:0:0:
320,192,81876,128,0,81981:0:0:0:0:
64,192,81981,128,0,82086:0:0:0:0:
192,192,82086,1,4,0:0:0:0:
448,192,82086,128,0,82191:0:0:0:0:
320,192,82191,128,0,82295:0:0:0:0:
64,192,82295,128,0,82400:0:0:0:0:
448,192,82400,128,0,82505:0:0:0:0:
320,192,82505,128,0,82610:0:0:0:0:
192,192,82610,128,0,82715:0:0:0:0:
64,192,82715,1,2,0:0:0:0:
320,192,82715,1,0,0:0:0:0:
448,192,82820,1,8,0:0:0:0:
64,192,82925,1,8,0:0:0:0:
320,192,83030,1,2,0:0:0:0:
448,192,83030,1,0,0:0:0:0:
192,192,83135,1,8,0:0:0:0:
320,192,83240,1,8,0:0:0:0:
64,192,83344,1,2,0:0:0:0:
448,192,83344,1,0,0:0:0:0:
192,192,83449,1,8,0:0:0:0:
64,192,83554,1,8,0:0:0:0:
320,192,83659,1,2,0:0:0:0:
448,192,83659,1,0,0:0:0:0:
192,192,83764,128,8,83974:0:0:0:0:
320,192,83869,128,8,83974:0:0:0:0:
64,192,83974,128,4,84603:0:0:0:0:
448,192,83974,1,2,0:0:0:0:
320,192,84603,1,2,0:0:0:0:
448,192,84603,1,0,0:0:0:0:
192,192,84673,1,0,0:0:0:0:
64,192,84743,1,0,0:0:0:0:
448,192,84813,1,0,0:0:0:0:
320,192,84883,1,0,0:0:0:0:
64,192,84953,1,0,0:0:0:0:
448,192,85023,1,0,0:0:0:0:
192,192,85093,1,0,0:0:0:0:
64,192,85163,1,0,0:0:0:0:
320,192,85233,1,4,0:0:0:0:
448,192,85233,1,2,0:0:0:0:
192,192,85337,1,0,0:0:0:0:
320,192,85442,1,0,0:0:0:0:
64,192,85547,1,0,0:0:0:0:
448,192,85652,1,0,0:0:0:0:
64,192,85862,1,4,0:0:0:0:
320,192,85862,1,2,0:0:0:0:
192,192,85967,1,2,0:0:0:0:
320,192,86072,1,8,0:0:0:0:
448,192,86072,1,0,0:0:0:0:
64,192,86177,1,2,0:0:0:0:
192,192,86281,1,8,0:0:0:0:
448,192,86281,1,0,0:0:0:0:
320,192,86386,1,2,0:0:0:0:
64,192,86491,128,12,86701:0:0:0:0:
448,192,86491,128,2,86701:0:0:0:0:
192,192,86701,128,2,86911:0:0:0:0:
320,192,86701,128,8,86911:0:0:0:0:
64,192,86911,1,0,0:0:0:0:
448,192,86981,1,0,0:0:0:0:
320,192,87051,1,0,0:0:0:0:
64,192,87121,128,2,87330:0:0:0:0:
192,192,87121,128,8,87330:0:0:0:0:
320,192,87330,128,2,87540:0:0:0:0:
448,192,87330,128,8,87540:0:0:0:0:
64,192,87540,1,0,0:0:0:0:
192,192,87645,1,0,0:0:0:0:
320,192,87750,1,8,0:0:0:0:
448,192,87750,1,2,0:0:0:0:
192,192,87820,1,0,0:0:0:0:
64,192,87890,1,0,0:0:0:0:
448,192,87960,1,10,0:0:0:0:
192,192,88030,1,0,0:0:0:0:
64,192,88100,1,0,0:0:0:0:
448,192,88170,1,10,0:0:0:0:
320,192,88240,1,0,0:0:0:0:
192,192,88309,1,0,0:0:0:0:
64,192,88379,1,10,0:0:0:0:
320,192,88449,1,0,0:0:0:0:
448,192,88519,1,0,0:0:0:0:
64,192,88589,1,10,0:0:0:0:
192,192,88659,1,0,0:0:0:0:
448,192,88729,1,0,0:0:0:0:
64,192,88799,128,2,89009:0:0:0:0:
320,192,88799,1,8,0:0:0:0:
192,192,88904,128,8,89009:0:0:0:0:
320,192,89009,1,4,0:0:0:0:
448,192,89009,1,2,0:0:0:0:
320,192,89226,1,0,0:0:0:0:
320,192,89443,1,0,0:0:0:0:
320,192,89661,128,0,89778:0:0:0:0:
192,192,89778,128,0,89895:0:0:0:0:
448,192,89895,128,0,90012:0:0:0:0:
320,192,90012,128,0,90129:0:0:0:0:
64,192,90129,128,0,90246:0:0:0:0:
192,192,90246,128,0,90364:0:0:0:0:
320,192,90364,1,0,0:0:0:0:
448,192,90364,1,0,0:0:0:0:
64,192,90629,1,0,0:0:0:0:
192,192,90894,1,0,0:0:0:0:
64,192,91197,1,0,0:0:0:0:
448,192,91312,1,0,0:0:0:0:
192,192,91516,128,0,91771:0:0:0:0:
320,192,91771,128,0,92077:0:0:0:0:
448,192,92077,128,0,93340:0:0:0:0:
64,192,92995,1,0,0:0:0:0:
192,192,93034,1,0,0:0:0:0:
64,192,93340,128,0,93646:0:0:0:0:
192,192,93646,128,0,93919:0:0:0:0:
64,192,93919,1,4,0:0:0:0:
320,192,93919,1,2,0:0:0:0:
448,192,93919,128,0,94128:0:0:0:0:
192,192,94128,128,0,94338:0:0:0:0:
64,192,94338,128,0,94548:0:0:0:0:
448,192,94443,128,0,94548:0:0:0:0:
192,192,94548,1,4,0:0:0:0:
320,192,94548,128,0,94758:0:0:0:0:
64,192,94758,128,0,94967:0:0:0:0:
320,192,94967,128,0,95177:0:0:0:0:
192,192,95177,1,2,0:0:0:0:
448,192,95177,128,8,95597:0:0:0:0:
64,192,95387,1,2,0:0:0:0:
320,192,95387,128,8,95597:0:0:0:0:
64,192,95597,128,2,95807:0:0:0:0:
192,192,95597,1,8,0:0:0:0:
192,192,95807,1,2,0:0:0:0:
320,192,95807,128,8,96016:0:0:0:0:
448,192,95912,128,10,96016:0:0:0:0:
64,192,96016,1,2,0:0:0:0:
192,192,96016,128,8,96226:0:0:0:0:
320,192,96121,128,10,96226:0:0:0:0:
64,192,96226,128,8,96436:0:0:0:0:
448,192,96226,1,2,0:0:0:0:
192,192,96331,128,10,96436:0:0:0:0:
320,192,96436,1,4,0:0:0:0:
448,192,96436,1,2,0:0:0:0:
192,192,96506,1,0,0:0:0:0:
64,192,96576,1,0,0:0:0:0:
448,192,96646,1,0,0:0:0:0:
320,192,96716,1,0,0:0:0:0:
64,192,96786,1,0,0:0:0:0:
448,192,96856,1,0,0:0:0:0:
320,192,96925,1,0,0:0:0:0:
192,192,96995,1,0,0:0:0:0:
64,192,97065,1,8,0:0:0:0:
448,192,97065,1,2,0:0:0:0:
320,192,97135,1,0,0:0:0:0:
192,192,97205,1,0,0:0:0:0:
448,192,97275,1,0,0:0:0:0:
320,192,97345,1,0,0:0:0:0:
192,192,97415,1,0,0:0:0:0:
64,192,97485,1,0,0:0:0:0:
320,192,97555,1,0,0:0:0:0:
448,192,97625,1,0,0:0:0:0:
64,192,97695,128,4,98324:0:0:0:0:
192,192,97695,1,2,0:0:0:0:
192,192,98324,1,2,0:0:0:0:
448,192,98324,128,8,98534:0:0:0:0:
320,192,98429,128,10,98534:0:0:0:0:
64,192,98534,128,10,98744:0:0:0:0:
192,192,98639,128,10,98744:0:0:0:0:
448,192,98744,128,10,98953:0:0:0:0:
320,192,98849,128,10,98953:0:0:0:0:
64,192,98953,1,4,0:0:0:0:
192,192,98953,1,2,0:0:0:0:
320,192,99049,1,0,0:0:0:0:
448,192,99145,1,0,0:0:0:0:
64,192,99241,1,0,0:0:0:0:
192,192,99337,1,0,0:0:0:0:
448,192,99433,1,0,0:0:0:0:
64,192,99529,1,2,0:0:0:0:
320,192,99529,1,0,0:0:0:0:
192,192,99626,1,0,0:0:0:0:
448,192,99722,1,0,0:0:0:0:
64,192,99818,1,0,0:0:0:0:
192,192,99914,1,0,0:0:0:0:
320,192,100010,1,0,0:0:0:0:
64,192,100106,1,2,0:0:0:0:
448,192,100106,1,0,0:0:0:0:
192,192,100203,1,0,0:0:0:0:
320,192,100299,1,0,0:0:0:0:
64,192,100395,1,0,0:0:0:0:
192,192,100491,1,0,0:0:0:0:
448,192,100587,1,0,0:0:0:0:
64,192,100683,1,2,0:0:0:0:
320,192,100683,1,0,0:0:0:0:
192,192,100779,1,0,0:0:0:0:
448,192,100876,1,0,0:0:0:0:
64,192,100972,1,0,0:0:0:0:
320,192,101068,1,0,0:0:0:0:
192,192,101164,1,0,0:0:0:0:
64,192,101260,128,0,101549:0:0:0:0:
448,192,101260,1,0,0:0:0:0:
192,192,101549,1,0,0:0:0:0:
320,192,101549,128,0,101837:0:0:0:0:
448,192,101837,128,0,102126:0:0:0:0:
192,192,101837,1,0,0:0:0:0:
64,192,102126,128,0,102414:0:0:0:0:
320,192,102126,1,0,0:0:0:0:
448,192,102414,1,0,0:0:0:0:
320,192,102414,128,0,102703:0:0:0:0:
64,192,102703,128,0,102991:0:0:0:0:
192,192,102703,1,0,0:0:0:0:
448,192,102991,128,0,103279:0:0:0:0:
192,192,102991,1,0,0:0:0:0:
64,192,103279,128,0,103564:0:0:0:0:
320,192,103279,1,0,0:0:0:0:
192,192,103564,1,0,0:0:0:0:
448,192,103564,1,0,0:0:0:0:
64,192,103852,1,0,0:0:0:0:
192,192,103924,1,0,0:0:0:0:
320,192,103996,1,0,0:0:0:0:
64,192,104068,1,0,0:0:0:0:
448,192,104140,1,0,0:0:0:0:
192,192,104213,1,0,0:0:0:0:
320,192,104285,1,0,0:0:0:0:
64,192,104357,1,0,0:0:0:0:
448,192,104429,1,0,0:0:0:0:
320,192,104501,1,0,0:0:0:0:
64,192,104573,1,0,0:0:0:0:
192,192,104645,1,0,0:0:0:0:
320,192,104717,1,8,0:0:0:0:
448,192,104717,1,2,0:0:0:0:
64,192,105006,1,0,0:0:0:0:
448,192,105078,1,0,0:0:0:0:
64,192,105150,1,0,0:0:0:0:
448,192,105222,1,0,0:0:0:0:
64,192,105294,1,4,0:0:0:0:
192,192,105294,1,2,0:0:0:0:
320,192,105294,1,0,0:0:0:0:
