osu file format v14

[General]
AudioFilename: audio.mp3
AudioLeadIn: 0
PreviewTime: 196432
Countdown: 0
SampleSet: Soft
StackLeniency: 0.7
Mode: 3
LetterboxInBreaks: 0
SpecialStyle: 0
WidescreenStoryboard: 1

[Editor]
Bookmarks: 6892,16962,27032,37102,47360,53653,62464,63723,66241,73793,83863,93933,104003,114437,125168,135238,142791,153049,182000,197091,220265
DistanceSpacing: 0.8
BeatDivisor: 7
GridSize: 16
TimelineZoom: 2.600007

[Metadata]
Title:Fly Like You [Long Version]
TitleUnicode:Fly Like You [Long Version]
Artist:technoplanet
ArtistUnicode:technoplanet
Creator:Roasted Chicken
Version:Until the day my wish comes true
Source:SOUND VOLTEX IV HEAVENLY HAVEN
Tags:unluckycroco sdvx 4 KONAMI 旋律世界 omega bemani ΩDimension senritsu sekai electronic instrumental video rhythm game 3 III GRAVITY WARS コナステ's REGULAR full version 岡聡志 安部泉希 guitar violin
BeatmapID:3977075
BeatmapSetID:1926071

[Difficulty]
HPDrainRate:9
CircleSize:4
OverallDifficulty:8.3
ApproachRate:9
SliderMultiplier:2
SliderTickRate:1

[Events]
//Background and Video events
0,0,"50493303_p0.jpg",0,0
//Break Periods
2,194756,195852
//Storyboard Layer 0 (Background)
//Storyboard Layer 1 (Fail)
//Storyboard Layer 2 (Pass)
//Storyboard Layer 3 (Foreground)
//Storyboard Layer 4 (Overlay)
//Storyboard Sound Samples

[TimingPoints]
599,209.79020979021,3,2,1,70,1,0
599,-100,3,2,1,70,0,0
44654,225.563909774436,3,2,1,70,1,0
44654,-92.5925925925926,3,2,1,70,0,0
47360,209.79020979021,3,2,1,70,1,0
47360,-100,3,2,1,70,0,0
104003,217.391304347826,3,2,1,70,1,0
104003,-96.1538461538461,3,2,1,70,0,0
114437,225.563909774436,3,2,1,70,1,0
114437,-92.5925925925926,3,2,1,70,0,0
123910,212.389380530973,3,2,1,70,1,0
123910,-99.009900990099,3,2,1,70,0,0
124547,209.79020979021,3,2,1,70,1,0
124547,-100,3,2,1,70,0,0
142799,225.563909774436,3,2,1,70,1,0
142799,-92.5925925925926,3,2,1,70,0,0
145505,209.79020979021,3,2,1,70,1,0
145505,-100,3,2,1,70,0,0
183267,217.391304347826,3,2,1,70,1,0
183267,-96.1538461538461,3,2,1,70,0,0
185875,225.563909774436,3,2,1,70,1,0
185875,-92.5925925925926,3,2,1,70,0,0
187228,231.660231660232,3,2,1,70,1,0
187228,-90.9090909090909,3,2,1,70,0,0
187923,234.375,3,2,1,70,1,0
187923,-89.2857142857143,3,2,1,70,0,0
188626,243.90243902439,3,2,1,70,1,0
188626,-86.2068965517241,3,2,1,70,0,0
189357,254.237288135593,3,2,1,70,1,0
189357,-82.6446280991736,3,2,1,70,0,0
190119,306.122448979592,3,2,1,70,1,0
190119,-68.4931506849315,3,2,1,70,0,0
190731,361.44578313253,3,2,1,70,1,8
190731,-58.1395348837209,3,2,1,70,0,8
191092,461.538461538462,3,2,1,70,1,0
191092,-45.4545454545455,3,2,1,70,0,0
191399,461.538461538462,3,2,1,70,1,8
191399,-45.4545454545455,3,2,1,70,0,8
191687,338.028169014084,3,2,1,70,1,8
191687,-62.111801242236,3,2,1,70,0,8
191856,433.212996389892,3,2,1,70,1,8
191856,-48.5436893203883,3,2,1,70,0,8
192289,364.077669902913,3,2,1,70,1,8
192289,-57.4712643678161,3,2,1,70,0,8
192380,230.769230769231,3,2,1,70,1,8
192380,-90.9090909090909,3,2,1,70,0,8
192496,659.340659340659,3,2,1,70,1,0
192496,-31.8471337579618,3,2,1,70,0,0
196452,538.116591928251,3,2,1,40,1,0
196452,-38.9105058365759,3,2,1,40,0,0
196801,580.27079303675,3,2,1,40,1,0
196801,-36.101083032491,3,2,1,40,0,0
197091,594.059405940594,3,2,1,40,1,0
197091,-35.3356890459364,3,2,1,40,0,0
197407,594.059405940594,3,2,1,40,1,0
197407,-35.3356890459364,3,2,1,40,0,0
198873,540.540540540541,3,2,1,40,1,0
198873,-38.7596899224806,3,2,1,40,0,0
203737,481.927710843374,3,2,1,45,1,0
203737,-43.4782608695652,3,2,1,45,0,0
206628,465.116279069767,3,2,1,50,1,0
206628,-45.045045045045,3,2,1,50,0,0
209418,456.273764258555,3,2,1,55,1,0
209418,-46.0829493087558,3,2,1,55,0,0
212155,441.176470588235,3,2,1,60,1,0
212155,-47.6190476190476,3,2,1,60,0,0
214802,430.10752688172,3,2,1,65,1,0
214802,-48.780487804878,3,2,1,65,0,0
217382,422.535211267606,3,2,1,70,1,0
217382,-49.7512437810945,3,2,1,70,0,0
218649,461.538461538462,3,2,1,70,1,0
218649,-45.4545454545455,3,2,1,70,0,0
219110,500,3,2,1,70,1,0
219110,-42.0168067226891,3,2,1,70,0,0
219360,545.454545454546,3,2,1,70,1,0
219360,-38.4615384615385,3,2,1,70,0,0
219632,600,3,2,1,70,1,0
219632,-34.965034965035,3,2,1,70,0,0
219932,666.666666666667,3,2,1,70,1,0
219932,-31.4465408805031,3,2,1,70,0,0
220265,225.563909774436,3,2,1,70,1,0
220265,-92.5925925925926,3,2,1,70,0,0
220941,226.415094339623,3,2,1,70,1,0
220941,-92.5925925925926,3,2,1,70,0,0
221620,227.272727272727,3,2,1,70,1,0
221620,-92.5925925925926,3,2,1,70,0,0
222301,228.136882129278,3,2,1,70,1,0
222301,-91.743119266055,3,2,1,70,0,0
222985,229.007633587786,3,2,1,70,1,0
222985,-91.743119266055,3,2,1,70,0,0
223672,229.885057471264,3,2,1,70,1,0
223672,-90.9090909090909,3,2,1,70,0,0
224361,230.769230769231,3,2,1,70,1,0
224361,-90.9090909090909,3,2,1,70,0,0
224591,235.294117647059,3,2,1,70,1,0
224591,-89.2857142857143,3,2,1,70,0,0
224826,240,3,2,1,70,1,0
224826,-87.719298245614,3,2,1,70,0,0
225066,244.897959183673,3,2,1,70,1,0
225066,-85.4700854700855,3,2,1,70,0,0
225310,250,3,2,1,70,1,0
225310,-84.0336134453782,3,2,1,70,0,0
225560,255.31914893617,3,2,1,70,1,0
225560,-81.9672131147541,3,2,1,70,0,0
225815,234.375,3,2,1,70,1,0
225815,-89.2857142857143,3,2,1,70,0,0
226518,236.220472440945,3,2,1,70,1,0
226518,-88.495575221239,3,2,1,70,0,0
227226,238.095238095238,3,2,1,70,1,0
227226,-88.495575221239,3,2,1,70,0,0
227940,240,3,2,1,70,1,0
227940,-87.719298245614,3,2,1,70,0,0
228660,243.90243902439,3,2,1,70,1,0
228660,-86.2068965517241,3,2,1,70,0,0
229391,258.620689655172,3,2,1,70,1,0
229391,-81.3008130081301,3,2,1,70,0,0
230166,306.122448979592,3,2,1,70,1,0
230166,-68.4931506849315,3,2,1,70,0,0
231084,384.615384615385,3,2,1,70,1,0
231084,-54.6448087431694,3,2,1,70,0,0
231468,410.958904109589,3,2,1,70,1,0
231468,-51.0204081632653,3,2,1,70,0,0
231878,495.867768595041,3,2,1,70,1,0
231878,-42.3728813559322,3,2,1,70,0,0
232373,288.461538461538,4,2,1,70,1,0
232373,-72.992700729927,4,2,1,70,0,0

[HitObjects]
320,192,284,5,0,0:0:0:0:
448,192,336,1,0,0:0:0:0:
192,192,389,1,0,0:0:0:0:
320,192,441,1,0,0:0:0:0:
64,192,494,1,0,0:0:0:0:
192,192,546,1,0,0:0:0:0:
320,192,599,1,0,0:0:0:0:
448,192,599,128,0,703:0:0:0:0:
64,192,599,128,0,703:0:0:0:0:
192,192,808,1,0,0:0:0:0:
320,192,808,128,0,913:0:0:0:0:
192,192,1018,128,0,1123:0:0:0:0:
448,192,1018,1,0,0:0:0:0:
448,192,1123,128,0,1228:0:0:0:0:
64,192,1123,1,0,0:0:0:0:
64,192,1228,1,0,0:0:0:0:
320,192,1228,128,0,1333:0:0:0:0:
64,192,1438,1,0,0:0:0:0:
320,192,1647,128,0,1752:0:0:0:0:
192,192,1647,1,0,0:0:0:0:
320,192,1857,128,0,1962:0:0:0:0:
448,192,1857,128,0,2487:0:0:0:0:
192,192,1857,1,0,0:0:0:0:
320,192,2277,128,0,2382:0:0:0:0:
192,192,2277,1,0,0:0:0:0:
192,192,2487,128,0,2592:0:0:0:0:
64,192,2487,128,0,2592:0:0:0:0:
320,192,2487,1,0,0:0:0:0:
64,192,2696,1,0,0:0:0:0:
448,192,2696,128,0,2828:0:0:0:0:
320,192,2696,128,0,2828:0:0:0:0:
192,192,2906,128,0,3064:0:0:0:0:
320,192,2906,128,0,3064:0:0:0:0:
448,192,2906,1,0,0:0:0:0:
192,192,3116,1,0,0:0:0:0:
64,192,3116,128,0,3221:0:0:0:0:
448,192,3116,128,0,3326:0:0:0:0:
320,192,3116,128,0,3326:0:0:0:0:
192,192,3326,128,0,3431:0:0:0:0:
64,192,3326,1,0,0:0:0:0:
320,192,3536,1,0,0:0:0:0:
448,192,3536,128,0,3745:0:0:0:0:
320,192,3640,128,0,3745:0:0:0:0:
64,192,3640,1,0,0:0:0:0:
192,192,3745,128,0,3850:0:0:0:0:
64,192,3745,128,0,3903:0:0:0:0:
320,192,3955,128,0,4060:0:0:0:0:
192,192,3955,128,0,4112:0:0:0:0:
64,192,4165,128,0,4270:0:0:0:0:
448,192,4165,128,0,4322:0:0:0:0:
64,192,4375,1,0,0:0:0:0:
320,192,4375,128,0,5004:0:0:0:0:
192,192,4375,128,0,4480:0:0:0:0:
448,192,4480,1,0,0:0:0:0:
64,192,4585,1,0,0:0:0:0:
192,192,4689,1,0,0:0:0:0:
448,192,4794,1,0,0:0:0:0:
64,192,4899,1,0,0:0:0:0:
448,192,5004,128,0,5564:0:0:0:0:
64,192,5004,128,0,5564:0:0:0:0:
192,192,5004,1,0,0:0:0:0:
320,192,5074,1,0,0:0:0:0:
192,192,5144,1,0,0:0:0:0:
320,192,5214,1,0,0:0:0:0:
192,192,5284,1,0,0:0:0:0:
320,192,5354,1,0,0:0:0:0:
192,192,5424,1,0,0:0:0:0:
320,192,5494,1,0,0:0:0:0:
192,192,5564,1,0,0:0:0:0:
64,192,6053,128,0,6197:0:0:0:0:
192,192,6132,128,0,6237:0:0:0:0:
320,192,6184,128,0,6276:0:0:0:0:
448,192,6210,128,0,6473:0:0:0:0:
192,192,6315,128,0,6840:0:0:0:0:
64,192,6368,128,0,6840:0:0:0:0:
320,192,6473,128,0,6840:0:0:0:0:
448,192,6892,128,0,7207:0:0:0:0:
320,192,6892,128,0,7207:0:0:0:0:
192,192,6892,128,0,7102:0:0:0:0:
64,192,6892,128,0,7102:0:0:0:0:
192,192,7207,1,0,0:0:0:0:
64,192,7207,1,0,0:0:0:0:
64,192,7312,1,0,0:0:0:0:
448,192,7312,128,0,7417:0:0:0:0:
320,192,7312,128,0,7417:0:0:0:0:
64,192,7522,128,0,7626:0:0:0:0:
320,192,7522,1,0,0:0:0:0:
192,192,7522,128,0,7626:0:0:0:0:
64,192,7731,1,0,0:0:0:0:
448,192,7731,128,0,7836:0:0:0:0:
320,192,7731,128,0,7836:0:0:0:0:
192,192,7784,1,0,0:0:0:0:
448,192,7941,1,0,0:0:0:0:
64,192,7941,128,0,8046:0:0:0:0:
192,192,7941,128,0,8046:0:0:0:0:
320,192,7994,1,0,0:0:0:0:
448,192,8151,128,0,8466:0:0:0:0:
320,192,8151,128,0,8466:0:0:0:0:
64,192,8151,128,0,8361:0:0:0:0:
192,192,8466,1,0,0:0:0:0:
64,192,8466,1,0,0:0:0:0:
64,192,8571,1,0,0:0:0:0:
448,192,8571,128,0,8675:0:0:0:0:
320,192,8571,128,0,8675:0:0:0:0:
192,192,8780,1,0,0:0:0:0:
64,192,8780,1,0,0:0:0:0:
320,192,8780,1,0,0:0:0:0:
192,192,8885,1,0,0:0:0:0:
64,192,8885,1,0,0:0:0:0:
64,192,8990,1,0,0:0:0:0:
320,192,8990,1,0,0:0:0:0:
448,192,8990,1,0,0:0:0:0:
192,192,9095,1,0,0:0:0:0:
448,192,9095,1,0,0:0:0:0:
320,192,9200,1,0,0:0:0:0:
448,192,9200,1,0,0:0:0:0:
64,192,9200,1,0,0:0:0:0:
192,192,9305,1,0,0:0:0:0:
64,192,9305,1,0,0:0:0:0:
320,192,9357,1,0,0:0:0:0:
448,192,9410,128,0,9619:0:0:0:0:
64,192,9410,1,0,0:0:0:0:
192,192,9410,128,0,9515:0:0:0:0:
192,192,9619,1,0,0:0:0:0:
64,192,9619,128,0,9829:0:0:0:0:
320,192,9619,128,0,9724:0:0:0:0:
448,192,9829,128,0,9882:0:0:0:0:
64,192,10039,1,0,0:0:0:0:
192,192,10039,128,0,10249:0:0:0:0:
448,192,10039,128,0,10144:0:0:0:0:
448,192,10249,1,0,0:0:0:0:
320,192,10249,128,0,10459:0:0:0:0:
64,192,10249,128,0,10354:0:0:0:0:
192,192,10459,1,0,0:0:0:0:
448,192,10459,128,0,10511:0:0:0:0:
64,192,10511,1,0,0:0:0:0:
320,192,10564,1,0,0:0:0:0:
192,192,10616,1,0,0:0:0:0:
64,192,10668,1,0,0:0:0:0:
320,192,10668,1,0,0:0:0:0:
448,192,10668,1,0,0:0:0:0:
448,192,10773,1,0,0:0:0:0:
192,192,10878,1,0,0:0:0:0:
64,192,10878,1,0,0:0:0:0:
448,192,10878,1,0,0:0:0:0:
192,192,10983,1,0,0:0:0:0:
448,192,11088,1,0,0:0:0:0:
320,192,11088,1,0,0:0:0:0:
192,192,11088,1,0,0:0:0:0:
320,192,11193,1,0,0:0:0:0:
192,192,11298,1,0,0:0:0:0:
320,192,11298,1,0,0:0:0:0:
64,192,11298,1,0,0:0:0:0:
64,192,11403,1,0,0:0:0:0:
64,192,11508,1,0,0:0:0:0:
320,192,11508,1,0,0:0:0:0:
448,192,11508,1,0,0:0:0:0:
448,192,11612,1,0,0:0:0:0:
64,192,11717,1,0,0:0:0:0:
448,192,11717,1,0,0:0:0:0:
192,192,11717,1,0,0:0:0:0:
320,192,11770,1,0,0:0:0:0:
192,192,11822,1,0,0:0:0:0:
320,192,11875,1,0,0:0:0:0:
64,192,11927,128,0,12242:0:0:0:0:
192,192,11927,128,0,12137:0:0:0:0:
448,192,11927,128,0,12242:0:0:0:0:
320,192,12242,1,0,0:0:0:0:
192,192,12242,1,0,0:0:0:0:
192,192,12347,1,0,0:0:0:0:
64,192,12347,128,0,12452:0:0:0:0:
448,192,12347,128,0,12452:0:0:0:0:
192,192,12557,1,0,0:0:0:0:
64,192,12557,1,0,0:0:0:0:
320,192,12557,1,0,0:0:0:0:
320,192,12661,1,0,0:0:0:0:
64,192,12766,1,0,0:0:0:0:
448,192,12766,1,0,0:0:0:0:
320,192,12766,1,0,0:0:0:0:
64,192,12871,1,0,0:0:0:0:
192,192,12871,1,0,0:0:0:0:
320,192,12976,1,0,0:0:0:0:
448,192,12976,1,0,0:0:0:0:
64,192,12976,1,0,0:0:0:0:
448,192,13081,1,0,0:0:0:0:
192,192,13081,1,0,0:0:0:0:
320,192,13186,128,0,13396:0:0:0:0:
448,192,13186,1,0,0:0:0:0:
64,192,13186,128,0,13291:0:0:0:0:
192,192,13396,128,0,13605:0:0:0:0:
64,192,13396,128,0,13501:0:0:0:0:
320,192,13501,1,0,0:0:0:0:
448,192,13501,1,0,0:0:0:0:
64,192,13605,128,0,13815:0:0:0:0:
320,192,13605,1,0,0:0:0:0:
448,192,13605,128,0,13710:0:0:0:0:
448,192,13815,1,0,0:0:0:0:
320,192,13815,1,0,0:0:0:0:
192,192,13920,1,0,0:0:0:0:
64,192,13920,1,0,0:0:0:0:
192,192,14025,1,0,0:0:0:0:
64,192,14025,1,0,0:0:0:0:
320,192,14025,1,0,0:0:0:0:
448,192,14130,1,0,0:0:0:0:
192,192,14130,1,0,0:0:0:0:
64,192,14235,1,0,0:0:0:0:
448,192,14235,1,0,0:0:0:0:
320,192,14235,1,0,0:0:0:0:
64,192,14340,1,0,0:0:0:0:
448,192,14340,1,0,0:0:0:0:
192,192,14392,1,0,0:0:0:0:
64,192,14445,1,0,0:0:0:0:
448,192,14445,128,0,14550:0:0:0:0:
320,192,14445,1,0,0:0:0:0:
192,192,14654,128,0,14759:0:0:0:0:
64,192,14864,128,0,14969:0:0:0:0:
448,192,14969,128,0,15074:0:0:0:0:
320,192,15074,128,0,15179:0:0:0:0:
192,192,15074,1,0,0:0:0:0:
448,192,15179,1,0,0:0:0:0:
64,192,15284,128,0,15389:0:0:0:0:
192,192,15284,1,0,0:0:0:0:
448,192,15389,1,0,0:0:0:0:
320,192,15494,128,0,15599:0:0:0:0:
64,192,15494,1,0,0:0:0:0:
192,192,15599,1,0,0:0:0:0:
320,192,15703,1,0,0:0:0:0:
64,192,15703,128,0,15861:0:0:0:0:
448,192,15703,128,0,15861:0:0:0:0:
448,192,15913,1,0,0:0:0:0:
192,192,15913,1,0,0:0:0:0:
64,192,15913,1,0,0:0:0:0:
320,192,16123,1,0,0:0:0:0:
64,192,16123,128,0,16228:0:0:0:0:
448,192,16123,128,0,16228:0:0:0:0:
192,192,16333,1,0,0:0:0:0:
320,192,16333,1,0,0:0:0:0:
448,192,16333,1,0,0:0:0:0:
64,192,16385,1,0,0:0:0:0:
320,192,16438,1,0,0:0:0:0:
192,192,16490,1,0,0:0:0:0:
64,192,16543,1,0,0:0:0:0:
448,192,16543,1,0,0:0:0:0:
320,192,16595,1,0,0:0:0:0:
192,192,16647,1,0,0:0:0:0:
448,192,16700,1,0,0:0:0:0:
192,192,16752,1,0,0:0:0:0:
64,192,16752,1,0,0:0:0:0:
320,192,16805,1,0,0:0:0:0:
448,192,16857,1,0,0:0:0:0:
192,192,16910,1,0,0:0:0:0:
320,192,16962,1,0,0:0:0:0:
448,192,16962,1,0,0:0:0:0:
64,192,16962,1,0,0:0:0:0:
192,192,17067,128,0,17224:0:0:0:0:
320,192,17093,128,0,17206:0:0:0:0:
448,192,17119,128,0,17189:0:0:0:0:
64,192,17172,128,0,17242:0:0:0:0:
320,192,17277,1,0,0:0:0:0:
192,192,17277,1,0,0:0:0:0:
448,192,17277,1,0,0:0:0:0:
192,192,17592,128,0,17696:0:0:0:0:
64,192,17592,1,0,0:0:0:0:
448,192,17592,1,0,0:0:0:0:
320,192,17801,128,0,17906:0:0:0:0:
192,192,17801,1,0,0:0:0:0:
448,192,17801,1,0,0:0:0:0:
64,192,17854,1,0,0:0:0:0:
192,192,18011,128,0,18116:0:0:0:0:
64,192,18011,1,0,0:0:0:0:
448,192,18011,1,0,0:0:0:0:
320,192,18064,1,0,0:0:0:0:
448,192,18221,128,0,18431:0:0:0:0:
64,192,18221,128,0,18431:0:0:0:0:
192,192,18273,128,0,18431:0:0:0:0:
320,192,18431,128,0,18483:0:0:0:0:
448,192,18536,1,0,0:0:0:0:
192,192,18536,1,0,0:0:0:0:
320,192,18536,128,0,18588:0:0:0:0:
320,192,18640,128,0,18693:0:0:0:0:
320,192,18745,128,0,18798:0:0:0:0:
192,192,18850,128,0,18955:0:0:0:0:
64,192,18850,1,0,0:0:0:0:
448,192,18850,1,0,0:0:0:0:
320,192,19060,128,0,19165:0:0:0:0:
448,192,19060,1,0,0:0:0:0:
64,192,19060,1,0,0:0:0:0:
192,192,19112,1,0,0:0:0:0:
64,192,19270,1,0,0:0:0:0:
192,192,19270,1,0,0:0:0:0:
320,192,19270,1,0,0:0:0:0:
448,192,19322,1,0,0:0:0:0:
192,192,19375,1,0,0:0:0:0:
320,192,19427,1,0,0:0:0:0:
192,192,19480,1,0,0:0:0:0:
448,192,19480,128,0,19689:0:0:0:0:
64,192,19480,128,0,19689:0:0:0:0:
320,192,19689,128,0,19759:0:0:0:0:
192,192,19759,128,0,19829:0:0:0:0:
320,192,19829,128,0,19899:0:0:0:0:
64,192,19899,128,0,19969:0:0:0:0:
448,192,19969,128,0,20039:0:0:0:0:
64,192,20039,128,0,20109:0:0:0:0:
448,192,20109,1,0,0:0:0:0:
320,192,20109,128,0,20319:0:0:0:0:
192,192,20214,128,0,20319:0:0:0:0:
448,192,20319,128,0,20529:0:0:0:0:
192,192,20424,128,0,20529:0:0:0:0:
64,192,20529,128,0,20738:0:0:0:0:
192,192,20633,128,0,20738:0:0:0:0:
448,192,20738,128,0,20843:0:0:0:0:
320,192,20738,128,0,20843:0:0:0:0:
64,192,20843,1,0,0:0:0:0:
320,192,20948,128,0,21053:0:0:0:0:
64,192,20948,1,0,0:0:0:0:
192,192,20948,128,0,21053:0:0:0:0:
448,192,21053,1,0,0:0:0:0:
64,192,21158,128,0,21263:0:0:0:0:
448,192,21158,1,0,0:0:0:0:
192,192,21158,128,0,21263:0:0:0:0:
320,192,21263,1,0,0:0:0:0:
192,192,21368,1,0,0:0:0:0:
64,192,21368,1,0,0:0:0:0:
320,192,21368,128,0,21473:0:0:0:0:
64,192,21473,1,0,0:0:0:0:
192,192,21473,1,0,0:0:0:0:
448,192,21578,128,0,21682:0:0:0:0:
320,192,21787,1,0,0:0:0:0:
64,192,21787,128,0,21892:0:0:0:0:
448,192,21787,1,0,0:0:0:0:
448,192,21997,1,0,0:0:0:0:
320,192,21997,1,0,0:0:0:0:
192,192,21997,1,0,0:0:0:0:
64,192,21997,1,0,0:0:0:0:
320,192,22102,128,0,22259:0:0:0:0:
192,192,22128,128,0,22242:0:0:0:0:
64,192,22154,128,0,22224:0:0:0:0:
448,192,22207,128,0,22277:0:0:0:0:
64,192,22312,1,0,0:0:0:0:
192,192,22312,1,0,0:0:0:0:
320,192,22312,1,0,0:0:0:0:
320,192,22626,128,0,22731:0:0:0:0:
448,192,22626,1,0,0:0:0:0:
64,192,22626,1,0,0:0:0:0:
192,192,22836,128,0,22941:0:0:0:0:
448,192,22836,1,0,0:0:0:0:
64,192,22836,1,0,0:0:0:0:
320,192,22889,1,0,0:0:0:0:
320,192,23046,128,0,23151:0:0:0:0:
448,192,23046,1,0,0:0:0:0:
64,192,23046,1,0,0:0:0:0:
192,192,23099,1,0,0:0:0:0:
64,192,23256,128,0,23466:0:0:0:0:
448,192,23256,128,0,23466:0:0:0:0:
320,192,23308,128,0,23466:0:0:0:0:
192,192,23361,128,0,23413:0:0:0:0:
192,192,23466,128,0,23518:0:0:0:0:
448,192,23571,1,0,0:0:0:0:
320,192,23571,1,0,0:0:0:0:
64,192,23571,1,0,0:0:0:0:
192,192,23675,128,0,23728:0:0:0:0:
192,192,23780,128,0,23833:0:0:0:0:
448,192,23885,1,0,0:0:0:0:
64,192,23885,1,0,0:0:0:0:
320,192,23885,128,0,23990:0:0:0:0:
320,192,24095,1,0,0:0:0:0:
448,192,24095,1,0,0:0:0:0:
192,192,24095,1,0,0:0:0:0:
448,192,24200,1,0,0:0:0:0:
320,192,24200,1,0,0:0:0:0:
192,192,24200,1,0,0:0:0:0:
320,192,24305,1,0,0:0:0:0:
192,192,24305,1,0,0:0:0:0:
64,192,24305,1,0,0:0:0:0:
448,192,24357,1,0,0:0:0:0:
64,192,24410,1,0,0:0:0:0:
320,192,24462,1,0,0:0:0:0:
192,192,24515,1,0,0:0:0:0:
448,192,24515,128,0,24724:0:0:0:0:
64,192,24515,128,0,24724:0:0:0:0:
192,192,24724,128,0,24794:0:0:0:0:
64,192,24794,128,0,24934:0:0:0:0:
192,192,24864,128,0,24934:0:0:0:0:
320,192,24934,128,0,25004:0:0:0:0:
448,192,25004,128,0,25144:0:0:0:0:
320,192,25074,128,0,25144:0:0:0:0:
192,192,25144,128,0,25301:0:0:0:0:
64,192,25144,128,0,25301:0:0:0:0:
448,192,25249,1,0,0:0:0:0:
320,192,25354,128,0,25511:0:0:0:0:
192,192,25354,128,0,25511:0:0:0:0:
64,192,25459,1,0,0:0:0:0:
448,192,25564,128,0,25721:0:0:0:0:
320,192,25564,128,0,25721:0:0:0:0:
192,192,25668,1,0,0:0:0:0:
320,192,25773,128,0,25931:0:0:0:0:
448,192,25773,128,0,25931:0:0:0:0:
64,192,25773,1,0,0:0:0:0:
64,192,25878,1,0,0:0:0:0:
192,192,25983,128,0,26140:0:0:0:0:
320,192,25983,128,0,26140:0:0:0:0:
448,192,25983,1,0,0:0:0:0:
448,192,26088,1,0,0:0:0:0:
64,192,26193,128,0,26350:0:0:0:0:
192,192,26193,128,0,26350:0:0:0:0:
320,192,26193,1,0,0:0:0:0:
320,192,26298,1,0,0:0:0:0:
448,192,26403,1,0,0:0:0:0:
64,192,26403,1,0,0:0:0:0:
192,192,26508,1,0,0:0:0:0:
320,192,26508,1,0,0:0:0:0:
64,192,26612,1,0,0:0:0:0:
192,192,26612,1,0,0:0:0:0:
320,192,26612,1,0,0:0:0:0:
192,192,26717,1,0,0:0:0:0:
448,192,26717,1,0,0:0:0:0:
448,192,26822,1,0,0:0:0:0:
320,192,26822,1,0,0:0:0:0:
64,192,26822,1,0,0:0:0:0:
64,192,26927,1,0,0:0:0:0:
320,192,26927,1,0,0:0:0:0:
448,192,26927,1,0,0:0:0:0:
448,192,27032,1,0,0:0:0:0:
64,192,27032,1,0,0:0:0:0:
320,192,27032,1,0,0:0:0:0:
192,192,27032,1,0,0:0:0:0:
64,192,27242,1,0,0:0:0:0:
192,192,27452,1,0,0:0:0:0:
448,192,27661,1,0,0:0:0:0:
320,192,27661,1,0,0:0:0:0:
320,192,27871,1,0,0:0:0:0:
448,192,28081,1,0,0:0:0:0:
64,192,28291,1,0,0:0:0:0:
192,192,28291,1,0,0:0:0:0:
64,192,28501,1,0,0:0:0:0:
448,192,28605,1,0,0:0:0:0:
192,192,28710,1,0,0:0:0:0:
448,192,28710,1,0,0:0:0:0:
192,192,28815,1,0,0:0:0:0:
448,192,28920,1,0,0:0:0:0:
64,192,28920,1,0,0:0:0:0:
64,192,29130,1,0,0:0:0:0:
192,192,29235,1,0,0:0:0:0:
320,192,29340,1,0,0:0:0:0:
192,192,29550,1,0,0:0:0:0:
64,192,29550,128,0,30415:0:0:0:0:
320,192,30415,128,0,30651:0:0:0:0:
64,192,30651,128,0,30808:0:0:0:0:
192,192,30808,1,0,0:0:0:0:
448,192,30808,128,0,31018:0:0:0:0:
64,192,30913,1,0,0:0:0:0:
320,192,31018,128,0,31228:0:0:0:0:
448,192,31123,1,0,0:0:0:0:
192,192,31228,128,0,31438:0:0:0:0:
320,192,31333,1,0,0:0:0:0:
448,192,31438,1,0,0:0:0:0:
64,192,31438,128,0,31508:0:0:0:0:
320,192,31508,128,0,31578:0:0:0:0:
448,192,31578,128,0,31647:0:0:0:0:
192,192,31647,128,0,31787:0:0:0:0:
64,192,31647,128,0,31717:0:0:0:0:
448,192,31717,128,0,31857:0:0:0:0:
64,192,31787,128,0,31857:0:0:0:0:
320,192,31857,128,0,31997:0:0:0:0:
192,192,31857,128,0,31927:0:0:0:0:
448,192,31927,128,0,31997:0:0:0:0:
192,192,31997,128,0,32067:0:0:0:0:
64,192,32067,1,0,0:0:0:0:
448,192,32067,1,0,0:0:0:0:
320,192,32067,1,0,0:0:0:0:
320,192,32277,1,0,0:0:0:0:
64,192,32487,128,0,32696:0:0:0:0:
320,192,32592,1,0,0:0:0:0:
192,192,32696,1,0,0:0:0:0:
320,192,32696,1,0,0:0:0:0:
448,192,32696,128,0,32836:0:0:0:0:
192,192,32801,128,0,32906:0:0:0:0:
448,192,32906,1,0,0:0:0:0:
64,192,32906,128,0,33046:0:0:0:0:
448,192,33011,128,0,33116:0:0:0:0:
64,192,33116,1,0,0:0:0:0:
320,192,33116,128,0,33256:0:0:0:0:
64,192,33221,128,0,33326:0:0:0:0:
320,192,33326,1,0,0:0:0:0:
448,192,33326,1,0,0:0:0:0:
192,192,33361,128,0,33536:0:0:0:0:
448,192,33396,128,0,33745:0:0:0:0:
320,192,33536,1,0,0:0:0:0:
64,192,33640,1,0,0:0:0:0:
192,192,33640,1,0,0:0:0:0:
320,192,33745,128,0,33955:0:0:0:0:
192,192,33850,1,0,0:0:0:0:
64,192,33955,128,0,34375:0:0:0:0:
448,192,33955,1,0,0:0:0:0:
192,192,33955,128,0,34165:0:0:0:0:
320,192,34060,1,0,0:0:0:0:
448,192,34165,1,0,0:0:0:0:
192,192,34270,1,0,0:0:0:0:
448,192,34375,128,0,34585:0:0:0:0:
64,192,34480,1,0,0:0:0:0:
192,192,34585,128,0,34899:0:0:0:0:
320,192,34585,128,0,34794:0:0:0:0:
64,192,34794,128,0,35004:0:0:0:0:
320,192,34899,1,0,0:0:0:0:
448,192,35004,1,0,0:0:0:0:
64,192,35057,1,0,0:0:0:0:
448,192,35109,1,0,0:0:0:0:
64,192,35161,1,0,0:0:0:0:
320,192,35214,128,0,35424:0:0:0:0:
448,192,35214,1,0,0:0:0:0:
64,192,35319,1,0,0:0:0:0:
192,192,35424,128,0,35633:0:0:0:0:
448,192,35529,1,0,0:0:0:0:
320,192,35633,1,0,0:0:0:0:
192,192,35686,1,0,0:0:0:0:
320,192,35738,1,0,0:0:0:0:
192,192,35791,1,0,0:0:0:0:
448,192,35843,128,0,36473:0:0:0:0:
320,192,35843,1,0,0:0:0:0:
64,192,35896,128,0,35948:0:0:0:0:
192,192,35922,128,0,35974:0:0:0:0:
64,192,36053,1,0,0:0:0:0:
320,192,36105,128,0,36158:0:0:0:0:
192,192,36132,128,0,36184:0:0:0:0:
320,192,36263,1,0,0:0:0:0:
64,192,36315,128,0,36368:0:0:0:0:
192,192,36342,128,0,36394:0:0:0:0:
320,192,36473,1,0,0:0:0:0:
64,192,36473,128,0,36682:0:0:0:0:
192,192,36473,128,0,36578:0:0:0:0:
448,192,36682,128,0,36787:0:0:0:0:
320,192,36892,128,0,36997:0:0:0:0:
64,192,36997,1,0,0:0:0:0:
192,192,37032,1,0,0:0:0:0:
320,192,37067,1,0,0:0:0:0:
448,192,37102,128,0,37312:0:0:0:0:
192,192,37102,128,0,37312:0:0:0:0:
64,192,37102,128,0,37312:0:0:0:0:
320,192,37312,1,0,0:0:0:0:
448,192,37382,1,0,0:0:0:0:
64,192,37417,1,0,0:0:0:0:
192,192,37417,1,0,0:0:0:0:
320,192,37452,1,0,0:0:0:0:
448,192,37522,1,0,0:0:0:0:
192,192,37522,1,0,0:0:0:0:
64,192,37522,1,0,0:0:0:0:
448,192,37626,1,0,0:0:0:0:
448,192,37731,128,0,37836:0:0:0:0:
64,192,37731,1,0,0:0:0:0:
320,192,37731,1,0,0:0:0:0:
192,192,37836,1,0,0:0:0:0:
320,192,37941,128,0,38046:0:0:0:0:
448,192,37941,1,0,0:0:0:0:
64,192,37941,1,0,0:0:0:0:
64,192,38046,1,0,0:0:0:0:
192,192,38151,128,0,38256:0:0:0:0:
448,192,38151,1,0,0:0:0:0:
320,192,38151,1,0,0:0:0:0:
320,192,38256,1,0,0:0:0:0:
192,192,38361,1,0,0:0:0:0:
448,192,38361,128,0,38571:0:0:0:0:
64,192,38361,128,0,38675:0:0:0:0:
320,192,38571,1,0,0:0:0:0:
448,192,38675,1,0,0:0:0:0:
192,192,38675,1,0,0:0:0:0:
448,192,38780,1,0,0:0:0:0:
320,192,38780,1,0,0:0:0:0:
64,192,38780,128,0,38885:0:0:0:0:
320,192,38990,1,0,0:0:0:0:
64,192,38990,128,0,39095:0:0:0:0:
448,192,39095,1,0,0:0:0:0:
192,192,39095,1,0,0:0:0:0:
320,192,39200,1,0,0:0:0:0:
192,192,39200,1,0,0:0:0:0:
64,192,39200,128,0,39305:0:0:0:0:
320,192,39305,1,0,0:0:0:0:
448,192,39305,1,0,0:0:0:0:
192,192,39410,1,0,0:0:0:0:
64,192,39410,1,0,0:0:0:0:
320,192,39410,128,0,39515:0:0:0:0:
448,192,39515,1,0,0:0:0:0:
64,192,39515,1,0,0:0:0:0:
192,192,39567,1,0,0:0:0:0:
64,192,39619,1,0,0:0:0:0:
320,192,39619,128,0,39829:0:0:0:0:
448,192,39619,128,0,39934:0:0:0:0:
64,192,39829,128,0,39987:0:0:0:0:
320,192,39934,1,0,0:0:0:0:
192,192,39934,128,0,40039:0:0:0:0:
448,192,40039,1,0,0:0:0:0:
64,192,40039,1,0,0:0:0:0:
320,192,40039,128,0,40249:0:0:0:0:
64,192,40249,1,0,0:0:0:0:
192,192,40249,1,0,0:0:0:0:
448,192,40249,128,0,40319:0:0:0:0:
320,192,40319,128,0,40389:0:0:0:0:
448,192,40389,128,0,40459:0:0:0:0:
64,192,40459,1,0,0:0:0:0:
320,192,40459,1,0,0:0:0:0:
192,192,40459,128,0,40529:0:0:0:0:
448,192,40529,128,0,40599:0:0:0:0:
192,192,40599,128,0,40668:0:0:0:0:
320,192,40668,1,0,0:0:0:0:
448,192,40668,1,0,0:0:0:0:
64,192,40668,128,0,40738:0:0:0:0:
192,192,40738,128,0,40808:0:0:0:0:
64,192,40808,128,0,40878:0:0:0:0:
320,192,40878,1,0,0:0:0:0:
192,192,40878,128,0,41193:0:0:0:0:
448,192,40878,128,0,41088:0:0:0:0:
320,192,41088,128,0,41508:0:0:0:0:
448,192,41193,1,0,0:0:0:0:
64,192,41193,1,0,0:0:0:0:
192,192,41298,1,0,0:0:0:0:
448,192,41298,1,0,0:0:0:0:
64,192,41298,1,0,0:0:0:0:
192,192,41403,1,0,0:0:0:0:
64,192,41508,1,0,0:0:0:0:
448,192,41508,1,0,0:0:0:0:
448,192,41612,1,0,0:0:0:0:
64,192,41612,1,0,0:0:0:0:
192,192,41717,1,0,0:0:0:0:
320,192,41717,1,0,0:0:0:0:
448,192,41717,1,0,0:0:0:0:
192,192,41822,1,0,0:0:0:0:
64,192,41822,1,0,0:0:0:0:
448,192,41927,1,0,0:0:0:0:
320,192,41927,1,0,0:0:0:0:
64,192,41927,1,0,0:0:0:0:
192,192,42032,1,0,0:0:0:0:
320,192,42032,1,0,0:0:0:0:
64,192,42137,1,0,0:0:0:0:
448,192,42137,1,0,0:0:0:0:
320,192,42137,1,0,0:0:0:0:
192,192,42137,1,0,0:0:0:0:
448,192,42242,1,0,0:0:0:0:
192,192,42347,1,0,0:0:0:0:
192,192,42452,1,0,0:0:0:0:
320,192,42452,1,0,0:0:0:0:
64,192,42557,1,0,0:0:0:0:
320,192,42557,1,0,0:0:0:0:
448,192,42557,1,0,0:0:0:0:
448,192,42661,1,0,0:0:0:0:
64,192,42766,1,0,0:0:0:0:
320,192,42766,1,0,0:0:0:0:
192,192,42766,1,0,0:0:0:0:
192,192,42871,1,0,0:0:0:0:
64,192,42976,1,0,0:0:0:0:
448,192,42976,1,0,0:0:0:0:
320,192,42976,1,0,0:0:0:0:
64,192,43081,1,0,0:0:0:0:
448,192,43186,1,0,0:0:0:0:
192,192,43186,1,0,0:0:0:0:
64,192,43238,1,0,0:0:0:0:
320,192,43291,1,0,0:0:0:0:
192,192,43343,1,0,0:0:0:0:
448,192,43396,128,0,43658:0:0:0:0:
320,192,43396,128,0,43658:0:0:0:0:
64,192,43396,128,0,43658:0:0:0:0:
448,192,43710,128,0,43973:0:0:0:0:
64,192,43710,128,0,43973:0:0:0:0:
192,192,43710,128,0,43973:0:0:0:0:
192,192,44025,1,0,0:0:0:0:
448,192,44025,1,0,0:0:0:0:
320,192,44025,1,0,0:0:0:0:
192,192,44130,1,0,0:0:0:0:
448,192,44130,1,0,0:0:0:0:
320,192,44235,1,0,0:0:0:0:
64,192,44235,1,0,0:0:0:0:
192,192,44235,1,0,0:0:0:0:
64,192,44340,1,0,0:0:0:0:
320,192,44340,1,0,0:0:0:0:
192,192,44445,1,0,0:0:0:0:
320,192,44445,1,0,0:0:0:0:
448,192,44445,1,0,0:0:0:0:
448,192,44550,1,0,0:0:0:0:
192,192,44550,1,0,0:0:0:0:
64,192,44550,1,0,0:0:0:0:
320,192,44654,1,0,0:0:0:0:
192,192,44654,1,0,0:0:0:0:
64,192,44654,1,0,0:0:0:0:
448,192,44654,128,0,45330:0:0:0:0:
320,192,45330,128,0,46007:0:0:0:0:
192,192,45330,1,0,0:0:0:0:
192,192,46007,1,0,0:0:0:0:
64,192,46007,128,0,47304:0:0:0:0:
448,192,46684,1,0,0:0:0:0:
320,192,46909,1,0,0:0:0:0:
192,192,47135,1,0,0:0:0:0:
192,192,47360,1,0,0:0:0:0:
448,192,47360,1,0,0:0:0:0:
320,192,47360,1,0,0:0:0:0:
64,192,47360,1,0,0:0:0:0:
64,192,47569,1,0,0:0:0:0:
192,192,47674,1,0,0:0:0:0:
320,192,47674,1,0,0:0:0:0:
448,192,47674,1,0,0:0:0:0:
64,192,47779,1,0,0:0:0:0:
320,192,47884,1,0,0:0:0:0:
448,192,47989,1,0,0:0:0:0:
320,192,47989,1,0,0:0:0:0:
192,192,47989,1,0,0:0:0:0:
64,192,47989,1,0,0:0:0:0:
192,192,48094,1,0,0:0:0:0:
448,192,48199,1,0,0:0:0:0:
64,192,48199,1,0,0:0:0:0:
64,192,48304,1,0,0:0:0:0:
448,192,48408,1,0,0:0:0:0:
320,192,48408,1,0,0:0:0:0:
320,192,48513,1,0,0:0:0:0:
192,192,48592,1,0,0:0:0:0:
64,192,48618,1,0,0:0:0:0:
448,192,48618,1,0,0:0:0:0:
448,192,48723,1,0,0:0:0:0:
320,192,48828,1,0,0:0:0:0:
192,192,48828,1,0,0:0:0:0:
64,192,48828,1,0,0:0:0:0:
448,192,48898,1,0,0:0:0:0:
64,192,48968,1,0,0:0:0:0:
320,192,49038,1,0,0:0:0:0:
192,192,49038,1,0,0:0:0:0:
448,192,49038,1,0,0:0:0:0:
64,192,49108,1,0,0:0:0:0:
320,192,49178,1,0,0:0:0:0:
448,192,49248,1,0,0:0:0:0:
192,192,49248,1,0,0:0:0:0:
64,192,49248,1,0,0:0:0:0:
320,192,49318,1,0,0:0:0:0:
192,192,49353,1,0,0:0:0:0:
64,192,49387,1,0,0:0:0:0:
448,192,49457,1,0,0:0:0:0:
320,192,49457,1,0,0:0:0:0:
192,192,49457,1,0,0:0:0:0:
64,192,49562,1,0,0:0:0:0:
448,192,49562,1,0,0:0:0:0:
320,192,49667,1,0,0:0:0:0:
192,192,49772,1,0,0:0:0:0:
448,192,49877,1,0,0:0:0:0:
320,192,49877,1,0,0:0:0:0:
448,192,49982,1,0,0:0:0:0:
320,192,49982,1,0,0:0:0:0:
64,192,50087,1,0,0:0:0:0:
192,192,50087,1,0,0:0:0:0:
320,192,50087,1,0,0:0:0:0:
192,192,50192,1,0,0:0:0:0:
448,192,50297,1,0,0:0:0:0:
320,192,50297,1,0,0:0:0:0:
192,192,50297,1,0,0:0:0:0:
320,192,50401,1,0,0:0:0:0:
192,192,50506,1,0,0:0:0:0:
64,192,50506,1,0,0:0:0:0:
448,192,50506,1,0,0:0:0:0:
320,192,50506,1,0,0:0:0:0:
192,192,50611,1,0,0:0:0:0:
64,192,50611,1,0,0:0:0:0:
192,192,50716,1,0,0:0:0:0:
320,192,50716,1,0,0:0:0:0:
448,192,50716,1,0,0:0:0:0:
64,192,50786,1,0,0:0:0:0:
320,192,50856,1,0,0:0:0:0:
64,192,50926,1,0,0:0:0:0:
448,192,50926,1,0,0:0:0:0:
320,192,50996,1,0,0:0:0:0:
192,192,51066,1,0,0:0:0:0:
448,192,51136,1,0,0:0:0:0:
320,192,51136,1,0,0:0:0:0:
64,192,51136,1,0,0:0:0:0:
192,192,51241,1,0,0:0:0:0:
448,192,51241,1,0,0:0:0:0:
448,192,51346,1,0,0:0:0:0:
64,192,51346,1,0,0:0:0:0:
320,192,51450,1,0,0:0:0:0:
64,192,51450,1,0,0:0:0:0:
192,192,51555,1,0,0:0:0:0:
64,192,51555,1,0,0:0:0:0:
192,192,51660,1,0,0:0:0:0:
320,192,51660,1,0,0:0:0:0:
320,192,51765,1,0,0:0:0:0:
448,192,51765,1,0,0:0:0:0:
64,192,51818,1,0,0:0:0:0:
448,192,51870,1,0,0:0:0:0:
192,192,51922,1,0,0:0:0:0:
320,192,51975,1,0,0:0:0:0:
192,192,52027,1,0,0:0:0:0:
448,192,52080,1,0,0:0:0:0:
64,192,52132,1,0,0:0:0:0:
448,192,52185,1,0,0:0:0:0:
192,192,52237,1,0,0:0:0:0:
320,192,52290,1,0,0:0:0:0:
192,192,52342,1,0,0:0:0:0:
64,192,52499,1,0,0:0:0:0:
192,192,52604,1,0,0:0:0:0:
448,192,52709,1,0,0:0:0:0:
64,192,52814,1,0,0:0:0:0:
320,192,52884,1,0,0:0:0:0:
448,192,52954,1,0,0:0:0:0:
64,192,53024,1,0,0:0:0:0:
192,192,53076,1,0,0:0:0:0:
320,192,53129,1,0,0:0:0:0:
448,192,53181,1,0,0:0:0:0:
64,192,53234,1,0,0:0:0:0:
192,192,53286,1,0,0:0:0:0:
448,192,53339,1,0,0:0:0:0:
64,192,53391,1,0,0:0:0:0:
320,192,53443,1,0,0:0:0:0:
448,192,53496,1,0,0:0:0:0:
192,192,53548,1,0,0:0:0:0:
320,192,53601,1,0,0:0:0:0:
64,192,53653,128,0,53968:0:0:0:0:
448,192,53653,128,0,53968:0:0:0:0:
192,192,53653,128,0,53863:0:0:0:0:
320,192,53968,1,0,0:0:0:0:
192,192,53968,1,0,0:0:0:0:
448,192,54073,128,0,54178:0:0:0:0:
192,192,54073,1,0,0:0:0:0:
64,192,54073,128,0,54178:0:0:0:0:
320,192,54283,128,0,54387:0:0:0:0:
64,192,54283,1,0,0:0:0:0:
192,192,54283,128,0,54387:0:0:0:0:
448,192,54492,128,0,54597:0:0:0:0:
192,192,54492,1,0,0:0:0:0:
64,192,54492,128,0,54597:0:0:0:0:
320,192,54545,1,0,0:0:0:0:
448,192,54702,1,0,0:0:0:0:
192,192,54702,128,0,54807:0:0:0:0:
320,192,54702,128,0,54807:0:0:0:0:
64,192,54755,1,0,0:0:0:0:
448,192,54912,128,0,55227:0:0:0:0:
64,192,54912,128,0,55227:0:0:0:0:
192,192,54912,128,0,55122:0:0:0:0:
320,192,55227,1,0,0:0:0:0:
192,192,55227,1,0,0:0:0:0:
448,192,55332,128,0,55436:0:0:0:0:
192,192,55332,1,0,0:0:0:0:
64,192,55332,128,0,55436:0:0:0:0:
320,192,55541,1,0,0:0:0:0:
192,192,55541,1,0,0:0:0:0:
448,192,55541,1,0,0:0:0:0:
320,192,55646,1,0,0:0:0:0:
192,192,55646,1,0,0:0:0:0:
448,192,55751,1,0,0:0:0:0:
64,192,55751,1,0,0:0:0:0:
192,192,55751,1,0,0:0:0:0:
448,192,55856,1,0,0:0:0:0:
320,192,55856,1,0,0:0:0:0:
64,192,55961,1,0,0:0:0:0:
192,192,55961,1,0,0:0:0:0:
448,192,55961,1,0,0:0:0:0:
320,192,56066,1,0,0:0:0:0:
192,192,56066,1,0,0:0:0:0:
448,192,56118,1,0,0:0:0:0:
320,192,56171,1,0,0:0:0:0:
64,192,56171,128,0,56380:0:0:0:0:
192,192,56171,128,0,56276:0:0:0:0:
192,192,56380,1,0,0:0:0:0:
448,192,56380,128,0,56590:0:0:0:0:
320,192,56380,128,0,56485:0:0:0:0:
64,192,56590,128,0,56643:0:0:0:0:
192,192,56800,128,0,57010:0:0:0:0:
320,192,56800,128,0,56905:0:0:0:0:
448,192,56800,1,0,0:0:0:0:
448,192,57010,128,0,57220:0:0:0:0:
64,192,57010,128,0,57115:0:0:0:0:
320,192,57010,1,0,0:0:0:0:
64,192,57220,128,0,57272:0:0:0:0:
320,192,57220,1,0,0:0:0:0:
192,192,57272,1,0,0:0:0:0:
448,192,57325,1,0,0:0:0:0:
320,192,57377,1,0,0:0:0:0:
64,192,57429,1,0,0:0:0:0:
448,192,57429,1,0,0:0:0:0:
192,192,57429,1,0,0:0:0:0:
64,192,57534,1,0,0:0:0:0:
64,192,57639,1,0,0:0:0:0:
320,192,57639,1,0,0:0:0:0:
448,192,57639,1,0,0:0:0:0:
448,192,57744,1,0,0:0:0:0:
448,192,57849,1,0,0:0:0:0:
64,192,57849,1,0,0:0:0:0:
192,192,57849,1,0,0:0:0:0:
192,192,57954,1,0,0:0:0:0:
192,192,58059,1,0,0:0:0:0:
320,192,58059,1,0,0:0:0:0:
448,192,58059,1,0,0:0:0:0:
320,192,58164,1,0,0:0:0:0:
320,192,58269,1,0,0:0:0:0:
64,192,58269,1,0,0:0:0:0:
192,192,58269,1,0,0:0:0:0:
64,192,58373,1,0,0:0:0:0:
64,192,58478,1,0,0:0:0:0:
448,192,58478,1,0,0:0:0:0:
320,192,58478,1,0,0:0:0:0:
192,192,58531,1,0,0:0:0:0:
448,192,58583,1,0,0:0:0:0:
192,192,58636,1,0,0:0:0:0:
448,192,58688,128,0,59003:0:0:0:0:
320,192,58688,128,0,58898:0:0:0:0:
64,192,58688,128,0,59003:0:0:0:0:
320,192,59003,1,0,0:0:0:0:
192,192,59003,1,0,0:0:0:0:
320,192,59108,1,0,0:0:0:0:
448,192,59108,128,0,59213:0:0:0:0:
64,192,59108,128,0,59213:0:0:0:0:
192,192,59318,1,0,0:0:0:0:
320,192,59318,1,0,0:0:0:0:
448,192,59318,1,0,0:0:0:0:
320,192,59422,1,0,0:0:0:0:
64,192,59527,1,0,0:0:0:0:
448,192,59527,1,0,0:0:0:0:
320,192,59527,1,0,0:0:0:0:
64,192,59632,1,0,0:0:0:0:
192,192,59632,1,0,0:0:0:0:
448,192,59737,1,0,0:0:0:0:
64,192,59737,1,0,0:0:0:0:
320,192,59737,1,0,0:0:0:0:
448,192,59842,1,0,0:0:0:0:
192,192,59842,1,0,0:0:0:0:
64,192,59947,128,0,60157:0:0:0:0:
448,192,59947,128,0,60052:0:0:0:0:
320,192,59947,1,0,0:0:0:0:
320,192,60157,128,0,60366:0:0:0:0:
448,192,60157,128,0,60262:0:0:0:0:
64,192,60262,1,0,0:0:0:0:
192,192,60262,1,0,0:0:0:0:
64,192,60366,1,0,0:0:0:0:
192,192,60366,128,0,60471:0:0:0:0:
448,192,60366,128,0,60576:0:0:0:0:
64,192,60576,1,0,0:0:0:0:
192,192,60576,1,0,0:0:0:0:
320,192,60681,1,0,0:0:0:0:
448,192,60681,1,0,0:0:0:0:
192,192,60786,1,0,0:0:0:0:
320,192,60786,1,0,0:0:0:0:
448,192,60786,1,0,0:0:0:0:
64,192,60891,1,0,0:0:0:0:
320,192,60891,1,0,0:0:0:0:
64,192,60996,1,0,0:0:0:0:
192,192,60996,1,0,0:0:0:0:
448,192,60996,1,0,0:0:0:0:
448,192,61101,1,0,0:0:0:0:
64,192,61101,1,0,0:0:0:0:
320,192,61153,1,0,0:0:0:0:
64,192,61206,1,0,0:0:0:0:
192,192,61206,1,0,0:0:0:0:
448,192,61206,128,0,61311:0:0:0:0:
64,192,61415,128,0,61520:0:0:0:0:
320,192,61625,128,0,61730:0:0:0:0:
192,192,61730,128,0,61835:0:0:0:0:
448,192,61835,128,0,61940:0:0:0:0:
64,192,61835,1,0,0:0:0:0:
320,192,61835,1,0,0:0:0:0:
192,192,61940,1,0,0:0:0:0:
64,192,62045,128,0,62150:0:0:0:0:
448,192,62045,1,0,0:0:0:0:
320,192,62150,1,0,0:0:0:0:
448,192,62255,128,0,62360:0:0:0:0:
64,192,62255,1,0,0:0:0:0:
192,192,62307,1,0,0:0:0:0:
320,192,62360,1,0,0:0:0:0:
64,192,62412,1,0,0:0:0:0:
192,192,62464,1,0,0:0:0:0:
448,192,62464,1,0,0:0:0:0:
320,192,62534,1,0,0:0:0:0:
192,192,62604,1,0,0:0:0:0:
320,192,62674,1,0,0:0:0:0:
448,192,62674,1,0,0:0:0:0:
192,192,62744,1,0,0:0:0:0:
320,192,62814,1,0,0:0:0:0:
448,192,62884,1,0,0:0:0:0:
192,192,62884,1,0,0:0:0:0:
64,192,62936,1,0,0:0:0:0:
192,192,62989,1,0,0:0:0:0:
320,192,63041,1,0,0:0:0:0:
448,192,63094,1,0,0:0:0:0:
64,192,63094,1,0,0:0:0:0:
192,192,63094,1,0,0:0:0:0:
320,192,63199,1,0,0:0:0:0:
448,192,63199,1,0,0:0:0:0:
192,192,63304,1,0,0:0:0:0:
64,192,63304,1,0,0:0:0:0:
448,192,63304,1,0,0:0:0:0:
64,192,63408,1,0,0:0:0:0:
320,192,63408,1,0,0:0:0:0:
448,192,63513,1,0,0:0:0:0:
64,192,63513,1,0,0:0:0:0:
192,192,63513,1,0,0:0:0:0:
320,192,63566,1,0,0:0:0:0:
192,192,63618,1,0,0:0:0:0:
320,192,63671,1,0,0:0:0:0:
192,192,63723,128,0,64038:0:0:0:0:
64,192,63723,128,0,64038:0:0:0:0:
448,192,63723,1,0,0:0:0:0:
320,192,64038,1,0,0:0:0:0:
192,192,64143,128,0,64248:0:0:0:0:
64,192,64353,1,0,0:0:0:0:
320,192,64353,128,0,64457:0:0:0:0:
448,192,64353,1,0,0:0:0:0:
192,192,64562,128,0,64667:0:0:0:0:
320,192,64772,128,0,64877:0:0:0:0:
320,192,64982,1,0,0:0:0:0:
192,192,64982,128,0,65297:0:0:0:0:
64,192,64982,128,0,65297:0:0:0:0:
448,192,64982,1,0,0:0:0:0:
448,192,65297,1,0,0:0:0:0:
192,192,65401,128,0,65506:0:0:0:0:
320,192,65611,1,0,0:0:0:0:
448,192,65611,1,0,0:0:0:0:
64,192,65611,1,0,0:0:0:0:
320,192,65716,1,0,0:0:0:0:
448,192,65716,1,0,0:0:0:0:
192,192,65821,1,0,0:0:0:0:
64,192,65821,1,0,0:0:0:0:
448,192,65821,1,0,0:0:0:0:
64,192,65926,1,0,0:0:0:0:
320,192,65926,1,0,0:0:0:0:
448,192,66031,1,0,0:0:0:0:
64,192,66031,1,0,0:0:0:0:
192,192,66031,1,0,0:0:0:0:
448,192,66136,1,0,0:0:0:0:
320,192,66136,1,0,0:0:0:0:
192,192,66188,1,0,0:0:0:0:
448,192,66241,1,0,0:0:0:0:
320,192,66241,128,0,66450:0:0:0:0:
64,192,66241,128,0,66346:0:0:0:0:
192,192,66450,128,0,66660:0:0:0:0:
64,192,66450,1,0,0:0:0:0:
448,192,66450,128,0,66555:0:0:0:0:
320,192,66660,128,0,66713:0:0:0:0:
320,192,66870,1,0,0:0:0:0:
448,192,66870,128,0,67080:0:0:0:0:
64,192,66870,128,0,66975:0:0:0:0:
320,192,67080,128,0,67185:0:0:0:0:
192,192,67080,128,0,67290:0:0:0:0:
64,192,67080,1,0,0:0:0:0:
320,192,67290,128,0,67342:0:0:0:0:
64,192,67290,1,0,0:0:0:0:
448,192,67342,1,0,0:0:0:0:
192,192,67394,1,0,0:0:0:0:
64,192,67447,1,0,0:0:0:0:
448,192,67499,1,0,0:0:0:0:
320,192,67499,1,0,0:0:0:0:
192,192,67499,1,0,0:0:0:0:
448,192,67604,1,0,0:0:0:0:
64,192,67709,1,0,0:0:0:0:
448,192,67709,1,0,0:0:0:0:
192,192,67709,1,0,0:0:0:0:
192,192,67814,1,0,0:0:0:0:
320,192,67919,1,0,0:0:0:0:
448,192,67919,1,0,0:0:0:0:
192,192,67919,1,0,0:0:0:0:
320,192,68024,1,0,0:0:0:0:
192,192,68129,1,0,0:0:0:0:
320,192,68129,1,0,0:0:0:0:
64,192,68129,1,0,0:0:0:0:
64,192,68234,1,0,0:0:0:0:
64,192,68339,1,0,0:0:0:0:
320,192,68339,1,0,0:0:0:0:
448,192,68339,1,0,0:0:0:0:
320,192,68443,1,0,0:0:0:0:
64,192,68548,1,0,0:0:0:0:
320,192,68548,1,0,0:0:0:0:
448,192,68548,1,0,0:0:0:0:
192,192,68601,1,0,0:0:0:0:
448,192,68653,1,0,0:0:0:0:
192,192,68706,1,0,0:0:0:0:
448,192,68758,128,0,69283:0:0:0:0:
320,192,68758,128,0,69073:0:0:0:0:
64,192,68758,128,0,68968:0:0:0:0:
192,192,69073,1,0,0:0:0:0:
64,192,69073,1,0,0:0:0:0:
192,192,69178,1,0,0:0:0:0:
64,192,69178,128,0,69387:0:0:0:0:
320,192,69178,128,0,69283:0:0:0:0:
320,192,69387,1,0,0:0:0:0:
448,192,69387,1,0,0:0:0:0:
192,192,69387,1,0,0:0:0:0:
64,192,69457,1,0,0:0:0:0:
192,192,69527,1,0,0:0:0:0:
64,192,69597,1,0,0:0:0:0:
448,192,69597,1,0,0:0:0:0:
320,192,69597,1,0,0:0:0:0:
192,192,69667,1,0,0:0:0:0:
320,192,69737,1,0,0:0:0:0:
64,192,69807,1,0,0:0:0:0:
448,192,69807,1,0,0:0:0:0:
192,192,69807,1,0,0:0:0:0:
320,192,69877,1,0,0:0:0:0:
64,192,69947,1,0,0:0:0:0:
192,192,70017,1,0,0:0:0:0:
448,192,70017,128,0,70227:0:0:0:0:
320,192,70017,128,0,70227:0:0:0:0:
64,192,70227,128,0,70332:0:0:0:0:
192,192,70227,128,0,70332:0:0:0:0:
320,192,70332,1,0,0:0:0:0:
448,192,70332,1,0,0:0:0:0:
192,192,70436,1,0,0:0:0:0:
448,192,70436,128,0,70646:0:0:0:0:
64,192,70436,128,0,70541:0:0:0:0:
64,192,70646,1,0,0:0:0:0:
320,192,70646,1,0,0:0:0:0:
192,192,70751,1,0,0:0:0:0:
448,192,70751,1,0,0:0:0:0:
448,192,70856,1,0,0:0:0:0:
64,192,70856,1,0,0:0:0:0:
192,192,70856,1,0,0:0:0:0:
64,192,70961,1,0,0:0:0:0:
320,192,70961,1,0,0:0:0:0:
320,192,71066,1,0,0:0:0:0:
448,192,71066,1,0,0:0:0:0:
192,192,71066,1,0,0:0:0:0:
64,192,71171,1,0,0:0:0:0:
448,192,71171,1,0,0:0:0:0:
192,192,71223,1,0,0:0:0:0:
448,192,71276,1,0,0:0:0:0:
64,192,71276,128,0,71905:0:0:0:0:
320,192,71276,1,0,0:0:0:0:
192,192,71485,1,0,0:0:0:0:
448,192,71695,1,0,0:0:0:0:
320,192,71800,1,0,0:0:0:0:
192,192,71905,1,0,0:0:0:0:
448,192,71905,1,0,0:0:0:0:
320,192,71957,1,0,0:0:0:0:
192,192,72010,1,0,0:0:0:0:
320,192,72062,1,0,0:0:0:0:
192,192,72115,1,0,0:0:0:0:
320,192,72167,1,0,0:0:0:0:
192,192,72220,1,0,0:0:0:0:
320,192,72272,1,0,0:0:0:0:
192,192,72325,1,0,0:0:0:0:
320,192,72377,1,0,0:0:0:0:
192,192,72429,1,0,0:0:0:0:
320,192,72482,1,0,0:0:0:0:
192,192,72534,1,0,0:0:0:0:
448,192,72534,128,0,73111:0:0:0:0:
64,192,72534,128,0,72744:0:0:0:0:
320,192,72744,128,0,72954:0:0:0:0:
192,192,72954,128,0,73111:0:0:0:0:
320,192,73059,128,0,73164:0:0:0:0:
64,192,73164,128,0,73741:0:0:0:0:
192,192,73164,1,0,0:0:0:0:
448,192,73164,128,0,73373:0:0:0:0:
320,192,73373,128,0,73583:0:0:0:0:
192,192,73583,128,0,73741:0:0:0:0:
448,192,73583,128,0,73741:0:0:0:0:
192,192,73793,1,0,0:0:0:0:
448,192,73793,128,0,74003:0:0:0:0:
64,192,73793,128,0,74003:0:0:0:0:
320,192,73793,128,0,74160:0:0:0:0:
192,192,74003,128,0,74370:0:0:0:0:
64,192,74213,1,0,0:0:0:0:
448,192,74213,128,0,74422:0:0:0:0:
320,192,74213,1,0,0:0:0:0:
64,192,74422,128,0,74999:0:0:0:0:
192,192,74422,1,0,0:0:0:0:
320,192,74422,128,0,74790:0:0:0:0:
448,192,74632,1,0,0:0:0:0:
192,192,74632,1,0,0:0:0:0:
192,192,74842,1,0,0:0:0:0:
448,192,74842,128,0,75052:0:0:0:0:
320,192,74842,1,0,0:0:0:0:
320,192,75052,1,0,0:0:0:0:
192,192,75052,128,0,75629:0:0:0:0:
64,192,75052,128,0,75629:0:0:0:0:
448,192,75262,128,0,75314:0:0:0:0:
448,192,75471,1,0,0:0:0:0:
320,192,75471,128,0,75524:0:0:0:0:
320,192,75681,1,0,0:0:0:0:
64,192,75681,128,0,75734:0:0:0:0:
64,192,75891,128,0,76101:0:0:0:0:
448,192,75891,1,0,0:0:0:0:
320,192,75996,1,0,0:0:0:0:
192,192,76101,128,0,76311:0:0:0:0:
448,192,76101,1,0,0:0:0:0:
448,192,76311,128,0,76520:0:0:0:0:
64,192,76311,1,0,0:0:0:0:
320,192,76311,128,0,76678:0:0:0:0:
192,192,76520,128,0,76887:0:0:0:0:
448,192,76730,128,0,76940:0:0:0:0:
64,192,76730,1,0,0:0:0:0:
320,192,76730,1,0,0:0:0:0:
64,192,76940,1,0,0:0:0:0:
192,192,76940,128,0,77150:0:0:0:0:
320,192,76940,128,0,77255:0:0:0:0:
448,192,77150,1,0,0:0:0:0:
64,192,77150,1,0,0:0:0:0:
448,192,77360,1,0,0:0:0:0:
64,192,77360,128,0,77569:0:0:0:0:
320,192,77360,1,0,0:0:0:0:
448,192,77569,128,0,78408:0:0:0:0:
192,192,77569,1,0,0:0:0:0:
320,192,77569,128,0,78146:0:0:0:0:
192,192,77779,128,0,77832:0:0:0:0:
64,192,77989,128,0,78041:0:0:0:0:
192,192,77989,1,0,0:0:0:0:
192,192,78199,1,0,0:0:0:0:
320,192,78199,1,0,0:0:0:0:
320,192,78408,128,0,78618:0:0:0:0:
64,192,78408,1,0,0:0:0:0:
448,192,78478,1,0,0:0:0:0:
64,192,78548,1,0,0:0:0:0:
192,192,78618,128,0,78828:0:0:0:0:
448,192,78828,128,0,79038:0:0:0:0:
64,192,78828,128,0,78880:0:0:0:0:
320,192,78828,128,0,79195:0:0:0:0:
192,192,79038,128,0,79405:0:0:0:0:
448,192,79248,128,0,79457:0:0:0:0:
64,192,79248,1,0,0:0:0:0:
320,192,79248,1,0,0:0:0:0:
192,192,79457,1,0,0:0:0:0:
64,192,79457,128,0,80034:0:0:0:0:
320,192,79457,128,0,79825:0:0:0:0:
448,192,79667,128,0,79720:0:0:0:0:
192,192,79667,1,0,0:0:0:0:
448,192,79877,128,0,80087:0:0:0:0:
192,192,79877,128,0,79929:0:0:0:0:
320,192,79877,1,0,0:0:0:0:
192,192,80087,128,0,80664:0:0:0:0:
64,192,80087,128,0,80664:0:0:0:0:
320,192,80087,128,0,80139:0:0:0:0:
448,192,80297,1,0,0:0:0:0:
448,192,80506,1,0,0:0:0:0:
320,192,80506,1,0,0:0:0:0:
192,192,80716,1,0,0:0:0:0:
64,192,80716,1,0,0:0:0:0:
64,192,80926,128,0,81031:0:0:0:0:
448,192,80926,128,0,81031:0:0:0:0:
320,192,80926,1,0,0:0:0:0:
448,192,81136,128,0,81241:0:0:0:0:
192,192,81136,128,0,81241:0:0:0:0:
320,192,81136,128,0,81188:0:0:0:0:
192,192,81346,128,0,81398:0:0:0:0:
320,192,81346,128,0,81922:0:0:0:0:
64,192,81346,128,0,82342:0:0:0:0:
448,192,81555,1,0,0:0:0:0:
448,192,81765,1,0,0:0:0:0:
192,192,81765,1,0,0:0:0:0:
320,192,81975,1,0,0:0:0:0:
192,192,81975,1,0,0:0:0:0:
448,192,82185,1,0,0:0:0:0:
448,192,82394,128,0,82604:0:0:0:0:
64,192,82394,128,0,82447:0:0:0:0:
320,192,82394,1,0,0:0:0:0:
64,192,82604,128,0,83653:0:0:0:0:
320,192,82604,128,0,83181:0:0:0:0:
192,192,82604,128,0,82657:0:0:0:0:
448,192,82814,1,0,0:0:0:0:
192,192,82814,1,0,0:0:0:0:
448,192,83024,1,0,0:0:0:0:
192,192,83024,1,0,0:0:0:0:
192,192,83234,1,0,0:0:0:0:
448,192,83234,1,0,0:0:0:0:
320,192,83234,1,0,0:0:0:0:
448,192,83339,1,0,0:0:0:0:
320,192,83443,1,0,0:0:0:0:
192,192,83548,1,0,0:0:0:0:
448,192,83653,1,0,0:0:0:0:
192,192,83706,1,0,0:0:0:0:
320,192,83758,1,0,0:0:0:0:
64,192,83811,1,0,0:0:0:0:
448,192,83863,128,0,84492:0:0:0:0:
320,192,83863,128,0,84125:0:0:0:0:
192,192,83863,128,0,84125:0:0:0:0:
320,192,84178,1,0,0:0:0:0:
64,192,84178,1,0,0:0:0:0:
192,192,84178,1,0,0:0:0:0:
320,192,84387,1,0,0:0:0:0:
64,192,84492,128,0,84702:0:0:0:0:
192,192,84492,1,0,0:0:0:0:
320,192,84597,1,0,0:0:0:0:
448,192,84702,128,0,84912:0:0:0:0:
320,192,84702,1,0,0:0:0:0:
192,192,84702,1,0,0:0:0:0:
64,192,84807,1,0,0:0:0:0:
64,192,84912,128,0,85122:0:0:0:0:
320,192,84912,1,0,0:0:0:0:
192,192,84912,1,0,0:0:0:0:
320,192,85017,1,0,0:0:0:0:
448,192,85122,128,0,85332:0:0:0:0:
192,192,85122,1,0,0:0:0:0:
64,192,85227,1,0,0:0:0:0:
320,192,85332,128,0,85541:0:0:0:0:
64,192,85436,1,0,0:0:0:0:
448,192,85436,1,0,0:0:0:0:
192,192,85436,1,0,0:0:0:0:
192,192,85541,128,0,85751:0:0:0:0:
320,192,85646,1,0,0:0:0:0:
448,192,85751,1,0,0:0:0:0:
64,192,85751,128,0,86328:0:0:0:0:
192,192,85961,1,0,0:0:0:0:
320,192,85961,1,0,0:0:0:0:
448,192,85961,1,0,0:0:0:0:
320,192,86066,1,0,0:0:0:0:
192,192,86171,128,0,86328:0:0:0:0:
448,192,86171,1,0,0:0:0:0:
448,192,86276,128,0,86380:0:0:0:0:
320,192,86276,1,0,0:0:0:0:
320,192,86380,1,0,0:0:0:0:
192,192,86380,1,0,0:0:0:0:
64,192,86380,128,0,86957:0:0:0:0:
448,192,86590,1,0,0:0:0:0:
320,192,86590,1,0,0:0:0:0:
192,192,86590,1,0,0:0:0:0:
320,192,86800,128,0,86957:0:0:0:0:
448,192,86905,128,0,87010:0:0:0:0:
192,192,86905,1,0,0:0:0:0:
192,192,87010,1,0,0:0:0:0:
320,192,87010,1,0,0:0:0:0:
64,192,87010,128,0,87377:0:0:0:0:
192,192,87220,1,0,0:0:0:0:
448,192,87220,128,0,87429:0:0:0:0:
320,192,87220,1,0,0:0:0:0:
64,192,87429,1,0,0:0:0:0:
192,192,87429,128,0,87534:0:0:0:0:
320,192,87534,1,0,0:0:0:0:
448,192,87534,1,0,0:0:0:0:
64,192,87587,1,0,0:0:0:0:
448,192,87639,1,0,0:0:0:0:
192,192,87639,1,0,0:0:0:0:
320,192,87639,128,0,87849:0:0:0:0:
64,192,87744,1,0,0:0:0:0:
448,192,87849,1,0,0:0:0:0:
192,192,87849,1,0,0:0:0:0:
64,192,87849,128,0,88059:0:0:0:0:
320,192,87954,1,0,0:0:0:0:
448,192,88059,128,0,88269:0:0:0:0:
320,192,88059,1,0,0:0:0:0:
192,192,88059,1,0,0:0:0:0:
64,192,88164,1,0,0:0:0:0:
192,192,88269,1,0,0:0:0:0:
320,192,88269,1,0,0:0:0:0:
64,192,88269,128,0,88373:0:0:0:0:
320,192,88373,1,0,0:0:0:0:
448,192,88373,128,0,88478:0:0:0:0:
192,192,88478,128,0,88583:0:0:0:0:
64,192,88478,1,0,0:0:0:0:
64,192,88583,1,0,0:0:0:0:
320,192,88583,128,0,88688:0:0:0:0:
448,192,88688,1,0,0:0:0:0:
192,192,88688,128,0,88793:0:0:0:0:
448,192,88793,1,0,0:0:0:0:
320,192,88793,1,0,0:0:0:0:
64,192,88846,1,0,0:0:0:0:
448,192,88898,128,0,89160:0:0:0:0:
192,192,88898,128,0,89160:0:0:0:0:
320,192,88898,128,0,89527:0:0:0:0:
448,192,89213,1,0,0:0:0:0:
192,192,89213,1,0,0:0:0:0:
64,192,89213,1,0,0:0:0:0:
448,192,89422,1,0,0:0:0:0:
192,192,89527,1,0,0:0:0:0:
64,192,89527,128,0,89737:0:0:0:0:
320,192,89632,1,0,0:0:0:0:
320,192,89737,1,0,0:0:0:0:
448,192,89737,128,0,89947:0:0:0:0:
192,192,89737,1,0,0:0:0:0:
64,192,89842,1,0,0:0:0:0:
320,192,89947,128,0,90157:0:0:0:0:
64,192,89947,1,0,0:0:0:0:
192,192,89947,1,0,0:0:0:0:
192,192,90052,1,0,0:0:0:0:
64,192,90157,128,0,90366:0:0:0:0:
448,192,90157,1,0,0:0:0:0:
320,192,90262,1,0,0:0:0:0:
192,192,90366,128,0,90576:0:0:0:0:
64,192,90471,1,0,0:0:0:0:
448,192,90471,1,0,0:0:0:0:
320,192,90471,1,0,0:0:0:0:
448,192,90576,128,0,90786:0:0:0:0:
64,192,90681,1,0,0:0:0:0:
320,192,90786,128,0,91363:0:0:0:0:
192,192,90786,1,0,0:0:0:0:
64,192,90996,1,0,0:0:0:0:
448,192,90996,1,0,0:0:0:0:
192,192,90996,1,0,0:0:0:0:
192,192,91101,1,0,0:0:0:0:
448,192,91206,128,0,91363:0:0:0:0:
64,192,91206,1,0,0:0:0:0:
64,192,91311,128,0,91415:0:0:0:0:
192,192,91311,1,0,0:0:0:0:
320,192,91415,1,0,0:0:0:0:
448,192,91415,1,0,0:0:0:0:
192,192,91415,128,0,91992:0:0:0:0:
64,192,91625,1,0,0:0:0:0:
320,192,91625,1,0,0:0:0:0:
448,192,91625,1,0,0:0:0:0:
64,192,91835,128,0,91992:0:0:0:0:
448,192,91940,128,0,92045:0:0:0:0:
320,192,91940,1,0,0:0:0:0:
320,192,92045,1,0,0:0:0:0:
64,192,92045,1,0,0:0:0:0:
192,192,92045,128,0,92412:0:0:0:0:
64,192,92255,1,0,0:0:0:0:
320,192,92255,1,0,0:0:0:0:
448,192,92255,128,0,92464:0:0:0:0:
192,192,92464,1,0,0:0:0:0:
320,192,92464,128,0,92569:0:0:0:0:
64,192,92569,1,0,0:0:0:0:
448,192,92569,1,0,0:0:0:0:
192,192,92622,1,0,0:0:0:0:
64,192,92674,128,0,93304:0:0:0:0:
320,192,92674,1,0,0:0:0:0:
448,192,92674,1,0,0:0:0:0:
320,192,92779,1,0,0:0:0:0:
192,192,92884,1,0,0:0:0:0:
448,192,92884,1,0,0:0:0:0:
192,192,92989,1,0,0:0:0:0:
320,192,93094,1,0,0:0:0:0:
448,192,93094,1,0,0:0:0:0:
448,192,93199,1,0,0:0:0:0:
320,192,93304,1,0,0:0:0:0:
192,192,93304,1,0,0:0:0:0:
64,192,93408,1,0,0:0:0:0:
320,192,93513,1,0,0:0:0:0:
448,192,93513,1,0,0:0:0:0:
192,192,93566,1,0,0:0:0:0:
320,192,93618,1,0,0:0:0:0:
448,192,93671,1,0,0:0:0:0:
192,192,93723,1,0,0:0:0:0:
64,192,93723,1,0,0:0:0:0:
448,192,93776,1,0,0:0:0:0:
320,192,93776,1,0,0:0:0:0:
192,192,93828,1,0,0:0:0:0:
64,192,93828,1,0,0:0:0:0:
320,192,93880,1,0,0:0:0:0:
192,192,93933,1,0,0:0:0:0:
448,192,93933,128,0,94248:0:0:0:0:
64,192,93933,128,0,94090:0:0:0:0:
64,192,94143,1,0,0:0:0:0:
192,192,94143,1,0,0:0:0:0:
192,192,94248,1,0,0:0:0:0:
320,192,94353,1,0,0:0:0:0:
448,192,94353,1,0,0:0:0:0:
64,192,94353,1,0,0:0:0:0:
320,192,94457,1,0,0:0:0:0:
64,192,94510,1,0,0:0:0:0:
192,192,94562,128,0,94877:0:0:0:0:
448,192,94562,128,0,94720:0:0:0:0:
64,192,94667,1,0,0:0:0:0:
320,192,94772,1,0,0:0:0:0:
448,192,94772,1,0,0:0:0:0:
320,192,94877,1,0,0:0:0:0:
448,192,94982,1,0,0:0:0:0:
192,192,94982,1,0,0:0:0:0:
64,192,94982,1,0,0:0:0:0:
192,192,95087,1,0,0:0:0:0:
64,192,95139,1,0,0:0:0:0:
448,192,95192,128,0,95506:0:0:0:0:
320,192,95192,128,0,95401:0:0:0:0:
192,192,95297,1,0,0:0:0:0:
64,192,95401,128,0,95821:0:0:0:0:
192,192,95401,1,0,0:0:0:0:
320,192,95506,1,0,0:0:0:0:
448,192,95611,1,0,0:0:0:0:
320,192,95611,1,0,0:0:0:0:
192,192,95611,1,0,0:0:0:0:
448,192,95716,1,0,0:0:0:0:
192,192,95821,128,0,95978:0:0:0:0:
320,192,95821,1,0,0:0:0:0:
64,192,95926,1,0,0:0:0:0:
448,192,96031,128,0,96241:0:0:0:0:
192,192,96031,1,0,0:0:0:0:
320,192,96031,1,0,0:0:0:0:
64,192,96136,1,0,0:0:0:0:
64,192,96241,1,0,0:0:0:0:
192,192,96241,1,0,0:0:0:0:
320,192,96241,128,0,96346:0:0:0:0:
448,192,96346,1,0,0:0:0:0:
192,192,96346,128,0,96450:0:0:0:0:
448,192,96450,128,0,96818:0:0:0:0:
64,192,96450,128,0,96818:0:0:0:0:
320,192,96450,1,0,0:0:0:0:
192,192,96555,1,0,0:0:0:0:
320,192,96660,1,0,0:0:0:0:
192,192,96660,1,0,0:0:0:0:
320,192,96765,1,0,0:0:0:0:
192,192,96870,1,0,0:0:0:0:
64,192,96870,1,0,0:0:0:0:
448,192,96870,128,0,96975:0:0:0:0:
192,192,96975,128,0,97080:0:0:0:0:
64,192,97080,1,0,0:0:0:0:
320,192,97080,128,0,97185:0:0:0:0:
64,192,97185,128,0,97290:0:0:0:0:
448,192,97290,1,0,0:0:0:0:
320,192,97290,128,0,97394:0:0:0:0:
448,192,97394,128,0,97499:0:0:0:0:
192,192,97499,1,0,0:0:0:0:
64,192,97499,1,0,0:0:0:0:
320,192,97499,128,0,97604:0:0:0:0:
64,192,97604,128,0,97709:0:0:0:0:
192,192,97709,1,0,0:0:0:0:
320,192,97709,1,0,0:0:0:0:
448,192,97709,1,0,0:0:0:0:
448,192,97814,1,0,0:0:0:0:
192,192,97814,1,0,0:0:0:0:
64,192,97919,1,0,0:0:0:0:
192,192,97919,1,0,0:0:0:0:
448,192,98024,1,0,0:0:0:0:
320,192,98024,1,0,0:0:0:0:
448,192,98129,1,0,0:0:0:0:
192,192,98129,1,0,0:0:0:0:
320,192,98129,1,0,0:0:0:0:
448,192,98234,1,0,0:0:0:0:
64,192,98234,1,0,0:0:0:0:
64,192,98339,1,0,0:0:0:0:
320,192,98339,1,0,0:0:0:0:
192,192,98339,1,0,0:0:0:0:
448,192,98443,1,0,0:0:0:0:
320,192,98548,1,0,0:0:0:0:
192,192,98548,1,0,0:0:0:0:
64,192,98653,1,0,0:0:0:0:
448,192,98653,1,0,0:0:0:0:
448,192,98758,1,0,0:0:0:0:
64,192,98758,1,0,0:0:0:0:
320,192,98758,1,0,0:0:0:0:
64,192,98863,1,0,0:0:0:0:
192,192,98863,1,0,0:0:0:0:
320,192,98968,1,0,0:0:0:0:
192,192,98968,1,0,0:0:0:0:
448,192,98968,1,0,0:0:0:0:
64,192,98968,128,0,99125:0:0:0:0:
320,192,99073,1,0,0:0:0:0:
64,192,99178,128,0,99335:0:0:0:0:
448,192,99178,1,0,0:0:0:0:
448,192,99283,1,0,0:0:0:0:
64,192,99387,128,0,99545:0:0:0:0:
320,192,99387,1,0,0:0:0:0:
192,192,99387,1,0,0:0:0:0:
320,192,99492,1,0,0:0:0:0:
192,192,99545,1,0,0:0:0:0:
448,192,99597,1,0,0:0:0:0:
64,192,99597,128,0,99860:0:0:0:0:
448,192,99702,1,0,0:0:0:0:
192,192,99807,1,0,0:0:0:0:
320,192,99807,1,0,0:0:0:0:
448,192,99860,128,0,99912:0:0:0:0:
320,192,99912,128,0,99964:0:0:0:0:
448,192,100017,128,0,100122:0:0:0:0:
64,192,100017,1,0,0:0:0:0:
192,192,100017,1,0,0:0:0:0:
320,192,100069,128,0,100174:0:0:0:0:
64,192,100122,128,0,100174:0:0:0:0:
192,192,100174,128,0,100227:0:0:0:0:
320,192,100227,1,0,0:0:0:0:
448,192,100227,1,0,0:0:0:0:
64,192,100227,128,0,100332:0:0:0:0:
448,192,100332,128,0,100436:0:0:0:0:
64,192,100436,128,0,100541:0:0:0:0:
320,192,100436,1,0,0:0:0:0:
192,192,100436,1,0,0:0:0:0:
448,192,100541,128,0,100646:0:0:0:0:
192,192,100646,128,0,100751:0:0:0:0:
320,192,100646,1,0,0:0:0:0:
64,192,100646,1,0,0:0:0:0:
320,192,100751,128,0,100856:0:0:0:0:
448,192,100856,1,0,0:0:0:0:
64,192,100856,128,0,101223:0:0:0:0:
320,192,100961,1,0,0:0:0:0:
448,192,100961,1,0,0:0:0:0:
192,192,100961,1,0,0:0:0:0:
320,192,101066,1,0,0:0:0:0:
192,192,101066,1,0,0:0:0:0:
448,192,101171,128,0,101276:0:0:0:0:
320,192,101276,1,0,0:0:0:0:
64,192,101276,1,0,0:0:0:0:
192,192,101276,128,0,101380:0:0:0:0:
320,192,101380,128,0,101485:0:0:0:0:
64,192,101485,1,0,0:0:0:0:
192,192,101485,1,0,0:0:0:0:
448,192,101485,128,0,101695:0:0:0:0:
320,192,101590,1,0,0:0:0:0:
192,192,101695,1,0,0:0:0:0:
64,192,101695,1,0,0:0:0:0:
320,192,101748,128,0,101800:0:0:0:0:
448,192,101800,128,0,101905:0:0:0:0:
192,192,101905,1,0,0:0:0:0:
64,192,101905,1,0,0:0:0:0:
320,192,101905,128,0,102010:0:0:0:0:
192,192,102010,128,0,102115:0:0:0:0:
448,192,102010,1,0,0:0:0:0:
64,192,102115,128,0,102220:0:0:0:0:
448,192,102115,1,0,0:0:0:0:
320,192,102220,128,0,102325:0:0:0:0:
192,192,102220,1,0,0:0:0:0:
192,192,102325,128,0,102429:0:0:0:0:
64,192,102325,1,0,0:0:0:0:
320,192,102429,1,0,0:0:0:0:
448,192,102429,128,0,102534:0:0:0:0:
320,192,102534,1,0,0:0:0:0:
64,192,102534,1,0,0:0:0:0:
192,192,102534,1,0,0:0:0:0:
448,192,102587,128,0,102639:0:0:0:0:
192,192,102639,128,0,102692:0:0:0:0:
320,192,102692,128,0,102744:0:0:0:0:
192,192,102744,1,0,0:0:0:0:
64,192,102744,128,0,102849:0:0:0:0:
448,192,102744,128,0,102849:0:0:0:0:
320,192,102849,1,0,0:0:0:0:
64,192,102954,1,0,0:0:0:0:
448,192,102954,1,0,0:0:0:0:
64,192,103059,1,0,0:0:0:0:
192,192,103059,128,0,103164:0:0:0:0:
448,192,103059,128,0,103164:0:0:0:0:
320,192,103164,1,0,0:0:0:0:
192,192,103269,1,0,0:0:0:0:
448,192,103269,1,0,0:0:0:0:
448,192,103373,128,0,103478:0:0:0:0:
320,192,103373,128,0,103478:0:0:0:0:
192,192,103373,1,0,0:0:0:0:
64,192,103478,1,0,0:0:0:0:
320,192,103583,1,0,0:0:0:0:
448,192,103583,1,0,0:0:0:0:
448,192,103688,1,0,0:0:0:0:
64,192,103688,1,0,0:0:0:0:
320,192,103688,1,0,0:0:0:0:
448,192,103793,1,0,0:0:0:0:
192,192,103793,1,0,0:0:0:0:
64,192,103793,1,0,0:0:0:0:
64,192,103898,1,0,0:0:0:0:
320,192,103898,1,0,0:0:0:0:
192,192,103898,1,0,0:0:0:0:
320,192,104003,1,0,0:0:0:0:
192,192,104003,1,0,0:0:0:0:
64,192,104003,1,0,0:0:0:0:
448,192,104003,128,0,104220:0:0:0:0:
64,192,104220,128,0,104437:0:0:0:0:
320,192,104329,1,0,0:0:0:0:
192,192,104437,128,0,104655:0:0:0:0:
320,192,104437,1,0,0:0:0:0:
320,192,104655,128,0,104872:0:0:0:0:
448,192,104655,1,0,0:0:0:0:
64,192,104655,1,0,0:0:0:0:
448,192,104872,128,0,105089:0:0:0:0:
192,192,104981,1,0,0:0:0:0:
64,192,105089,128,0,105253:0:0:0:0:
192,192,105089,1,0,0:0:0:0:
448,192,105307,1,0,0:0:0:0:
64,192,105307,128,0,105524:0:0:0:0:
320,192,105524,128,0,105742:0:0:0:0:
448,192,105633,1,0,0:0:0:0:
448,192,105742,1,0,0:0:0:0:
192,192,105742,128,0,105905:0:0:0:0:
320,192,105959,1,0,0:0:0:0:
192,192,105959,128,0,106176:0:0:0:0:
64,192,105959,1,0,0:0:0:0:
448,192,106176,128,0,106394:0:0:0:0:
64,192,106249,1,0,0:0:0:0:
192,192,106321,1,0,0:0:0:0:
320,192,106394,128,0,106611:0:0:0:0:
64,192,106394,1,0,0:0:0:0:
448,192,106611,128,0,106829:0:0:0:0:
192,192,106611,1,0,0:0:0:0:
320,192,106829,128,0,107046:0:0:0:0:
64,192,106937,1,0,0:0:0:0:
192,192,107046,128,0,107263:0:0:0:0:
64,192,107046,1,0,0:0:0:0:
64,192,107263,128,0,107481:0:0:0:0:
320,192,107263,1,0,0:0:0:0:
448,192,107263,1,0,0:0:0:0:
448,192,107481,128,0,107698:0:0:0:0:
320,192,107589,1,0,0:0:0:0:
320,192,107698,1,0,0:0:0:0:
192,192,107698,128,0,107916:0:0:0:0:
320,192,107916,128,0,108133:0:0:0:0:
448,192,107916,1,0,0:0:0:0:
64,192,107916,1,0,0:0:0:0:
192,192,108133,128,0,108350:0:0:0:0:
448,192,108242,1,0,0:0:0:0:
448,192,108350,128,0,108568:0:0:0:0:
64,192,108350,1,0,0:0:0:0:
64,192,108568,128,0,108785:0:0:0:0:
192,192,108568,1,0,0:0:0:0:
320,192,108568,1,0,0:0:0:0:
320,192,108785,128,0,109003:0:0:0:0:
192,192,108785,1,0,0:0:0:0:
448,192,108894,1,0,0:0:0:0:
192,192,109003,128,0,109220:0:0:0:0:
448,192,109003,1,0,0:0:0:0:
320,192,109220,128,0,109437:0:0:0:0:
448,192,109220,1,0,0:0:0:0:
64,192,109220,1,0,0:0:0:0:
448,192,109437,128,0,109655:0:0:0:0:
192,192,109546,1,0,0:0:0:0:
64,192,109655,128,0,109872:0:0:0:0:
192,192,109655,1,0,0:0:0:0:
320,192,109872,128,0,110089:0:0:0:0:
448,192,109872,1,0,0:0:0:0:
192,192,109872,1,0,0:0:0:0:
192,192,110089,128,0,110307:0:0:0:0:
448,192,110162,1,0,0:0:0:0:
64,192,110234,1,0,0:0:0:0:
320,192,110307,128,0,110524:0:0:0:0:
448,192,110307,1,0,0:0:0:0:
64,192,110524,128,0,110742:0:0:0:0:
448,192,110524,1,0,0:0:0:0:
192,192,110524,1,0,0:0:0:0:
320,192,110714,128,0,110850:0:0:0:0:
448,192,110742,128,0,110959:0:0:0:0:
64,192,110850,1,0,0:0:0:0:
192,192,110959,128,0,111176:0:0:0:0:
64,192,110959,1,0,0:0:0:0:
320,192,111176,128,0,111394:0:0:0:0:
64,192,111176,1,0,0:0:0:0:
448,192,111176,1,0,0:0:0:0:
192,192,111394,128,0,111611:0:0:0:0:
64,192,111448,1,0,0:0:0:0:
448,192,111503,1,0,0:0:0:0:
64,192,111611,128,0,111829:0:0:0:0:
320,192,111611,1,0,0:0:0:0:
320,192,111829,128,0,112046:0:0:0:0:
448,192,111829,1,0,0:0:0:0:
448,192,112046,128,0,112263:0:0:0:0:
64,192,112155,1,0,0:0:0:0:
192,192,112263,128,0,112481:0:0:0:0:
64,192,112263,1,0,0:0:0:0:
64,192,112481,128,0,112698:0:0:0:0:
320,192,112481,1,0,0:0:0:0:
448,192,112481,1,0,0:0:0:0:
320,192,112698,128,0,112916:0:0:0:0:
192,192,112807,1,0,0:0:0:0:
192,192,112916,128,0,113133:0:0:0:0:
448,192,112916,1,0,0:0:0:0:
320,192,113133,128,0,114437:0:0:0:0:
448,192,113133,1,0,0:0:0:0:
64,192,113133,1,0,0:0:0:0:
192,192,113350,1,0,0:0:0:0:
64,192,113350,1,0,0:0:0:0:
448,192,113423,1,0,0:0:0:0:
192,192,113495,1,0,0:0:0:0:
64,192,113568,1,0,0:0:0:0:
448,192,113640,1,0,0:0:0:0:
192,192,113713,1,0,0:0:0:0:
64,192,113785,1,0,0:0:0:0:
448,192,113785,1,0,0:0:0:0:
64,192,114003,1,0,0:0:0:0:
448,192,114003,1,0,0:0:0:0:
192,192,114220,1,0,0:0:0:0:
64,192,114220,1,0,0:0:0:0:
64,192,114329,1,0,0:0:0:0:
192,192,114329,1,0,0:0:0:0:
448,192,114437,128,0,114662:0:0:0:0:
64,192,114437,128,0,115113:0:0:0:0:
320,192,114662,128,0,114888:0:0:0:0:
192,192,114888,128,0,115113:0:0:0:0:
320,192,115113,128,0,115790:0:0:0:0:
448,192,115113,128,0,115339:0:0:0:0:
64,192,115339,128,0,115564:0:0:0:0:
192,192,115564,128,0,115733:0:0:0:0:
64,192,115790,128,0,116467:0:0:0:0:
192,192,115790,128,0,116015:0:0:0:0:
448,192,116015,128,0,116241:0:0:0:0:
320,192,116241,128,0,116410:0:0:0:0:
448,192,116467,128,0,117143:0:0:0:0:
320,192,116467,128,0,116692:0:0:0:0:
64,192,116692,128,0,116918:0:0:0:0:
320,192,116918,128,0,117143:0:0:0:0:
192,192,116918,1,0,0:0:0:0:
192,192,117143,128,0,117820:0:0:0:0:
64,192,117143,128,0,117369:0:0:0:0:
448,192,117369,128,0,117594:0:0:0:0:
64,192,117594,128,0,117820:0:0:0:0:
320,192,117820,128,0,118497:0:0:0:0:
448,192,117820,128,0,118046:0:0:0:0:
64,192,118046,128,0,118271:0:0:0:0:
192,192,118271,128,0,118497:0:0:0:0:
64,192,118497,128,0,119173:0:0:0:0:
448,192,118497,128,0,118722:0:0:0:0:
320,192,118722,128,0,118948:0:0:0:0:
192,192,118948,128,0,119173:0:0:0:0:
448,192,119173,128,0,119850:0:0:0:0:
320,192,119173,128,0,119399:0:0:0:0:
64,192,119399,128,0,119624:0:0:0:0:
192,192,119399,1,0,0:0:0:0:
320,192,119624,128,0,119850:0:0:0:0:
192,192,119624,1,0,0:0:0:0:
192,192,119850,128,0,120527:0:0:0:0:
64,192,119850,128,0,120076:0:0:0:0:
320,192,120076,128,0,120301:0:0:0:0:
448,192,120301,128,0,120527:0:0:0:0:
320,192,120527,128,0,121203:0:0:0:0:
64,192,120527,128,0,120752:0:0:0:0:
448,192,120752,128,0,120978:0:0:0:0:
64,192,120978,128,0,121203:0:0:0:0:
192,192,121203,128,0,121880:0:0:0:0:
448,192,121203,128,0,121429:0:0:0:0:
320,192,121429,128,0,121655:0:0:0:0:
64,192,121655,128,0,121880:0:0:0:0:
448,192,121880,128,0,122557:0:0:0:0:
320,192,121880,128,0,122106:0:0:0:0:
64,192,122106,128,0,122331:0:0:0:0:
320,192,122331,128,0,122557:0:0:0:0:
192,192,122557,128,0,123233:0:0:0:0:
64,192,122557,128,0,122782:0:0:0:0:
448,192,122782,128,0,123008:0:0:0:0:
64,192,123008,128,0,123233:0:0:0:0:
320,192,123233,128,0,123910:0:0:0:0:
448,192,123233,128,0,123459:0:0:0:0:
192,192,123459,128,0,123685:0:0:0:0:
448,192,123685,128,0,123910:0:0:0:0:
64,192,123910,128,0,125123:0:0:0:0:
192,192,123910,1,0,0:0:0:0:
448,192,124122,1,0,0:0:0:0:
320,192,124228,1,0,0:0:0:0:
448,192,124334,1,0,0:0:0:0:
320,192,124440,1,0,0:0:0:0:
448,192,124547,1,0,0:0:0:0:
192,192,124547,1,0,0:0:0:0:
320,192,124547,1,0,0:0:0:0:
192,192,124756,128,0,124861:0:0:0:0:
320,192,124966,128,0,125071:0:0:0:0:
448,192,125176,128,0,125386:0:0:0:0:
192,192,125176,1,0,0:0:0:0:
64,192,125176,128,0,125386:0:0:0:0:
320,192,125176,128,0,125386:0:0:0:0:
192,192,125386,1,0,0:0:0:0:
64,192,125456,1,0,0:0:0:0:
320,192,125491,1,0,0:0:0:0:
448,192,125491,1,0,0:0:0:0:
192,192,125526,1,0,0:0:0:0:
448,192,125595,1,0,0:0:0:0:
320,192,125595,1,0,0:0:0:0:
64,192,125595,1,0,0:0:0:0:
64,192,125700,1,0,0:0:0:0:
192,192,125805,1,0,0:0:0:0:
448,192,125805,1,0,0:0:0:0:
64,192,125805,128,0,125910:0:0:0:0:
320,192,125910,1,0,0:0:0:0:
64,192,126015,1,0,0:0:0:0:
448,192,126015,1,0,0:0:0:0:
192,192,126015,128,0,126120:0:0:0:0:
448,192,126120,1,0,0:0:0:0:
64,192,126225,1,0,0:0:0:0:
192,192,126225,1,0,0:0:0:0:
320,192,126225,128,0,126330:0:0:0:0:
192,192,126330,1,0,0:0:0:0:
448,192,126435,128,0,126749:0:0:0:0:
64,192,126435,128,0,126644:0:0:0:0:
320,192,126435,1,0,0:0:0:0:
192,192,126644,1,0,0:0:0:0:
320,192,126749,1,0,0:0:0:0:
64,192,126749,1,0,0:0:0:0:
448,192,126854,128,0,126959:0:0:0:0:
192,192,126854,1,0,0:0:0:0:
64,192,126854,1,0,0:0:0:0:
64,192,127064,1,0,0:0:0:0:
448,192,127064,128,0,127169:0:0:0:0:
320,192,127169,1,0,0:0:0:0:
192,192,127169,1,0,0:0:0:0:
320,192,127274,1,0,0:0:0:0:
448,192,127274,128,0,127379:0:0:0:0:
64,192,127274,1,0,0:0:0:0:
64,192,127379,1,0,0:0:0:0:
192,192,127379,1,0,0:0:0:0:
64,192,127484,128,0,127588:0:0:0:0:
448,192,127484,1,0,0:0:0:0:
320,192,127484,1,0,0:0:0:0:
448,192,127588,1,0,0:0:0:0:
192,192,127588,1,0,0:0:0:0:
320,192,127641,1,0,0:0:0:0:
448,192,127693,128,0,128008:0:0:0:0:
192,192,127693,128,0,127903:0:0:0:0:
64,192,127693,1,0,0:0:0:0:
320,192,127903,128,0,128060:0:0:0:0:
192,192,128008,128,0,128113:0:0:0:0:
64,192,128008,1,0,0:0:0:0:
448,192,128113,128,0,128323:0:0:0:0:
64,192,128113,1,0,0:0:0:0:
320,192,128113,1,0,0:0:0:0:
320,192,128323,128,0,128393:0:0:0:0:
192,192,128323,1,0,0:0:0:0:
64,192,128323,1,0,0:0:0:0:
448,192,128393,128,0,128463:0:0:0:0:
320,192,128463,128,0,128533:0:0:0:0:
64,192,128533,1,0,0:0:0:0:
192,192,128533,128,0,128602:0:0:0:0:
448,192,128533,1,0,0:0:0:0:
320,192,128602,128,0,128672:0:0:0:0:
192,192,128672,128,0,128742:0:0:0:0:
64,192,128742,128,0,128812:0:0:0:0:
320,192,128742,1,0,0:0:0:0:
448,192,128742,1,0,0:0:0:0:
192,192,128812,128,0,128882:0:0:0:0:
64,192,128882,128,0,128952:0:0:0:0:
192,192,128952,128,0,129162:0:0:0:0:
448,192,128952,1,0,0:0:0:0:
320,192,128952,128,0,129267:0:0:0:0:
448,192,129162,128,0,129581:0:0:0:0:
192,192,129267,1,0,0:0:0:0:
64,192,129267,1,0,0:0:0:0:
192,192,129372,1,0,0:0:0:0:
64,192,129372,1,0,0:0:0:0:
320,192,129372,1,0,0:0:0:0:
320,192,129477,1,0,0:0:0:0:
192,192,129581,1,0,0:0:0:0:
64,192,129581,1,0,0:0:0:0:
448,192,129686,1,0,0:0:0:0:
320,192,129686,1,0,0:0:0:0:
64,192,129791,1,0,0:0:0:0:
448,192,129791,1,0,0:0:0:0:
192,192,129791,1,0,0:0:0:0:
64,192,129896,1,0,0:0:0:0:
320,192,129896,1,0,0:0:0:0:
448,192,130001,1,0,0:0:0:0:
192,192,130001,1,0,0:0:0:0:
64,192,130001,1,0,0:0:0:0:
448,192,130106,1,0,0:0:0:0:
320,192,130106,1,0,0:0:0:0:
192,192,130211,1,0,0:0:0:0:
320,192,130211,1,0,0:0:0:0:
448,192,130211,1,0,0:0:0:0:
64,192,130211,1,0,0:0:0:0:
192,192,130316,1,0,0:0:0:0:
320,192,130421,1,0,0:0:0:0:
64,192,130526,1,0,0:0:0:0:
192,192,130526,1,0,0:0:0:0:
448,192,130630,1,0,0:0:0:0:
320,192,130630,1,0,0:0:0:0:
192,192,130630,1,0,0:0:0:0:
448,192,130735,1,0,0:0:0:0:
192,192,130840,1,0,0:0:0:0:
320,192,130840,1,0,0:0:0:0:
64,192,130840,1,0,0:0:0:0:
64,192,130945,1,0,0:0:0:0:
320,192,131050,1,0,0:0:0:0:
448,192,131050,1,0,0:0:0:0:
192,192,131050,1,0,0:0:0:0:
64,192,131155,1,0,0:0:0:0:
448,192,131260,1,0,0:0:0:0:
64,192,131312,1,0,0:0:0:0:
192,192,131365,1,0,0:0:0:0:
320,192,131417,1,0,0:0:0:0:
192,192,131470,1,0,0:0:0:0:
448,192,131470,1,0,0:0:0:0:
64,192,131470,1,0,0:0:0:0:
448,192,131574,1,0,0:0:0:0:
64,192,131679,1,0,0:0:0:0:
320,192,131784,1,0,0:0:0:0:
448,192,131784,1,0,0:0:0:0:
64,192,131889,1,0,0:0:0:0:
448,192,131889,1,0,0:0:0:0:
192,192,131889,1,0,0:0:0:0:
192,192,131994,1,0,0:0:0:0:
64,192,132099,1,0,0:0:0:0:
320,192,132099,1,0,0:0:0:0:
448,192,132099,1,0,0:0:0:0:
192,192,132204,1,0,0:0:0:0:
64,192,132204,1,0,0:0:0:0:
192,192,132309,1,0,0:0:0:0:
320,192,132309,1,0,0:0:0:0:
448,192,132309,1,0,0:0:0:0:
448,192,132414,1,0,0:0:0:0:
64,192,132414,1,0,0:0:0:0:
64,192,132519,1,0,0:0:0:0:
192,192,132519,1,0,0:0:0:0:
320,192,132519,1,0,0:0:0:0:
448,192,132623,1,0,0:0:0:0:
320,192,132623,1,0,0:0:0:0:
64,192,132676,1,0,0:0:0:0:
448,192,132728,1,0,0:0:0:0:
192,192,132728,1,0,0:0:0:0:
320,192,132728,1,0,0:0:0:0:
320,192,132938,1,0,0:0:0:0:
192,192,133148,1,0,0:0:0:0:
64,192,133358,1,0,0:0:0:0:
448,192,133358,1,0,0:0:0:0:
64,192,133567,1,0,0:0:0:0:
320,192,133777,1,0,0:0:0:0:
64,192,133987,1,0,0:0:0:0:
448,192,133987,1,0,0:0:0:0:
64,192,134197,1,0,0:0:0:0:
448,192,134302,1,0,0:0:0:0:
320,192,134302,1,0,0:0:0:0:
64,192,134407,1,0,0:0:0:0:
192,192,134407,1,0,0:0:0:0:
448,192,134407,1,0,0:0:0:0:
192,192,134616,1,0,0:0:0:0:
320,192,134616,1,0,0:0:0:0:
64,192,134721,1,0,0:0:0:0:
448,192,134721,1,0,0:0:0:0:
64,192,134826,1,0,0:0:0:0:
192,192,134826,1,0,0:0:0:0:
320,192,134826,1,0,0:0:0:0:
320,192,134931,1,0,0:0:0:0:
192,192,134931,1,0,0:0:0:0:
192,192,135036,1,0,0:0:0:0:
448,192,135036,1,0,0:0:0:0:
64,192,135036,1,0,0:0:0:0:
448,192,135141,1,0,0:0:0:0:
320,192,135141,1,0,0:0:0:0:
64,192,135246,1,0,0:0:0:0:
448,192,135246,1,0,0:0:0:0:
320,192,135246,1,0,0:0:0:0:
192,192,135246,1,0,0:0:0:0:
64,192,135456,1,0,0:0:0:0:
448,192,135560,1,0,0:0:0:0:
320,192,135665,1,0,0:0:0:0:
192,192,135665,128,0,135770:0:0:0:0:
64,192,135875,1,0,0:0:0:0:
448,192,135875,128,0,136085:0:0:0:0:
320,192,135875,1,0,0:0:0:0:
320,192,136085,1,0,0:0:0:0:
64,192,136085,128,0,136190:0:0:0:0:
448,192,136190,128,0,136295:0:0:0:0:
320,192,136295,1,0,0:0:0:0:
64,192,136295,128,0,136400:0:0:0:0:
448,192,136400,128,0,136505:0:0:0:0:
320,192,136505,1,0,0:0:0:0:
192,192,136505,1,0,0:0:0:0:
64,192,136714,1,0,0:0:0:0:
320,192,136819,1,0,0:0:0:0:
192,192,136819,1,0,0:0:0:0:
64,192,136924,1,0,0:0:0:0:
448,192,136924,128,0,137029:0:0:0:0:
320,192,137134,1,0,0:0:0:0:
64,192,137134,1,0,0:0:0:0:
192,192,137134,128,0,137344:0:0:0:0:
448,192,137344,1,0,0:0:0:0:
320,192,137344,128,0,137449:0:0:0:0:
192,192,137449,128,0,137553:0:0:0:0:
448,192,137553,1,0,0:0:0:0:
320,192,137553,128,0,137658:0:0:0:0:
192,192,137658,128,0,137763:0:0:0:0:
64,192,137763,1,0,0:0:0:0:
448,192,137763,1,0,0:0:0:0:
320,192,137973,1,0,0:0:0:0:
64,192,138183,128,0,138288:0:0:0:0:
192,192,138183,1,0,0:0:0:0:
192,192,138393,1,0,0:0:0:0:
448,192,138393,1,0,0:0:0:0:
320,192,138393,128,0,138602:0:0:0:0:
448,192,138602,1,0,0:0:0:0:
64,192,138602,128,0,138707:0:0:0:0:
320,192,138707,128,0,138812:0:0:0:0:
448,192,138812,1,0,0:0:0:0:
64,192,138812,128,0,138917:0:0:0:0:
320,192,138917,128,0,139022:0:0:0:0:
448,192,139022,1,0,0:0:0:0:
192,192,139022,1,0,0:0:0:0:
448,192,139232,1,0,0:0:0:0:
192,192,139232,1,0,0:0:0:0:
64,192,139442,1,0,0:0:0:0:
320,192,139442,128,0,139547:0:0:0:0:
64,192,139651,1,0,0:0:0:0:
192,192,139651,1,0,0:0:0:0:
448,192,139651,1,0,0:0:0:0:
320,192,139861,1,0,0:0:0:0:
64,192,139861,128,0,139966:0:0:0:0:
448,192,140071,1,0,0:0:0:0:
192,192,140071,128,0,140176:0:0:0:0:
64,192,140281,128,0,141487:0:0:0:0:
448,192,140281,1,0,0:0:0:0:
320,192,140281,128,0,140386:0:0:0:0:
192,192,140491,128,0,140595:0:0:0:0:
448,192,140700,128,0,140805:0:0:0:0:
448,192,140910,128,0,141487:0:0:0:0:
192,192,140910,1,0,0:0:0:0:
320,192,140910,128,0,141015:0:0:0:0:
192,192,141120,128,0,141225:0:0:0:0:
320,192,141330,128,0,141435:0:0:0:0:
192,192,141540,128,0,141749:0:0:0:0:
448,192,141540,128,0,141592:0:0:0:0:
64,192,141540,1,0,0:0:0:0:
320,192,141540,1,0,0:0:0:0:
320,192,141749,128,0,141959:0:0:0:0:
448,192,141959,128,0,142169:0:0:0:0:
192,192,142169,128,0,142221:0:0:0:0:
64,192,142169,128,0,142746:0:0:0:0:
320,192,142379,128,0,142431:0:0:0:0:
192,192,142379,128,0,142746:0:0:0:0:
448,192,142588,128,0,142641:0:0:0:0:
320,192,142588,128,0,142746:0:0:0:0:
320,192,142799,1,0,0:0:0:0:
64,192,142799,128,0,144152:0:0:0:0:
448,192,142799,1,0,0:0:0:0:
192,192,142799,1,0,0:0:0:0:
320,192,143475,1,0,0:0:0:0:
192,192,143475,1,0,0:0:0:0:
320,192,144152,128,0,145449:0:0:0:0:
448,192,144166,1,0,0:0:0:0:
448,192,144829,1,0,0:0:0:0:
192,192,145054,1,0,0:0:0:0:
64,192,145280,1,0,0:0:0:0:
320,192,145505,1,0,0:0:0:0:
448,192,145505,1,0,0:0:0:0:
64,192,145505,1,0,0:0:0:0:
192,192,145505,1,0,0:0:0:0:
448,192,145714,1,0,0:0:0:0:
64,192,145819,1,0,0:0:0:0:
192,192,145819,1,0,0:0:0:0:
320,192,145819,1,0,0:0:0:0:
448,192,145924,1,0,0:0:0:0:
192,192,146029,1,0,0:0:0:0:
192,192,146134,1,0,0:0:0:0:
64,192,146134,1,0,0:0:0:0:
448,192,146134,1,0,0:0:0:0:
320,192,146134,1,0,0:0:0:0:
320,192,146239,1,0,0:0:0:0:
64,192,146344,1,0,0:0:0:0:
448,192,146344,1,0,0:0:0:0:
64,192,146449,1,0,0:0:0:0:
320,192,146553,1,0,0:0:0:0:
448,192,146553,1,0,0:0:0:0:
448,192,146658,1,0,0:0:0:0:
320,192,146763,1,0,0:0:0:0:
192,192,146763,1,0,0:0:0:0:
192,192,146868,1,0,0:0:0:0:
64,192,146973,1,0,0:0:0:0:
448,192,146973,1,0,0:0:0:0:
320,192,146973,1,0,0:0:0:0:
192,192,147043,1,0,0:0:0:0:
448,192,147113,1,0,0:0:0:0:
320,192,147183,1,0,0:0:0:0:
192,192,147183,1,0,0:0:0:0:
64,192,147183,1,0,0:0:0:0:
448,192,147253,1,0,0:0:0:0:
64,192,147323,1,0,0:0:0:0:
192,192,147393,1,0,0:0:0:0:
448,192,147393,1,0,0:0:0:0:
320,192,147393,1,0,0:0:0:0:
64,192,147463,1,0,0:0:0:0:
320,192,147498,1,0,0:0:0:0:
192,192,147532,1,0,0:0:0:0:
64,192,147602,1,0,0:0:0:0:
448,192,147602,1,0,0:0:0:0:
320,192,147602,1,0,0:0:0:0:
192,192,147707,1,0,0:0:0:0:
448,192,147707,1,0,0:0:0:0:
320,192,147812,1,0,0:0:0:0:
64,192,147917,1,0,0:0:0:0:
320,192,148022,1,0,0:0:0:0:
448,192,148022,1,0,0:0:0:0:
448,192,148127,1,0,0:0:0:0:
320,192,148127,1,0,0:0:0:0:
64,192,148232,1,0,0:0:0:0:
192,192,148232,1,0,0:0:0:0:
448,192,148232,1,0,0:0:0:0:
64,192,148337,1,0,0:0:0:0:
64,192,148442,1,0,0:0:0:0:
320,192,148442,1,0,0:0:0:0:
448,192,148442,1,0,0:0:0:0:
448,192,148546,1,0,0:0:0:0:
448,192,148651,1,0,0:0:0:0:
320,192,148651,1,0,0:0:0:0:
192,192,148651,1,0,0:0:0:0:
64,192,148651,1,0,0:0:0:0:
192,192,148756,1,0,0:0:0:0:
64,192,148756,1,0,0:0:0:0:
320,192,148861,1,0,0:0:0:0:
448,192,148861,1,0,0:0:0:0:
64,192,148861,1,0,0:0:0:0:
192,192,148931,1,0,0:0:0:0:
320,192,149001,1,0,0:0:0:0:
192,192,149071,1,0,0:0:0:0:
64,192,149071,1,0,0:0:0:0:
448,192,149141,1,0,0:0:0:0:
64,192,149211,1,0,0:0:0:0:
192,192,149281,1,0,0:0:0:0:
320,192,149281,1,0,0:0:0:0:
448,192,149281,1,0,0:0:0:0:
64,192,149386,1,0,0:0:0:0:
320,192,149386,1,0,0:0:0:0:
192,192,149491,1,0,0:0:0:0:
320,192,149491,1,0,0:0:0:0:
448,192,149595,1,0,0:0:0:0:
192,192,149595,1,0,0:0:0:0:
192,192,149700,1,0,0:0:0:0:
320,192,149700,1,0,0:0:0:0:
320,192,149805,1,0,0:0:0:0:
64,192,149805,1,0,0:0:0:0:
64,192,149910,1,0,0:0:0:0:
448,192,149910,1,0,0:0:0:0:
192,192,149963,1,0,0:0:0:0:
448,192,150015,1,0,0:0:0:0:
64,192,150067,1,0,0:0:0:0:
320,192,150120,1,0,0:0:0:0:
64,192,150172,1,0,0:0:0:0:
448,192,150225,1,0,0:0:0:0:
192,192,150277,1,0,0:0:0:0:
448,192,150330,1,0,0:0:0:0:
64,192,150382,1,0,0:0:0:0:
320,192,150435,1,0,0:0:0:0:
64,192,150487,1,0,0:0:0:0:
448,192,150644,1,0,0:0:0:0:
192,192,150749,1,0,0:0:0:0:
320,192,150854,1,0,0:0:0:0:
64,192,150959,1,0,0:0:0:0:
192,192,151029,1,0,0:0:0:0:
448,192,151099,1,0,0:0:0:0:
192,192,151169,1,0,0:0:0:0:
320,192,151221,1,0,0:0:0:0:
64,192,151274,1,0,0:0:0:0:
192,192,151326,1,0,0:0:0:0:
448,192,151379,1,0,0:0:0:0:
64,192,151431,1,0,0:0:0:0:
320,192,151484,1,0,0:0:0:0:
448,192,151536,1,0,0:0:0:0:
192,192,151588,1,0,0:0:0:0:
320,192,151641,1,0,0:0:0:0:
64,192,151693,128,0,153005:0:0:0:0:
192,192,151728,128,0,153005:0:0:0:0:
320,192,151763,128,0,153005:0:0:0:0:
448,192,151798,128,0,153005:0:0:0:0:
320,192,153057,128,0,153372:0:0:0:0:
448,192,153057,128,0,153267:0:0:0:0:
64,192,153057,1,0,0:0:0:0:
192,192,153057,128,0,153372:0:0:0:0:
64,192,153372,1,0,0:0:0:0:
448,192,153372,1,0,0:0:0:0:
192,192,153477,128,0,153581:0:0:0:0:
320,192,153477,128,0,153581:0:0:0:0:
64,192,153477,1,0,0:0:0:0:
320,192,153686,1,0,0:0:0:0:
448,192,153686,128,0,153791:0:0:0:0:
64,192,153686,128,0,153791:0:0:0:0:
64,192,153896,1,0,0:0:0:0:
320,192,153896,128,0,154001:0:0:0:0:
192,192,153896,128,0,154001:0:0:0:0:
448,192,153949,1,0,0:0:0:0:
320,192,154106,1,0,0:0:0:0:
448,192,154106,128,0,154211:0:0:0:0:
64,192,154106,128,0,154211:0:0:0:0:
192,192,154158,1,0,0:0:0:0:
192,192,154316,128,0,154630:0:0:0:0:
320,192,154316,128,0,154630:0:0:0:0:
448,192,154316,128,0,154525:0:0:0:0:
64,192,154630,1,0,0:0:0:0:
448,192,154630,1,0,0:0:0:0:
192,192,154735,128,0,154840:0:0:0:0:
320,192,154735,128,0,154840:0:0:0:0:
64,192,154735,1,0,0:0:0:0:
320,192,154945,1,0,0:0:0:0:
448,192,154945,1,0,0:0:0:0:
64,192,154945,1,0,0:0:0:0:
64,192,155050,1,0,0:0:0:0:
448,192,155050,1,0,0:0:0:0:
320,192,155155,1,0,0:0:0:0:
64,192,155155,1,0,0:0:0:0:
192,192,155155,1,0,0:0:0:0:
320,192,155260,1,0,0:0:0:0:
448,192,155260,1,0,0:0:0:0:
64,192,155365,1,0,0:0:0:0:
320,192,155365,1,0,0:0:0:0:
192,192,155365,1,0,0:0:0:0:
448,192,155470,1,0,0:0:0:0:
64,192,155470,1,0,0:0:0:0:
320,192,155522,1,0,0:0:0:0:
448,192,155574,128,0,155679:0:0:0:0:
64,192,155574,128,0,155784:0:0:0:0:
192,192,155574,1,0,0:0:0:0:
448,192,155784,1,0,0:0:0:0:
320,192,155784,128,0,155994:0:0:0:0:
192,192,155784,128,0,155889:0:0:0:0:
192,192,155994,128,0,156046:0:0:0:0:
448,192,156204,128,0,156414:0:0:0:0:
64,192,156204,1,0,0:0:0:0:
320,192,156204,128,0,156309:0:0:0:0:
192,192,156414,128,0,156518:0:0:0:0:
320,192,156414,1,0,0:0:0:0:
64,192,156414,128,0,156623:0:0:0:0:
448,192,156623,1,0,0:0:0:0:
192,192,156623,128,0,156676:0:0:0:0:
320,192,156676,1,0,0:0:0:0:
64,192,156728,1,0,0:0:0:0:
448,192,156781,1,0,0:0:0:0:
320,192,156833,1,0,0:0:0:0:
192,192,156833,1,0,0:0:0:0:
64,192,156833,1,0,0:0:0:0:
320,192,156938,1,0,0:0:0:0:
192,192,157043,1,0,0:0:0:0:
64,192,157043,1,0,0:0:0:0:
320,192,157043,1,0,0:0:0:0:
64,192,157148,1,0,0:0:0:0:
320,192,157253,1,0,0:0:0:0:
64,192,157253,1,0,0:0:0:0:
448,192,157253,1,0,0:0:0:0:
448,192,157358,1,0,0:0:0:0:
192,192,157463,1,0,0:0:0:0:
448,192,157463,1,0,0:0:0:0:
64,192,157463,1,0,0:0:0:0:
192,192,157567,1,0,0:0:0:0:
320,192,157672,1,0,0:0:0:0:
192,192,157672,1,0,0:0:0:0:
448,192,157672,1,0,0:0:0:0:
320,192,157777,1,0,0:0:0:0:
192,192,157882,1,0,0:0:0:0:
64,192,157882,1,0,0:0:0:0:
320,192,157882,1,0,0:0:0:0:
448,192,157935,1,0,0:0:0:0:
64,192,157987,1,0,0:0:0:0:
448,192,158039,1,0,0:0:0:0:
192,192,158092,128,0,158302:0:0:0:0:
64,192,158092,128,0,158407:0:0:0:0:
320,192,158092,128,0,158407:0:0:0:0:
192,192,158407,1,0,0:0:0:0:
448,192,158407,1,0,0:0:0:0:
64,192,158511,128,0,158616:0:0:0:0:
320,192,158511,128,0,158616:0:0:0:0:
448,192,158511,1,0,0:0:0:0:
192,192,158721,1,0,0:0:0:0:
448,192,158721,1,0,0:0:0:0:
64,192,158721,1,0,0:0:0:0:
192,192,158826,1,0,0:0:0:0:
64,192,158931,1,0,0:0:0:0:
192,192,158931,1,0,0:0:0:0:
448,192,158931,1,0,0:0:0:0:
320,192,159036,1,0,0:0:0:0:
448,192,159036,1,0,0:0:0:0:
448,192,159141,1,0,0:0:0:0:
64,192,159141,1,0,0:0:0:0:
192,192,159141,1,0,0:0:0:0:
320,192,159246,1,0,0:0:0:0:
64,192,159246,1,0,0:0:0:0:
192,192,159351,128,0,159456:0:0:0:0:
448,192,159351,128,0,159560:0:0:0:0:
64,192,159351,1,0,0:0:0:0:
192,192,159560,128,0,159665:0:0:0:0:
320,192,159560,128,0,159770:0:0:0:0:
448,192,159665,1,0,0:0:0:0:
64,192,159665,1,0,0:0:0:0:
64,192,159770,128,0,159875:0:0:0:0:
192,192,159770,128,0,159980:0:0:0:0:
448,192,159770,1,0,0:0:0:0:
64,192,159980,1,0,0:0:0:0:
320,192,159980,1,0,0:0:0:0:
448,192,160085,1,0,0:0:0:0:
192,192,160085,1,0,0:0:0:0:
320,192,160190,1,0,0:0:0:0:
192,192,160190,1,0,0:0:0:0:
448,192,160190,1,0,0:0:0:0:
448,192,160295,1,0,0:0:0:0:
64,192,160295,1,0,0:0:0:0:
64,192,160400,1,0,0:0:0:0:
320,192,160400,1,0,0:0:0:0:
192,192,160400,1,0,0:0:0:0:
320,192,160505,1,0,0:0:0:0:
64,192,160505,1,0,0:0:0:0:
448,192,160557,1,0,0:0:0:0:
320,192,160609,128,0,160714:0:0:0:0:
192,192,160609,1,0,0:0:0:0:
64,192,160609,1,0,0:0:0:0:
192,192,160819,128,0,160924:0:0:0:0:
64,192,161029,128,0,161134:0:0:0:0:
448,192,161134,128,0,161239:0:0:0:0:
192,192,161239,1,0,0:0:0:0:
64,192,161239,1,0,0:0:0:0:
320,192,161239,128,0,161344:0:0:0:0:
448,192,161344,1,0,0:0:0:0:
192,192,161449,1,0,0:0:0:0:
64,192,161449,128,0,161553:0:0:0:0:
448,192,161553,1,0,0:0:0:0:
192,192,161658,1,0,0:0:0:0:
320,192,161658,128,0,161763:0:0:0:0:
64,192,161711,1,0,0:0:0:0:
448,192,161763,1,0,0:0:0:0:
192,192,161816,1,0,0:0:0:0:
320,192,161868,1,0,0:0:0:0:
64,192,161868,1,0,0:0:0:0:
448,192,161938,1,0,0:0:0:0:
64,192,162008,1,0,0:0:0:0:
448,192,162078,1,0,0:0:0:0:
320,192,162078,1,0,0:0:0:0:
64,192,162148,1,0,0:0:0:0:
448,192,162218,1,0,0:0:0:0:
320,192,162288,1,0,0:0:0:0:
64,192,162288,1,0,0:0:0:0:
192,192,162340,1,0,0:0:0:0:
448,192,162393,1,0,0:0:0:0:
320,192,162445,1,0,0:0:0:0:
192,192,162498,1,0,0:0:0:0:
64,192,162498,1,0,0:0:0:0:
448,192,162498,1,0,0:0:0:0:
64,192,162602,1,0,0:0:0:0:
320,192,162602,1,0,0:0:0:0:
448,192,162707,1,0,0:0:0:0:
64,192,162707,1,0,0:0:0:0:
192,192,162707,1,0,0:0:0:0:
320,192,162812,1,0,0:0:0:0:
448,192,162812,1,0,0:0:0:0:
192,192,162917,1,0,0:0:0:0:
64,192,162917,1,0,0:0:0:0:
448,192,162917,1,0,0:0:0:0:
320,192,162970,1,0,0:0:0:0:
192,192,163022,1,0,0:0:0:0:
320,192,163074,1,0,0:0:0:0:
192,192,163127,1,0,0:0:0:0:
64,192,163127,128,0,163442:0:0:0:0:
448,192,163127,128,0,163442:0:0:0:0:
192,192,163442,1,0,0:0:0:0:
448,192,163546,128,0,163651:0:0:0:0:
192,192,163756,1,0,0:0:0:0:
320,192,163756,1,0,0:0:0:0:
64,192,163756,128,0,163861:0:0:0:0:
448,192,163966,128,0,164071:0:0:0:0:
64,192,164176,128,0,164281:0:0:0:0:
448,192,164386,128,0,164700:0:0:0:0:
64,192,164386,128,0,164700:0:0:0:0:
320,192,164386,1,0,0:0:0:0:
192,192,164386,1,0,0:0:0:0:
320,192,164700,1,0,0:0:0:0:
448,192,164805,128,0,164910:0:0:0:0:
64,192,165015,1,0,0:0:0:0:
192,192,165015,1,0,0:0:0:0:
320,192,165015,1,0,0:0:0:0:
320,192,165120,1,0,0:0:0:0:
64,192,165120,1,0,0:0:0:0:
448,192,165225,1,0,0:0:0:0:
64,192,165225,1,0,0:0:0:0:
192,192,165225,1,0,0:0:0:0:
320,192,165330,1,0,0:0:0:0:
448,192,165330,1,0,0:0:0:0:
64,192,165435,1,0,0:0:0:0:
192,192,165435,1,0,0:0:0:0:
448,192,165435,1,0,0:0:0:0:
320,192,165539,1,0,0:0:0:0:
64,192,165539,1,0,0:0:0:0:
448,192,165592,1,0,0:0:0:0:
320,192,165644,128,0,165854:0:0:0:0:
192,192,165644,128,0,165749:0:0:0:0:
64,192,165644,1,0,0:0:0:0:
192,192,165854,1,0,0:0:0:0:
64,192,165854,128,0,166064:0:0:0:0:
448,192,165854,128,0,165959:0:0:0:0:
448,192,166064,128,0,166116:0:0:0:0:
320,192,166274,1,0,0:0:0:0:
448,192,166274,128,0,166379:0:0:0:0:
192,192,166274,128,0,166484:0:0:0:0:
64,192,166484,128,0,166588:0:0:0:0:
320,192,166484,128,0,166693:0:0:0:0:
448,192,166484,1,0,0:0:0:0:
192,192,166693,1,0,0:0:0:0:
448,192,166693,128,0,166746:0:0:0:0:
64,192,166746,1,0,0:0:0:0:
320,192,166798,1,0,0:0:0:0:
192,192,166851,1,0,0:0:0:0:
320,192,166903,1,0,0:0:0:0:
64,192,166903,1,0,0:0:0:0:
448,192,166903,1,0,0:0:0:0:
448,192,167008,1,0,0:0:0:0:
192,192,167113,1,0,0:0:0:0:
64,192,167113,1,0,0:0:0:0:
448,192,167113,1,0,0:0:0:0:
192,192,167218,1,0,0:0:0:0:
320,192,167323,1,0,0:0:0:0:
448,192,167323,1,0,0:0:0:0:
192,192,167323,1,0,0:0:0:0:
320,192,167428,1,0,0:0:0:0:
320,192,167532,1,0,0:0:0:0:
64,192,167532,1,0,0:0:0:0:
192,192,167532,1,0,0:0:0:0:
64,192,167637,1,0,0:0:0:0:
320,192,167742,1,0,0:0:0:0:
448,192,167742,1,0,0:0:0:0:
64,192,167742,1,0,0:0:0:0:
320,192,167847,1,0,0:0:0:0:
320,192,167952,1,0,0:0:0:0:
192,192,167952,1,0,0:0:0:0:
448,192,167952,1,0,0:0:0:0:
64,192,168005,1,0,0:0:0:0:
448,192,168057,1,0,0:0:0:0:
64,192,168109,1,0,0:0:0:0:
192,192,168162,128,0,168477:0:0:0:0:
320,192,168162,128,0,168477:0:0:0:0:
448,192,168162,128,0,168372:0:0:0:0:
64,192,168477,1,0,0:0:0:0:
448,192,168477,128,0,168791:0:0:0:0:
192,192,168581,128,0,168739:0:0:0:0:
64,192,168581,128,0,168739:0:0:0:0:
320,192,168581,1,0,0:0:0:0:
192,192,168791,128,0,168931:0:0:0:0:
320,192,168791,128,0,168861:0:0:0:0:
64,192,168791,1,0,0:0:0:0:
448,192,168861,128,0,168931:0:0:0:0:
320,192,168931,128,0,169001:0:0:0:0:
448,192,169001,1,0,0:0:0:0:
64,192,169001,128,0,169141:0:0:0:0:
192,192,169001,128,0,169071:0:0:0:0:
320,192,169071,128,0,169141:0:0:0:0:
192,192,169141,128,0,169211:0:0:0:0:
448,192,169211,128,0,169351:0:0:0:0:
320,192,169211,1,0,0:0:0:0:
64,192,169211,128,0,169281:0:0:0:0:
192,192,169281,128,0,169351:0:0:0:0:
320,192,169351,128,0,169421:0:0:0:0:
192,192,169421,128,0,169525:0:0:0:0:
64,192,169421,1,0,0:0:0:0:
448,192,169421,128,0,169630:0:0:0:0:
192,192,169630,128,0,169735:0:0:0:0:
320,192,169630,128,0,169840:0:0:0:0:
64,192,169735,1,0,0:0:0:0:
448,192,169735,1,0,0:0:0:0:
448,192,169840,128,0,169945:0:0:0:0:
64,192,169840,128,0,170050:0:0:0:0:
192,192,169840,1,0,0:0:0:0:
320,192,170050,1,0,0:0:0:0:
448,192,170050,1,0,0:0:0:0:
64,192,170155,1,0,0:0:0:0:
192,192,170155,1,0,0:0:0:0:
448,192,170260,1,0,0:0:0:0:
64,192,170260,1,0,0:0:0:0:
192,192,170260,1,0,0:0:0:0:
448,192,170365,1,0,0:0:0:0:
320,192,170365,1,0,0:0:0:0:
192,192,170470,1,0,0:0:0:0:
320,192,170470,1,0,0:0:0:0:
64,192,170470,1,0,0:0:0:0:
64,192,170574,1,0,0:0:0:0:
448,192,170574,1,0,0:0:0:0:
192,192,170627,1,0,0:0:0:0:
320,192,170679,128,0,170784:0:0:0:0:
448,192,170679,128,0,171309:0:0:0:0:
64,192,170679,1,0,0:0:0:0:
64,192,170889,128,0,170994:0:0:0:0:
320,192,171099,128,0,171204:0:0:0:0:
192,192,171204,128,0,171309:0:0:0:0:
64,192,171309,1,0,0:0:0:0:
320,192,171309,1,0,0:0:0:0:
448,192,171361,1,0,0:0:0:0:
64,192,171414,1,0,0:0:0:0:
448,192,171466,1,0,0:0:0:0:
64,192,171518,1,0,0:0:0:0:
448,192,171571,1,0,0:0:0:0:
64,192,171623,1,0,0:0:0:0:
448,192,171676,1,0,0:0:0:0:
64,192,171728,1,0,0:0:0:0:
448,192,171781,1,0,0:0:0:0:
64,192,171833,1,0,0:0:0:0:
448,192,171886,1,0,0:0:0:0:
320,192,171938,1,0,0:0:0:0:
64,192,171938,1,0,0:0:0:0:
320,192,172043,1,0,0:0:0:0:
448,192,172043,1,0,0:0:0:0:
192,192,172148,1,0,0:0:0:0:
64,192,172148,1,0,0:0:0:0:
448,192,172253,1,0,0:0:0:0:
192,192,172253,1,0,0:0:0:0:
64,192,172358,1,0,0:0:0:0:
320,192,172358,1,0,0:0:0:0:
448,192,172463,1,0,0:0:0:0:
320,192,172463,1,0,0:0:0:0:
64,192,172567,1,0,0:0:0:0:
192,192,172567,1,0,0:0:0:0:
448,192,172620,1,0,0:0:0:0:
320,192,172620,1,0,0:0:0:0:
64,192,172672,1,0,0:0:0:0:
192,192,172672,1,0,0:0:0:0:
448,192,172725,1,0,0:0:0:0:
320,192,172725,1,0,0:0:0:0:
64,192,172777,1,0,0:0:0:0:
192,192,172777,1,0,0:0:0:0:
448,192,172830,1,0,0:0:0:0:
320,192,172830,1,0,0:0:0:0:
64,192,172882,1,0,0:0:0:0:
192,192,172882,1,0,0:0:0:0:
448,192,172935,1,0,0:0:0:0:
320,192,172935,1,0,0:0:0:0:
192,192,172987,1,0,0:0:0:0:
64,192,172987,1,0,0:0:0:0:
448,192,173039,1,0,0:0:0:0:
320,192,173039,1,0,0:0:0:0:
64,192,173092,1,0,0:0:0:0:
192,192,173092,1,0,0:0:0:0:
320,192,173144,1,0,0:0:0:0:
64,192,173197,1,0,0:0:0:0:
192,192,173197,1,0,0:0:0:0:
448,192,173197,1,0,0:0:0:0:
320,192,173267,1,0,0:0:0:0:
192,192,173337,1,0,0:0:0:0:
448,192,173407,1,0,0:0:0:0:
64,192,173407,1,0,0:0:0:0:
192,192,173477,1,0,0:0:0:0:
320,192,173546,1,0,0:0:0:0:
192,192,173616,1,0,0:0:0:0:
448,192,173616,1,0,0:0:0:0:
64,192,173686,1,0,0:0:0:0:
448,192,173756,1,0,0:0:0:0:
64,192,173826,1,0,0:0:0:0:
192,192,173826,1,0,0:0:0:0:
320,192,173896,1,0,0:0:0:0:
448,192,173966,1,0,0:0:0:0:
64,192,174036,1,0,0:0:0:0:
320,192,174036,1,0,0:0:0:0:
192,192,174106,1,0,0:0:0:0:
448,192,174176,1,0,0:0:0:0:
192,192,174246,1,0,0:0:0:0:
320,192,174246,1,0,0:0:0:0:
64,192,174316,1,0,0:0:0:0:
320,192,174386,1,0,0:0:0:0:
64,192,174456,1,0,0:0:0:0:
448,192,174456,1,0,0:0:0:0:
320,192,174508,1,0,0:0:0:0:
192,192,174560,1,0,0:0:0:0:
64,192,174613,1,0,0:0:0:0:
320,192,174665,1,0,0:0:0:0:
192,192,174718,1,0,0:0:0:0:
448,192,174770,1,0,0:0:0:0:
192,192,174823,1,0,0:0:0:0:
64,192,174875,1,0,0:0:0:0:
320,192,174928,1,0,0:0:0:0:
192,192,174980,1,0,0:0:0:0:
448,192,175032,1,0,0:0:0:0:
320,192,175085,1,0,0:0:0:0:
64,192,175137,1,0,0:0:0:0:
320,192,175190,1,0,0:0:0:0:
192,192,175242,1,0,0:0:0:0:
448,192,175295,1,0,0:0:0:0:
64,192,175347,1,0,0:0:0:0:
448,192,175400,1,0,0:0:0:0:
64,192,175452,1,0,0:0:0:0:
320,192,175505,1,0,0:0:0:0:
192,192,175557,1,0,0:0:0:0:
448,192,175609,1,0,0:0:0:0:
192,192,175662,1,0,0:0:0:0:
320,192,175714,128,0,175872:0:0:0:0:
448,192,175714,128,0,175924:0:0:0:0:
64,192,175714,1,0,0:0:0:0:
192,192,175924,1,0,0:0:0:0:
64,192,175924,128,0,176081:0:0:0:0:
320,192,175924,128,0,176134:0:0:0:0:
64,192,176134,128,0,176186:0:0:0:0:
320,192,176344,1,0,0:0:0:0:
448,192,176344,128,0,176501:0:0:0:0:
192,192,176344,128,0,176553:0:0:0:0:
320,192,176553,1,0,0:0:0:0:
64,192,176553,128,0,176711:0:0:0:0:
448,192,176553,128,0,176763:0:0:0:0:
192,192,176763,128,0,176868:0:0:0:0:
64,192,176763,128,0,176816:0:0:0:0:
320,192,176816,128,0,176921:0:0:0:0:
448,192,176868,128,0,176921:0:0:0:0:
192,192,176921,128,0,176973:0:0:0:0:
448,192,176973,1,0,0:0:0:0:
64,192,176973,1,0,0:0:0:0:
320,192,176973,1,0,0:0:0:0:
320,192,177078,1,0,0:0:0:0:
64,192,177183,1,0,0:0:0:0:
320,192,177183,1,0,0:0:0:0:
192,192,177183,1,0,0:0:0:0:
192,192,177288,1,0,0:0:0:0:
192,192,177393,1,0,0:0:0:0:
448,192,177393,1,0,0:0:0:0:
320,192,177393,1,0,0:0:0:0:
448,192,177498,1,0,0:0:0:0:
448,192,177602,1,0,0:0:0:0:
64,192,177602,1,0,0:0:0:0:
192,192,177602,1,0,0:0:0:0:
64,192,177707,1,0,0:0:0:0:
448,192,177812,1,0,0:0:0:0:
320,192,177812,1,0,0:0:0:0:
64,192,177812,1,0,0:0:0:0:
320,192,177917,1,0,0:0:0:0:
64,192,178022,1,0,0:0:0:0:
320,192,178022,1,0,0:0:0:0:
192,192,178022,1,0,0:0:0:0:
448,192,178074,1,0,0:0:0:0:
192,192,178127,1,0,0:0:0:0:
448,192,178179,1,0,0:0:0:0:
64,192,178232,128,0,178442:0:0:0:0:
192,192,178232,128,0,178442:0:0:0:0:
320,192,178232,128,0,178442:0:0:0:0:
448,192,178442,1,0,0:0:0:0:
320,192,178511,1,0,0:0:0:0:
64,192,178546,1,0,0:0:0:0:
192,192,178546,1,0,0:0:0:0:
448,192,178581,1,0,0:0:0:0:
192,192,178651,1,0,0:0:0:0:
64,192,178651,1,0,0:0:0:0:
320,192,178651,1,0,0:0:0:0:
448,192,178721,1,0,0:0:0:0:
192,192,178791,1,0,0:0:0:0:
64,192,178861,1,0,0:0:0:0:
448,192,178861,1,0,0:0:0:0:
192,192,178931,1,0,0:0:0:0:
320,192,179001,1,0,0:0:0:0:
192,192,179071,1,0,0:0:0:0:
64,192,179071,1,0,0:0:0:0:
448,192,179071,1,0,0:0:0:0:
320,192,179281,1,0,0:0:0:0:
64,192,179281,1,0,0:0:0:0:
448,192,179281,1,0,0:0:0:0:
192,192,179351,1,0,0:0:0:0:
64,192,179421,1,0,0:0:0:0:
448,192,179421,1,0,0:0:0:0:
192,192,179491,1,0,0:0:0:0:
320,192,179491,1,0,0:0:0:0:
320,192,179700,1,0,0:0:0:0:
448,192,179700,1,0,0:0:0:0:
64,192,179805,1,0,0:0:0:0:
192,192,179805,1,0,0:0:0:0:
448,192,179910,1,0,0:0:0:0:
320,192,179910,1,0,0:0:0:0:
64,192,179910,1,0,0:0:0:0:
320,192,180015,1,0,0:0:0:0:
448,192,180015,1,0,0:0:0:0:
448,192,180120,1,0,0:0:0:0:
64,192,180120,1,0,0:0:0:0:
192,192,180225,1,0,0:0:0:0:
320,192,180225,1,0,0:0:0:0:
448,192,180330,1,0,0:0:0:0:
64,192,180330,1,0,0:0:0:0:
192,192,180330,1,0,0:0:0:0:
320,192,180435,1,0,0:0:0:0:
64,192,180435,1,0,0:0:0:0:
448,192,180539,1,0,0:0:0:0:
192,192,180539,1,0,0:0:0:0:
64,192,180539,1,0,0:0:0:0:
320,192,180644,1,0,0:0:0:0:
448,192,180644,1,0,0:0:0:0:
192,192,180697,1,0,0:0:0:0:
64,192,180749,1,0,0:0:0:0:
320,192,180749,1,0,0:0:0:0:
448,192,180749,1,0,0:0:0:0:
448,192,180959,1,0,0:0:0:0:
320,192,181011,1,0,0:0:0:0:
192,192,181064,1,0,0:0:0:0:
64,192,181116,1,0,0:0:0:0:
320,192,181169,1,0,0:0:0:0:
192,192,181221,1,0,0:0:0:0:
448,192,181274,1,0,0:0:0:0:
320,192,181326,1,0,0:0:0:0:
192,192,181379,1,0,0:0:0:0:
64,192,181379,1,0,0:0:0:0:
448,192,181431,1,0,0:0:0:0:
64,192,181484,1,0,0:0:0:0:
320,192,181536,1,0,0:0:0:0:
192,192,181588,1,0,0:0:0:0:
448,192,181641,1,0,0:0:0:0:
320,192,181693,1,0,0:0:0:0:
192,192,181746,1,0,0:0:0:0:
64,192,181798,128,0,181903:0:0:0:0:
448,192,181851,128,0,181956:0:0:0:0:
192,192,181903,128,0,181956:0:0:0:0:
320,192,181956,128,0,182008:0:0:0:0:
64,192,182008,5,0,0:0:0:0:
192,192,182008,1,0,0:0:0:0:
448,192,182008,1,0,0:0:0:0:
320,192,182113,1,0,0:0:0:0:
64,192,182113,1,0,0:0:0:0:
320,192,182218,1,0,0:0:0:0:
64,192,182218,1,0,0:0:0:0:
320,192,182323,1,0,0:0:0:0:
448,192,182323,1,0,0:0:0:0:
192,192,182323,1,0,0:0:0:0:
64,192,182428,1,0,0:0:0:0:
448,192,182428,1,0,0:0:0:0:
64,192,182532,1,0,0:0:0:0:
448,192,182532,1,0,0:0:0:0:
64,192,182637,1,0,0:0:0:0:
192,192,182637,1,0,0:0:0:0:
320,192,182637,1,0,0:0:0:0:
448,192,182742,1,0,0:0:0:0:
192,192,182742,1,0,0:0:0:0:
448,192,182847,1,0,0:0:0:0:
192,192,182847,1,0,0:0:0:0:
64,192,182952,1,0,0:0:0:0:
448,192,182952,1,0,0:0:0:0:
320,192,182952,1,0,0:0:0:0:
320,192,183057,1,0,0:0:0:0:
192,192,183057,1,0,0:0:0:0:
64,192,183057,1,0,0:0:0:0:
448,192,183109,1,0,0:0:0:0:
64,192,183162,1,0,0:0:0:0:
192,192,183162,1,0,0:0:0:0:
320,192,183214,1,0,0:0:0:0:
64,192,183267,128,0,183484:0:0:0:0:
448,192,183267,128,0,183556:0:0:0:0:
192,192,183267,1,0,0:0:0:0:
64,192,183556,128,0,183629:0:0:0:0:
448,192,183629,128,0,183701:0:0:0:0:
64,192,183701,128,0,183774:0:0:0:0:
448,192,183774,128,0,183846:0:0:0:0:
64,192,183846,128,0,183919:0:0:0:0:
448,192,183919,128,0,183991:0:0:0:0:
192,192,183919,1,0,0:0:0:0:
320,192,183919,1,0,0:0:0:0:
64,192,183991,128,0,184064:0:0:0:0:
448,192,184064,128,0,184136:0:0:0:0:
192,192,184136,128,0,184209:0:0:0:0:
64,192,184136,1,0,0:0:0:0:
320,192,184209,128,0,184281:0:0:0:0:
448,192,184209,1,0,0:0:0:0:
192,192,184281,128,0,184353:0:0:0:0:
64,192,184353,128,0,184426:0:0:0:0:
448,192,184353,1,0,0:0:0:0:
320,192,184426,128,0,184498:0:0:0:0:
192,192,184426,1,0,0:0:0:0:
448,192,184498,128,0,184571:0:0:0:0:
320,192,184571,1,0,0:0:0:0:
64,192,184571,1,0,0:0:0:0:
192,192,184571,1,0,0:0:0:0:
448,192,184680,1,0,0:0:0:0:
320,192,184788,1,0,0:0:0:0:
192,192,184788,1,0,0:0:0:0:
64,192,184897,1,0,0:0:0:0:
320,192,185006,1,0,0:0:0:0:
448,192,185006,1,0,0:0:0:0:
192,192,185223,1,0,0:0:0:0:
448,192,185223,1,0,0:0:0:0:
64,192,185223,1,0,0:0:0:0:
448,192,185332,1,0,0:0:0:0:
320,192,185332,1,0,0:0:0:0:
192,192,185440,1,0,0:0:0:0:
320,192,185440,1,0,0:0:0:0:
64,192,185440,1,0,0:0:0:0:
192,192,185549,1,0,0:0:0:0:
448,192,185549,1,0,0:0:0:0:
320,192,185658,1,0,0:0:0:0:
192,192,185658,1,0,0:0:0:0:
64,192,185658,1,0,0:0:0:0:
64,192,185767,1,0,0:0:0:0:
320,192,185767,1,0,0:0:0:0:
448,192,185821,1,0,0:0:0:0:
192,192,185875,1,0,0:0:0:0:
64,192,185875,128,0,186044:0:0:0:0:
320,192,185875,128,0,186100:0:0:0:0:
192,192,186100,1,0,0:0:0:0:
64,192,186100,128,0,186326:0:0:0:0:
448,192,186100,128,0,186269:0:0:0:0:
448,192,186326,128,0,186382:0:0:0:0:
192,192,186326,128,0,186476:0:0:0:0:
320,192,186401,128,0,186476:0:0:0:0:
64,192,186476,128,0,186551:0:0:0:0:
320,192,186551,128,0,186720:0:0:0:0:
448,192,186551,128,0,186777:0:0:0:0:
192,192,186551,1,0,0:0:0:0:
192,192,186777,1,0,0:0:0:0:
64,192,186777,128,0,186946:0:0:0:0:
320,192,186777,128,0,187002:0:0:0:0:
64,192,187002,128,0,187115:0:0:0:0:
448,192,187002,128,0,187059:0:0:0:0:
192,192,187059,128,0,187171:0:0:0:0:
320,192,187115,128,0,187171:0:0:0:0:
64,192,187171,128,0,187228:0:0:0:0:
192,192,187228,1,0,0:0:0:0:
320,192,187228,1,0,0:0:0:0:
448,192,187228,1,0,0:0:0:0:
448,192,187343,1,0,0:0:0:0:
64,192,187459,1,0,0:0:0:0:
192,192,187459,1,0,0:0:0:0:
448,192,187459,1,0,0:0:0:0:
64,192,187575,1,0,0:0:0:0:
448,192,187691,1,0,0:0:0:0:
320,192,187691,1,0,0:0:0:0:
64,192,187691,1,0,0:0:0:0:
320,192,187807,1,0,0:0:0:0:
320,192,187923,1,0,0:0:0:0:
64,192,187923,1,0,0:0:0:0:
192,192,187923,1,0,0:0:0:0:
192,192,188040,1,0,0:0:0:0:
448,192,188157,1,0,0:0:0:0:
192,192,188157,1,0,0:0:0:0:
320,192,188157,1,0,0:0:0:0:
448,192,188274,1,0,0:0:0:0:
448,192,188391,1,0,0:0:0:0:
192,192,188391,1,0,0:0:0:0:
64,192,188391,1,0,0:0:0:0:
320,192,188450,1,0,0:0:0:0:
64,192,188508,1,0,0:0:0:0:
320,192,188567,1,0,0:0:0:0:
448,192,188626,1,0,0:0:0:0:
192,192,188626,1,0,0:0:0:0:
64,192,188626,1,0,0:0:0:0:
448,192,188869,1,0,0:0:0:0:
448,192,189113,1,0,0:0:0:0:
448,192,189235,1,0,0:0:0:0:
448,192,189357,1,0,0:0:0:0:
192,192,189357,1,0,0:0:0:0:
64,192,189420,1,0,0:0:0:0:
320,192,189484,1,0,0:0:0:0:
192,192,189547,1,0,0:0:0:0:
320,192,189611,1,0,0:0:0:0:
192,192,189674,1,0,0:0:0:0:
64,192,189738,1,0,0:0:0:0:
320,192,189801,1,0,0:0:0:0:
192,192,189865,1,0,0:0:0:0:
448,192,189929,1,0,0:0:0:0:
64,192,189992,1,0,0:0:0:0:
320,192,190056,1,0,0:0:0:0:
64,192,190119,1,0,0:0:0:0:
448,192,190119,1,0,0:0:0:0:
320,192,190425,1,0,0:0:0:0:
192,192,190463,1,0,0:0:0:0:
320,192,190731,1,0,0:0:0:0:
448,192,190731,1,0,0:0:0:0:
64,192,191092,1,0,0:0:0:0:
192,192,191149,1,0,0:0:0:0:
320,192,191207,1,0,0:0:0:0:
448,192,191223,1,0,0:0:0:0:
192,192,191399,1,0,0:0:0:0:
64,192,191543,1,0,0:0:0:0:
192,192,191687,1,0,0:0:0:0:
320,192,191813,1,0,0:0:0:0:
192,192,191856,1,0,0:0:0:0:
320,192,191942,1,0,0:0:0:0:
448,192,192029,1,0,0:0:0:0:
64,192,192115,1,0,0:0:0:0:
192,192,192202,1,0,0:0:0:0:
320,192,192289,1,0,0:0:0:0:
448,192,192289,1,0,0:0:0:0:
192,192,192380,1,0,0:0:0:0:
64,192,192380,1,0,0:0:0:0:
64,192,192480,1,0,0:0:0:0:
448,192,192496,128,0,194474:0:0:0:0:
64,192,194474,1,0,0:0:0:0:
192,192,194515,1,0,0:0:0:0:
320,192,194556,1,0,0:0:0:0:
64,192,196452,132,0,196801:0:0:0:0:
320,192,196801,128,0,197091:0:0:0:0:
64,192,197091,1,0,0:0:0:0:
448,192,197091,128,0,197704:0:0:0:0:
192,192,197140,128,0,197407:0:0:0:0:
320,192,197407,128,0,197926:0:0:0:0:
192,192,197704,128,0,197926:0:0:0:0:
448,192,197852,128,0,197926:0:0:0:0:
320,192,198001,128,0,198743:0:0:0:0:
64,192,198298,128,0,198743:0:0:0:0:
192,192,198595,128,0,198743:0:0:0:0:
192,192,198873,128,0,199210:0:0:0:0:
320,192,198873,128,0,199143:0:0:0:0:
448,192,199143,128,0,199278:0:0:0:0:
192,192,199413,128,0,199818:0:0:0:0:
64,192,199683,128,0,200156:0:0:0:0:
192,192,199954,128,0,200224:0:0:0:0:
448,192,200224,128,0,200494:0:0:0:0:
64,192,200449,1,0,0:0:0:0:
320,192,200494,128,0,200900:0:0:0:0:
192,192,200539,128,0,200900:0:0:0:0:
192,192,201080,128,0,201485:0:0:0:0:
64,192,201350,128,0,201891:0:0:0:0:
192,192,201620,128,0,201891:0:0:0:0:
448,192,201891,128,0,202116:0:0:0:0:
64,192,202116,1,0,0:0:0:0:
192,192,202161,128,0,202521:0:0:0:0:
320,192,202161,128,0,202521:0:0:0:0:
192,192,202701,128,0,203062:0:0:0:0:
64,192,202972,128,0,203467:0:0:0:0:
192,192,203197,128,0,203670:0:0:0:0:
320,192,203197,1,0,0:0:0:0:
448,192,203332,1,0,0:0:0:0:
448,192,203467,128,0,203737:0:0:0:0:
320,192,203467,1,0,0:0:0:0:
64,192,203602,1,0,0:0:0:0:
192,192,203737,128,0,205182:0:0:0:0:
320,192,203737,1,0,0:0:0:0:
64,192,203737,1,0,0:0:0:0:
448,192,203977,1,0,0:0:0:0:
320,192,204218,1,0,0:0:0:0:
64,192,204339,1,0,0:0:0:0:
448,192,204459,1,0,0:0:0:0:
64,192,204459,1,0,0:0:0:0:
320,192,204700,1,0,0:0:0:0:
64,192,204941,1,0,0:0:0:0:
448,192,204941,1,0,0:0:0:0:
64,192,205182,1,0,0:0:0:0:
448,192,205182,1,0,0:0:0:0:
320,192,205243,128,0,206628:0:0:0:0:
192,192,205423,1,0,0:0:0:0:
448,192,205664,1,0,0:0:0:0:
64,192,205664,1,0,0:0:0:0:
192,192,205905,1,0,0:0:0:0:
64,192,205905,1,0,0:0:0:0:
448,192,206146,1,0,0:0:0:0:
192,192,206146,1,0,0:0:0:0:
448,192,206387,1,0,0:0:0:0:
64,192,206387,1,0,0:0:0:0:
64,192,206628,128,0,208023:0:0:0:0:
448,192,206628,1,0,0:0:0:0:
192,192,206628,1,0,0:0:0:0:
320,192,206860,1,0,0:0:0:0:
448,192,207093,1,0,0:0:0:0:
192,192,207093,1,0,0:0:0:0:
192,192,207325,1,0,0:0:0:0:
320,192,207325,1,0,0:0:0:0:
448,192,207558,1,0,0:0:0:0:
192,192,207790,1,0,0:0:0:0:
448,192,208023,128,0,208721:0:0:0:0:
192,192,208023,1,0,0:0:0:0:
320,192,208023,128,0,208372:0:0:0:0:
64,192,208255,128,0,208604:0:0:0:0:
192,192,208488,1,0,0:0:0:0:
320,192,208488,128,0,208604:0:0:0:0:
320,192,208721,1,0,0:0:0:0:
192,192,208721,128,0,208953:0:0:0:0:
64,192,208721,128,0,208953:0:0:0:0:
320,192,208953,1,0,0:0:0:0:
448,192,208953,1,0,0:0:0:0:
64,192,209011,1,0,0:0:0:0:
320,192,209069,1,0,0:0:0:0:
448,192,209128,1,0,0:0:0:0:
64,192,209186,1,0,0:0:0:0:
192,192,209244,1,0,0:0:0:0:
320,192,209302,1,0,0:0:0:0:
64,192,209360,1,0,0:0:0:0:
192,192,209418,1,0,0:0:0:0:
320,192,209418,1,0,0:0:0:0:
448,192,209418,128,0,211357:0:0:0:0:
64,192,209646,1,0,0:0:0:0:
320,192,209646,1,0,0:0:0:0:
64,192,209874,1,0,0:0:0:0:
192,192,209874,1,0,0:0:0:0:
320,192,209988,1,0,0:0:0:0:
192,192,209988,1,0,0:0:0:0:
320,192,210102,1,0,0:0:0:0:
64,192,210102,1,0,0:0:0:0:
64,192,210330,1,0,0:0:0:0:
192,192,210330,1,0,0:0:0:0:
64,192,210558,1,0,0:0:0:0:
320,192,210558,1,0,0:0:0:0:
64,192,210786,128,0,210843:0:0:0:0:
320,192,210786,1,0,0:0:0:0:
192,192,210843,1,0,0:0:0:0:
64,192,211014,128,0,211071:0:0:0:0:
64,192,211243,128,0,211300:0:0:0:0:
192,192,211243,1,0,0:0:0:0:
320,192,211300,128,0,211414:0:0:0:0:
192,192,211471,128,0,211927:0:0:0:0:
448,192,211471,1,0,0:0:0:0:
64,192,211471,128,0,211528:0:0:0:0:
320,192,211699,1,0,0:0:0:0:
64,192,211699,128,0,211756:0:0:0:0:
448,192,211927,128,0,212155:0:0:0:0:
320,192,211927,1,0,0:0:0:0:
64,192,211927,128,0,211984:0:0:0:0:
320,192,212155,128,0,213478:0:0:0:0:
64,192,212155,1,0,0:0:0:0:
192,192,212155,128,0,212237:0:0:0:0:
192,192,212375,128,0,212458:0:0:0:0:
64,192,212596,1,0,0:0:0:0:
192,192,212596,128,0,212678:0:0:0:0:
448,192,212816,1,0,0:0:0:0:
192,192,212816,128,0,212899:0:0:0:0:
64,192,213037,1,0,0:0:0:0:
192,192,213037,128,0,213120:0:0:0:0:
448,192,213257,1,0,0:0:0:0:
192,192,213257,128,0,213340:0:0:0:0:
64,192,213478,128,0,214746:0:0:0:0:
448,192,213478,128,0,213588:0:0:0:0:
192,192,213478,128,0,213588:0:0:0:0:
448,192,213699,128,0,213809:0:0:0:0:
192,192,213699,128,0,213809:0:0:0:0:
448,192,213919,128,0,214030:0:0:0:0:
320,192,213919,128,0,214030:0:0:0:0:
192,192,214140,128,0,214250:0:0:0:0:
448,192,214140,128,0,214250:0:0:0:0:
192,192,214360,128,0,214526:0:0:0:0:
320,192,214360,128,0,214471:0:0:0:0:
448,192,214581,128,0,214746:0:0:0:0:
320,192,214581,128,0,214691:0:0:0:0:
192,192,214691,1,0,0:0:0:0:
320,192,214802,1,0,0:0:0:0:
192,192,214802,1,0,0:0:0:0:
64,192,214802,1,0,0:0:0:0:
448,192,214802,128,0,215017:0:0:0:0:
320,192,215017,128,0,215124:0:0:0:0:
64,192,215017,1,0,0:0:0:0:
64,192,215232,1,0,0:0:0:0:
192,192,215232,128,0,215339:0:0:0:0:
448,192,215339,128,0,215447:0:0:0:0:
64,192,215447,1,0,0:0:0:0:
320,192,215447,128,0,215554:0:0:0:0:
64,192,215662,1,0,0:0:0:0:
192,192,215662,128,0,215769:0:0:0:0:
64,192,215877,1,0,0:0:0:0:
320,192,215877,128,0,215984:0:0:0:0:
320,192,216092,128,0,216307:0:0:0:0:
448,192,216092,1,0,0:0:0:0:
192,192,216092,128,0,216199:0:0:0:0:
448,192,216307,1,0,0:0:0:0:
448,192,216522,1,0,0:0:0:0:
320,192,216522,128,0,216629:0:0:0:0:
448,192,216737,1,0,0:0:0:0:
64,192,216737,128,0,216845:0:0:0:0:
448,192,216952,1,0,0:0:0:0:
320,192,216952,128,0,217060:0:0:0:0:
192,192,217060,1,0,0:0:0:0:
448,192,217167,1,0,0:0:0:0:
64,192,217167,128,0,217275:0:0:0:0:
320,192,217275,1,0,0:0:0:0:
192,192,217382,1,0,0:0:0:0:
64,192,217382,128,0,217593:0:0:0:0:
448,192,217382,128,0,217487:0:0:0:0:
192,192,217593,1,0,0:0:0:0:
448,192,217698,1,0,0:0:0:0:
192,192,217804,1,0,0:0:0:0:
320,192,217804,128,0,217910:0:0:0:0:
192,192,218015,1,0,0:0:0:0:
64,192,218015,128,0,218121:0:0:0:0:
192,192,218227,1,0,0:0:0:0:
320,192,218227,128,0,218332:0:0:0:0:
448,192,218332,1,0,0:0:0:0:
192,192,218438,1,0,0:0:0:0:
64,192,218438,128,0,218543:0:0:0:0:
320,192,218543,1,0,0:0:0:0:
192,192,218649,128,0,218879:0:0:0:0:
448,192,218649,128,0,218764:0:0:0:0:
64,192,218649,128,0,218706:0:0:0:0:
320,192,218879,1,0,0:0:0:0:
192,192,219110,128,0,219360:0:0:0:0:
448,192,219110,128,0,219235:0:0:0:0:
64,192,219110,128,0,219172:0:0:0:0:
320,192,219360,128,0,219496:0:0:0:0:
64,192,219360,128,0,219632:0:0:0:0:
448,192,219360,128,0,219428:0:0:0:0:
192,192,219632,128,0,219782:0:0:0:0:
320,192,219632,128,0,219857:0:0:0:0:
448,192,219632,128,0,219707:0:0:0:0:
64,192,219707,1,0,0:0:0:0:
448,192,219782,1,0,0:0:0:0:
192,192,219857,1,0,0:0:0:0:
64,192,219932,128,0,220182:0:0:0:0:
448,192,219932,128,0,220182:0:0:0:0:
320,192,219932,128,0,220015:0:0:0:0:
192,192,220015,1,0,0:0:0:0:
320,192,220098,1,0,0:0:0:0:
192,192,220182,1,0,0:0:0:0:
64,192,220265,1,0,0:0:0:0:
448,192,220265,128,0,220603:0:0:0:0:
320,192,220265,128,0,220603:0:0:0:0:
192,192,220265,1,0,0:0:0:0:
64,192,220603,1,0,0:0:0:0:
448,192,220716,128,0,220828:0:0:0:0:
64,192,220941,128,0,221054:0:0:0:0:
320,192,220941,1,0,0:0:0:0:
192,192,220941,1,0,0:0:0:0:
448,192,221167,128,0,221280:0:0:0:0:
64,192,221393,128,0,221507:0:0:0:0:
320,192,221620,128,0,221960:0:0:0:0:
448,192,221620,128,0,221960:0:0:0:0:
192,192,221620,1,0,0:0:0:0:
192,192,221960,1,0,0:0:0:0:
448,192,222074,128,0,222188:0:0:0:0:
192,192,222301,1,0,0:0:0:0:
64,192,222301,1,0,0:0:0:0:
320,192,222301,1,0,0:0:0:0:
64,192,222415,1,0,0:0:0:0:
448,192,222529,1,0,0:0:0:0:
448,192,222643,1,0,0:0:0:0:
64,192,222757,1,0,0:0:0:0:
64,192,222871,1,0,0:0:0:0:
192,192,222985,1,0,0:0:0:0:
320,192,222985,128,0,223099:0:0:0:0:
64,192,222985,1,0,0:0:0:0:
448,192,222985,128,0,223156:0:0:0:0:
64,192,223214,128,0,223443:0:0:0:0:
320,192,223214,1,0,0:0:0:0:
192,192,223214,128,0,223328:0:0:0:0:
448,192,223214,1,0,0:0:0:0:
448,192,223443,128,0,223500:0:0:0:0:
192,192,223672,128,0,223786:0:0:0:0:
320,192,223672,1,0,0:0:0:0:
64,192,223672,1,0,0:0:0:0:
448,192,223672,128,0,223844:0:0:0:0:
64,192,223901,128,0,224131:0:0:0:0:
192,192,223901,1,0,0:0:0:0:
320,192,223901,128,0,224016:0:0:0:0:
448,192,223901,1,0,0:0:0:0:
448,192,224131,128,0,224189:0:0:0:0:
192,192,224189,1,0,0:0:0:0:
320,192,224246,1,0,0:0:0:0:
64,192,224304,1,0,0:0:0:0:
192,192,224361,1,0,0:0:0:0:
320,192,224361,1,0,0:0:0:0:
448,192,224361,1,0,0:0:0:0:
448,192,224476,1,0,0:0:0:0:
448,192,224591,1,0,0:0:0:0:
320,192,224591,1,0,0:0:0:0:
320,192,224708,1,0,0:0:0:0:
320,192,224826,1,0,0:0:0:0:
192,192,224826,1,0,0:0:0:0:
192,192,224946,1,0,0:0:0:0:
64,192,225066,1,0,0:0:0:0:
448,192,225066,1,0,0:0:0:0:
192,192,225066,1,0,0:0:0:0:
64,192,225188,1,0,0:0:0:0:
64,192,225310,1,0,0:0:0:0:
320,192,225310,1,0,0:0:0:0:
320,192,225435,1,0,0:0:0:0:
320,192,225560,1,0,0:0:0:0:
64,192,225560,1,0,0:0:0:0:
448,192,225623,1,0,0:0:0:0:
64,192,225687,1,0,0:0:0:0:
320,192,225730,1,0,0:0:0:0:
192,192,225772,1,0,0:0:0:0:
320,192,225815,1,0,0:0:0:0:
448,192,225815,128,0,226166:0:0:0:0:
64,192,225815,128,0,226166:0:0:0:0:
448,192,226283,128,0,226400:0:0:0:0:
192,192,226518,1,0,0:0:0:0:
64,192,226518,1,0,0:0:0:0:
192,192,226636,1,0,0:0:0:0:
320,192,226754,1,0,0:0:0:0:
320,192,226872,1,0,0:0:0:0:
64,192,226990,1,0,0:0:0:0:
64,192,227108,1,0,0:0:0:0:
320,192,227226,128,0,227464:0:0:0:0:
448,192,227226,128,0,227702:0:0:0:0:
192,192,227464,128,0,227940:0:0:0:0:
64,192,227702,128,0,227940:0:0:0:0:
320,192,227940,128,0,228420:0:0:0:0:
448,192,227940,128,0,228180:0:0:0:0:
64,192,228180,1,0,0:0:0:0:
192,192,228300,1,0,0:0:0:0:
64,192,228420,128,0,228600:0:0:0:0:
448,192,228420,128,0,228600:0:0:0:0:
320,192,228540,1,0,0:0:0:0:
448,192,228660,128,0,229391:0:0:0:0:
320,192,228660,128,0,228842:0:0:0:0:
192,192,228660,128,0,229086:0:0:0:0:
64,192,228660,128,0,229330:0:0:0:0:
320,192,228903,128,0,229208:0:0:0:0:
192,192,229147,128,0,229330:0:0:0:0:
320,192,229269,128,0,229330:0:0:0:0:
64,192,229391,1,0,0:0:0:0:
192,192,229391,1,0,0:0:0:0:
320,192,229391,128,0,230166:0:0:0:0:
64,192,229649,1,0,0:0:0:0:
192,192,229908,1,0,0:0:0:0:
448,192,229908,1,0,0:0:0:0:
192,192,230166,1,0,0:0:0:0:
64,192,230166,1,0,0:0:0:0:
320,192,230268,1,0,0:0:0:0:
192,192,230370,1,0,0:0:0:0:
320,192,230472,1,0,0:0:0:0:
192,192,230574,1,0,0:0:0:0:
320,192,230676,1,0,0:0:0:0:
192,192,230778,1,0,0:0:0:0:
64,192,230880,1,0,0:0:0:0:
320,192,230982,1,0,0:0:0:0:
448,192,231084,128,0,231276:0:0:0:0:
64,192,231084,128,0,232373:0:0:0:0:
320,192,231468,128,0,231673:0:0:0:0:
192,192,231878,128,0,232125:0:0:0:0:
192,192,232373,1,0,0:0:0:0:
320,192,232373,1,0,0:0:0:0:
448,192,232373,1,0,0:0:0:0:
320,192,232469,1,0,0:0:0:0:
64,192,232565,1,0,0:0:0:0:
192,192,232661,1,0,0:0:0:0:
64,192,232757,1,0,0:0:0:0:
320,192,232853,1,0,0:0:0:0:
64,192,232949,1,0,0:0:0:0:
448,192,232949,1,0,0:0:0:0:
192,192,232949,1,0,0:0:0:0:
192,192,233046,1,0,0:0:0:0:
320,192,233142,1,0,0:0:0:0:
64,192,233238,1,0,0:0:0:0:
320,192,233334,1,0,0:0:0:0:
192,192,233430,1,0,0:0:0:0:
448,192,233526,1,0,0:0:0:0:
64,192,233526,128,0,233623:0:0:0:0:
320,192,233526,1,0,0:0:0:0:
320,192,233623,128,0,233719:0:0:0:0:
192,192,233719,128,0,233815:0:0:0:0:
448,192,233815,128,0,233911:0:0:0:0:
192,192,233911,128,0,234007:0:0:0:0:
320,192,234007,128,0,234103:0:0:0:0:
64,192,234103,128,0,234296:0:0:0:0:
448,192,234103,128,0,234488:0:0:0:0:
192,192,234103,1,0,0:0:0:0:
192,192,234199,128,0,234584:0:0:0:0:
320,192,234296,128,0,234392:0:0:0:0:
64,192,234392,128,0,234584:0:0:0:0:
320,192,234488,128,0,234584:0:0:0:0:
448,192,234584,128,0,234680:0:0:0:0:
320,192,234680,5,0,0:0:0:0:
192,192,234680,1,0,0:0:0:0:
64,192,234680,1,0,0:0:0:0:
448,192,234752,1,0,0:0:0:0:
192,192,234824,1,0,0:0:0:0:
64,192,234897,1,0,0:0:0:0:
320,192,234969,1,0,0:0:0:0:
448,192,235041,1,0,0:0:0:0:
192,192,235113,1,0,0:0:0:0:
64,192,235185,1,0,0:0:0:0:
448,192,235257,1,0,0:0:0:0:
320,192,235257,1,0,0:0:0:0:
192,192,235329,1,0,0:0:0:0:
448,192,235401,1,0,0:0:0:0:
320,192,235473,1,0,0:0:0:0:
192,192,235546,1,0,0:0:0:0:
448,192,235618,1,0,0:0:0:0:
320,192,235690,1,0,0:0:0:0:
192,192,235762,1,0,0:0:0:0:
320,192,235834,1,0,0:0:0:0:
64,192,235834,1,0,0:0:0:0:
448,192,235906,1,0,0:0:0:0:
192,192,235978,1,0,0:0:0:0:
320,192,236050,1,0,0:0:0:0:
64,192,236123,1,0,0:0:0:0:
192,192,236195,1,0,0:0:0:0:
448,192,236267,1,0,0:0:0:0:
320,192,236339,1,0,0:0:0:0:
192,192,236411,1,0,0:0:0:0:
64,192,236411,1,0,0:0:0:0:
320,192,236483,1,0,0:0:0:0:
64,192,236555,1,0,0:0:0:0:
192,192,236627,1,0,0:0:0:0:
320,192,236699,1,0,0:0:0:0:
64,192,236772,1,0,0:0:0:0:
192,192,236844,1,0,0:0:0:0:
320,192,236916,1,0,0:0:0:0:
64,192,236988,1,0,0:0:0:0:
448,192,236988,1,0,0:0:0:0:
320,192,237046,1,0,0:0:0:0:
64,192,237103,1,0,0:0:0:0:
320,192,237161,1,0,0:0:0:0:
192,192,237219,1,0,0:0:0:0:
64,192,237276,1,0,0:0:0:0:
448,192,237276,1,0,0:0:0:0:
320,192,237334,1,0,0:0:0:0:
192,192,237392,1,0,0:0:0:0:
320,192,237449,1,0,0:0:0:0:
64,192,237507,1,0,0:0:0:0:
192,192,237565,1,0,0:0:0:0:
448,192,237565,1,0,0:0:0:0:
64,192,237623,1,0,0:0:0:0:
320,192,237680,1,0,0:0:0:0:
192,192,237738,1,0,0:0:0:0:
448,192,237796,1,0,0:0:0:0:
192,192,237853,1,0,0:0:0:0:
64,192,237853,1,0,0:0:0:0:
320,192,237911,1,0,0:0:0:0:
448,192,237969,1,0,0:0:0:0:
192,192,238026,1,0,0:0:0:0:
64,192,238084,1,0,0:0:0:0:
320,192,238142,1,0,0:0:0:0:
448,192,238142,1,0,0:0:0:0:
192,192,238199,1,0,0:0:0:0:
320,192,238257,1,0,0:0:0:0:
448,192,238315,1,0,0:0:0:0:
64,192,238373,1,0,0:0:0:0:
192,192,238430,1,0,0:0:0:0:
448,192,238430,1,0,0:0:0:0:
320,192,238488,1,0,0:0:0:0:
64,192,238546,1,0,0:0:0:0:
320,192,238603,1,0,0:0:0:0:
192,192,238661,1,0,0:0:0:0:
448,192,238719,1,0,0:0:0:0:
64,192,238719,1,0,0:0:0:0:
320,192,238776,1,0,0:0:0:0:
64,192,238834,1,0,0:0:0:0:
192,192,238892,1,0,0:0:0:0:
448,192,238949,1,0,0:0:0:0:
320,192,239007,1,0,0:0:0:0:
64,192,239007,1,0,0:0:0:0:
192,192,239065,1,0,0:0:0:0:
320,192,239123,1,0,0:0:0:0:
192,192,239180,1,0,0:0:0:0:
448,192,239238,1,0,0:0:0:0:
64,192,239296,1,0,0:0:0:0:
192,192,239296,1,0,0:0:0:0:
320,192,239296,1,0,0:0:0:0:
64,192,239584,128,0,239728:0:0:0:0:
192,192,239656,128,0,239800:0:0:0:0:
320,192,239728,128,0,239945:0:0:0:0:
448,192,239800,128,0,239873:0:0:0:0:
192,192,239873,128,0,240017:0:0:0:0:
64,192,239945,128,0,240089:0:0:0:0:
320,192,240017,128,0,240161:0:0:0:0:
192,192,240089,128,0,240233:0:0:0:0:
448,192,240161,128,0,240305:0:0:0:0:
320,192,240233,128,0,240377:0:0:0:0:
64,192,240305,128,0,240377:0:0:0:0:
192,192,240377,128,0,240449:0:0:0:0:
320,192,240449,1,0,0:0:0:0:
448,192,240449,1,0,0:0:0:0:
64,192,240449,1,0,0:0:0:0:
320,192,240738,5,0,0:0:0:0:
448,192,240738,1,0,0:0:0:0:
192,192,240810,1,0,0:0:0:0:
64,192,240810,1,0,0:0:0:0:
448,192,240882,1,0,0:0:0:0:
320,192,240882,1,0,0:0:0:0:
192,192,240954,1,0,0:0:0:0:
64,192,240954,1,0,0:0:0:0:
320,192,241026,1,0,0:0:0:0:
448,192,241026,1,0,0:0:0:0:
64,192,241026,1,0,0:0:0:0:
192,192,241026,1,0,0:0:0:0:
320,192,241315,1,0,0:0:0:0:
448,192,241315,1,0,0:0:0:0:
448,192,241387,1,0,0:0:0:0:
320,192,241387,1,0,0:0:0:0:
448,192,241459,1,0,0:0:0:0:
64,192,241459,1,0,0:0:0:0:
64,192,241531,1,0,0:0:0:0:
192,192,241531,1,0,0:0:0:0:
192,192,241603,1,0,0:0:0:0:
448,192,241603,1,0,0:0:0:0:
320,192,241603,1,0,0:0:0:0:
64,192,241603,1,0,0:0:0:0:
