osu file format v14

[General]
AudioFilename: audio.mp3
AudioLeadIn: 0
PreviewTime: 196432
Countdown: 0
SampleSet: Normal
StackLeniency: 0.7
Mode: 2
LetterboxInBreaks: 0
WidescreenStoryboard: 1

[Editor]
DistanceSpacing: 0.8
BeatDivisor: 2
GridSize: 16
TimelineZoom: 2.3

[Metadata]
Title:Fly Like You [Long Version]
TitleUnicode:Fly Like You [Long Version]
Artist:technoplanet
ArtistUnicode:technoplanet
Creator:[ TNTlealu ]
Version:Rocma's NOVICE
Source:SOUND VOLTEX IV HEAVENLY HAVEN
Tags:electronic -Joakh Shinsekai- sdvx 4 旋律世界 ΩDimension -Phase.5+- full ver sv instrumental konami video game rhythm [_Chichinya_] Chi Vulkin uone Rocma _Asriel Yumeno Himiko examination Minato Yukina CLSW alienflybot AFB Loneight l1106188 L18 岡聡志 安部泉希 autofanboy
BeatmapID:2278738
BeatmapSetID:1079909

[Difficulty]
HPDrainRate:4
CircleSize:2.5
OverallDifficulty:7
ApproachRate:7
SliderMultiplier:0.96
SliderTickRate:0.5

[Events]
//Background and Video events
0,0,"fcb914da2343ca7cea85c6f8803cf27e4147f5c0.png",0,0
//Break Periods
2,197091,202862
//Storyboard Layer 0 (Background)
//Storyboard Layer 1 (Fail)
//Storyboard Layer 2 (Pass)
//Storyboard Layer 3 (Foreground)
//Storyboard Layer 4 (Overlay)
//Storyboard Sound Samples

[TimingPoints]
625,209.79020979021,3,1,1,75,1,0
625,-100,3,1,1,75,0,0
2093,-100,3,1,1,75,0,0
2303,-100,3,1,1,75,0,0
3142,-100,3,1,1,75,0,0
4611,-100,3,1,1,75,0,0
4820,-100,3,1,1,75,0,0
5240,-100,3,1,1,75,0,0
5450,-100,3,1,1,75,0,0
5869,-100,3,1,1,75,0,0
5974,-100,3,1,10,30,0,0
6498,-100,3,1,0,30,0,0
6707,-100,3,1,1,30,0,0
6918,-100,3,1,10,85,0,1
7127,-100,3,1,10,85,0,1
7232,-100,3,1,10,85,0,1
8386,-100,3,1,10,85,0,1
8491,-100,3,1,10,85,0,1
9435,-100,3,1,13,85,0,1
9539,-100,3,1,10,85,0,1
9645,-100,3,1,13,85,0,1
9854,-100,3,1,10,85,0,1
10064,-100,3,1,13,85,0,1
10483,-100,3,1,10,85,0,1
11323,-100,3,1,11,85,0,1
11428,-100,3,1,10,85,0,1
11532,-100,3,1,10,85,0,1
11952,-100,3,1,11,85,0,1
12162,-100,3,1,10,85,0,1
12266,-100,3,1,10,85,0,1
12371,-100,3,1,10,85,0,1
12791,-100,3,1,11,85,0,1
12897,-100,3,1,10,85,0,1
13001,-100,3,1,10,85,0,1
13631,-100,3,1,11,85,0,1
13841,-100,3,1,10,85,0,1
14155,-100,3,1,11,85,0,1
14260,-100,3,1,10,85,0,1
14470,-100,3,1,10,85,0,1
15099,-100,3,1,12,85,0,1
15309,-100,3,1,10,85,0,1
15729,-100,3,1,11,85,0,1
16358,-100,3,1,12,85,0,1
16988,-100,3,1,20,80,0,0
17091,-100,3,1,19,80,0,0
17302,-100,3,1,20,80,0,0
19085,-100,3,1,21,80,0,0
19348,-100,3,1,20,80,0,0
19400,-100,3,1,20,80,0,0
19505,-100,3,1,20,80,0,0
19714,-100,3,1,22,80,0,0
20134,-100,3,1,23,80,0,0
20239,-100,3,1,20,80,0,0
20344,-100,3,1,23,80,0,0
20921,-100,3,1,23,80,0,0
20973,-100,3,1,23,80,0,0
21131,-100,3,1,23,80,0,0
21183,-100,3,1,23,80,0,0
21341,-100,3,1,23,80,0,0
21393,-100,3,1,24,80,0,0
22022,-100,3,1,20,80,0,0
22126,-100,3,1,19,80,0,0
22337,-100,3,1,20,80,0,0
24120,-100,3,1,21,80,0,0
24383,-100,3,1,20,80,0,0
24434,-100,3,1,20,80,0,0
24540,-100,3,1,20,80,0,0
24749,-100,3,1,22,80,0,0
25169,-100,3,1,23,80,0,0
25956,-100,3,1,23,80,0,0
26008,-100,3,1,23,80,0,0
26166,-100,3,1,23,80,0,0
26218,-100,3,1,23,80,0,0
26376,-100,3,1,23,80,0,0
26428,-100,3,1,24,80,0,0
26533,-100,3,1,23,80,0,0
26638,-100,3,1,23,80,0,0
26743,-100,3,1,24,80,0,0
26848,-100,3,1,23,80,0,0
26952,-100,3,1,23,80,0,0
27057,-100,3,1,30,80,0,0
27267,-100,3,1,30,80,0,0
27477,-100,3,1,30,80,0,0
29785,-100,3,1,30,80,0,0
30204,-100,3,1,30,80,0,0
30624,-100,3,1,30,80,0,0
30834,-100,3,1,30,80,0,0
30938,-100,3,1,31,80,0,0
31043,-100,3,1,31,80,0,0
31148,-100,3,1,31,80,0,0
31253,-100,3,1,31,80,0,0
31358,-100,3,1,31,80,0,0
31463,-100,3,1,30,80,0,0
32092,-100,3,1,37,80,0,0
32302,-100,3,1,32,80,0,0
32406,-100,3,1,32,80,0,0
32511,-100,3,1,32,80,0,0
34400,-100,3,1,30,80,0,0
34610,-100,3,1,32,80,0,0
34820,-100,3,1,32,80,0,0
34977,-100,3,1,32,80,0,0
35029,-100,3,1,29,80,0,0
35238,-100,3,1,32,80,0,0
35659,-100,3,1,29,80,0,0
35868,-100,3,1,33,80,0,0
35973,-100,3,1,32,80,0,0
36078,-100,3,1,33,80,0,0
36392,-100,3,1,32,80,0,0
36498,-100,3,1,33,80,0,0
37127,-100,3,1,37,80,0,0
37336,-100,3,1,32,80,0,0
37547,-100,3,1,32,80,0,0
37757,-100,3,1,36,80,0,0
37861,-100,3,1,32,80,0,0
37966,-100,3,1,32,80,0,0
39015,-100,3,1,36,80,0,0
39119,-100,3,1,32,80,0,0
39225,-100,3,1,32,80,0,0
39645,-100,3,1,37,80,0,0
39750,-100,3,1,32,80,0,0
40274,-100,3,1,36,80,0,0
40344,-100,3,1,32,80,0,0
40483,-100,3,1,32,80,0,0
41533,-100,3,1,36,80,0,0
41637,-100,3,1,32,80,0,0
41900,-100,3,1,32,80,0,0
41952,-100,3,1,32,80,0,0
42110,-100,3,1,32,80,0,0
42162,-100,3,1,37,80,0,0
42266,-100,3,1,32,80,0,0
42371,-100,3,1,32,80,0,0
42792,-100,3,1,36,80,0,0
42897,-100,3,1,32,80,0,0
43001,-100,3,1,32,80,0,0
43421,-100,3,1,37,80,0,0
43526,-100,3,1,32,80,0,0
43735,-100,3,1,37,80,0,0
43841,-100,3,1,32,80,0,0
44050,-100,3,1,32,80,0,0
44155,-100,3,1,29,80,0,0
44259,-100,3,1,29,80,0,0
44574,-100,3,1,32,80,0,0
44680,225.563909774436,3,1,34,80,1,0
44680,-100,3,1,34,80,0,0
44905,-100,3,1,34,80,0,0
45356,-100,3,1,34,80,0,0
45582,-100,3,1,34,80,0,0
46033,-100,3,1,34,80,0,0
46710,-100,3,1,34,80,0,0
47386,209.79020979021,3,1,37,80,1,0
47386,-100,3,1,37,80,0,0
47490,-100,3,1,32,80,0,0
48015,-100,3,1,37,80,0,0
48119,-100,3,1,32,80,0,0
48224,-100,3,1,35,80,0,0
48434,-100,3,1,35,80,0,0
48644,-100,3,1,32,80,0,0
49274,-100,3,1,37,80,0,0
49378,-100,3,1,32,80,0,0
49483,-100,3,1,32,80,0,0
49693,-100,3,1,35,80,0,0
49903,-100,3,1,32,80,0,0
50532,-100,3,1,37,80,0,0
50636,-100,3,1,32,80,0,0
50741,-100,3,1,32,80,0,0
50951,-100,3,1,35,80,0,0
51004,-100,3,1,0,80,0,0
51057,-100,3,1,35,80,0,0
51162,-100,3,1,35,80,0,0
51267,-100,3,1,35,50,0,0
51372,-100,3,1,35,55,0,0
51476,-100,3,1,35,60,0,0
51581,-100,3,1,35,65,0,0
51686,-100,3,1,35,70,0,0
51791,-100,3,1,35,80,0,0
52630,-100,3,1,35,30,0,0
53679,-100,3,1,10,85,0,1
53889,-100,3,1,10,85,0,1
53994,-100,3,1,10,85,0,1
55148,-100,3,1,10,85,0,1
55253,-100,3,1,10,85,0,1
56196,-100,3,1,13,85,0,1
56301,-100,3,1,10,85,0,1
56406,-100,3,1,13,85,0,1
56615,-100,3,1,10,85,0,1
56825,-100,3,1,13,85,0,1
57245,-100,3,1,10,85,0,1
58085,-100,3,1,11,85,0,1
58189,-100,3,1,10,85,0,1
58294,-100,3,1,10,85,0,1
58714,-100,3,1,11,85,0,1
58924,-100,3,1,10,85,0,1
59028,-100,3,1,10,85,0,1
59133,-100,3,1,10,85,0,1
59552,-100,3,1,11,85,0,1
59658,-100,3,1,10,85,0,1
59762,-100,3,1,10,85,0,1
60392,-100,3,1,11,85,0,1
60602,-100,3,1,10,85,0,1
60916,-100,3,1,11,85,0,1
61022,-100,3,1,10,85,0,1
61232,-100,3,1,10,75,0,0
61860,-100,3,1,12,85,0,0
62070,-100,3,1,10,85,0,0
62350,-100,3,1,10,85,0,0
62490,-100,3,1,14,75,0,0
62560,-100,3,1,10,75,0,0
62700,-100,3,1,14,75,0,0
62770,-100,3,1,10,75,0,0
62910,-100,3,1,14,75,0,0
62962,-100,3,1,10,75,0,0
63015,-100,3,1,10,75,0,0
63120,-100,3,1,10,75,0,0
63225,-100,3,1,10,75,0,0
63330,-100,3,1,21,75,0,0
63434,-100,3,1,21,75,0,0
63539,-100,3,1,10,75,0,0
63592,-100,3,1,21,75,0,0
63644,-100,3,1,10,75,0,0
63697,-100,3,1,21,75,0,0
63749,-100,3,1,10,85,0,1
63959,-100,3,1,10,85,0,1
64064,-100,3,1,10,85,0,1
64169,-100,3,1,10,85,0,1
65218,-100,3,1,10,85,0,1
65427,-100,3,1,10,85,0,1
65742,-100,3,1,10,85,0,1
65847,-100,3,1,10,85,0,1
65952,-100,3,1,10,85,0,1
66057,-100,3,1,10,85,0,1
66162,-100,3,1,10,85,0,1
66267,-100,3,1,13,85,0,1
66372,-100,3,1,10,85,0,1
66476,-100,3,1,13,85,0,1
66686,-100,3,1,10,85,0,1
66896,-100,3,1,13,85,0,1
67316,-100,3,1,10,85,0,1
67525,-100,3,1,10,85,0,1
68155,-100,3,1,11,85,0,1
68260,-100,3,1,10,85,0,1
68364,-100,3,1,10,85,0,1
68574,-100,3,1,10,85,0,1
68627,-100,3,1,10,85,0,1
68679,-100,3,1,10,85,0,1
68732,-100,3,1,10,85,0,1
68784,-100,3,1,10,85,0,1
71931,-100,3,1,12,85,0,1
71984,-100,3,1,10,85,0,1
72140,-100,3,1,10,85,0,1
72560,-100,3,1,14,85,0,1
73084,-100,3,1,10,85,0,1
73190,-100,3,1,14,85,0,1
73399,-100,3,1,14,85,0,1
73504,-100,3,1,10,85,0,1
73609,-100,3,1,10,85,0,1
73819,-100,3,1,35,75,0,0
73923,-100,3,1,32,75,0,0
74029,-100,3,1,32,75,0,0
75288,-100,3,1,36,75,0,0
75392,-100,3,1,32,75,0,0
75497,-100,3,1,32,75,0,0
75707,-100,3,1,36,75,0,0
75811,-100,3,1,32,75,0,0
75917,-100,3,1,35,75,0,0
76126,-100,3,1,32,75,0,0
77805,-100,3,1,36,75,0,0
77910,-100,3,1,32,75,0,0
78014,-100,3,1,32,75,0,0
78225,-100,3,1,36,75,0,0
78329,-100,3,1,32,75,0,0
78434,-100,3,1,35,75,0,0
78643,-100,3,1,32,75,0,0
80322,-100,3,1,36,75,0,0
80532,-100,3,1,32,75,0,0
80742,-100,3,1,36,75,0,0
80952,-100,3,1,35,75,0,0
81266,-100,3,1,32,75,0,0
81372,-100,3,1,32,75,0,0
82420,-100,3,1,35,75,0,0
82630,-100,3,1,32,75,0,0
83364,-100,3,1,35,75,0,0
83573,-100,3,1,32,75,0,0
83889,-100,3,1,37,75,0,0
83994,-100,3,1,32,75,0,0
86092,-100,3,1,21,75,0,0
86196,-100,3,1,21,75,0,0
86302,-100,3,1,32,75,0,0
86406,-100,3,1,37,75,0,0
86825,-100,3,1,32,75,0,0
87036,-100,3,1,37,75,0,0
87455,-100,3,1,32,75,0,0
88924,-100,3,1,37,75,0,0
89133,-100,3,1,32,75,0,0
89343,-100,3,1,32,75,0,0
91441,-100,3,1,37,75,0,0
91861,-100,3,1,32,75,0,0
92071,-100,3,1,37,75,0,0
92490,-100,3,1,32,75,0,0
92700,-100,3,1,37,75,0,0
92804,-100,3,1,32,75,0,0
93119,-100,3,1,32,75,0,0
93399,-100,3,1,21,75,0,0
93487,-100,3,1,0,75,0,0
93539,-100,3,1,32,75,0,0
93609,-100,3,1,21,75,0,0
93697,-100,3,1,0,75,0,0
93749,-100,3,1,32,75,0,0
93959,-100,3,1,37,75,0,0
94063,-100,3,1,32,75,0,0
94169,-100,3,1,32,75,0,0
94378,-100,3,1,32,75,0,0
96056,-100,3,1,37,75,0,0
96162,-100,3,1,32,75,0,0
96267,-100,3,1,32,75,0,0
96476,-100,3,1,37,75,0,0
96685,-100,3,1,32,75,0,0
96895,-100,3,1,32,75,0,0
98365,-100,3,1,37,75,0,0
98469,-100,3,1,32,75,0,0
98574,-100,3,1,37,75,0,0
98679,-100,3,1,32,75,0,0
98784,-100,3,1,32,75,0,0
98994,-100,3,1,37,75,0,0
99203,-100,3,1,32,75,0,0
101511,-100,3,1,37,75,0,0
101616,-100,3,1,32,75,0,0
101721,-100,3,1,32,75,0,0
102770,-100,3,1,37,75,0,0
102875,-100,3,1,32,75,0,0
102980,-100,3,1,32,75,0,0
103084,-100,3,1,37,75,0,0
103189,-100,3,1,32,75,0,0
103295,-100,3,1,32,75,0,0
103399,-100,3,1,37,75,0,0
103503,-100,3,1,32,75,0,0
103714,-100,3,1,37,75,0,0
103818,-100,3,1,32,75,0,0
104029,217.391304347826,3,1,40,80,1,0
104029,-100,3,1,40,80,0,0
104246,-100,3,1,40,80,0,0
104463,-100,3,1,40,80,0,0
105659,-100,3,1,40,80,0,0
105768,-100,3,1,40,80,0,0
106202,-100,3,1,41,80,0,0
106275,-100,3,1,41,80,0,0
106419,-100,3,1,41,80,0,0
106855,-100,3,1,40,80,0,0
107071,-100,3,1,40,80,0,0
107506,-100,3,1,41,80,0,0
107615,-100,3,1,41,80,0,0
107724,-100,3,1,40,80,0,0
109028,-100,3,1,41,80,0,0
109246,-100,3,1,40,80,0,0
109463,-100,3,1,41,80,0,0
109572,-100,3,1,41,80,0,0
109681,-100,3,1,40,80,0,0
110224,-100,3,1,40,80,0,0
110333,-100,3,1,40,80,0,0
110768,-100,3,1,41,80,0,0
110984,-100,3,1,41,80,0,0
111419,-100,3,1,40,80,0,0
111474,-100,3,1,40,80,0,0
111636,-100,3,1,40,80,0,0
112941,-100,3,1,41,80,0,0
113159,-100,3,1,40,80,0,0
113231,-100,3,1,32,80,0,0
113376,-100,3,1,32,80,0,0
113702,-100,3,1,32,80,0,0
113739,-100,3,1,32,80,0,0
113811,-100,3,1,32,80,0,0
113920,-100,3,1,32,80,0,0
114029,-100,3,1,32,80,0,0
114137,-100,3,1,0,75,0,0
114246,-100,3,1,32,80,0,0
114355,-100,3,1,32,80,0,0
114463,225.563909774436,3,1,40,70,1,0
114463,-100,3,1,40,70,0,0
116719,-100,3,1,41,70,0,0
117169,-100,3,1,41,70,0,0
117394,-100,3,1,40,70,0,0
117846,-100,3,1,40,70,0,0
118072,-100,3,1,41,70,0,0
118297,-100,3,1,40,70,0,0
119650,-100,3,1,41,70,0,0
119876,-100,3,1,40,70,0,0
120101,-100,3,1,41,70,0,0
120327,-100,3,1,40,70,0,0
121455,-100,3,1,41,70,0,0
121907,-100,3,1,41,70,0,0
122357,-100,3,1,42,70,0,0
122583,-100,3,1,42,70,0,0
123260,-100,3,1,40,70,0,0
123484,-100,3,1,41,70,0,0
123936,209.79020979021,3,1,41,70,1,0
123936,-100,3,1,41,70,0,0
124040,-100,3,1,40,30,0,0
124145,-100,3,1,40,30,0,0
124249,-100,3,1,40,70,0,0
124565,-100,3,1,40,70,0,0
124775,-100,3,1,33,75,0,0
125142,-100,3,1,33,75,0,0
125194,209.79020979021,3,1,37,80,1,0
125194,-100,3,1,37,80,0,0
125403,-100,3,1,32,80,0,0
125509,-100,3,1,32,80,0,0
125613,-100,3,1,32,80,0,0
125824,-100,3,1,36,80,0,0
125928,-100,3,1,32,80,0,0
126033,-100,3,1,32,80,0,0
127082,-100,3,1,36,80,0,0
127187,-100,3,1,32,80,0,0
127291,-100,3,1,32,80,0,0
127712,-100,3,1,37,80,0,0
127817,-100,3,1,32,80,0,0
128341,-100,3,1,36,80,0,0
128411,-100,3,1,32,80,0,0
128550,-100,3,1,32,80,0,0
129600,-100,3,1,36,80,0,0
129705,-100,3,1,32,80,0,0
129809,-100,3,1,32,80,0,0
130229,-100,3,1,37,80,0,0
130334,-100,3,1,32,80,0,0
130859,-100,3,1,36,80,0,0
130963,-100,3,1,32,80,0,0
131172,-100,3,1,32,80,0,0
131278,-100,3,1,32,80,0,0
132117,-100,3,1,36,80,0,0
132221,-100,3,1,32,80,0,0
132326,-100,3,1,32,80,0,0
132747,-100,3,1,37,80,0,0
132956,-100,3,1,32,80,0,0
133376,-100,3,1,37,80,0,0
133481,-100,3,1,32,80,0,0
133585,-100,3,1,32,80,0,0
133795,-100,3,1,32,80,0,0
134215,-100,3,1,32,80,0,0
134320,-100,3,1,32,80,0,0
134740,-100,3,1,32,80,0,0
134845,-100,3,1,32,80,0,0
134949,-100,3,1,32,80,0,0
135054,-100,3,1,32,80,0,0
135159,-100,3,1,32,80,0,0
135264,-100,3,1,38,75,0,0
135474,-100,3,1,38,75,0,0
135683,-100,3,1,36,75,0,0
135788,-100,3,1,38,75,0,0
135894,-100,3,1,38,75,0,0
136942,-100,3,1,36,75,0,0
137046,-100,3,1,38,75,0,0
137152,-100,3,1,38,75,0,0
138201,-100,3,1,36,75,0,0
138411,-100,3,1,38,75,0,0
139459,-100,3,1,36,75,0,0
139670,-100,3,1,38,75,0,0
140299,-100,3,1,38,75,0,0
140509,-100,3,1,38,75,0,0
140719,-100,3,1,38,75,0,0
140929,-100,3,1,36,75,0,0
141138,-100,3,1,38,75,0,0
141348,-100,3,1,38,75,0,0
141558,-100,3,1,36,75,0,0
141663,-100,3,1,38,75,0,0
141768,-100,3,1,38,75,0,0
141977,-100,3,1,38,75,0,0
142187,-100,3,1,32,75,0,0
142292,-100,3,1,29,80,0,0
142397,-100,3,1,29,80,0,0
142607,-100,3,1,29,80,0,0
142816,225.563909774436,3,1,34,75,1,0
142816,-100,3,1,34,75,0,0
142873,-100,3,1,34,75,0,0
143492,-100,3,1,34,75,0,0
144620,-100,3,1,34,75,0,0
144734,-100,3,1,34,75,0,0
144847,-100,3,1,34,75,0,0
145522,209.79020979021,3,1,37,75,1,0
145522,-100,3,1,37,75,0,0
145626,-100,3,1,32,80,0,0
145836,-100,3,1,32,80,0,0
146151,-100,3,1,37,80,0,0
146255,-100,3,1,32,80,0,0
146360,-100,3,1,35,80,0,0
146780,-100,3,1,32,80,0,0
146884,-100,3,1,32,80,0,0
146990,-100,3,1,32,80,0,0
147304,-100,3,1,32,80,0,0
147410,-100,3,1,37,80,0,0
147515,-100,3,1,37,80,0,0
147549,-100,3,1,32,80,0,0
147619,-100,3,1,32,80,0,0
147724,-100,3,1,32,80,0,0
147829,-100,3,1,35,80,0,0
148039,-100,3,1,32,80,0,0
148354,-100,3,1,32,80,0,0
148459,-100,3,1,32,80,0,0
148668,-100,3,1,37,80,0,0
148773,-100,3,1,32,80,0,0
148877,-100,3,1,32,80,0,0
148982,-100,3,1,32,80,0,0
149088,-100,3,1,35,80,0,0
149298,-100,3,1,35,80,0,0
150661,-100,3,1,35,80,0,0
150714,-100,3,1,35,80,0,0
150766,-100,3,1,35,80,0,0
151815,-100,3,1,38,80,0,0
151868,-100,3,1,38,80,0,0
152235,-100,3,1,38,80,0,0
152287,-100,3,1,38,80,0,0
152654,-100,3,1,38,80,0,0
152969,-100,3,1,38,80,0,0
153022,-100,3,1,38,80,0,0
153074,-100,3,1,10,85,0,1
153284,-100,3,1,10,85,0,1
153389,-100,3,1,10,85,0,1
154542,-100,3,1,10,85,0,1
154647,-100,3,1,10,85,0,1
155591,-100,3,1,13,85,0,1
155695,-100,3,1,10,85,0,1
155801,-100,3,1,13,85,0,1
156011,-100,3,1,10,85,0,1
156221,-100,3,1,13,85,0,1
156641,-100,3,1,10,85,0,1
157480,-100,3,1,11,85,0,1
157584,-100,3,1,10,85,0,1
157689,-100,3,1,10,85,0,1
158109,-100,3,1,11,85,0,1
158319,-100,3,1,10,85,0,1
158423,-100,3,1,10,85,0,1
158528,-100,3,1,10,85,0,1
158947,-100,3,1,11,85,0,1
159053,-100,3,1,10,85,0,1
159157,-100,3,1,10,85,0,1
159787,-100,3,1,11,85,0,1
159997,-100,3,1,10,85,0,1
160311,-100,3,1,11,85,0,1
160417,-100,3,1,10,85,0,1
160626,-100,3,1,10,75,0,0
161256,-100,3,1,12,85,0,0
161465,-100,3,1,10,85,0,0
161745,-100,3,1,10,85,0,0
161885,-100,3,1,14,75,0,0
161955,-100,3,1,10,75,0,0
162095,-100,3,1,10,75,0,0
162200,-100,3,1,10,75,0,0
162235,-100,3,1,10,75,0,0
162305,-100,3,1,14,75,0,0
162357,-100,3,1,10,75,0,0
162410,-100,3,1,10,75,0,0
162515,-100,3,1,10,75,0,0
162619,-100,3,1,10,75,0,0
162724,-100,3,1,21,75,0,0
162829,-100,3,1,21,75,0,0
162934,-100,3,1,10,75,0,0
162987,-100,3,1,21,75,0,0
163039,-100,3,1,10,75,0,0
163091,-100,3,1,21,75,0,0
163144,-100,3,1,10,85,0,1
163354,-100,3,1,10,85,0,1
163459,-100,3,1,10,85,0,1
163563,-100,3,1,10,85,0,1
164612,-100,3,1,10,85,0,1
164822,-100,3,1,10,85,0,1
165137,-100,3,1,10,85,0,1
165242,-100,3,1,10,85,0,1
165347,-100,3,1,10,85,0,1
165452,-100,3,1,10,85,0,1
165556,-100,3,1,10,85,0,1
165661,-100,3,1,13,85,0,1
165765,-100,3,1,10,85,0,1
165871,-100,3,1,13,85,0,1
166081,-100,3,1,10,85,0,1
166291,-100,3,1,13,85,0,1
166710,-100,3,1,10,85,0,1
166920,-100,3,1,10,85,0,1
167550,-100,3,1,11,85,0,1
167654,-100,3,1,10,85,0,1
167759,-100,3,1,10,85,0,1
167969,-100,3,1,10,85,0,1
168022,-100,3,1,10,85,0,1
168074,-100,3,1,10,85,0,1
168126,-100,3,1,10,85,0,1
168179,-100,3,1,10,85,0,1
171326,-100,3,1,12,85,0,1
171378,-100,3,1,10,85,0,1
171535,-100,3,1,10,85,0,1
172585,-100,3,1,12,85,0,1
173214,-100,3,1,15,80,0,0
173319,-100,3,1,15,80,0,0
173354,-100,3,1,15,80,0,0
175312,-100,3,1,15,80,0,0
175731,-100,3,1,13,85,0,1
175835,-100,3,1,10,85,0,1
175941,-100,3,1,13,85,0,1
176151,-100,3,1,10,85,0,1
176361,-100,3,1,13,85,0,1
176781,-100,3,1,10,85,0,1
177619,-100,3,1,11,85,0,1
177724,-100,3,1,10,85,0,1
177828,-100,3,1,10,85,0,1
178039,-100,3,1,10,85,0,1
178091,-100,3,1,10,85,0,1
178144,-100,3,1,10,85,0,1
178196,-100,3,1,10,85,0,1
178249,-100,3,1,18,80,0,0
178354,-100,3,1,10,80,0,0
178878,-100,3,1,18,80,0,0
178948,-100,3,1,10,80,0,0
179297,-100,3,1,10,80,0,0
179508,-100,3,1,18,80,0,0
179612,-100,3,1,10,80,0,0
179717,-100,3,1,10,80,0,0
179927,-100,3,1,10,80,0,0
180137,-100,3,1,18,80,0,0
180241,-100,3,1,10,80,0,0
180346,-100,3,1,10,80,0,0
180976,-100,3,1,10,80,0,0
183126,-100,3,1,0,80,0,0
183179,-100,3,1,10,80,0,0
183229,-100,3,1,0,80,0,0
183284,217.391304347826,3,1,15,80,1,0
183284,-100,3,1,15,80,0,0
183501,-100,3,1,15,80,0,0
183827,-100,3,1,15,80,0,0
184153,-100,3,1,15,80,0,0
184370,-100,3,1,15,80,0,0
184443,-100,3,1,15,80,0,0
184588,-100,3,1,15,80,0,0
185349,-100,3,1,10,80,0,0
185457,-100,3,1,10,80,0,0
185838,-100,3,1,0,80,0,0
185892,225.563909774436,3,1,10,80,1,0
185892,-100,3,1,10,80,0,0
187170,-100,3,1,0,80,0,0
187245,234.375,3,1,10,80,1,0
187245,-100,3,1,10,80,0,0
187948,-100,3,1,11,80,0,0
188065,-100,3,1,10,80,0,0
188182,-100,3,1,10,80,0,0
188416,-100,3,1,10,80,0,0
188475,-100,3,1,10,80,0,0
188534,-100,3,1,10,80,0,0
188590,-100,3,1,0,80,0,0
188651,243.90243902439,3,1,11,80,1,0
188651,-100,3,1,11,80,0,0
188894,-100,3,1,16,80,0,0
189016,-100,3,1,16,80,0,0
189138,-100,3,1,16,80,0,0
189382,254.237288135593,3,1,16,80,1,0
189445,-100,3,1,16,80,0,0
189509,-100,3,1,16,80,0,0
189572,-100,3,1,16,80,0,0
189636,-100,3,1,16,80,0,0
189699,-100,3,1,16,80,0,0
189763,-100,3,1,16,80,0,0
189826,-100,3,1,16,80,0,0
189890,-100,3,1,16,80,0,0
189954,-100,3,1,16,80,0,0
190017,-100,3,1,16,80,0,0
190081,-100,3,1,16,80,0,0
190144,306.122448979592,3,1,16,80,1,0
190144,-100,3,1,16,80,0,0
190450,-100,3,1,16,80,0,0
190756,361.44578313253,3,1,16,80,1,0
190756,-100,3,1,16,80,0,0
191117,461.538461538462,3,1,16,80,1,1
191193,-100,3,1,16,80,0,0
191270,-100,3,1,16,80,0,0
191578,-100,3,1,16,80,0,0
191732,-100,3,1,16,80,0,0
191809,-100,3,1,16,80,0,0
191886,-100,3,1,16,80,0,0
191963,-100,3,1,16,80,0,0
192040,-100,3,1,16,80,0,0
192117,-100,3,1,16,80,0,0
192193,-100,3,1,16,80,0,0
192299,-100,3,1,16,80,0,0
192415,-100,3,1,16,80,0,0
192501,659.340659340659,3,1,16,80,1,0
192501,-100,3,1,16,80,0,0
194479,-100,3,1,38,80,0,0
196457,659.340659340659,3,1,16,50,1,0
196457,-100,3,1,16,50,0,0
197116,594.059405940594,3,1,17,50,1,0
197116,-100,3,1,17,50,0,0
198898,540.540540540541,3,1,17,50,1,0
198898,-100,3,1,17,50,0,0
203357,-100,3,1,17,50,0,0
203492,-100,3,1,17,50,0,0
203762,481.927710843374,3,1,17,60,1,0
203762,-100,3,1,17,60,0,0
205930,-100,3,1,17,60,0,0
206653,465.116279069767,3,1,17,60,1,0
206653,-100,3,1,17,60,0,0
208746,-100,3,1,17,60,0,0
209443,456.273764258555,3,1,1,60,1,0
209443,-100,3,1,1,60,0,0
209899,-100,3,1,17,60,0,0
210127,-100,3,1,32,60,0,0
210811,-100,3,1,1,60,0,0
211268,-100,3,1,17,60,0,0
211495,-100,3,1,32,60,0,0
212180,441.176470588235,3,1,1,70,1,0
212180,-100,3,1,1,70,0,0
212621,-100,3,1,17,70,0,0
212841,-100,3,1,32,70,0,0
213062,-100,3,1,17,70,0,0
213282,-100,3,1,32,70,0,0
213503,-100,3,1,1,70,0,0
213944,-100,3,1,17,70,0,0
214164,-100,3,1,32,70,0,0
214385,-100,3,1,17,70,0,0
214606,-100,3,1,10,70,0,0
214827,430.10752688172,3,1,1,75,1,0
214827,-100,3,1,1,75,0,0
215257,-100,3,1,10,75,0,0
215687,-100,3,1,1,75,0,0
215902,-100,3,1,10,75,0,0
216117,-100,3,1,1,75,0,0
216547,-100,3,1,10,75,0,0
216977,-100,3,1,1,75,0,0
217192,-100,3,1,10,75,0,0
217407,422.535211267606,3,1,1,75,1,0
217407,-100,3,1,1,75,0,0
217829,-100,3,1,10,75,0,0
218252,-100,3,1,1,75,0,0
218463,-100,3,1,10,75,0,0
218674,461.538461538462,3,1,1,80,1,1
218674,-100,3,1,1,80,0,0
219135,500,3,1,1,82,1,0
219135,-100,3,1,1,82,0,0
219385,545.454545454546,3,1,1,84,1,1
219385,-100,3,1,1,84,0,0
219657,600,3,1,1,86,1,1
219657,-100,3,1,1,86,0,0
219957,666.666666666667,3,1,1,88,1,1
219957,-100,3,1,1,88,0,0
220290,225.563909774436,3,1,10,90,1,1
220290,-100,3,1,10,90,0,1
220515,-100,3,1,10,90,0,1
220628,-100,3,1,10,90,0,1
220966,226.415094339623,3,1,10,90,1,1
220966,-100,3,1,10,90,0,1
221645,227.272727272727,3,1,10,90,1,1
221645,-100,3,1,10,90,0,1
221872,-100,3,1,10,90,0,1
221985,-100,3,1,10,90,0,1
222326,228.136882129278,3,1,10,90,1,1
222326,-100,3,1,10,90,0,1
223010,229.007633587786,3,1,10,90,1,1
223010,-100,3,1,10,90,0,1
223697,229.885057471264,3,1,10,90,1,1
223697,-100,3,1,10,90,0,1
224386,230.769230769231,3,1,10,90,1,1
224386,-100,3,1,10,90,0,1
224616,235.294117647059,3,1,10,90,1,1
224616,-100,3,1,10,90,0,1
224851,240,3,1,10,90,1,1
224851,-100,3,1,10,90,0,1
225091,244.897959183673,3,1,11,90,1,1
225091,-100,3,1,11,90,0,1
225213,-100,3,1,10,90,0,1
225335,250,3,1,10,90,1,1
225335,-100,3,1,10,90,0,1
225585,255.31914893617,3,1,10,90,1,1
225585,-100,3,1,10,90,0,1
225840,234.375,3,1,10,90,1,1
225840,-100,3,1,10,90,0,1
226074,-100,3,1,10,90,0,1
226191,-100,3,1,10,90,0,1
226543,236.220472440945,3,1,10,90,1,1
226543,-100,3,1,10,90,0,1
227251,238.095238095238,3,1,10,90,1,1
227251,-100,3,1,10,90,0,1
227965,240,3,1,10,90,1,1
227965,-100,3,1,10,90,0,1
228445,-100,3,1,11,90,0,1
228685,243.90243902439,3,1,10,90,1,1
228685,-100,3,1,10,90,0,1
229172,-100,3,1,40,90,0,1
229416,258.620689655172,3,1,12,90,1,1
229416,-100,3,1,12,90,0,1
229674,-100,3,1,10,90,0,1
229933,-100,3,1,40,90,0,1
230191,306.122448979592,3,1,10,90,1,1
230191,-100,3,1,10,90,0,1
231109,384.615384615385,3,1,10,90,1,1
231109,-100,3,1,10,90,0,1
231493,410.958904109589,3,1,10,90,1,1
231493,-100,3,1,10,90,0,1
231903,487.80487804878,3,1,1,90,1,1
231903,-100,3,1,1,90,0,1
232390,288.461538461538,4,1,10,80,1,0
232486,-100,4,1,40,80,0,0
232774,-100,4,1,10,80,0,0
233062,-100,4,1,40,80,0,0
233351,-100,4,1,10,80,0,0
233639,-100,4,1,40,80,0,0
233928,-100,4,1,10,80,0,0
234216,-100,4,1,40,80,0,0
234505,-100,4,1,10,80,0,0
234697,-100,4,1,1,80,0,0
237005,-100,4,1,10,80,0,0
237063,-100,4,1,10,80,0,0
237236,-100,4,1,40,80,0,0
237293,-100,4,1,10,80,0,0
237351,-100,4,1,10,80,0,0
237524,-100,4,1,40,80,0,0
237582,-100,4,1,10,80,0,0
237640,-100,4,1,10,80,0,0
237813,-100,4,1,40,80,0,0
237870,-100,4,1,10,80,0,0
237928,-100,4,1,10,80,0,0
238101,-100,4,1,40,80,0,0
238159,-100,4,1,10,80,0,0
238216,-100,4,1,10,80,0,0
238390,-100,4,1,40,80,0,0
238447,-100,4,1,10,80,0,0
238505,-100,4,1,10,80,0,0
238678,-100,4,1,40,80,0,0
238736,-100,4,1,10,80,0,0
238793,-100,4,1,10,80,0,0
238966,-100,4,1,40,80,0,0
239024,-100,4,1,10,80,0,0
239082,-100,4,1,10,80,0,0
239255,-100,4,1,40,80,0,0
239313,-100,4,1,1,80,0,0
239601,-100,4,1,10,80,0,0
239673,-100,4,1,10,80,0,0
239745,-100,4,1,10,80,0,0
239817,-100,4,1,10,80,0,0
239890,-100,4,1,10,80,0,0
239962,-100,4,1,10,80,0,0
240034,-100,4,1,10,80,0,0
240106,-100,4,1,10,80,0,0
240178,-100,4,1,10,80,0,0
240250,-100,4,1,10,80,0,0
240322,-100,4,1,10,80,0,0
240394,-100,4,1,10,80,0,0
240466,-100,4,1,10,80,0,0
240755,-100,4,1,1,80,0,0
241332,-100,4,1,1,80,0,0
241620,-100,4,1,1,80,0,0

[Colours]
Combo1 : 10,192,37
Combo2 : 0,221,221

[HitObjects]
336,224,625,6,0,L|448:224,2,96,12|0|0,0:0|2:1|3:1,2:2:0:0:
224,224,1254,2,0,P|160:208|96:96,1,192,0|0,3:0|3:0,2:2:0:0:
208,176,1883,6,0,P|272:160|336:48,1,192,8|8,2:1|2:1,2:2:0:0:
224,48,2513,1,8,0:3:0:0:
320,48,2722,1,0,3:1:0:0:
416,48,2932,1,0,3:1:0:0:
192,128,3142,6,0,L|96:128,2,96,14|0|0,0:0|2:1|3:1,2:2:0:0:
304,144,3771,2,0,P|288:224|192:272,1,192,2|0,3:1|3:0,2:2:0:0:
82,227,4401,6,0,P|98:307|194:355,1,192,14|8,0:0|3:1,0:0:0:0:
415,224,5030,2,0,P|391:313|306:352,1,192,14|0,0:0|3:0,3:3:0:0:
256,192,5869,12,0,6499,0:0:0:0:
160,288,6918,6,0,P|80:272|32:160,1,192,6|10,0:0|0:3,2:2:0:0:
144,144,7548,2,0,L|256:144,2,96,2|10|8,0:0|0:3|3:0,2:2:0:0:
256,224,8177,6,0,P|336:240|368:368,1,192,6|10,0:0|0:3,2:2:0:0:
272,352,8807,1,2,0:0:0:0:
226,342,8911,1,2,0:0:0:0:
206,300,9016,1,10,0:3:0:0:
226,258,9121,1,2,3:1:0:0:
272,249,9226,1,8,3:0:0:0:
496,224,9435,5,6,0:0:0:0:
384,208,9645,2,0,L|368:80,1,96,6|8,0:0|3:2,2:2:0:0:
256,160,10065,1,6,0:0:0:0:
368,144,10275,2,0,L|384:16,1,96,6|8,0:0|3:2,2:2:0:0:
160,48,10695,6,0,L|32:48,2,96,2|8|8,0:2|0:3|0:3,2:2:0:0:
272,64,11324,2,0,L|144:64,1,96,2|2,0:2|0:0,2:2:0:0:
80,64,11744,1,8,0:3:0:0:
304,192,11953,6,0,P|368:240|272:272,1,192,6|8,0:0|0:3,2:2:0:0:
192,256,12583,2,0,L|288:256,2,96,2|10|8,0:0|0:3|0:3,2:2:0:0:
80,256,13212,6,0,L|64:160,1,96,2|2,0:1|0:1,2:2:0:0:
176,144,13632,1,10,0:3:0:0:
384,144,13842,2,0,P|448:208|400:256,1,144,2|2,0:2|3:2,0:0:0:0:
256,272,14471,6,0,L|144:272,2,96,6|8|10,0:1|0:3|0:3,2:2:0:0:
368,272,15100,1,6,0:0:0:0:
400,224,15310,1,8,0:3:0:0:
314,177,15520,1,2,0:0:0:0:
90,209,15730,5,14,2:3:0:0:
186,209,15939,1,2,0:0:0:0:
282,209,16149,1,14,2:3:0:0:
394,129,16359,2,0,L|282:129,2,96,4|4|4,0:1|2:1|0:1,2:2:0:0:
176,272,16988,6,0,L|128:272,1,48,14|8,0:0|2:1,2:2:0:0:
96,144,17303,1,8,0:3:0:0:
128,48,17618,2,0,L|224:48,2,96,2|8|8,0:1|0:3|0:3,2:2:0:0:
256,336,18247,6,0,L|304:336,1,48,14|0,2:2|0:0,2:2:0:0:
336,208,18562,1,12,0:3:0:0:
304,112,18772,1,4,3:0:0:0:
256,112,18877,2,0,L|160:112,2,96,2|10|12,0:0|0:0|0:0,0:0:0:0:
464,240,19506,6,0,L|464:128,1,96,6|8,0:0|0:0,2:2:0:0:
368,240,19925,1,2,0:0:0:0:
464,240,20135,1,6,0:2:0:0:
368,240,20345,1,6,0:3:0:0:
272,240,20555,1,6,0:0:0:0:
64,240,20765,6,0,L|176:240,2,96,12|12|12,0:0|0:3|0:2,0:0:0:0:
176,224,21394,2,0,L|288:224,2,96,10|8|10,0:0|3:2|0:3,2:2:0:0:
384,272,22023,6,0,L|432:272,1,48,14|8,0:0|2:1,2:2:0:0:
464,144,22338,1,8,0:3:0:0:
432,48,22653,2,0,L|336:48,2,96,2|8|8,0:1|0:3|0:3,2:2:0:0:
304,288,23282,6,0,L|256:288,1,48,14|4,2:2|2:3,0:0:0:0:
192,192,23597,1,12,0:3:0:0:
176,144,23702,1,4,3:0:0:0:
192,96,23807,1,4,3:0:0:0:
240,64,23912,2,0,L|336:64,2,96,2|10|12,0:0|0:0|0:0,0:0:0:0:
16,272,24541,6,0,L|112:272,1,96,6|8,0:0|0:0,2:2:0:0:
224,272,24960,1,2,0:0:0:0:
112,208,25170,2,0,L|208:208,1,96,6|6,0:2|0:3,2:2:0:0:
320,208,25589,1,6,0:0:0:0:
112,256,25800,6,0,L|96:160,1,96,12|12,0:0|0:3,0:0:0:0:
176,128,26219,1,12,0:2:0:0:
400,256,26429,2,0,L|416:112,1,144,6|6,0:2|0:1,2:2:0:0:
256,96,27058,5,6,2:1:0:0:
96,160,27478,2,0,L|80:288,1,96,2|8,3:0|2:1,2:2:0:0:
256,256,28107,2,0,L|272:384,1,96,2|2,3:0|2:1,2:2:0:0:
464,240,28737,6,0,L|480:304,2,48,2|2|8,3:1|3:0|2:1,2:2:0:0:
256,256,29366,1,8,3:0:0:0:
256,80,29576,6,0,B|320:112|341:185|341:185|320:272|255:305,1,288,4|0,2:1|3:0,0:0:0:0:
144,304,30415,1,2,2:1:0:0:
80,224,30625,1,0,3:0:0:0:
144,144,30835,6,0,L|256:144,2,96,2|8|10,2:1|2:3|2:1,2:2:0:0:
256,224,31464,2,0,P|320:256|384:368,1,192,8|8,3:1|2:0,2:2:0:0:
160,352,32093,5,6,0:1:0:0:
64,336,32303,2,0,L|48:240,1,96,0|0,0:0|3:1,0:0:0:0:
160,208,32723,2,0,P|221:177|128:128,1,192,12|0,0:3|3:1,2:2:0:0:
48,96,33352,5,2,0:1:0:0:
208,96,33667,2,0,L|272:96,1,48,2|0,0:1|3:1,2:2:0:0:
368,160,33981,1,12,0:3:0:0:
160,160,34401,1,8,2:3:0:0:
48,160,34611,5,2,0:1:0:0:
208,240,35030,2,0,L|208:176,2,48,2|2|2,3:2|3:2|0:1,2:2:0:0:
352,240,35660,6,0,L|432:240,2,48,2|2|6,3:2|3:2|0:1,2:2:0:0:
256,240,36079,1,10,0:1:0:0:
160,240,36289,1,8,2:1:0:0:
272,240,36499,6,0,L|384:240,2,96,10|10|14,0:3|2:2|3:2,0:0:0:0:
64,240,37128,6,0,P|48:160|64:96,1,144,6|0,0:1|0:0,0:0:0:0:
112,80,37548,1,8,0:3:0:0:
224,80,37758,1,2,0:3:0:0:
336,80,37967,1,8,0:3:0:0:
224,80,38177,1,8,0:3:0:0:
112,80,38387,6,0,P|54:166|128:224,1,192,2|8,0:1|0:3,2:2:0:0:
192,240,39016,1,2,0:3:0:0:
288,256,39226,2,0,L|384:256,1,96,8|8,0:3|0:3,0:0:0:0:
176,304,39646,6,0,P|128:256|187:151,1,192,6|8,0:1|0:3,2:2:0:0:
288,160,40275,2,0,L|384:160,2,96,2|8|8,0:3|0:3|0:3,2:2:0:0:
416,256,40905,6,0,P|480:224|416:160,1,192,2|12,0:1|0:3,2:2:0:0:
288,160,41534,6,0,L|272:112,2,48,2|2|8,0:3|2:1|0:3,2:2:0:0:
400,176,41953,1,12,0:3:0:0:
192,240,42163,6,0,L|64:240,2,96,6|4|8,0:1|3:0|0:3,2:2:0:0:
304,240,42793,2,0,L|432:240,2,96,2|8|0,0:1|0:3|3:1,2:2:0:0:
176,240,43422,6,0,L|352:240,1,144,6|6,0:1|0:1,2:2:0:0:
176,240,44051,2,0,L|64:240,1,96,2|10,0:1|0:2,2:2:0:0:
224,192,44471,2,0,L|288:192,1,48,10|8,0:2|0:3,0:0:0:0:
288,128,44680,5,6,3:2:0:0:
240,48,45356,1,8,3:2:0:0:
128,32,46033,1,2,3:3:0:0:
16,128,46710,6,0,L|144:128,2,96,8|2|4,3:3|3:3|3:3,3:3:0:0:
240,160,47386,6,0,L|400:160,1,144,6|8,0:1|0:3,2:2:0:0:
384,320,48015,2,8,P|317:260|392:219,1,192,6|8,0:1|3:0,2:2:0:0:
288,142,48644,6,0,L|176:142,2,96,10|8|8,0:1|0:3|0:3,2:2:0:0:
384,144,49274,2,0,L|480:144,2,96,6|8|2,0:1|0:3|3:0,2:2:0:0:
176,144,49903,6,0,L|64:144,2,96,10|8|8,0:1|0:3|0:3,2:2:0:0:
288,208,50532,1,6,0:1:0:0:
192,208,50741,1,2,2:1:0:0:
96,208,50951,1,8,3:0:0:0:
304,288,51162,6,0,L|496:288,1,192,2|8,0:1|2:2,2:2:0:0:
384,224,51791,2,0,L|192:224,1,192,2|2,2:2|2:2,2:2:0:0:
256,192,52630,12,0,53260,0:0:0:0:
352,288,53679,6,0,P|432:272|480:160,1,192,6|10,0:0|0:3,2:2:0:0:
368,144,54308,2,0,L|256:144,2,96,2|10|8,0:0|0:3|3:0,0:0:0:0:
256,224,54938,6,0,P|176:240|144:368,1,192,6|10,0:0|0:3,2:2:0:0:
240,352,55567,1,2,0:0:0:0:
286,342,55671,1,2,0:0:0:0:
306,300,55776,1,10,0:3:0:0:
286,258,55881,1,2,3:1:0:0:
240,249,55986,1,8,3:0:0:0:
16,224,56196,5,6,0:0:0:0:
128,208,56406,2,0,L|144:80,1,96,6|8,0:0|3:2,0:0:0:0:
256,160,56825,1,6,0:0:0:0:
144,144,57036,2,0,L|128:16,1,96,6|0,0:0|3:2,0:0:0:0:
352,48,57455,6,0,L|480:48,2,96,2|8|8,0:2|0:3|0:3,0:0:0:0:
240,64,58085,2,0,L|368:64,1,96,2|2,0:2|0:0,2:2:0:0:
432,64,58504,1,8,0:3:0:0:
208,192,58714,6,0,P|144:240|240:272,1,192,6|8,0:0|0:3,2:2:0:0:
320,256,59343,2,0,L|224:256,2,96,2|10|8,0:0|0:3|0:3,0:0:0:0:
432,256,59973,6,0,L|448:160,1,96,2|2,0:1|0:1,2:2:0:0:
336,144,60392,1,10,0:3:0:0:
128,144,60602,2,0,P|64:208|112:256,1,144,2|6,0:2|3:2,0:0:0:0:
256,272,61231,6,0,L|368:272,2,96,6|8|10,0:1|0:3|0:3,2:2:0:0:
144,272,61860,1,6,0:0:0:0:
112,224,62070,1,8,0:3:0:0:
208,176,62280,1,2,0:0:0:0:
432,208,62490,5,2,0:1:0:0:
336,208,62699,1,2,0:1:0:0:
240,208,62909,1,2,0:1:0:0:
128,128,63120,2,0,L|240:128,2,96,2|2|2,0:1|2:1|3:1,2:2:0:0:
336,144,63749,6,0,P|416:176|448:272,1,192,6|2,0:0|3:0,2:2:0:0:
336,320,64379,2,0,L|432:320,2,96,6|2|0,0:0|0:3|3:0,0:0:0:0:
224,320,65008,6,0,P|144:304|112:208,1,192,6|2,0:0|2:3,2:2:0:0:
224,192,65637,1,6,0:0:0:0:
272,192,65741,1,2,0:0:0:0:
320,192,65846,1,10,0:3:0:0:
272,192,65952,1,2,3:1:0:0:
224,192,66056,1,8,3:0:0:0:
16,192,66267,6,0,L|32:96,1,96,6|6,0:0|0:0,2:2:0:0:
144,96,66686,1,8,3:2:0:0:
256,112,66896,2,0,L|272:16,1,96,6|6,0:0|0:0,2:2:0:0:
384,16,67315,1,8,3:2:0:0:
176,192,67525,6,0,L|64:192,2,96,2|8|8,0:2|0:3|0:3,0:0:0:0:
288,240,68155,2,0,L|192:240,2,96,2|2|8,0:2|0:0|0:3,0:0:0:0:
496,240,68784,6,0,P|480:176|400:160,1,144,6|2,0:0|0:1,2:2:0:0:
368,160,69204,1,8,0:3:0:0:
224,192,69413,2,0,P|160:176|224:112,1,192,2|8,0:1|0:3,2:2:0:0:
112,64,70043,6,0,L|96:160,1,96,2|0,0:1|3:1,2:2:0:0:
208,176,70462,1,8,0:3:0:0:
320,176,70672,2,0,P|368:192|400:288,1,144,2|2,0:1|0:1,0:0:0:0:
112,304,71302,6,0,L|16:304,2,96,14|8|10,0:1|0:3|0:3,2:2:0:0:
224,304,71931,2,0,L|320:304,2,96,6|8|2,0:0|0:3|0:0,0:0:0:0:
336,304,72560,6,0,P|400:256|320:208,1,192,12|0,0:3|0:0,2:2:0:0:
224,224,73190,2,0,P|160:176|240:128,1,192,12|2,0:3|3:1,2:2:0:0:
432,96,73819,6,0,L|448:208,2,96,6|12|8,0:1|3:3|0:3,2:2:0:0:
320,96,74448,2,0,P|208:128|208:192,1,192,2|8,0:1|0:3,2:2:0:0:
320,288,75078,6,0,P|400:272|432:160,1,192,2|8,0:1|0:3,2:2:0:0:
432,96,75917,2,0,L|336:96,1,96,2|8,3:0|0:3,2:2:0:0:
144,96,76337,6,0,L|48:96,2,96,6|8|8,0:3|0:3|0:3,2:2:0:0:
256,96,76966,2,0,P|240:160|112:208,1,192,2|8,0:1|0:3,2:2:0:0:
240,304,77595,6,0,P|288:272|224:176,1,192,2|12,0:1|0:3,2:2:0:0:
240,112,78434,2,0,L|368:112,1,96,2|14,0:3|0:2,0:0:0:0:
144,192,78854,6,0,L|112:288,2,96,6|4|8,0:3|3:3|0:3,2:2:0:0:
256,192,79483,2,0,P|320:160|256:96,1,192,2|12,0:1|0:3,0:0:0:0:
144,96,80113,2,0,P|160:176|288:192,1,192,2|8,0:1|0:3,2:2:0:0:
256,320,80952,2,0,L|384:320,1,96,6|12,3:0|0:3,2:2:0:0:
160,272,81372,6,0,L|144:160,1,96,6|12,0:3|2:2,2:2:0:0:
240,128,81791,1,8,0:3:0:0:
352,272,82001,2,0,L|368:160,1,96,2|8,0:1|0:3,2:2:0:0:
272,128,82420,1,12,0:3:0:0:
160,128,82630,6,0,L|64:128,2,96,10|10|8,0:1|0:3|0:3,2:2:0:0:
256,128,83260,2,0,B|352:128|352:128|224:128,1,192,8|0,0:3|3:2,2:2:0:0:
48,128,83889,6,0,L|32:304,1,144,10|8,0:1|0:3,2:2:0:0:
32,352,84309,1,0,0:1:0:0:
160,144,84518,2,0,L|176:256,2,96,2|8|8,0:1|0:3|0:3,2:2:0:0:
352,144,85148,6,0,L|368:256,2,96,2|0|0,0:1|2:1|2:1,2:2:0:0:
224,144,85777,2,0,L|208:272,2,96,2|8|4,0:1|0:3|2:1,0:0:0:0:
432,144,86406,6,0,P|480:176|496:224,1,96,6|6,0:1|0:1,2:2:0:0:
288,224,87036,2,0,P|240:256|224:304,2,96,6|6|8,0:1|0:1|0:3,2:2:0:0:
494,209,87665,6,0,P|473:167|432:144,1,96,2|2,0:1|0:1,0:0:0:0:
336,144,88085,1,8,0:3:0:0:
224,128,88295,2,0,P|245:85|286:62,1,96,2|2,0:1|0:1,2:2:0:0:
382,62,88715,1,2,0:1:0:0:
176,64,88924,6,0,P|128:96|208:192,1,192,10|2,0:1|2:1,2:2:0:0:
288,224,89553,2,0,L|176:224,2,96,2|8|8,0:1|0:3|0:3,2:2:0:0:
176,320,90183,6,0,L|64:320,2,96,2|0|2,0:1|2:1|2:1,2:2:0:0:
288,320,90812,2,0,P|368:304|416:176,1,192,2|12,0:1|2:2,0:0:0:0:
224,144,91441,6,0,L|128:144,1,96,6|6,0:1|2:1,2:2:0:0:
224,128,92071,2,0,L|224:224,1,96,6|6,2:1|2:1,2:2:0:0:
112,288,92490,5,8,0:3:0:0:
224,304,92700,2,0,P|320:272|336:160,1,192,10|2,0:1|0:1,2:2:0:0:
240,176,93330,1,2,0:1:0:0:
144,176,93539,1,2,0:1:0:0:
48,176,93749,1,2,2:1:0:0:
256,128,93959,6,0,L|464:128,1,192,10|8,0:1|0:3,2:2:0:0:
352,208,94588,2,0,L|160:208,1,192,2|8,0:1|0:3,2:2:0:0:
64,288,95218,1,2,0:1:0:0:
160,288,95427,1,8,0:3:0:0:
256,288,95637,1,8,0:3:0:0:
448,256,95847,6,0,L|320:256,1,96,2|10,0:1|0:1,2:2:0:0:
256,192,96267,2,0,L|208:192,1,48,8|0,0:3|3:1,2:2:0:0:
256,192,96476,2,0,P|320:144|256:80,1,192,6|8,0:1|0:3,2:2:0:0:
149,111,97106,6,0,B|96:192|96:192|192:192|192:192|192:304,1,288,2|2,0:1|0:1,2:2:0:0:
96,304,97945,1,2,0:1:0:0:
192,304,98155,1,8,0:3:0:0:
304,304,98365,2,0,L|400:304,2,96,10|10|8,0:1|0:1|0:3,2:2:0:0:
112,320,98994,6,0,L|96:224,1,96,6|2,0:1|0:1,2:2:0:0:
208,256,99413,2,0,L|224:160,1,96,8|2,0:3|0:1,2:2:0:0:
128,128,99833,1,2,0:1:0:0:
224,112,100043,1,8,0:3:0:0:
336,128,100253,6,0,L|352:224,2,96,2|2|8,0:1|0:1|0:3,2:2:0:0:
224,128,100882,2,0,L|208:224,2,96,2|2|8,0:1|0:1|0:3,2:2:0:0:
416,128,101511,6,0,P|400:192|272:240,1,192,6|8,0:1|0:3,2:2:0:0:
176,208,102141,2,0,L|80:208,2,96,2|2|8,0:1|0:1|0:3,0:0:0:0:
384,224,102770,5,6,0:1:0:0:
272,192,102980,2,0,L|256:144,1,48,8|10,0:3|0:1,0:0:0:0:
320,128,103295,1,8,0:3:0:0:
336,80,103399,2,0,P|421:103|448:208,1,192,6|8,0:1|0:3,0:0:0:0:
256,240,104029,6,0,L|48:240,1,192,12|8,1:1|3:1,2:2:0:0:
160,176,104681,2,0,L|352:176,1,192,12|8,1:2|3:3,2:2:0:0:
448,240,105333,6,0,L|256:240,1,192,8|2,1:3|3:2,2:2:0:0:
64,240,105985,2,0,L|256:240,1,192,6|2,1:2|3:1,2:2:0:0:
448,192,106637,6,0,L|240:192,1,192,8|8,1:1|3:2,2:2:0:0:
160,240,107289,2,0,L|352:240,1,192,12|8,1:1|3:1,0:0:0:0:
256,192,107942,6,0,L|64:192,1,192,12|8,2:3|3:1,2:2:0:0:
160,128,108594,2,0,L|352:128,1,192,6|2,1:1|3:2,0:0:0:0:
256,240,109246,6,0,L|464:240,1,192,12|8,1:1|3:2,2:2:0:0:
352,176,109898,2,0,L|160:176,1,192,12|8,1:3|3:3,2:2:0:0:
64,240,110550,6,0,L|256:240,1,192,12|2,1:3|3:1,2:2:0:0:
448,240,111202,2,0,L|256:240,1,192,12|8,1:1|3:2,0:0:0:0:
64,192,111854,6,0,L|272:192,1,192,12|8,1:3|3:2,2:2:0:0:
352,240,112507,2,0,L|160:240,1,192,6|2,1:1|3:2,2:2:0:0:
256,192,113159,6,0,L|368:192,2,96,12|2|2,1:1|0:1|0:1,2:2:0:0:
144,192,113811,2,0,L|32:192,2,96,2|8|8,0:1|0:3|0:3,2:2:0:0:
336,192,114463,5,12,2:1:0:0:
352,96,115139,1,12,2:2:0:0:
400,192,115816,1,12,2:3:0:0:
496,176,116493,1,6,2:2:0:0:
400,192,117169,5,8,2:1:0:0:
352,96,117846,1,12,2:1:0:0:
336,192,118522,1,12,2:3:0:0:
336,288,119199,6,0,P|320:192|154:73,1,288,6|12,2:1|2:1,2:2:0:0:
160,96,120553,1,12,2:3:0:0:
112,192,121230,1,6,2:2:0:0:
16,176,121907,1,12,2:1:0:0:
160,176,122583,5,6,2:1:0:0:
336,192,123260,1,6,2:2:0:0:
128,224,123936,6,0,P|38:177|144:64,1,288,8|0,2:1|3:1,2:2:0:0:
224,96,124775,1,10,2:2:0:0:
320,128,124984,1,14,2:2:0:0:
112,176,125194,6,0,P|80:256|127:360,1,192,6|8,0:1|0:3,2:2:0:0:
240,352,125824,2,0,L|368:352,2,96,2|8|8,0:3|0:3|0:3,2:2:0:0:
112,352,126453,6,0,P|128:272|240:240,1,192,2|8,0:1|0:3,2:2:0:0:
352,176,127082,2,0,L|240:176,2,96,2|8|8,0:3|0:3|0:3,2:2:0:0:
144,144,127712,6,0,P|80:176|144:240,1,192,6|8,0:1|0:3,2:2:0:0:
256,240,128341,2,0,L|352:240,2,96,2|8|8,0:3|0:3|0:3,0:0:0:0:
368,240,128970,6,0,P|448:208|464:96,1,192,2|12,0:1|0:3,2:2:0:0:
352,96,129600,2,0,L|336:192,1,96,2|8,0:3|0:3,2:2:0:0:
448,208,130019,1,12,0:3:0:0:
240,224,130229,6,0,B|144:224|144:224|112:112,1,192,6|8,0:1|0:3,2:2:0:0:
224,176,130859,2,0,B|320:176|320:176|352:64,1,192,2|8,0:1|3:1,2:2:0:0:
240,224,131488,6,0,B|144:224|144:224|240:224,1,192,2|8,0:0|0:3,0:0:0:0:
352,224,132117,2,0,L|368:112,1,96,2|8,0:0|0:3,0:0:0:0:
256,128,132537,1,8,0:3:0:0:
64,128,132747,6,0,L|48:256,1,96,10|0,0:1|2:1,2:2:0:0:
144,272,133166,1,0,2:1:0:0:
272,304,133376,2,0,P|352:272|384:176,1,192,6|8,0:1|0:3,2:2:0:0:
224,176,134005,6,0,L|208:32,1,144,2|2,0:1|0:1,2:2:0:0:
272,16,134425,1,8,0:3:0:0:
384,48,134635,1,2,0:1:0:0:
272,64,134845,1,8,0:3:0:0:
160,80,135054,1,8,0:3:0:0:
368,160,135264,6,0,P|432:192|352:240,1,192,6|0,0:1|3:3,2:2:0:0:
240,256,135894,2,0,L|128:256,2,96,8|0|0,0:1|3:1|3:1,2:2:0:0:
368,240,136523,6,0,P|352:160|240:128,1,192,2|0,0:1|3:3,2:2:0:0:
144,144,137152,2,0,L|256:144,2,96,8|0|0,0:1|3:1|3:1,2:2:0:0:
352,224,137782,6,0,P|416:272|320:320,1,192,6|0,0:1|3:1,2:2:0:0:
240,336,138411,2,0,L|48:336,1,192,8|0,0:1|3:1,0:0:0:0:
160,304,139040,2,0,P|256:288|288:192,1,192,2|0,0:1|3:1,2:2:0:0:
288,128,139670,1,8,0:1:0:0:
160,144,139880,2,0,L|144:240,1,96,0|0,3:1|3:1,2:2:0:0:
336,272,140299,6,0,P|400:256|448:128,1,192,6|0,0:1|3:1,2:2:0:0:
336,192,140929,2,0,P|272:176|224:48,1,192,8|0,0:3|3:1,0:0:0:0:
336,48,141558,6,0,L|464:48,2,96,14|0|0,2:2|3:1|3:1,2:2:0:0:
224,112,142187,1,2,0:1:0:0:
320,112,142396,1,10,0:1:0:0:
416,112,142606,1,10,0:2:0:0:
224,192,142817,5,6,3:2:0:0:
256,320,143492,1,0,3:2:0:0:
368,272,144169,1,0,3:3:0:0:
256,192,144620,12,6,145522,0:1:0:0:
352,192,145836,5,8,0:3:0:0:
320,80,146151,2,8,L|192:80,2,96,6|2|8,0:1|3:0|3:0,2:2:0:0:
112,112,146780,5,10,0:1:0:0:
64,256,147200,1,8,0:3:0:0:
112,128,147410,2,0,L|208:128,2,96,6|8|2,0:1|0:3|3:0,2:2:0:0:
320,128,148039,6,0,P|384:144|448:272,1,192,10|8,0:1|0:3,0:0:0:0:
320,304,148668,2,0,L|304:208,1,96,6|2,0:1|2:1,2:2:0:0:
432,192,149088,1,8,3:0:0:0:
224,192,149298,6,0,L|32:192,1,192,2|8,0:1|2:2,0:0:0:0:
240,192,149927,2,0,L|432:192,1,192,2|2,2:2|2:2,2:2:0:0:
256,192,150766,12,2,151815,2:2:0:0:
256,320,153074,6,0,L|256:112,1,192,6|10,0:0|0:3,2:2:0:0:
48,256,153703,2,0,L|48:128,1,96,2|10,0:0|0:3,2:2:0:0:
144,160,154123,1,8,3:0:0:0:
256,336,154333,6,0,L|256:128,1,192,14|10,0:0|0:3,2:2:0:0:
464,256,154962,2,0,L|464:192,1,48,2|2,0:0|0:0,0:0:0:0:
464,160,155172,2,0,L|384:160,1,48,10|2,0:3|3:1,2:2:0:0:
368,160,155382,1,8,3:0:0:0:
160,160,155591,6,0,L|48:160,1,96,6|6,0:0|0:0,0:0:0:0:
80,64,156011,1,8,3:2:0:0:
208,144,156221,2,0,L|320:144,1,96,6|6,0:0|0:0,0:0:0:0:
288,48,156641,1,8,3:2:0:0:
80,240,156850,5,2,0:2:0:0:
176,240,157059,1,8,0:3:0:0:
272,240,157269,1,8,0:3:0:0:
384,192,157480,2,0,L|272:192,2,96,2|2|8,0:2|0:0|0:3,0:0:0:0:
176,160,158109,6,0,P|96:176|48:272,1,192,6|8,0:0|0:3,2:2:0:0:
160,304,158738,2,0,L|272:304,2,96,2|10|8,0:0|0:3|0:3,0:0:0:0:
272,304,159368,6,0,L|288:208,1,96,2|2,0:1|0:1,0:0:0:0:
176,176,159787,1,10,0:3:0:0:
384,192,159997,2,0,P|416:128|384:64,1,144,2|6,0:2|3:2,0:0:0:0:
240,64,160626,6,0,L|144:64,2,96,6|8|10,0:1|0:3|0:3,2:2:0:0:
128,128,161256,2,0,L|32:128,2,96,6|8|2,0:0|0:3|0:0,0:0:0:0:
336,144,161885,6,0,L|352:256,1,96,2|0,0:1|0:0,2:2:0:0:
256,272,162305,1,2,0:1:0:0:
368,192,162515,6,0,L|464:192,2,96,2|2|2,0:1|2:1|3:1,2:2:0:0:
160,144,163144,6,0,P|80:176|48:272,1,192,6|2,0:0|3:0,2:2:0:0:
160,320,163774,2,0,L|64:320,2,96,6|2|0,0:0|0:3|3:0,0:0:0:0:
272,320,164403,6,0,P|352:304|384:208,1,192,6|2,0:0|2:3,2:2:0:0:
272,192,165032,1,2,0:0:0:0:
224,192,165136,1,2,0:0:0:0:
176,192,165241,1,10,0:3:0:0:
224,192,165347,1,2,3:1:0:0:
272,192,165451,1,12,3:0:0:0:
480,16,165662,5,6,0:0:0:0:
367,17,165872,2,0,L|351:111,1,96,6|8,0:0|3:2,2:2:0:0:
240,96,166291,1,6,0:0:0:0:
143,97,166501,2,0,L|127:191,1,96,6|8,0:0|3:2,2:2:0:0:
336,192,166920,6,0,L|448:192,2,96,2|8|8,0:2|0:3|0:3,0:0:0:0:
224,240,167550,2,0,L|320:240,2,96,2|2|8,0:2|0:0|0:3,0:0:0:0:
16,240,168179,6,0,P|32:176|112:160,1,144,6|2,0:0|0:1,2:2:0:0:
144,160,168599,1,8,0:3:0:0:
288,192,168808,2,0,P|352:176|288:112,1,192,2|8,0:1|0:3,2:2:0:0:
400,64,169438,6,0,L|416:160,1,96,2|0,0:1|3:1,2:2:0:0:
304,176,169857,1,8,0:3:0:0:
192,176,170067,2,0,P|144:192|112:288,1,144,2|2,0:1|0:1,2:2:0:0:
400,304,170697,6,0,L|496:304,2,96,14|8|10,0:1|0:3|0:3,2:2:0:0:
288,304,171326,2,0,L|192:304,2,96,6|8|2,0:0|0:3|0:0,0:0:0:0:
176,304,171955,6,0,P|112:256|192:208,1,192,6|8,0:1|0:3,0:0:0:0:
288,224,172585,2,0,P|352:176|272:128,1,192,4|4,0:1|0:1,2:2:0:0:
256,192,173319,12,0,175312,3:1:0:0:
232,192,175731,5,14,0:0:0:0:
152,190,175941,1,6,0:0:0:0:
73,191,176151,1,8,3:2:0:0:
281,191,176361,5,14,0:0:0:0:
360,190,176570,1,6,0:0:0:0:
439,191,176781,1,8,3:2:0:0:
240,192,176990,6,0,L|128:192,2,96,10|8|8,0:2|0:3|0:3,0:0:0:0:
352,192,177619,2,0,L|464:192,2,96,10|10|8,0:2|0:3|0:3,0:0:0:0:
144,192,178249,6,0,P|64:224|48:320,1,192,6|8,0:1|0:3,2:2:0:0:
160,320,178878,2,0,L|368:320,1,192,8|8,0:1|0:3,0:0:0:0:
463,320,179508,2,0,P|452:229|368:192,1,192,2|8,0:3|0:3,2:2:0:0:
160,192,180137,2,0,L|64:192,2,96,8|8|8,0:3|0:3|0:3,2:2:0:0:
272,192,180766,5,6,0:1:0:0:
288,304,180976,2,0,P|352:288|257:153,1,288,0|0,3:1|3:1,2:2:0:0:
192,144,181815,1,0,3:1:0:0:
96,144,182025,6,0,L|256:144,1,144,6|2,0:1|0:1,2:2:0:0:
496,144,182654,2,0,L|336:144,1,144,2|2,0:1|0:1,2:2:0:0:
304,144,183074,1,8,0:3:0:0:
352,144,183179,1,8,0:3:0:0:
400,144,183284,6,0,P|460:190|384:256,1,192,12|0,0:1|2:2,2:2:0:0:
288,256,183936,2,0,L|176:256,2,96,6|0|0,0:1|0:0|2:1,2:2:0:0:
400,256,184588,6,0,L|384:160,1,96,12|2,0:3|2:2,2:2:0:0:
272,144,185023,1,2,2:2:0:0:
160,144,185240,2,0,L|144:48,1,96,6|8,0:3|0:3,2:2:0:0:
256,32,185675,1,8,0:3:0:0:
464,64,185892,6,0,L|480:176,1,96,14|8,0:1|0:3,2:2:0:0:
384,208,186343,1,8,3:2:0:0:
272,192,186568,2,0,L|256:304,1,96,10|8,0:1|0:3,2:2:0:0:
352,336,187019,1,8,3:2:0:0:
160,336,187245,6,0,L|32:336,2,96,10|2|8,0:2|0:1|0:3,2:2:0:0:
288,304,187948,2,0,L|160:304,1,96,10|10,0:2|0:3,2:2:0:0:
336,240,188416,1,8,0:3:0:0:
112,32,188651,5,14,0:1:0:0:
80,176,189382,1,2,3:1:0:0:
176,288,190144,1,0,3:1:0:0:
336,304,191117,5,2,3:1:0:0:
256,192,192501,12,4,194479,2:1:0:0:
256,192,203762,12,0,208746,2:3:0:0:
224,272,209443,6,0,L|80:272,1,144,12|8,0:1|2:1,2:2:0:0:
288,272,210811,2,0,L|432:272,1,144,8|8,2:1|2:1,2:2:0:0:
128,272,212180,6,0,P|96:224|128:144,1,144,8|8,2:1|2:1,0:0:0:0:
384,272,213503,1,8,2:1:0:0:
412,234,213723,1,2,2:1:0:0:
414,187,213944,5,2,2:2:0:0:
389,147,214164,1,8,2:1:0:0:
304,128,214385,1,2,2:2:0:0:
432,96,214606,1,0,2:1:0:0:
208,96,214827,6,0,L|112:96,1,96,12|0,2:1|3:1,2:2:0:0:
208,96,215472,2,0,L|112:96,1,96,2|2,2:1|2:1,2:2:0:0:
304,96,216117,6,0,L|400:96,1,96,8|2,2:1|3:1,2:2:0:0:
304,96,216762,2,0,L|400:96,1,96,2|2,2:1|2:1,2:2:0:0:
208,192,217407,6,0,L|304:192,1,96,8|0,2:1|3:1,2:2:0:0:
208,272,218040,2,0,L|112:272,1,96,2|2,2:1|2:1,2:2:0:0:
304,272,218674,6,0,L|400:272,1,96,8|8,2:1|2:1,2:2:0:0:
304,192,219385,2,0,L|240:192,1,48,2|2,2:1|2:1,2:2:0:0:
416,144,219957,1,8,2:1:0:0:
96,272,220290,6,0,P|48:224|107:123,1,192,6|0,0:1|2:1,2:2:0:0:
176,128,220966,1,2,0:1:0:0:
256,128,221192,1,0,2:1:0:0:
336,128,221418,1,0,2:0:0:0:
416,271,221645,6,0,P|468:198|415:125,1,192,6|0,0:1|2:1,2:2:0:0:
304,288,222326,1,2,2:1:0:0:
258,280,222440,1,0,2:1:0:0:
237,239,222554,1,0,2:1:0:0:
258,198,222668,1,0,2:1:0:0:
304,192,222782,1,0,2:1:0:0:
96,192,223010,6,0,L|80:304,1,96,6|2,0:1|2:1,2:2:0:0:
176,304,223468,1,8,2:2:0:0:
288,208,223697,2,0,L|272:320,1,96,6|2,0:1|2:1,2:2:0:0:
384,320,224155,1,8,3:2:0:0:
192,288,224386,5,10,0:2:0:0:
80,224,224616,1,2,0:1:0:0:
192,160,224851,1,2,0:1:0:0:
320,288,225091,5,2,0:2:0:0:
432,224,225335,1,2,0:1:0:0:
320,160,225585,1,2,0:1:0:0:
64,176,225840,6,0,P|96:256|224:304,1,192,6|6,0:2|0:2,2:2:0:0:
336,304,226543,1,2,0:1:0:0:
379,285,226661,1,0,3:1:0:0:
396,242,226779,1,2,0:1:0:0:
377,199,226897,1,2,0:1:0:0:
333,183,227015,1,2,0:1:0:0:
192,192,227251,6,0,L|80:192,2,96,2|0|0,0:1|3:1|3:1,2:2:0:0:
400,192,227965,2,0,P|416:272|304:320,1,192,0|4,0:2|0:2,0:0:0:0:
176,320,228685,6,0,L|160:192,1,96,6|0,2:1|3:1,0:0:0:0:
160,144,229172,2,0,L|224:144,1,48,0|0,2:1|2:1,2:2:0:0:
272,144,229416,2,0,L|288:16,2,96,4|0|0,2:1|3:1|2:1,0:0:0:0:
112,160,230191,6,0,P|48:219|112:272,1,192,6|0,0:1|3:1,2:2:0:0:
256,272,231109,5,6,0:1:0:0:
416,240,231493,1,2,2:1:0:0:
464,64,231903,1,2,2:1:0:0:
128,112,232390,5,6,0:0:0:0:
80,256,232966,1,2,0:1:0:0:
256,320,233543,1,2,0:1:0:0:
432,256,234120,1,2,0:1:0:0:
256,192,234697,12,12,241620,0:1:0:0:
