osu file format v14

[General]
AudioFilename: audio.mp3
AudioLeadIn: 0
PreviewTime: 196432
Countdown: 0
SampleSet: Normal
StackLeniency: 0.7
Mode: 2
LetterboxInBreaks: 0
WidescreenStoryboard: 1

[Editor]
DistanceSpacing: 0.8
BeatDivisor: 2
GridSize: 16
TimelineZoom: 2.3

[Metadata]
Title:Fly Like You [Long Version]
TitleUnicode:Fly Like You [Long Version]
Artist:technoplanet
ArtistUnicode:technoplanet
Creator:[ TNTlealu ]
Version:Rocma's ADVANCED
Source:SOUND VOLTEX IV HEAVENLY HAVEN
Tags:electronic -Joakh Shinsekai- sdvx 4 旋律世界 ΩDimension -Phase.5+- full ver sv instrumental konami video game rhythm [_Chichinya_] Chi Vulkin uone Rocma _Asriel Yumeno Himiko examination Minato Yukina CLSW alienflybot AFB Loneight l1106188 L18 岡聡志 安部泉希 autofanboy
BeatmapID:2278737
BeatmapSetID:1079909

[Difficulty]
HPDrainRate:5
CircleSize:3.3
OverallDifficulty:8
ApproachRate:8
SliderMultiplier:0.96
SliderTickRate:0.5

[Events]
//Background and Video events
0,0,"fcb914da2343ca7cea85c6f8803cf27e4147f5c0.png",0,0
//Break Periods
2,197091,203012
//Storyboard Layer 0 (Background)
//Storyboard Layer 1 (Fail)
//Storyboard Layer 2 (Pass)
//Storyboard Layer 3 (Foreground)
//Storyboard Layer 4 (Overlay)
//Storyboard Sound Samples

[TimingPoints]
625,209.79020979021,3,1,1,75,1,0
625,-100,3,1,1,75,0,0
2093,-100,3,1,1,75,0,0
2303,-100,3,1,1,75,0,0
3142,-100,3,1,1,75,0,0
4611,-100,3,1,1,75,0,0
4820,-100,3,1,1,75,0,0
5240,-100,3,1,1,75,0,0
5450,-100,3,1,1,75,0,0
5869,-100,3,1,1,75,0,0
5974,-100,3,1,10,30,0,0
6497,-100,3,1,0,30,0,0
6707,-100,3,1,1,30,0,0
6918,-100,3,1,10,85,0,1
7127,-100,3,1,10,85,0,1
7232,-100,3,1,10,85,0,1
8386,-100,3,1,10,85,0,1
8491,-100,3,1,10,85,0,1
9435,-100,3,1,13,85,0,1
9539,-100,3,1,10,85,0,1
9645,-100,3,1,13,85,0,1
9855,-100,3,1,10,85,0,1
10064,-100,3,1,13,85,0,1
10484,-100,3,1,10,85,0,1
11323,-100,3,1,11,85,0,1
11428,-100,3,1,10,85,0,1
11532,-100,3,1,10,85,0,1
11952,-100,3,1,11,85,0,1
12162,-100,3,1,10,85,0,1
12266,-100,3,1,10,85,0,1
12792,-100,3,1,11,85,0,1
12896,-100,3,1,10,85,0,1
13630,-100,3,1,11,85,0,1
13841,-100,3,1,10,85,0,1
14155,-100,3,1,11,85,0,1
14260,-100,3,1,10,85,0,1
15099,-100,3,1,12,85,0,1
15308,-100,3,1,10,85,0,1
15729,-100,3,1,11,85,0,1
16358,-100,3,1,12,85,0,1
16988,-100,3,1,20,80,0,0
17091,-100,3,1,19,80,0,0
17302,-100,3,1,20,80,0,0
19085,-100,3,1,21,80,0,0
19348,-100,3,1,20,80,0,0
19400,-100,3,1,20,80,0,0
19505,-100,3,1,20,80,0,0
19714,-100,3,1,22,80,0,0
20134,-100,3,1,23,80,0,0
20239,-100,3,1,20,80,0,0
20344,-100,3,1,23,80,0,0
20921,-100,3,1,23,80,0,0
20973,-100,3,1,23,80,0,0
21131,-100,3,1,23,80,0,0
21183,-100,3,1,23,80,0,0
21341,-100,3,1,23,80,0,0
21393,-100,3,1,24,80,0,0
22022,-100,3,1,20,80,0,0
22126,-100,3,1,19,80,0,0
22337,-100,3,1,20,80,0,0
24120,-100,3,1,21,80,0,0
24383,-100,3,1,20,80,0,0
24434,-100,3,1,20,80,0,0
24540,-100,3,1,20,80,0,0
24749,-100,3,1,22,80,0,0
25169,-100,3,1,23,80,0,0
25956,-100,3,1,23,80,0,0
26008,-100,3,1,23,80,0,0
26166,-100,3,1,23,80,0,0
26218,-100,3,1,23,80,0,0
26376,-100,3,1,23,80,0,0
26428,-100,3,1,24,80,0,0
26533,-100,3,1,23,80,0,0
26638,-100,3,1,23,80,0,0
26743,-100,3,1,24,80,0,0
26848,-100,3,1,23,80,0,0
26952,-100,3,1,23,80,0,0
27057,-100,3,1,30,80,0,0
27267,-100,3,1,30,80,0,0
27477,-100,3,1,30,80,0,0
29785,-100,3,1,30,80,0,0
30204,-100,3,1,30,80,0,0
30624,-100,3,1,30,80,0,0
30834,-100,3,1,30,80,0,0
30938,-100,3,1,31,80,0,0
31043,-100,3,1,31,80,0,0
31148,-100,3,1,31,80,0,0
31253,-100,3,1,31,80,0,0
31358,-100,3,1,31,80,0,0
31463,-100,3,1,30,80,0,0
32092,-100,3,1,37,80,0,0
32302,-100,3,1,32,80,0,0
32406,-100,3,1,32,80,0,0
32511,-100,3,1,32,80,0,0
34400,-100,3,1,30,80,0,0
34610,-100,3,1,32,80,0,0
34820,-100,3,1,32,80,0,0
34977,-100,3,1,32,80,0,0
35029,-100,3,1,29,80,0,0
35238,-100,3,1,32,80,0,0
35659,-100,3,1,29,80,0,0
35868,-100,3,1,33,80,0,0
35973,-100,3,1,32,80,0,0
36078,-100,3,1,33,80,0,0
36392,-100,3,1,32,80,0,0
36498,-100,3,1,33,80,0,0
37127,-100,3,1,37,80,0,0
37336,-100,3,1,32,80,0,0
37757,-100,3,1,36,80,0,0
37861,-100,3,1,32,80,0,0
37966,-100,3,1,32,80,0,0
39015,-100,3,1,36,80,0,0
39119,-100,3,1,32,80,0,0
39224,-100,3,1,32,80,0,0
39645,-100,3,1,37,80,0,0
39750,-100,3,1,32,80,0,0
40274,-100,3,1,36,80,0,0
40344,-100,3,1,32,80,0,0
40483,-100,3,1,32,80,0,0
41533,-100,3,1,36,80,0,0
41637,-100,3,1,32,80,0,0
41743,-100,3,1,32,80,0,0
41900,-100,3,1,32,80,0,0
41952,-100,3,1,32,80,0,0
42110,-100,3,1,32,80,0,0
42162,-100,3,1,37,80,0,0
42266,-100,3,1,32,80,0,0
42371,-100,3,1,32,80,0,0
42792,-100,3,1,36,80,0,0
42897,-100,3,1,32,80,0,0
43001,-100,3,1,32,80,0,0
43421,-100,3,1,37,80,0,0
43526,-100,3,1,32,80,0,0
43735,-100,3,1,37,80,0,0
43841,-100,3,1,32,80,0,0
44050,-100,3,1,32,80,0,0
44155,-100,3,1,29,80,0,0
44259,-100,3,1,29,80,0,0
44574,-100,3,1,32,80,0,0
44680,225.563909774436,3,1,34,80,1,0
44680,-100,3,1,34,80,0,0
44905,-100,3,1,34,80,0,0
45356,-100,3,1,34,80,0,0
45582,-100,3,1,34,80,0,0
46033,-100,3,1,34,80,0,0
46710,-100,3,1,34,80,0,0
47386,209.79020979021,3,1,37,80,1,0
47386,-100,3,1,37,80,0,0
47490,-100,3,1,32,80,0,0
48015,-100,3,1,37,80,0,0
48119,-100,3,1,32,80,0,0
48224,-100,3,1,35,80,0,0
48644,-100,3,1,32,80,0,0
49274,-100,3,1,37,80,0,0
49378,-100,3,1,32,80,0,0
49693,-100,3,1,35,80,0,0
49903,-100,3,1,32,80,0,0
50532,-100,3,1,37,80,0,0
50636,-100,3,1,32,80,0,0
50741,-100,3,1,32,80,0,0
50951,-100,3,1,35,80,0,0
51004,-100,3,1,0,80,0,0
51057,-100,3,1,35,80,0,0
51162,-100,3,1,35,80,0,0
51267,-100,3,1,35,50,0,0
51371,-100,3,1,35,55,0,0
51476,-100,3,1,35,60,0,0
51581,-100,3,1,35,65,0,0
51686,-100,3,1,35,70,0,0
51791,-100,3,1,35,80,0,0
52630,-100,3,1,35,30,0,0
53679,-100,3,1,10,85,0,1
53889,-100,3,1,10,85,0,1
53994,-100,3,1,10,85,0,1
55148,-100,3,1,10,85,0,1
55253,-100,3,1,10,85,0,1
56196,-100,3,1,13,85,0,1
56301,-100,3,1,10,85,0,1
56405,-100,3,1,13,85,0,1
56616,-100,3,1,10,85,0,1
56826,-100,3,1,13,85,0,1
57245,-100,3,1,10,85,0,1
58084,-100,3,1,11,85,0,1
58189,-100,3,1,10,85,0,1
58295,-100,3,1,10,85,0,1
58714,-100,3,1,11,85,0,1
58924,-100,3,1,10,85,0,1
59028,-100,3,1,10,85,0,1
59553,-100,3,1,11,85,0,1
59657,-100,3,1,10,85,0,1
60391,-100,3,1,11,85,0,1
60602,-100,3,1,10,85,0,1
60917,-100,3,1,11,85,0,1
61022,-100,3,1,10,85,0,1
61232,-100,3,1,10,75,0,0
61861,-100,3,1,12,85,0,0
62070,-100,3,1,10,85,0,0
62350,-100,3,1,10,85,0,0
62490,-100,3,1,14,75,0,0
62560,-100,3,1,10,75,0,0
62700,-100,3,1,14,75,0,0
62770,-100,3,1,10,75,0,0
62910,-100,3,1,14,75,0,0
62962,-100,3,1,10,75,0,0
63015,-100,3,1,10,75,0,0
63120,-100,3,1,10,75,0,0
63225,-100,3,1,10,75,0,0
63330,-100,3,1,21,75,0,0
63434,-100,3,1,21,75,0,0
63539,-100,3,1,10,75,0,0
63592,-100,3,1,21,75,0,0
63644,-100,3,1,10,75,0,0
63697,-100,3,1,21,75,0,0
63749,-100,3,1,10,85,0,1
63959,-100,3,1,10,85,0,1
64064,-100,3,1,10,85,0,1
64169,-100,3,1,10,85,0,1
65218,-100,3,1,10,85,0,1
65427,-100,3,1,10,85,0,1
65742,-100,3,1,10,85,0,1
65847,-100,3,1,10,85,0,1
65952,-100,3,1,10,85,0,1
66057,-100,3,1,10,85,0,1
66162,-100,3,1,10,85,0,1
66267,-100,3,1,13,85,0,1
66372,-100,3,1,10,85,0,1
66476,-100,3,1,13,85,0,1
66686,-100,3,1,10,85,0,1
66896,-100,3,1,13,85,0,1
67316,-100,3,1,10,85,0,1
67525,-100,3,1,10,85,0,1
68155,-100,3,1,11,85,0,1
68260,-100,3,1,10,85,0,1
68364,-100,3,1,10,85,0,1
68574,-100,3,1,10,85,0,1
68627,-100,3,1,10,85,0,1
68679,-100,3,1,10,85,0,1
68732,-100,3,1,10,85,0,1
68784,-100,3,1,10,85,0,1
71931,-100,3,1,12,85,0,1
71984,-100,3,1,10,85,0,1
72140,-100,3,1,10,85,0,1
72560,-100,3,1,14,85,0,1
73084,-100,3,1,10,85,0,1
73190,-100,3,1,14,85,0,1
73399,-100,3,1,14,85,0,1
73504,-100,3,1,10,85,0,1
73609,-100,3,1,10,85,0,1
73819,-100,3,1,35,75,0,0
73923,-100,3,1,32,75,0,0
74029,-100,3,1,32,75,0,0
75288,-100,3,1,36,75,0,0
75392,-100,3,1,32,75,0,0
75497,-100,3,1,32,75,0,0
75707,-100,3,1,36,75,0,0
75811,-100,3,1,32,75,0,0
75916,-100,3,1,35,75,0,0
76126,-100,3,1,32,75,0,0
77805,-100,3,1,36,75,0,0
77910,-100,3,1,32,75,0,0
78014,-100,3,1,32,75,0,0
78225,-100,3,1,36,75,0,0
78329,-100,3,1,32,75,0,0
78434,-100,3,1,35,75,0,0
78644,-100,3,1,32,75,0,0
80322,-100,3,1,36,75,0,0
80532,-100,3,1,32,75,0,0
80742,-100,3,1,36,75,0,0
80951,-100,3,1,35,75,0,0
81266,-100,3,1,32,75,0,0
81372,-100,3,1,32,75,0,0
82420,-100,3,1,35,75,0,0
82630,-100,3,1,32,75,0,0
83364,-100,3,1,35,75,0,0
83469,-100,3,1,35,75,0,0
83573,-100,3,1,32,75,0,0
83679,-100,3,1,32,75,0,0
83889,-100,3,1,37,75,0,0
83994,-100,3,1,32,75,0,0
86092,-100,3,1,21,75,0,0
86196,-100,3,1,21,75,0,0
86302,-100,3,1,32,75,0,0
86406,-100,3,1,37,75,0,0
86826,-100,3,1,32,75,0,0
87036,-100,3,1,37,75,0,0
87455,-100,3,1,32,75,0,0
88924,-100,3,1,37,75,0,0
89133,-100,3,1,32,75,0,0
89238,-100,3,1,32,75,0,0
91441,-100,3,1,37,75,0,0
91860,-100,3,1,32,75,0,0
92071,-100,3,1,37,75,0,0
92490,-100,3,1,32,75,0,0
92700,-100,3,1,37,75,0,0
92804,-100,3,1,32,75,0,0
92909,-100,3,1,32,75,0,0
93399,-100,3,1,21,75,0,0
93487,-100,3,1,0,75,0,0
93539,-100,3,1,32,75,0,0
93609,-100,3,1,21,75,0,0
93697,-100,3,1,0,75,0,0
93749,-100,3,1,32,75,0,0
93959,-100,3,1,37,75,0,0
94063,-100,3,1,32,75,0,0
94169,-100,3,1,32,75,0,0
94378,-100,3,1,32,75,0,0
96056,-100,3,1,37,75,0,0
96162,-100,3,1,32,75,0,0
96267,-100,3,1,32,75,0,0
96476,-100,3,1,37,75,0,0
96685,-100,3,1,32,75,0,0
98365,-100,3,1,37,75,0,0
98469,-100,3,1,32,75,0,0
98574,-100,3,1,37,75,0,0
98679,-100,3,1,32,75,0,0
98784,-100,3,1,32,75,0,0
98994,-100,3,1,37,75,0,0
99203,-100,3,1,32,75,0,0
101511,-100,3,1,37,75,0,0
101616,-100,3,1,32,75,0,0
101721,-100,3,1,32,75,0,0
102770,-100,3,1,37,75,0,0
102875,-100,3,1,32,75,0,0
102979,-100,3,1,32,75,0,0
103085,-100,3,1,37,75,0,0
103189,-100,3,1,32,75,0,0
103294,-100,3,1,32,75,0,0
103399,-100,3,1,37,75,0,0
103503,-100,3,1,32,75,0,0
103608,-100,3,1,32,75,0,0
103714,-100,3,1,37,75,0,0
103819,-100,3,1,32,75,0,0
104029,217.391304347826,3,1,40,80,1,0
104029,-100,3,1,40,80,0,0
104246,-100,3,1,40,80,0,0
105659,-100,3,1,40,80,0,0
105768,-100,3,1,40,80,0,0
106202,-100,3,1,41,80,0,0
106275,-100,3,1,41,80,0,0
106420,-100,3,1,41,80,0,0
106854,-100,3,1,40,80,0,0
107506,-100,3,1,41,80,0,0
107615,-100,3,1,41,80,0,0
107723,-100,3,1,40,80,0,0
109028,-100,3,1,41,80,0,0
109246,-100,3,1,40,80,0,0
109463,-100,3,1,41,80,0,0
109572,-100,3,1,41,80,0,0
109680,-100,3,1,40,80,0,0
110224,-100,3,1,40,80,0,0
110333,-100,3,1,40,80,0,0
110767,-100,3,1,41,80,0,0
111419,-100,3,1,40,80,0,0
111474,-100,3,1,40,80,0,0
111637,-100,3,1,40,80,0,0
112941,-100,3,1,41,80,0,0
113159,-100,3,1,40,80,0,0
113231,-100,3,1,32,80,0,0
113376,-100,3,1,32,80,0,0
113702,-100,3,1,32,80,0,0
113739,-100,3,1,32,80,0,0
113811,-100,3,1,32,80,0,0
113920,-100,3,1,32,80,0,0
114029,-100,3,1,32,80,0,0
114137,-100,3,1,0,75,0,0
114246,-100,3,1,32,80,0,0
114355,-100,3,1,32,80,0,0
114463,225.563909774436,3,1,40,70,1,0
114463,-100,3,1,40,70,0,0
116719,-100,3,1,41,70,0,0
116943,-100,3,1,41,70,0,0
117394,-100,3,1,40,70,0,0
117620,-100,3,1,40,70,0,0
118072,-100,3,1,41,70,0,0
118297,-100,3,1,40,70,0,0
119651,-100,3,1,41,70,0,0
119876,-100,3,1,40,70,0,0
120101,-100,3,1,41,70,0,0
120327,-100,3,1,40,70,0,0
121455,-100,3,1,41,70,0,0
121680,-100,3,1,41,70,0,0
122356,-100,3,1,42,70,0,0
123259,-100,3,1,40,70,0,0
123484,-100,3,1,41,70,0,0
123710,-100,3,1,41,70,0,0
123936,209.79020979021,3,1,41,70,1,0
123936,-100,3,1,41,70,0,0
124040,-100,3,1,40,30,0,0
124145,-100,3,1,40,30,0,0
124249,-100,3,1,40,70,0,0
124355,-100,3,1,40,70,0,0
124775,-100,3,1,33,75,0,0
125142,-100,3,1,33,75,0,0
125194,209.79020979021,3,1,37,80,1,0
125194,-100,3,1,37,80,0,0
125403,-100,3,1,32,80,0,0
125509,-100,3,1,32,80,0,0
125614,-100,3,1,32,80,0,0
125824,-100,3,1,36,80,0,0
125928,-100,3,1,32,80,0,0
126033,-100,3,1,32,80,0,0
127082,-100,3,1,36,80,0,0
127187,-100,3,1,32,80,0,0
127291,-100,3,1,32,80,0,0
127712,-100,3,1,37,80,0,0
127817,-100,3,1,32,80,0,0
128341,-100,3,1,36,80,0,0
128411,-100,3,1,32,80,0,0
128551,-100,3,1,32,80,0,0
129600,-100,3,1,36,80,0,0
129705,-100,3,1,32,80,0,0
129809,-100,3,1,32,80,0,0
130229,-100,3,1,37,80,0,0
130334,-100,3,1,32,80,0,0
130859,-100,3,1,36,80,0,0
130963,-100,3,1,32,80,0,0
131172,-100,3,1,32,80,0,0
131278,-100,3,1,32,80,0,0
132117,-100,3,1,36,80,0,0
132221,-100,3,1,32,80,0,0
132326,-100,3,1,32,80,0,0
132747,-100,3,1,37,80,0,0
132956,-100,3,1,32,80,0,0
133376,-100,3,1,37,80,0,0
133481,-100,3,1,32,80,0,0
133585,-100,3,1,32,80,0,0
133795,-100,3,1,32,80,0,0
134215,-100,3,1,32,80,0,0
134320,-100,3,1,32,80,0,0
134740,-100,3,1,32,80,0,0
134845,-100,3,1,32,80,0,0
134949,-100,3,1,32,80,0,0
135054,-100,3,1,32,80,0,0
135159,-100,3,1,32,80,0,0
135264,-100,3,1,38,75,0,0
135474,-100,3,1,38,75,0,0
135578,-100,3,1,38,75,0,0
135684,-100,3,1,36,75,0,0
135788,-100,3,1,38,75,0,0
135894,-100,3,1,38,75,0,0
136943,-100,3,1,36,75,0,0
137046,-100,3,1,38,75,0,0
137153,-100,3,1,38,75,0,0
138201,-100,3,1,36,75,0,0
138411,-100,3,1,38,75,0,0
139459,-100,3,1,36,75,0,0
139670,-100,3,1,38,75,0,0
140299,-100,3,1,38,75,0,0
140509,-100,3,1,38,75,0,0
140719,-100,3,1,38,75,0,0
140929,-100,3,1,36,75,0,0
141138,-100,3,1,38,75,0,0
141348,-100,3,1,38,75,0,0
141558,-100,3,1,36,75,0,0
141663,-100,3,1,38,75,0,0
141768,-100,3,1,38,75,0,0
141977,-100,3,1,38,75,0,0
142187,-100,3,1,32,75,0,0
142292,-100,3,1,29,80,0,0
142397,-100,3,1,29,80,0,0
142607,-100,3,1,29,80,0,0
142816,225.563909774436,3,1,34,75,1,0
142816,-100,3,1,34,75,0,0
142873,-100,3,1,34,75,0,0
143492,-100,3,1,34,75,0,0
144734,-100,3,1,34,75,0,0
144846,-100,3,1,34,75,0,0
145522,209.79020979021,3,1,37,75,1,0
145522,-100,3,1,37,75,0,0
145626,-100,3,1,32,80,0,0
146151,-100,3,1,37,80,0,0
146255,-100,3,1,32,80,0,0
146360,-100,3,1,35,80,0,0
146780,-100,3,1,32,80,0,0
146884,-100,3,1,32,80,0,0
146990,-100,3,1,32,80,0,0
147304,-100,3,1,32,80,0,0
147410,-100,3,1,37,80,0,0
147515,-100,3,1,37,80,0,0
147549,-100,3,1,32,80,0,0
147619,-100,3,1,32,80,0,0
147724,-100,3,1,32,80,0,0
147829,-100,3,1,35,80,0,0
148039,-100,3,1,32,80,0,0
148354,-100,3,1,32,80,0,0
148459,-100,3,1,32,80,0,0
148668,-100,3,1,37,80,0,0
148773,-100,3,1,32,80,0,0
148877,-100,3,1,32,80,0,0
148982,-100,3,1,32,80,0,0
149087,-100,3,1,35,80,0,0
149298,-100,3,1,35,80,0,0
150661,-100,3,1,35,80,0,0
151815,-100,3,1,38,80,0,0
151868,-100,3,1,38,80,0,0
152235,-100,3,1,38,80,0,0
152287,-100,3,1,38,80,0,0
152654,-100,3,1,38,80,0,0
152969,-100,3,1,38,80,0,0
153022,-100,3,1,38,80,0,0
153074,-100,3,1,10,85,0,1
153284,-100,3,1,10,85,0,1
153389,-100,3,1,10,85,0,1
154542,-100,3,1,10,85,0,1
154647,-100,3,1,10,85,0,1
155591,-100,3,1,13,85,0,1
155695,-100,3,1,10,85,0,1
155801,-100,3,1,13,85,0,1
156011,-100,3,1,10,85,0,1
156221,-100,3,1,13,85,0,1
156640,-100,3,1,10,85,0,1
157480,-100,3,1,11,85,0,1
157584,-100,3,1,10,85,0,1
157689,-100,3,1,10,85,0,1
158109,-100,3,1,11,85,0,1
158319,-100,3,1,10,85,0,1
158423,-100,3,1,10,85,0,1
158947,-100,3,1,11,85,0,1
159053,-100,3,1,10,85,0,1
159157,-100,3,1,10,85,0,1
159787,-100,3,1,11,85,0,1
159997,-100,3,1,10,85,0,1
160311,-100,3,1,11,85,0,1
160417,-100,3,1,10,85,0,1
160626,-100,3,1,10,75,0,0
161256,-100,3,1,12,85,0,0
161465,-100,3,1,10,85,0,0
161745,-100,3,1,10,85,0,0
161885,-100,3,1,14,75,0,0
161955,-100,3,1,10,75,0,0
162095,-100,3,1,10,75,0,0
162200,-100,3,1,10,75,0,0
162235,-100,3,1,10,75,0,0
162305,-100,3,1,14,75,0,0
162357,-100,3,1,10,75,0,0
162410,-100,3,1,10,75,0,0
162515,-100,3,1,10,75,0,0
162619,-100,3,1,10,75,0,0
162724,-100,3,1,21,75,0,0
162829,-100,3,1,21,75,0,0
162934,-100,3,1,10,75,0,0
162987,-100,3,1,21,75,0,0
163039,-100,3,1,10,75,0,0
163091,-100,3,1,21,75,0,0
163144,-100,3,1,10,85,0,1
163354,-100,3,1,10,85,0,1
163459,-100,3,1,10,85,0,1
163563,-100,3,1,10,85,0,1
164612,-100,3,1,10,85,0,1
164822,-100,3,1,10,85,0,1
165137,-100,3,1,10,85,0,1
165242,-100,3,1,10,85,0,1
165347,-100,3,1,10,85,0,1
165452,-100,3,1,10,85,0,1
165556,-100,3,1,10,85,0,1
165661,-100,3,1,13,85,0,1
165765,-100,3,1,10,85,0,1
165871,-100,3,1,13,85,0,1
166080,-100,3,1,10,85,0,1
166291,-100,3,1,13,85,0,1
166710,-100,3,1,10,85,0,1
166920,-100,3,1,10,85,0,1
167549,-100,3,1,11,85,0,1
167654,-100,3,1,10,85,0,1
167758,-100,3,1,10,85,0,1
167969,-100,3,1,10,85,0,1
168022,-100,3,1,10,85,0,1
168074,-100,3,1,10,85,0,1
168126,-100,3,1,10,85,0,1
168179,-100,3,1,10,85,0,1
171326,-100,3,1,12,85,0,1
171378,-100,3,1,10,85,0,1
171535,-100,3,1,10,85,0,1
172584,-100,3,1,12,85,0,1
173214,-100,3,1,15,80,0,0
173319,-100,3,1,15,80,0,0
173354,-100,3,1,15,80,0,0
174542,-100,3,1,15,80,0,0
174682,-100,3,1,15,80,0,0
174752,-100,3,1,15,80,0,0
174892,-100,3,1,15,80,0,0
174962,-100,3,1,15,80,0,0
175102,-100,3,1,15,80,0,0
175171,-100,3,1,15,80,0,0
175311,-100,3,1,15,80,0,0
175381,-100,3,1,15,80,0,0
175521,-100,3,1,15,80,0,0
175731,-100,3,1,13,85,0,1
175835,-100,3,1,10,85,0,1
175941,-100,3,1,13,85,0,1
176150,-100,3,1,10,85,0,1
176361,-100,3,1,13,85,0,1
176780,-100,3,1,10,85,0,1
177619,-100,3,1,11,85,0,1
177724,-100,3,1,10,85,0,1
177828,-100,3,1,10,85,0,1
178039,-100,3,1,10,85,0,1
178091,-100,3,1,10,85,0,1
178144,-100,3,1,10,85,0,1
178196,-100,3,1,10,85,0,1
178249,-100,3,1,18,80,0,0
178354,-100,3,1,10,80,0,0
178878,-100,3,1,18,80,0,0
178948,-100,3,1,10,80,0,0
179087,-100,3,1,10,80,0,0
179508,-100,3,1,18,80,0,0
179612,-100,3,1,10,80,0,0
179717,-100,3,1,10,80,0,0
180137,-100,3,1,18,80,0,0
180241,-100,3,1,10,80,0,0
180346,-100,3,1,10,80,0,0
180976,-100,3,1,10,80,0,0
183126,-100,3,1,0,80,0,0
183179,-100,3,1,10,80,0,0
183229,-100,3,1,0,80,0,0
183284,217.391304347826,3,1,15,80,1,0
183284,-100,3,1,15,80,0,0
183501,-100,3,1,15,80,0,0
183827,-100,3,1,15,80,0,0
184153,-100,3,1,15,80,0,0
184370,-100,3,1,15,80,0,0
184443,-100,3,1,15,80,0,0
184588,-100,3,1,15,80,0,0
185349,-100,3,1,10,80,0,0
185457,-100,3,1,10,80,0,0
185838,-100,3,1,0,80,0,0
185892,225.563909774436,3,1,10,80,1,0
185892,-100,3,1,10,80,0,0
187170,-100,3,1,0,80,0,0
187245,234.375,3,1,10,80,1,0
187245,-100,3,1,10,80,0,0
187948,-100,3,1,11,80,0,0
188065,-100,3,1,10,80,0,0
188182,-100,3,1,10,80,0,0
188416,-100,3,1,10,80,0,0
188475,-100,3,1,10,80,0,0
188534,-100,3,1,10,80,0,0
188590,-100,3,1,0,80,0,0
188651,243.90243902439,3,1,11,80,1,0
188651,-100,3,1,11,80,0,0
188894,-100,3,1,16,80,0,0
189016,-100,3,1,16,80,0,0
189138,-100,3,1,16,80,0,0
189382,254.237288135593,3,1,16,80,1,0
189445,-100,3,1,16,80,0,0
189509,-100,3,1,16,80,0,0
189572,-100,3,1,16,80,0,0
189636,-100,3,1,16,80,0,0
189699,-100,3,1,16,80,0,0
189763,-100,3,1,16,80,0,0
189826,-100,3,1,16,80,0,0
189890,-100,3,1,16,80,0,0
189954,-100,3,1,16,80,0,0
190017,-100,3,1,16,80,0,0
190081,-100,3,1,16,80,0,0
190144,306.122448979592,3,1,16,80,1,0
190144,-100,3,1,16,80,0,0
190450,-100,3,1,16,80,0,0
190756,361.44578313253,3,1,16,80,1,0
190756,-100,3,1,16,80,0,0
191117,461.538461538462,3,1,16,80,1,1
191193,-100,3,1,16,80,0,0
191270,-100,3,1,16,80,0,0
191578,-100,3,1,16,80,0,0
191732,-100,3,1,16,80,0,0
191809,-100,3,1,16,80,0,0
191886,-100,3,1,16,80,0,0
191963,-100,3,1,16,80,0,0
192040,-100,3,1,16,80,0,0
192117,-100,3,1,16,80,0,0
192193,-100,3,1,16,80,0,0
192299,-100,3,1,16,80,0,0
192386,-100,3,1,16,80,0,0
192501,659.340659340659,3,1,16,80,1,0
192501,-100,3,1,16,80,0,0
194479,-100,3,1,38,80,0,0
196457,659.340659340659,3,1,16,50,1,0
196457,-100,3,1,16,50,0,0
197116,594.059405940594,3,1,17,50,1,0
197116,-100,3,1,17,50,0,0
198898,540.540540540541,3,1,17,50,1,0
198898,-100,3,1,17,50,0,0
203357,-100,3,1,17,50,0,0
203492,-100,3,1,17,50,0,0
203762,481.927710843374,3,1,17,60,1,0
203762,-100,3,1,17,60,0,0
205930,-100,3,1,17,60,0,0
206653,465.116279069767,3,1,17,60,1,0
206653,-100,3,1,17,60,0,0
209443,456.273764258555,3,1,1,60,1,0
209443,-100,3,1,1,60,0,0
209899,-100,3,1,17,60,0,0
210127,-100,3,1,32,60,0,0
210811,-100,3,1,1,60,0,0
211267,-100,3,1,17,60,0,0
211496,-100,3,1,32,60,0,0
212180,441.176470588235,3,1,1,70,1,0
212180,-100,3,1,1,70,0,0
212621,-100,3,1,17,70,0,0
212841,-100,3,1,32,70,0,0
213061,-100,3,1,17,70,0,0
213282,-100,3,1,32,70,0,0
213503,-100,3,1,1,70,0,0
213944,-100,3,1,17,70,0,0
214165,-100,3,1,32,70,0,0
214385,-100,3,1,17,70,0,0
214606,-100,3,1,10,70,0,0
214827,430.10752688172,3,1,1,75,1,0
214827,-100,3,1,1,75,0,0
215257,-100,3,1,10,75,0,0
215687,-100,3,1,1,75,0,0
215902,-100,3,1,10,75,0,0
216117,-100,3,1,1,75,0,0
216547,-100,3,1,10,75,0,0
216977,-100,3,1,1,75,0,0
217192,-100,3,1,10,75,0,0
217407,422.535211267606,3,1,1,75,1,0
217407,-100,3,1,1,75,0,0
217829,-100,3,1,10,75,0,0
218251,-100,3,1,1,75,0,0
218462,-100,3,1,10,75,0,0
218674,461.538461538462,3,1,1,80,1,1
218674,-100,3,1,1,80,0,0
219135,500,3,1,1,82,1,0
219135,-100,3,1,1,82,0,0
219385,545.454545454546,3,1,1,84,1,1
219385,-100,3,1,1,84,0,0
219657,600,3,1,1,86,1,1
219657,-100,3,1,1,86,0,0
219957,666.666666666667,3,1,1,88,1,1
219957,-100,3,1,1,88,0,0
220290,225.563909774436,3,1,10,90,1,1
220290,-100,3,1,10,90,0,1
220515,-100,3,1,10,90,0,1
220628,-100,3,1,10,90,0,1
220966,226.415094339623,3,1,10,90,1,1
220966,-100,3,1,10,90,0,1
221645,227.272727272727,3,1,10,90,1,1
221645,-100,3,1,10,90,0,1
221872,-100,3,1,10,90,0,1
221985,-100,3,1,10,90,0,1
222326,228.136882129278,3,1,10,90,1,1
222326,-100,3,1,10,90,0,1
223010,229.007633587786,3,1,10,90,1,1
223010,-100,3,1,10,90,0,1
223697,229.885057471264,3,1,10,90,1,1
223697,-100,3,1,10,90,0,1
224386,230.769230769231,3,1,10,90,1,1
224386,-100,3,1,10,90,0,1
224616,235.294117647059,3,1,10,90,1,1
224616,-100,3,1,10,90,0,1
224851,240,3,1,10,90,1,1
224851,-100,3,1,10,90,0,1
225091,244.897959183673,3,1,11,90,1,1
225091,-100,3,1,11,90,0,1
225213,-100,3,1,10,90,0,1
225335,250,3,1,10,90,1,1
225335,-100,3,1,10,90,0,1
225585,255.31914893617,3,1,10,90,1,1
225585,-100,3,1,10,90,0,1
225840,234.375,3,1,10,90,1,1
225840,-100,3,1,10,90,0,1
226074,-100,3,1,10,90,0,1
226191,-100,3,1,10,90,0,1
226543,236.220472440945,3,1,10,90,1,1
226543,-100,3,1,10,90,0,1
227251,238.095238095238,3,1,10,90,1,1
227251,-100,3,1,10,90,0,1
227965,240,3,1,10,90,1,1
227965,-100,3,1,10,90,0,1
228445,-100,3,1,11,90,0,1
228685,243.90243902439,3,1,10,90,1,1
228685,-100,3,1,10,90,0,1
229172,-100,3,1,40,90,0,1
229416,258.620689655172,3,1,12,90,1,1
229416,-100,3,1,12,90,0,1
229674,-100,3,1,10,90,0,1
229933,-100,3,1,40,90,0,1
230191,306.122448979592,3,1,10,90,1,1
230191,-100,3,1,10,90,0,1
231109,384.615384615385,3,1,10,90,1,1
231109,-100,3,1,10,90,0,1
231493,410.958904109589,3,1,10,90,1,1
231493,-100,3,1,10,90,0,1
231903,487.80487804878,3,1,1,90,1,1
231903,-100,3,1,1,90,0,1
232390,288.461538461538,4,1,10,80,1,0
232486,-100,4,1,40,80,0,0
232582,-100,4,1,40,80,0,0
232774,-100,4,1,10,80,0,0
233062,-100,4,1,40,80,0,0
233158,-100,4,1,40,80,0,0
233350,-100,4,1,10,80,0,0
233639,-100,4,1,40,80,0,0
233735,-100,4,1,40,80,0,0
233927,-100,4,1,10,80,0,0
234216,-100,4,1,40,80,0,0
234312,-100,4,1,40,80,0,0
234504,-100,4,1,10,80,0,0
234697,-100,4,1,1,80,0,0
237005,-100,4,1,10,80,0,0
237063,-100,4,1,10,80,0,0
237236,-100,4,1,40,80,0,0
237293,-100,4,1,10,80,0,0
237351,-100,4,1,10,80,0,0
237524,-100,4,1,40,80,0,0
237582,-100,4,1,10,80,0,0
237640,-100,4,1,10,80,0,0
237813,-100,4,1,40,80,0,0
237870,-100,4,1,10,80,0,0
237928,-100,4,1,10,80,0,0
238101,-100,4,1,40,80,0,0
238159,-100,4,1,10,80,0,0
238216,-100,4,1,10,80,0,0
238390,-100,4,1,40,80,0,0
238447,-100,4,1,10,80,0,0
238505,-100,4,1,10,80,0,0
238678,-100,4,1,40,80,0,0
238736,-100,4,1,10,80,0,0
238793,-100,4,1,10,80,0,0
238966,-100,4,1,40,80,0,0
239024,-100,4,1,10,80,0,0
239082,-100,4,1,10,80,0,0
239255,-100,4,1,40,80,0,0
239313,-100,4,1,1,80,0,0
239601,-100,4,1,10,80,0,0
240755,-100,4,1,1,80,0,0
241620,-100,4,1,1,80,0,0

[Colours]
Combo1 : 10,192,37
Combo2 : 0,221,221

[HitObjects]
256,224,625,6,0,L|160:224,2,96,12|0|0,0:0|2:1|3:1,2:2:0:0:
352,224,1254,2,0,P|400:208|336:116,1,192,0|0,3:0|3:0,2:2:0:0:
144,224,1883,2,0,P|96:208|160:116,1,192,8|8,2:1|2:1,2:2:0:0:
256,112,2513,1,8,0:3:0:0:
160,112,2722,1,0,3:1:0:0:
64,112,2932,1,0,3:1:0:0:
336,128,3142,6,0,L|448:128,2,96,14|0|0,0:0|2:1|3:1,2:2:0:0:
288,128,3666,1,0,3:0:0:0:
240,128,3771,2,0,L|128:128,2,96,2|0|0,3:1|3:0|3:0,2:2:0:0:
448,128,4401,6,0,P|432:224|352:272,1,192,14|8,0:0|3:1,0:0:0:0:
155,271,5030,2,0,P|77:220|64:128,1,192,14|0,0:0|3:0,3:3:0:0:
256,192,5659,12,0,6498,0:0:0:0:
192,320,6918,6,0,L|176:160,1,144,6|2,0:0|0:0,2:2:0:0:
256,144,7338,1,10,0:3:0:0:
368,96,7548,2,0,L|240:96,2,96,2|10|8,0:0|0:3|3:0,2:2:0:0:
160,288,8177,6,0,L|144:128,1,144,6|2,0:0|0:0,2:2:0:0:
224,112,8596,1,10,0:3:0:0:
336,64,8807,2,0,L|336:112,1,48,2|2,0:0|0:0,2:2:0:0:
288,144,9016,1,10,0:3:0:0:
336,144,9120,1,2,3:1:0:0:
384,144,9225,1,8,3:0:0:0:
96,304,9436,6,0,L|80:192,1,96,6|6,0:0|0:0,2:2:0:0:
288,208,9856,1,8,3:2:0:0:
416,304,10065,2,0,L|304:304,1,96,6|6,0:0|0:0,2:2:0:0:
224,208,10485,1,8,3:2:0:0:
496,192,10695,5,2,0:2:0:0:
416,192,10904,1,8,0:3:0:0:
320,192,11114,1,8,0:3:0:0:
448,112,11324,5,2,0:2:0:0:
352,112,11533,1,2,0:0:0:0:
448,112,11743,1,8,0:3:0:0:
176,112,11953,6,0,P|112:128|80:224,1,144,6|2,0:0|0:1,2:2:0:0:
112,224,12373,1,8,0:3:0:0:
240,256,12583,2,0,L|288:256,1,48,2|0,0:0|3:1,2:2:0:0:
336,256,12793,2,0,L|272:256,1,48,10|0,0:3|3:1,2:2:0:0:
240,256,13002,1,8,0:3:0:0:
448,256,13212,6,0,P|432:192|304:144,1,192,2|10,0:1|0:3,2:2:0:0:
112,128,13842,2,0,L|224:128,1,96,2|8,0:2|0:3,0:0:0:0:
112,160,14261,1,8,0:3:0:0:
384,208,14471,6,0,L|496:208,1,96,6|8,0:1|0:3,2:2:0:0:
384,272,14891,2,0,L|320:272,1,48,10|0,0:3|3:2,2:2:0:0:
384,272,15100,2,0,L|496:272,2,96,6|8|2,0:0|0:3|0:0,2:2:0:0:
176,272,15730,6,0,L|64:272,2,96,14|2|14,2:3|0:0|2:3,2:2:0:0:
384,240,16359,2,0,L|368:192,1,48,4|4,0:1|0:1,2:2:0:0:
288,192,16569,2,0,L|272:144,1,48,4|4,2:1|0:1,2:2:0:0:
192,144,16779,1,4,0:1:0:0:
64,208,16988,6,0,L|64:144,2,48,14|8|8,0:0|2:1|2:1,2:2:0:0:
144,144,17303,1,8,0:3:0:0:
400,96,17618,2,0,L|528:96,2,96,2|8|8,0:1|0:3|0:3,2:2:0:0:
288,128,18247,6,0,L|288:240,1,96,14|4,2:2|2:3,2:2:0:0:
368,256,18562,1,12,0:3:0:0:
368,320,18667,1,4,3:0:0:0:
288,320,18772,1,4,3:0:0:0:
144,320,18877,6,0,L|16:320,2,96,2|10|12,0:0|0:0|0:0,0:0:0:0:
416,304,19506,6,0,L|432:192,1,96,6|8,0:0|0:0,2:2:0:0:
352,160,19856,1,2,0:0:0:0:
432,96,19995,1,8,0:2:0:0:
352,48,20135,2,0,L|240:48,2,96,6|6|6,0:2|0:3|0:0,2:2:0:0:
64,112,20764,5,12,0:0:0:0:
48,240,20973,1,12,0:3:0:0:
256,256,21183,1,12,0:2:0:0:
144,304,21394,2,0,L|32:304,2,96,10|8|10,0:0|3:2|0:3,2:2:0:0:
432,288,22023,6,0,L|432:240,2,48,14|8|8,0:0|2:1|2:1,2:2:0:0:
368,208,22338,1,8,0:3:0:0:
96,208,22652,2,0,L|224:208,1,96,2|8,0:1|0:3,2:2:0:0:
288,208,23071,1,8,0:3:0:0:
176,160,23282,6,0,L|169:212,2,48,14|4|4,2:2|2:3|2:3,0:0:0:0:
262,255,23597,2,0,L|256:208,2,48,12|4|4,0:3|3:0|3:0,2:2:0:0:
400,208,23912,6,0,L|512:208,2,96,2|10|12,0:0|0:0|0:0,0:0:0:0:
128,208,24541,6,0,L|112:104,1,96,6|8,0:0|0:0,2:2:0:0:
212,101,24960,1,2,0:0:0:0:
405,151,25170,2,0,L|517:151,2,96,6|6|6,0:2|0:3|0:0,2:2:0:0:
183,310,25800,6,0,L|83:308,1,96,12|12,0:0|0:3,0:0:0:0:
103,202,26219,1,12,0:2:0:0:
448,208,26429,6,0,P|448:160|416:96,1,96,6|8,0:2|0:3,0:0:0:0:
355,110,26744,2,0,P|337:154|337:202,1,96,6|8,0:1|0:3,2:2:0:0:
256,208,27058,5,6,2:1:0:0:
96,160,27478,2,0,L|80:288,1,96,2|8,3:0|2:1,2:2:0:0:
256,256,28107,2,0,L|272:384,1,96,2|2,3:0|2:1,2:2:0:0:
464,240,28737,6,0,L|480:304,2,48,2|2|8,3:1|3:0|2:1,2:2:0:0:
256,256,29366,1,8,3:0:0:0:
256,80,29576,6,0,B|175:135|256:192|256:192|338:243|256:304,1,288,4|0,2:1|0:0,0:0:0:0:
144,304,30415,1,0,0:0:0:0:
80,224,30625,1,0,0:0:0:0:
144,144,30835,6,0,L|256:144,2,96,2|8|10,2:1|2:3|2:1,2:2:0:0:
256,224,31464,2,0,P|320:256|384:368,1,192,8|8,3:1|2:0,2:2:0:0:
160,352,32093,5,6,0:1:0:0:
64,336,32303,2,0,L|48:240,1,96,0|0,0:0|3:1,0:0:0:0:
160,208,32723,2,0,P|221:177|128:128,1,192,12|0,0:3|3:1,2:2:0:0:
48,96,33352,5,2,0:1:0:0:
208,96,33667,2,0,L|272:96,1,48,2|0,0:1|3:1,2:2:0:0:
368,160,33981,1,12,0:3:0:0:
160,160,34401,1,8,2:3:0:0:
48,160,34611,5,2,0:1:0:0:
208,240,35030,2,0,L|208:176,2,48,2|2|2,3:2|3:2|0:1,2:2:0:0:
352,240,35660,6,0,L|432:240,2,48,2|2|6,3:2|3:2|0:1,2:2:0:0:
256,240,36079,1,10,0:1:0:0:
160,240,36289,1,8,2:1:0:0:
368,272,36499,2,0,L|480:272,2,96,10|10|14,0:3|2:2|3:2,0:0:0:0:
96,272,37128,6,0,P|48:256|46:177,1,96,6|0,0:1|3:1,0:0:0:0:
96,160,37548,1,8,0:3:0:0:
304,160,37758,2,0,L|416:160,2,96,2|8|8,0:3|0:3|0:3,2:2:0:0:
192,176,38387,6,0,P|208:240|320:304,1,192,2|8,0:1|0:3,2:2:0:0:
416,224,39016,2,0,L|304:224,2,96,2|8|8,0:3|0:3|0:3,0:0:0:0:
208,224,39646,6,0,P|144:224|64:336,1,192,6|8,0:1|0:3,2:2:0:0:
176,336,40275,2,0,L|272:336,2,96,2|8|8,0:3|0:3|0:3,2:2:0:0:
384,336,40905,6,0,P|432:304|371:201,1,192,2|12,0:1|0:3,2:2:0:0:
272,208,41534,1,2,0:3:0:0:
176,192,41744,1,8,0:3:0:0:
80,176,41953,1,12,0:3:0:0:
384,304,42163,6,0,L|400:192,1,96,6|4,0:1|3:0,2:2:0:0:
288,176,42583,1,8,0:3:0:0:
176,256,42793,2,0,L|160:144,1,96,2|8,0:1|0:3,2:2:0:0:
272,128,43213,1,0,3:1:0:0:
64,128,43422,6,0,P|48:192|80:288,1,144,6|6,0:1|0:1,2:2:0:0:
448,128,44051,2,0,P|464:192|416:240,1,96,2|10,0:1|0:2,2:2:0:0:
240,240,44470,1,10,0:2:0:0:
192,240,44576,1,8,0:3:0:0:
144,240,44680,5,6,3:2:0:0:
144,128,45356,1,8,3:2:0:0:
224,48,46033,1,2,3:3:0:0:
352,48,46710,1,8,3:3:0:0:
256,80,46935,1,2,3:3:0:0:
160,112,47161,1,4,3:3:0:0:
448,160,47386,6,0,L|448:304,1,144,6|8,0:1|0:3,2:2:0:0:
336,320,48015,2,0,L|319:257,3,48,6|0|2|2,0:1|2:1|3:0|3:0,2:2:0:0:
64,160,48644,6,0,L|64:256,1,96,10|8,0:1|0:3,2:2:0:0:
176,272,49064,1,8,0:3:0:0:
384,272,49274,2,0,L|401:209,4,48,6|0|8|8|2,0:1|2:1|0:3|0:3|3:0,2:2:0:0:
106,288,49903,6,0,L|10:288,2,96,10|8|8,0:1|0:3|0:3,2:2:0:0:
220,290,50532,2,0,L|316:290,2,96,6|2|8,0:1|2:1|3:0,2:2:0:0:
496,272,51162,6,2,L|384:272,1,96,2|8,0:1|2:2,2:2:0:0:
288,272,51581,1,8,2:2:0:0:
80,224,51791,6,0,L|192:224,1,96,2|2,2:2|2:2,2:2:0:0:
288,224,52210,1,2,2:2:0:0:
256,192,52630,12,0,53260,0:0:0:0:
320,320,53679,6,0,L|336:160,1,144,6|2,0:0|0:0,2:2:0:0:
256,144,54098,1,10,0:3:0:0:
144,96,54308,2,0,L|272:96,2,96,2|10|8,0:0|0:3|3:0,0:0:0:0:
352,288,54938,6,0,L|368:128,1,144,6|2,0:0|0:0,2:2:0:0:
288,112,55358,1,10,0:3:0:0:
176,64,55567,2,0,L|176:112,1,48,2|2,0:0|0:0,0:0:0:0:
224,144,55776,1,10,0:3:0:0:
176,144,55882,1,2,3:1:0:0:
128,144,55987,1,8,3:0:0:0:
416,304,56196,6,0,L|432:192,1,96,6|6,0:0|0:0,2:2:0:0:
224,208,56616,1,8,3:2:0:0:
320,304,56826,2,0,L|224:304,1,96,6|6,0:0|0:0,2:2:0:0:
128,208,57245,1,0,3:2:0:0:
400,192,57455,5,2,0:2:0:0:
352,112,57664,1,8,0:3:0:0:
256,112,57874,1,8,0:3:0:0:
128,128,58084,5,2,0:2:0:0:
224,128,58295,1,2,0:0:0:0:
320,128,58503,1,8,0:3:0:0:
33,209,58714,6,0,P|65:271|132:289,1,144,6|2,0:0|0:1,2:2:0:0:
208,288,59133,1,8,0:3:0:0:
320,224,59343,2,0,L|272:224,1,48,2|0,0:0|3:1,2:2:0:0:
224,224,59553,2,0,L|288:224,1,48,10|0,0:3|3:1,2:2:0:0:
320,224,59762,1,8,0:3:0:0:
112,256,59972,6,0,P|103:177|192:128,1,192,2|10,0:1|0:3,2:2:0:0:
400,128,60602,2,0,L|288:128,1,96,2|8,0:2|0:3,0:0:0:0:
400,160,61021,1,8,0:3:0:0:
128,208,61231,6,0,L|16:208,1,96,6|8,0:1|0:3,2:2:0:0:
128,272,61651,2,0,L|192:272,1,48,10|0,0:3|3:2,2:2:0:0:
128,272,61861,2,0,L|16:272,2,96,6|8|2,0:0|0:3|0:0,0:0:0:0:
336,272,62490,6,0,L|448:272,2,96,2|2|2,0:1|0:1|0:1,2:2:0:0:
128,240,63120,2,2,L|144:192,1,48,2|2,0:1|0:1,0:0:0:0:
224,192,63329,2,0,L|240:144,1,48,2|4,2:1|2:1,2:2:0:0:
320,144,63539,1,2,3:1:0:0:
48,304,63749,6,0,L|48:96,1,192,6|2,0:0|3:0,2:2:0:0:
256,304,64379,2,0,L|256:176,2,96,6|2|0,0:0|0:3|3:0,0:0:0:0:
464,304,65008,6,0,L|464:96,1,192,6|2,0:0|2:3,2:2:0:0:
256,304,65637,1,6,0:0:0:0:
308,274,65741,1,2,0:0:0:0:
360,245,65846,1,10,0:3:0:0:
413,216,65951,1,2,3:1:0:0:
465,187,66056,1,8,3:0:0:0:
144,304,66267,6,0,L|32:304,1,96,6|6,0:0|0:0,2:2:0:0:
256,224,66686,1,8,3:2:0:0:
352,320,66896,2,0,L|352:224,1,96,6|6,0:0|0:0,2:2:0:0:
464,240,67315,1,8,3:2:0:0:
152,256,67525,6,0,L|40:256,2,96,2|8|8,0:2|0:3|0:3,0:0:0:0:
360,256,68155,2,0,L|472:256,2,96,2|2|8,0:2|0:0|0:3,0:0:0:0:
80,320,68784,6,0,P|32:288|96:240,1,144,6|2,0:0|0:1,2:2:0:0:
144,240,69204,1,8,0:3:0:0:
256,240,69413,1,2,0:1:0:0:
320,208,69553,1,0,3:1:0:0:
336,144,69693,1,0,3:1:0:0:
320,80,69833,1,8,0:3:0:0:
112,64,70043,6,0,L|-16:64,2,96,2|0|8,0:1|3:1|0:3,2:2:0:0:
224,80,70672,2,0,L|80:80,1,144,2|2,0:1|0:1,0:0:0:0:
464,160,71302,6,0,L|464:288,1,96,14|8,0:1|0:3,2:2:0:0:
368,272,71721,2,0,L|368:224,1,48,10|0,0:3|3:2,2:2:0:0:
416,224,71931,2,0,L|416:128,1,96,6|8,0:0|0:3,0:0:0:0:
304,128,72351,1,2,0:0:0:0:
32,208,72560,6,0,P|64:304|160:320,1,192,12|0,0:3|0:0,2:2:0:0:
367,324,73190,2,0,P|455:296|480:208,1,192,12|2,0:3|3:1,2:2:0:0:
193,211,73819,6,0,L|81:211,2,96,6|12|8,0:1|3:3|0:3,2:2:0:0:
320,208,74448,2,0,L|336:96,1,96,2|8,0:1|0:3,2:2:0:0:
224,112,74868,1,8,0:3:0:0:
432,112,75078,6,0,P|464:192|420:291,1,192,2|8,0:1|0:3,2:2:0:0:
336,320,75707,2,0,L|432:320,2,96,2|2|8,2:3|3:0|0:3,2:2:0:0:
48,320,76337,6,0,L|32:224,1,96,6|8,0:3|0:3,2:2:0:0:
128,208,76756,1,8,0:3:0:0:
224,208,76966,2,0,L|240:112,1,96,2|8,0:1|0:3,2:2:0:0:
160,96,77385,1,8,0:3:0:0:
368,112,77595,2,0,P|448:128|496:224,1,192,2|12,0:1|0:3,2:2:0:0:
400,240,78225,2,0,L|384:352,1,96,2|2,0:3|0:3,2:2:0:0:
480,352,78644,1,14,0:2:0:0:
208,352,78854,6,0,L|96:352,2,96,6|4|8,0:3|3:3|0:3,2:2:0:0:
304,352,79483,1,2,0:1:0:0:
400,352,79693,2,0,L|416:256,1,96,12|12,0:3|0:3,2:2:0:0:
208,256,80113,6,0,P|112:240|80:128,1,192,2|8,0:1|0:3,2:2:0:0:
192,144,80742,2,0,L|288:144,2,96,2|6|12,2:3|3:0|0:3,2:2:0:0:
400,144,81372,6,0,L|416:256,2,96,6|12|8,0:3|2:2|0:3,2:2:0:0:
288,144,82001,2,0,L|272:256,2,96,2|8|12,0:1|0:3|0:3,2:2:0:0:
80,144,82630,2,0,L|64:32,1,96,10|10,0:1|0:3,2:2:0:0:
160,48,83050,1,8,0:3:0:0:
368,48,83260,2,0,L|464:48,2,96,8|8|0,0:3|0:3|3:2,2:2:0:0:
80,80,83889,6,0,L|80:224,1,144,10|8,0:1|0:3,2:2:0:0:
352,160,84518,1,2,0:1:0:0:
256,160,84728,1,8,0:3:0:0:
144,160,84938,1,8,0:3:0:0:
352,336,85148,6,0,L|464:336,1,96,2|0,0:1|2:1,2:2:0:0:
456,240,85567,1,0,2:1:0:0:
248,240,85777,2,0,P|184:208|264:144,1,192,2|4,0:1|2:1,0:0:0:0:
304,128,86302,1,4,2:2:0:0:
432,128,86406,6,0,L|432:240,1,96,6|6,0:1|0:1,2:2:0:0:
432,304,86826,2,0,L|368:304,1,48,4|0,2:2|0:0,0:0:0:0:
256,304,87036,2,0,L|144:304,2,96,6|6|8,0:1|0:1|0:3,2:2:0:0:
48,304,87665,6,0,L|48:192,1,96,2|2,0:1|0:1,0:0:0:0:
160,208,88085,1,8,0:3:0:0:
272,208,88295,2,0,L|272:96,1,96,2|2,0:1|0:1,2:2:0:0:
160,112,88715,1,2,0:1:0:0:
432,160,88924,6,0,P|432:240|352:256,1,144,10|8,0:1|0:3,2:2:0:0:
320,272,89344,1,2,2:1:0:0:
208,256,89553,2,0,L|320:256,2,96,2|8|8,0:1|0:3|0:3,2:2:0:0:
416,240,90183,6,0,L|400:128,1,96,2|0,0:1|2:1,2:2:0:0:
192,144,90602,1,2,2:1:0:0:
288,144,90812,2,0,L|301:239,1,96,2|8,0:1|0:3,0:0:0:0:
192,256,91232,2,0,L|208:304,1,48,12|0,2:2|3:1,0:0:0:0:
336,320,91441,6,0,L|464:320,1,96,6|6,0:1|2:1,2:2:0:0:
336,320,92071,2,0,L|464:320,1,96,6|6,2:1|2:1,2:2:0:0:
224,320,92490,1,8,0:3:0:0:
336,288,92700,6,0,L|336:176,1,96,10|2,0:1|0:1,2:2:0:0:
224,160,93120,1,2,0:1:0:0:
432,256,93330,2,0,L|432:160,1,96,2|2,0:1|0:1,2:2:0:0:
320,160,93749,1,2,2:1:0:0:
48,160,93959,6,0,L|48:352,1,192,10|8,0:1|0:3,2:2:0:0:
256,336,94588,2,0,L|256:144,1,192,2|8,0:1|0:3,2:2:0:0:
464,160,95218,2,0,L|464:272,1,96,2|8,0:1|0:3,2:2:0:0:
368,256,95637,1,8,0:3:0:0:
256,192,95847,6,0,L|240:304,1,96,2|10,0:1|0:1,2:2:0:0:
352,336,96267,2,0,L|304:336,1,48,8|0,0:3|3:1,2:2:0:0:
176,336,96476,6,0,L|48:336,1,96,6|2,0:1|0:1,2:2:0:0:
176,272,96896,2,0,L|224:272,1,48,8|0,0:3|2:1,0:0:0:0:
176,240,97106,2,0,L|64:240,2,96,2|2|8,0:1|0:1|0:3,2:2:0:0:
384,256,97735,6,0,L|400:128,1,96,2|2,0:1|0:1,2:2:0:0:
320,176,98050,2,0,L|304:48,1,96,4|0,0:2|0:1,2:2:0:0:
448,80,98365,2,0,L|464:176,2,96,10|10|8,0:1|0:1|0:3,2:2:0:0:
176,64,98994,6,0,L|80:64,2,96,6|2|8,0:1|0:1|0:3,2:2:0:0:
384,160,99623,2,0,L|288:160,2,96,2|2|8,0:1|0:1|0:3,2:2:0:0:
176,240,100253,6,0,L|176:128,1,96,2|2,0:1|0:1,2:2:0:0:
288,144,100672,1,8,0:3:0:0:
16,128,100882,2,0,P|32:192|160:224,1,192,2|8,0:1|0:3,0:0:0:0:
416,240,101511,6,0,L|416:128,1,96,6|2,0:1|0:1,2:2:0:0:
304,144,101931,2,0,L|256:144,1,48,8|4,0:3|0:2,2:2:0:0:
304,144,102141,2,0,L|416:144,2,96,2|2|8,0:1|0:1|0:3,0:0:0:0:
96,160,102770,6,0,L|96:288,1,96,6|8,0:1|0:3,0:0:0:0:
176,224,103085,2,0,L|176:352,1,96,10|8,0:1|0:3,0:0:0:0:
32,224,103399,6,0,L|32:96,1,96,6|8,0:1|0:3,0:0:0:0:
48,80,103714,1,10,0:1:0:0:
96,32,103819,1,8,0:3:0:0:
368,48,104029,6,0,L|480:48,2,96,12|2|8,1:1|2:1|3:1,2:2:0:0:
144,48,104681,2,0,L|32:48,2,96,12|2|8,1:2|2:2|3:3,2:2:0:0:
368,176,105333,6,0,L|256:176,2,96,8|2|2,1:3|2:3|3:2,2:2:0:0:
144,176,105985,2,0,L|256:176,2,96,6|8|2,1:2|2:1|3:1,2:2:0:0:
368,288,106637,5,8,1:1:0:0:
256,242,106854,1,2,2:2:0:0:
145,197,107071,1,8,3:2:0:0:
368,48,107289,2,0,L|480:48,2,96,12|8|8,1:1|2:2|3:1,2:2:0:0:
144,288,107942,5,12,2:3:0:0:
256,242,108159,1,8,2:2:0:0:
367,197,108376,1,8,3:1:0:0:
144,48,108594,2,0,L|32:48,2,96,6|12|2,1:1|3:1|3:2,2:2:0:0:
480,208,109246,5,12,1:1:0:0:
384,208,109463,1,8,2:2:0:0:
288,208,109680,1,8,3:2:0:0:
64,176,109898,5,12,1:3:0:0:
160,176,110115,1,8,2:2:0:0:
256,176,110332,1,8,3:3:0:0:
32,208,110550,5,12,1:3:0:0:
128,208,110767,1,8,2:3:0:0:
224,208,110984,1,2,3:1:0:0:
448,176,111202,5,12,1:1:0:0:
352,176,111419,1,2,2:2:0:0:
256,176,111636,1,8,3:2:0:0:
480,304,111855,6,0,L|384:304,2,96,12|2|8,1:3|2:2|3:2,2:2:0:0:
256,304,112507,2,0,L|128:304,2,96,6|8|2,1:1|2:1|3:2,2:2:0:0:
32,304,113159,6,0,L|48:192,1,96,12|2,1:1|0:1,0:0:0:0:
160,192,113594,1,2,0:1:0:0:
368,192,113811,2,0,L|496:192,2,96,2|8|8,0:1|0:3|0:3,2:2:0:0:
48,288,114463,6,0,L|48:80,1,192,12|8,2:1|2:1,2:2:0:0:
160,80,115139,2,0,L|368:80,1,192,12|8,2:2|2:3,2:2:0:0:
464,288,115816,6,0,L|464:80,1,192,12|2,2:3|2:2,0:0:0:0:
256,80,116492,2,0,L|256:288,1,192,6|6,2:2|2:1,2:2:0:0:
48,336,117169,6,0,B|48:240|48:240|144:240,1,192,8|8,2:1|2:2,2:2:0:0:
256,224,117846,2,0,B|352:224|352:224|352:128,1,192,12|8,2:1|2:2,0:0:0:0:
464,336,118523,6,0,B|464:240|464:240|368:240,1,192,12|8,2:3|2:1,0:0:0:0:
256,224,119200,2,0,B|160:224|160:224|160:128,1,192,6|2,2:1|2:2,2:2:0:0:
464,288,119876,6,0,L|464:80,1,192,12|8,2:1|2:2,2:2:0:0:
352,80,120552,2,0,L|160:80,1,192,12|8,2:3|2:3,2:2:0:0:
48,288,121229,6,0,L|48:80,1,192,6|2,2:2|2:1,0:0:0:0:
256,80,121905,2,0,L|256:288,1,192,12|8,2:1|2:1,0:0:0:0:
464,336,122582,6,0,B|464:240|464:240|368:240,1,192,6|2,2:1|2:1,2:2:0:0:
256,224,123259,2,0,B|160:224|160:224|160:128,1,192,6|2,2:2|2:1,2:2:0:0:
48,336,123936,6,0,B|48:240|48:240|144:240,1,192,8|0,2:1|2:1,2:2:0:0:
256,224,124565,1,0,3:1:0:0:
144,192,124775,2,0,L|144:80,1,96,10|14,2:2|2:2,0:0:0:0:
416,128,125194,6,0,L|416:240,1,96,6|0,0:1|3:1,0:0:0:0:
304,256,125614,1,8,0:3:0:0:
192,272,125824,2,0,L|288:272,2,96,2|8|8,0:3|0:3|0:3,2:2:0:0:
400,272,126453,6,0,P|446:235|400:128,1,192,2|8,0:1|0:3,2:2:0:0:
293,128,127082,2,0,L|389:128,2,96,2|8|8,0:3|0:3|0:3,2:2:0:0:
16,176,127712,6,0,P|48:272|144:288,1,192,6|8,0:1|0:3,2:2:0:0:
240,256,128341,1,2,0:3:0:0:
128,224,128551,2,0,L|112:128,1,96,8|8,0:3|0:3,0:0:0:0:
320,128,128970,2,0,P|384:144|432:288,1,192,2|12,0:1|0:3,2:2:0:0:
320,304,129600,1,2,0:3:0:0:
224,304,129809,1,8,0:3:0:0:
128,304,130019,1,12,0:3:0:0:
416,272,130229,6,0,L|416:80,1,192,6|8,0:1|0:3,2:2:0:0:
304,176,130859,2,0,L|112:176,1,192,2|8,0:1|3:1,2:2:0:0:
208,176,131488,2,0,L|400:176,1,192,2|8,0:0|0:3,0:0:0:0:
192,240,132117,2,0,L|80:240,2,96,2|8|8,0:0|0:3|0:3,0:0:0:0:
496,240,132747,6,0,L|496:128,1,96,10|0,0:1|2:1,2:2:0:0:
384,128,133166,1,0,2:1:0:0:
256,128,133376,2,0,L|464:128,1,192,6|8,0:1|0:3,2:2:0:0:
160,144,134005,6,0,P|121:214|160:256,1,144,2|2,0:1|0:1,2:2:0:0:
224,256,134425,1,8,0:3:0:0:
336,256,134635,2,0,L|400:256,1,48,2|2,0:1|0:1,0:0:0:0:
400,208,134845,1,8,0:3:0:0:
384,256,134949,2,0,L|336:256,1,48,0|8,0:0|0:3,0:0:0:0:
56,256,135264,6,0,L|56:112,1,144,6|0,0:1|0:0,0:0:0:0:
120,96,135684,1,0,3:3:0:0:
248,112,135894,2,0,L|248:224,2,96,8|0|0,0:1|3:1|3:1,2:2:0:0:
456,256,136523,6,0,L|456:112,1,144,2|2,0:1|0:1,0:0:0:0:
392,96,136943,1,0,3:3:0:0:
264,112,137153,2,0,L|264:224,2,96,8|0|0,0:1|3:1|3:1,2:2:0:0:
48,128,137782,6,0,P|64:192|160:224,1,144,6|0,0:1|0:0,2:2:0:0:
192,240,138201,1,0,3:1:0:0:
320,304,138411,2,0,L|224:304,1,96,8|0,0:1|3:1,2:2:0:0:
192,208,138831,1,0,3:1:0:0:
400,208,139040,6,0,P|455:225|461:282,2,96,2|2|0,0:1|0:1|3:1,2:2:0:0:
288,208,139670,2,0,P|233:225|227:282,2,96,8|0|0,0:1|3:1|3:1,2:2:0:0:
80,224,140299,6,0,L|80:128,1,96,6|0,0:1|3:1,2:2:0:0:
192,128,140719,1,0,3:1:0:0:
400,224,140929,2,0,L|400:128,1,96,8|0,0:3|3:1,2:2:0:0:
288,128,141347,1,0,3:1:0:0:
496,224,141558,5,14,2:2:0:0:
432,144,141767,1,0,3:1:0:0:
336,144,141977,1,0,3:1:0:0:
128,80,142187,1,2,0:1:0:0:
224,80,142396,1,10,0:1:0:0:
320,80,142606,1,10,0:2:0:0:
16,144,142816,5,6,3:2:0:0:
32,256,143492,1,0,3:2:0:0:
128,304,144169,1,0,3:3:0:0:
256,336,144846,2,0,L|336:256,2,96,8|2|4,3:3|3:3|3:3,0:0:0:0:
48,336,145522,6,0,L|48:192,1,144,6|8,0:1|0:3,2:2:0:0:
48,160,145941,1,0,2:1:0:0:
256,320,146151,2,8,L|352:320,2,96,6|2|8,0:1|3:0|3:0,2:2:0:0:
144,288,146780,2,0,L|240:288,2,96,10|8|8,0:1|0:3|0:3,2:2:0:0:
256,240,147410,1,6,0:1:0:0:
160,240,147619,1,8,0:3:0:0:
64,240,147829,1,2,3:0:0:0:
336,240,148039,6,0,L|448:240,2,96,10|8|8,0:1|0:3|0:3,2:2:0:0:
224,192,148668,1,6,0:1:0:0:
320,192,148877,1,2,2:1:0:0:
416,192,149087,1,8,3:0:0:0:
128,208,149298,6,0,P|64:176|16:64,1,192,2|8,0:1|2:2,0:0:0:0:
240,192,149927,2,0,P|304:160|352:48,1,192,2|2,2:2|2:2,2:2:0:0:
256,192,150556,12,2,151815,2:2:0:0:
48,320,153074,6,0,L|48:144,1,144,6|2,0:0|0:0,2:2:0:0:
48,128,153494,1,10,0:3:0:0:
256,320,153703,2,0,L|256:208,1,96,2|10,0:0|0:3,2:2:0:0:
144,192,154123,1,8,3:0:0:0:
464,320,154333,6,0,L|464:144,1,144,14|2,0:0|0:0,2:2:0:0:
464,144,154752,1,10,0:3:0:0:
256,320,154962,2,0,L|256:256,1,48,2|2,0:0|0:0,0:0:0:0:
304,256,155172,1,10,0:3:0:0:
352,240,155277,2,0,L|352:176,1,48,2|8,3:1|3:0,2:2:0:0:
48,320,155591,6,0,L|48:208,1,96,6|6,0:0|0:0,0:0:0:0:
160,208,156011,1,8,3:2:0:0:
368,256,156221,2,0,L|272:256,1,96,6|6,0:0|0:0,0:0:0:0:
176,256,156640,1,8,3:2:0:0:
480,160,156850,5,2,0:2:0:0:
496,80,157060,2,0,L|400:80,1,96,8|8,0:3|0:3,0:0:0:0:
288,80,157480,2,0,L|176:80,2,96,2|2|8,0:2|0:0|0:3,0:0:0:0:
16,160,158109,6,0,L|16:320,1,144,6|2,0:0|0:1,2:2:0:0:
16,352,158528,1,8,0:3:0:0:
144,336,158738,2,0,L|256:336,2,96,2|10|8,0:0|0:3|0:3,0:0:0:0:
256,288,159368,2,0,L|384:288,2,96,2|2|10,0:1|0:1|0:3,2:2:0:0:
48,288,159997,2,0,P|22:239|65:147,1,144,2|6,0:2|3:2,0:0:0:0:
464,192,160626,6,0,L|368:192,1,96,6|8,0:1|0:3,0:0:0:0:
256,192,161046,2,0,L|192:192,1,48,10|0,0:3|3:2,2:2:0:0:
256,192,161256,2,0,L|384:192,2,96,6|8|2,0:0|0:3|0:0,0:0:0:0:
48,192,161885,6,0,L|48:288,1,96,2|0,0:1|0:0,2:2:0:0:
160,304,162305,1,2,0:1:0:0:
352,304,162515,1,2,0:1:0:0:
464,288,162724,2,0,L|464:192,1,96,2|2,2:1|3:1,2:2:0:0:
112,256,163144,6,0,L|48:64,1,192,6|2,0:0|3:0,2:2:0:0:
256,304,163773,2,0,L|256:176,2,96,6|2|0,0:0|0:3|3:0,0:0:0:0:
460,73,164403,2,0,P|442:178|399:249,1,192,6|2,0:0|2:3,2:2:0:0:
288,336,165032,5,2,0:0:0:0:
334,324,165136,1,2,0:0:0:0:
374,298,165241,1,10,0:3:0:0:
402,259,165346,1,2,3:1:0:0:
416,214,165451,1,12,3:0:0:0:
144,224,165661,6,0,L|48:224,2,96,6|6|8,0:0|0:0|3:2,2:2:0:0:
352,224,166291,2,0,L|464:224,1,96,6|6,0:0|0:0,2:2:0:0:
464,144,166710,1,8,3:2:0:0:
160,224,166920,6,0,L|48:224,2,96,2|8|8,0:2|0:3|0:3,0:0:0:0:
368,224,167549,2,0,L|464:224,2,96,2|2|8,0:2|0:0|0:3,0:0:0:0:
80,288,168179,6,0,L|304:288,1,192,6|8,0:0|0:3,2:2:0:0:
160,256,168808,1,2,0:1:0:0:
112,240,168948,1,0,3:1:0:0:
112,160,169088,1,0,3:1:0:0:
160,144,169227,1,8,0:3:0:0:
368,144,169438,6,0,L|480:144,2,96,2|0|8,0:1|3:1|0:3,2:2:0:0:
240,144,170067,2,0,L|80:144,1,144,2|2,0:1|0:1,2:2:0:0:
480,288,170696,6,0,L|480:192,1,96,14|8,0:1|0:3,0:0:0:0:
480,128,171116,2,0,L|400:128,1,48,10|0,0:3|3:2,2:2:0:0:
368,128,171326,2,0,L|256:128,2,96,6|8|2,0:0|0:3|0:0,0:0:0:0:
256,160,171955,6,0,L|256:256,1,96,6|8,0:1|0:3,2:2:0:0:
368,272,172375,1,8,0:3:0:0:
486,304,172584,2,0,L|390:304,2,96,4|4|4,0:1|0:0|0:1,2:2:0:0:
208,304,173214,5,12,2:1:0:0:
128,256,173354,1,0,2:1:0:0:
105,190,173494,1,0,2:1:0:0:
128,128,173633,1,0,3:1:0:0:
336,304,173843,5,2,3:1:0:0:
416,256,173983,1,0,3:1:0:0:
438,188,174123,1,0,2:1:0:0:
416,128,174262,1,0,3:1:0:0:
208,304,174473,5,8,3:3:0:0:
225,244,174612,1,0,0:0:0:0:
279,218,174752,1,0,0:0:0:0:
345,237,174892,1,0,3:1:0:0:
272,208,175102,5,2,3:3:0:0:
281,241,175241,1,0,0:0:0:0:
336,252,175381,1,0,0:0:0:0:
415,209,175521,1,0,3:1:0:0:
112,192,175731,6,0,L|16:192,2,96,14|6|8,0:0|0:0|3:2,2:2:0:0:
320,192,176361,2,0,L|416:192,2,96,14|6|8,0:0|0:0|3:2,2:2:0:0:
48,256,176990,6,0,L|160:256,1,96,10|8,0:2|0:3,0:0:0:0:
256,256,177410,1,8,0:3:0:0:
464,256,177619,2,0,L|352:256,1,96,10|10,0:2|0:3,2:2:0:0:
256,256,178039,1,8,0:3:0:0:
368,256,178249,6,0,L|368:144,1,96,6|0,0:1|2:1,2:2:0:0:
304,128,178598,1,0,3:1:0:0:
368,80,178738,1,0,3:1:0:0:
432,128,178878,2,0,L|432:224,1,96,8|8,0:1|0:3,2:2:0:0:
320,288,179298,1,8,0:3:0:0:
96,288,179508,6,0,L|80:176,1,96,2|0,0:3|3:1,2:2:0:0:
192,176,179927,2,0,L|256:176,1,48,8|0,0:3|3:1,0:0:0:0:
192,176,180137,2,0,L|176:64,1,96,8|8,0:3|0:3,2:2:0:0:
384,80,180556,1,8,0:3:0:0:
416,224,180766,6,0,L|288:224,1,96,6|0,0:1|3:1,2:2:0:0:
256,176,181116,1,0,0:0:0:0:
320,128,181256,1,0,0:0:0:0:
256,80,181396,2,0,L|144:80,2,96,0|0|0,3:1|3:1|3:1,2:2:0:0:
432,80,182025,6,0,L|432:192,1,96,6|8,0:1|0:3,2:2:0:0:
352,176,182340,2,0,L|352:288,1,96,2|8,0:1|0:3,2:2:0:0:
432,256,182654,2,0,L|432:368,1,96,2|8,0:1|0:3,2:2:0:0:
288,304,182969,2,0,L|224:304,2,48,2|8|8,0:1|0:3|0:3,0:0:0:0:
368,304,183284,6,0,L|368:112,1,192,12|0,0:1|2:2,2:2:0:0:
256,112,183936,2,0,L|128:112,2,96,6|0|0,0:1|0:0|2:1,2:2:0:0:
144,176,184588,2,0,L|32:176,1,96,12|2,0:3|2:2,2:2:0:0:
160,176,185023,1,2,2:2:0:0:
368,176,185240,2,0,L|480:176,1,96,6|8,0:3|0:3,2:2:0:0:
352,176,185675,1,8,0:3:0:0:
64,320,185892,6,0,L|64:224,1,96,14|8,0:1|0:3,2:2:0:0:
176,208,186343,1,8,3:2:0:0:
384,304,186568,2,0,L|384:208,1,96,10|8,0:1|0:3,2:2:0:0:
272,192,187019,2,0,L|192:192,1,48,8|0,3:2|3:1,2:2:0:0:
368,176,187245,6,0,L|496:176,2,96,10|2|8,0:2|0:1|0:3,2:2:0:0:
240,144,187948,2,0,L|336:144,1,96,10|10,0:2|0:3,2:2:0:0:
112,192,188416,1,8,0:3:0:0:
336,272,188651,5,14,0:1:0:0:
352,160,189382,1,2,3:1:0:0:
432,96,190144,1,0,3:1:0:0:
240,112,190756,1,2,2:3:0:0:
400,160,191117,6,0,P|448:208|383:307,1,192,2|0,3:1|3:1,2:2:0:0:
368,304,192117,1,0,3:1:0:0:
320,304,192193,1,0,3:1:0:0:
272,288,192299,1,0,3:1:0:0:
224,272,192386,1,0,3:1:0:0:
208,224,192501,1,4,3:1:0:0:
256,192,192830,12,4,194479,2:1:0:0:
256,192,203762,5,2,2:3:0:0:
224,112,204002,1,4,2:3:0:0:
160,48,204243,2,0,L|128:48,1,24,8|0,2:3|2:1,2:2:0:0:
160,48,204484,2,0,L|224:48,2,48,2|0|0,2:0|2:1|2:3,2:2:0:0:
256,48,205207,6,0,P|304:64|352:144,1,144,8|2,2:3|2:2,2:2:0:0:
304,192,206171,1,0,2:2:0:0:
256,224,206412,1,2,2:2:0:0:
368,288,206653,6,0,P|416:256|432:208,1,96,8|2,2:3|2:0,2:2:0:0:
336,192,207350,2,0,L|336:144,1,48,2|0,2:0|2:1,2:2:0:0:
432,144,207815,1,2,2:0:0:0:
320,112,208048,6,0,L|224:112,1,96,8|2,2:3|2:0,2:2:0:0:
288,176,208746,2,0,L|384:176,1,96,0|2,2:3|2:0,2:2:0:0:
160,256,209443,6,0,L|96:256,1,48,12|2,0:1|2:1,2:2:0:0:
64,160,209899,2,0,L|96:160,1,24,2|2,2:2|2:0,2:2:0:0:
112,160,210127,2,0,L|160:160,2,48,8|0|8,2:1|2:1|2:1,2:2:0:0:
208,160,210811,6,0,P|256:176|272:224,1,96,8|2,2:1|2:0,0:0:0:0:
192,240,211496,2,0,L|176:288,1,48,8|0,2:1|2:1,2:2:0:0:
256,304,211952,1,8,2:1:0:0:
128,320,212180,6,0,P|64:288|64:256,1,96,8|2,2:1|2:2,0:0:0:0:
144,240,212841,2,0,L|192:240,2,48,8|2|0,2:1|2:0|2:1,0:0:0:0:
352,240,213503,6,0,P|400:224|432:176,1,96,8|2,2:1|2:2,2:2:0:0:
304,144,214165,2,0,L|240:144,1,48,8|2,2:1|2:2,0:0:0:0:
384,112,214606,1,0,2:1:0:0:
64,128,214827,6,0,L|48:192,1,48,12|2,2:1|2:1,2:2:0:0:
144,208,215257,2,0,L|176:208,1,24,0|0,3:1|3:1,0:0:0:0:
144,208,215472,2,0,L|128:272,2,48,2|2|2,2:1|2:1|2:1,2:2:0:0:
368,208,216117,6,0,B|379:255|379:255|367:207,1,96,8|2,2:1|3:1,2:2:0:0:
256,208,216762,2,0,L|240:144,1,48,2|2,2:1|2:1,2:2:0:0:
352,144,217192,1,2,2:1:0:0:
128,144,217407,6,0,P|96:176|96:240,1,96,8|0,2:1|3:1,2:2:0:0:
176,256,218040,2,0,L|240:256,2,48,2|2|2,2:1|2:1|2:1,2:2:0:0:
368,256,218674,6,0,P|400:224|416:176,1,96,8|8,2:1|2:1,2:2:0:0:
176,256,219385,1,2,2:1:0:0:
304,240,219657,1,2,2:1:0:0:
464,256,219957,1,8,2:1:0:0:
48,288,220290,6,0,L|48:144,1,144,6|0,0:1|2:1,2:2:0:0:
48,128,220741,1,0,2:1:0:0:
256,288,220966,2,0,L|288:176,2,96,2|0|0,0:1|2:1|2:0,0:0:0:0:
464,288,221645,6,0,L|464:144,1,144,6|0,0:1|2:0,2:2:0:0:
464,128,222099,1,0,2:1:0:0:
256,288,222326,2,0,L|304:288,1,48,2|0,2:1|2:1,2:2:0:0:
352,272,222554,2,0,L|400:272,1,48,0|0,2:1|2:1,2:2:0:0:
448,272,222782,1,0,2:1:0:0:
144,288,223010,6,0,L|48:288,1,96,6|2,0:1|2:1,2:2:0:0:
256,256,223468,1,8,2:2:0:0:
464,288,223697,2,0,L|368:288,1,96,6|2,0:1|2:1,2:2:0:0:
160,288,224156,2,0,L|96:288,1,48,8|0,3:2|3:1,0:0:0:0:
256,240,224386,6,0,L|368:240,1,96,10|2,0:2|0:1,2:2:0:0:
256,240,224851,1,2,0:1:0:0:
480,192,225091,2,0,L|352:192,1,96,2|2,0:2|0:1,2:2:0:0:
480,192,225585,1,2,0:1:0:0:
144,224,225840,6,0,P|80:192|144:128,1,192,6|6,0:2|0:2,2:2:0:0:
256,192,226543,5,2,0:1:0:0:
301,184,226661,1,0,3:1:0:0:
322,143,226779,1,2,0:1:0:0:
301,102,226897,1,2,0:1:0:0:
255,96,227015,1,2,0:1:0:0:
464,256,227251,6,0,L|352:256,2,96,2|0|0,0:1|3:1|3:1,2:2:0:0:
240,256,227965,2,0,L|48:256,1,192,0|4,0:2|0:2,0:0:0:0:
384,256,228685,6,0,L|384:160,1,96,6|0,2:1|3:1,0:0:0:0:
256,176,229172,2,0,L|256:112,1,48,0|0,2:1|2:1,2:2:0:0:
336,128,229416,2,0,L|336:32,1,96,4|0,2:1|3:1,0:0:0:0:
224,48,229933,1,0,2:1:0:0:
464,144,230191,6,0,P|496:208|456:321,1,192,6|0,0:1|3:1,2:2:0:0:
48,144,231109,6,0,P|16:208|16:256,1,96,6|2,0:1|2:1,2:2:0:0:
48,144,231903,2,0,P|32:192|33:220,1,72,2|0,2:1|0:0,0:0:0:0:
144,272,232390,6,0,L|208:272,2,64,6|0|0,0:0|2:1|3:1,2:2:0:0:
256,224,232966,2,0,L|320:224,2,64,2|0|0,0:1|2:1|3:1,0:0:0:0:
368,272,233543,2,0,L|432:272,2,64,2|0|0,0:1|2:1|3:1,2:2:0:0:
176,272,234120,2,0,L|112:272,2,64,2|0|0,0:1|2:1|3:1,0:0:0:0:
464,272,234697,6,0,L|464:192,1,48,2|0,2:1|3:1,2:2:0:0:
368,208,234986,2,0,L|416:208,1,48,0|0,3:1|3:1,2:2:0:0:
192,208,235274,2,0,L|112:208,1,48,8|0,2:1|3:1,2:2:0:0:
240,176,235563,2,0,L|240:112,1,48,0|0,3:1|3:1,2:2:0:0:
80,144,235851,6,0,L|16:144,1,48,2|0,2:1|3:1,2:2:0:0:
112,144,236140,2,0,L|160:144,1,48,0|0,3:1|3:1,2:2:0:0:
400,192,236428,2,0,L|464:192,1,48,8|0,2:1|3:1,2:2:0:0:
352,240,236716,2,0,L|288:240,1,48,0|0,3:1|3:1,2:2:0:0:
256,192,237005,12,12,241620,0:1:0:0:
