osu file format v14

[General]
AudioFilename: audio.mp3
AudioLeadIn: 0
PreviewTime: 196432
Countdown: 0
SampleSet: Normal
StackLeniency: 0.7
Mode: 2
LetterboxInBreaks: 0
WidescreenStoryboard: 1

[Editor]
DistanceSpacing: 1.4
BeatDivisor: 8
GridSize: 32
TimelineZoom: 4.899999

[Metadata]
Title:Fly Like You [Long Version]
TitleUnicode:Fly Like You [Long Version]
Artist:technoplanet
ArtistUnicode:technoplanet
Creator:[ TNTlealu ]
Version:Joakh's GRAVITY
Source:SOUND VOLTEX IV HEAVENLY HAVEN
Tags:electronic -Joakh Shinsekai- sdvx 4 旋律世界 ΩDimension -Phase.5+- full ver sv instrumental konami video game rhythm [_Chichinya_] Chi Vulkin uone Rocma _Asriel Yumeno Himiko examination Minato Yukina CLSW alienflybot AFB Loneight l1106188 L18 岡聡志 安部泉希 autofanboy
BeatmapID:2898553
BeatmapSetID:1079909

[Difficulty]
HPDrainRate:6
CircleSize:3.7
OverallDifficulty:9.6
ApproachRate:9.6
SliderMultiplier:1.6
SliderTickRate:1

[Events]
//Background and Video events
0,0,"fcb914da2343ca7cea85c6f8803cf27e4147f5c0.png",0,0
//Break Periods
2,194679,195948
//Storyboard Layer 0 (Background)
//Storyboard Layer 1 (Fail)
//Storyboard Layer 2 (Pass)
//Storyboard Layer 3 (Foreground)
//Storyboard Layer 4 (Overlay)
//Storyboard Sound Samples

[TimingPoints]
625,209.79020979021,3,1,1,75,1,0
625,-100,3,1,1,75,0,0
1883,-102.040816326531,3,1,1,75,0,0
2093,-102.040816326531,3,1,1,75,0,0
2303,-100,3,1,1,75,0,0
3142,-100,3,1,1,75,0,0
4401,-102.040816326531,3,1,1,75,0,0
4611,-102.040816326531,3,1,1,75,0,0
4820,-100,3,1,1,75,0,0
5030,-99.009900990099,3,1,1,75,0,0
5240,-99.009900990099,3,1,1,75,0,0
5450,-99.009900990099,3,1,1,75,0,0
5869,-100,3,1,1,75,0,0
5974,-100,3,1,10,30,0,0
6708,-100,3,1,0,30,0,0
6918,-90.9090909090909,3,1,10,85,0,1
7127,-90.9090909090909,3,1,10,85,0,1
7233,-90.9090909090909,3,1,10,85,0,1
8386,-90.9090909090909,3,1,10,85,0,1
8491,-90.9090909090909,3,1,10,85,0,1
9435,-90.9090909090909,3,1,13,85,0,1
9539,-90.9090909090909,3,1,10,85,0,1
9645,-90.9090909090909,3,1,13,85,0,1
9854,-90.9090909090909,3,1,10,85,0,1
10064,-90.9090909090909,3,1,13,85,0,1
10484,-90.9090909090909,3,1,10,85,0,1
11323,-90.9090909090909,3,1,11,85,0,1
11428,-90.9090909090909,3,1,10,85,0,1
11952,-90.9090909090909,3,1,11,85,0,1
12162,-90.9090909090909,3,1,10,85,0,1
12266,-90.9090909090909,3,1,10,85,0,1
12792,-90.9090909090909,3,1,11,85,0,1
12897,-90.9090909090909,3,1,10,85,0,1
13630,-90.9090909090909,3,1,11,85,0,1
13841,-90.9090909090909,3,1,10,85,0,1
14155,-90.9090909090909,3,1,11,85,0,1
14260,-90.9090909090909,3,1,10,85,0,1
15099,-90.9090909090909,3,1,12,85,0,1
15309,-90.9090909090909,3,1,10,85,0,1
15729,-90.9090909090909,3,1,11,85,0,1
16358,-90.9090909090909,3,1,12,85,0,1
16988,-100,3,1,20,80,0,0
17091,-100,3,1,19,80,0,0
17302,-100,3,1,20,80,0,0
19085,-100,3,1,21,80,0,0
19348,-100,3,1,20,80,0,0
19400,-100,3,1,20,80,0,0
19715,-100,3,1,22,80,0,0
20134,-100,3,1,23,80,0,0
20239,-100,3,1,20,80,0,0
20344,-100,3,1,23,80,0,0
21393,-100,3,1,24,80,0,0
22022,-100,3,1,20,80,0,0
22127,-100,3,1,19,80,0,0
22337,-100,3,1,20,80,0,0
24120,-100,3,1,21,80,0,0
24383,-100,3,1,20,80,0,0
24434,-100,3,1,20,80,0,0
24750,-100,3,1,22,80,0,0
25169,-100,3,1,23,80,0,0
26428,-100,3,1,24,80,0,0
26533,-100,3,1,23,80,0,0
26638,-100,3,1,23,80,0,0
26743,-100,3,1,24,80,0,0
26848,-100,3,1,23,80,0,0
26952,-100,3,1,23,80,0,0
27057,-100,3,1,30,80,0,0
27267,-100,3,1,30,80,0,0
29785,-100,3,1,30,80,0,0
30204,-100,3,1,30,80,0,0
30624,-100,3,1,30,80,0,0
30834,-100,3,1,30,80,0,0
30938,-100,3,1,31,80,0,0
31043,-100,3,1,31,80,0,0
31148,-100,3,1,31,80,0,0
31253,-100,3,1,31,80,0,0
31358,-100,3,1,31,80,0,0
31463,-100,3,1,30,80,0,0
32092,-100,3,1,37,80,0,0
32302,-100,3,1,32,80,0,0
32406,-100,3,1,32,80,0,0
32512,-100,3,1,32,80,0,0
34400,-100,3,1,30,80,0,0
34610,-100,3,1,32,80,0,0
34820,-100,3,1,32,80,0,0
34977,-100,3,1,32,80,0,0
35029,-100,3,1,29,80,0,0
35239,-100,3,1,32,80,0,0
35659,-100,3,1,29,80,0,0
35869,-100,3,1,33,80,0,0
35973,-100,3,1,32,80,0,0
36078,-100,3,1,33,80,0,0
36392,-100,3,1,32,80,0,0
36498,-100,3,1,33,80,0,0
37127,-100,3,1,37,80,0,0
37336,-100,3,1,32,80,0,0
37757,-100,3,1,36,80,0,0
37861,-100,3,1,32,80,0,0
39015,-100,3,1,36,80,0,0
39119,-100,3,1,32,80,0,0
39645,-100,3,1,37,80,0,0
39750,-100,3,1,32,80,0,0
40274,-100,3,1,36,80,0,0
40344,-100,3,1,32,80,0,0
41533,-100,3,1,36,80,0,0
41637,-100,3,1,32,80,0,0
41900,-100,3,1,32,5,0,0
41952,-100,3,1,32,80,0,0
42110,-100,3,1,32,5,0,0
42162,-100,3,1,37,80,0,0
42266,-100,3,1,32,80,0,0
42371,-100,3,1,32,80,0,0
42792,-100,3,1,36,80,0,0
42897,-100,3,1,32,80,0,0
43001,-100,3,1,32,80,0,0
43421,-76.9230769230769,3,1,37,80,0,0
43526,-76.9230769230769,3,1,32,80,0,0
43736,-76.9230769230769,3,1,37,80,0,0
43841,-90.9090909090909,3,1,32,80,0,0
44155,-100,3,1,29,80,0,0
44575,-100,3,1,32,80,0,0
44680,225.563909774436,3,1,34,80,1,0
44680,-125,3,1,34,80,0,0
44905,-125,3,1,34,80,0,0
45356,-100,3,1,34,80,0,0
45582,-100,3,1,34,80,0,0
46033,-100,3,1,34,80,0,0
46710,-100,3,1,34,80,0,0
47386,209.79020979021,3,1,37,80,1,0
47386,-100,3,1,37,80,0,0
47490,-100,3,1,32,80,0,0
48015,-100,3,1,37,80,0,0
48119,-100,3,1,32,80,0,0
48224,-100,3,1,35,80,0,0
48644,-100,3,1,32,80,0,0
49274,-100,3,1,37,80,0,0
49378,-100,3,1,32,80,0,0
49693,-100,3,1,35,80,0,0
49903,-100,3,1,32,80,0,0
50532,-100,3,1,37,80,0,0
50636,-100,3,1,32,80,0,0
50952,-100,3,1,35,80,0,0
51004,-100,3,1,0,80,0,0
51057,-100,3,1,35,80,0,0
51162,-100,3,1,35,80,0,0
51267,-100,3,1,35,50,0,0
51372,-100,3,1,35,55,0,0
51476,-100,3,1,35,60,0,0
51581,-100,3,1,35,65,0,0
51686,-100,3,1,35,70,0,0
51790,-100,3,1,35,80,0,0
52630,-100,3,1,35,30,0,0
53679,-90.9090909090909,3,1,10,85,0,1
53889,-90.9090909090909,3,1,10,85,0,1
53994,-90.9090909090909,3,1,10,85,0,1
55148,-90.9090909090909,3,1,10,85,0,1
55253,-90.9090909090909,3,1,10,85,0,1
56197,-90.9090909090909,3,1,13,85,0,1
56301,-90.9090909090909,3,1,10,85,0,1
56406,-90.9090909090909,3,1,13,85,0,1
56616,-90.9090909090909,3,1,10,85,0,1
56826,-90.9090909090909,3,1,13,85,0,1
57246,-90.9090909090909,3,1,10,85,0,1
58085,-90.9090909090909,3,1,11,85,0,1
58189,-90.9090909090909,3,1,10,85,0,1
58714,-90.9090909090909,3,1,11,85,0,1
58924,-90.9090909090909,3,1,10,85,0,1
59028,-90.9090909090909,3,1,10,85,0,1
59553,-90.9090909090909,3,1,11,85,0,1
59658,-90.9090909090909,3,1,10,85,0,1
60392,-90.9090909090909,3,1,11,85,0,1
60602,-90.9090909090909,3,1,10,85,0,1
60917,-90.9090909090909,3,1,11,85,0,1
61022,-90.9090909090909,3,1,10,85,0,1
61232,-90.9090909090909,3,1,10,75,0,0
61861,-90.9090909090909,3,1,12,85,0,0
62071,-90.9090909090909,3,1,10,85,0,0
62350,-90.9090909090909,3,1,10,85,0,0
62490,-90.9090909090909,3,1,14,75,0,0
62560,-90.9090909090909,3,1,10,75,0,0
62700,-90.9090909090909,3,1,14,75,0,0
62770,-90.9090909090909,3,1,10,75,0,0
62910,-90.9090909090909,3,1,14,75,0,0
62962,-90.9090909090909,3,1,10,75,0,0
63015,-90.9090909090909,3,1,10,75,0,0
63120,-90.9090909090909,3,1,10,75,0,0
63225,-90.9090909090909,3,1,10,75,0,0
63330,-90.9090909090909,3,1,21,75,0,0
63434,-90.9090909090909,3,1,21,75,0,0
63539,-90.9090909090909,3,1,10,75,0,0
63592,-90.9090909090909,3,1,21,75,0,0
63644,-90.9090909090909,3,1,10,75,0,0
63697,-90.9090909090909,3,1,21,75,0,0
63749,-90.9090909090909,3,1,10,85,0,1
63959,-90.9090909090909,3,1,10,85,0,1
64064,-90.9090909090909,3,1,10,85,0,1
64169,-90.9090909090909,3,1,10,85,0,1
65218,-90.9090909090909,3,1,10,85,0,1
65427,-90.9090909090909,3,1,10,85,0,1
65742,-90.9090909090909,3,1,10,85,0,1
65847,-90.9090909090909,3,1,10,85,0,1
65952,-90.9090909090909,3,1,10,85,0,1
66057,-90.9090909090909,3,1,10,85,0,1
66162,-90.9090909090909,3,1,10,85,0,1
66267,-90.9090909090909,3,1,13,85,0,1
66372,-90.9090909090909,3,1,10,85,0,1
66476,-90.9090909090909,3,1,13,85,0,1
66686,-90.9090909090909,3,1,10,85,0,1
66896,-90.9090909090909,3,1,13,85,0,1
67316,-90.9090909090909,3,1,10,85,0,1
67525,-90.9090909090909,3,1,10,85,0,1
68155,-90.9090909090909,3,1,11,85,0,1
68260,-90.9090909090909,3,1,10,85,0,1
68574,-90.9090909090909,3,1,10,85,0,1
68627,-90.9090909090909,3,1,10,85,0,1
68679,-90.9090909090909,3,1,10,85,0,1
68732,-90.9090909090909,3,1,10,85,0,1
68784,-90.9090909090909,3,1,10,85,0,1
71931,-90.9090909090909,3,1,12,85,0,1
71984,-90.9090909090909,3,1,10,85,0,1
72560,-90.9090909090909,3,1,14,85,0,1
72770,-90.9090909090909,3,1,14,85,0,1
73084,-90.9090909090909,3,1,10,85,0,1
73190,-90.9090909090909,3,1,14,85,0,1
73399,-90.9090909090909,3,1,14,85,0,1
73504,-90.9090909090909,3,1,10,85,0,1
73819,-100,3,1,35,75,0,0
73923,-100,3,1,32,75,0,0
74029,-100,3,1,32,75,0,0
75288,-100,3,1,36,75,0,0
75392,-100,3,1,32,75,0,0
75497,-100,3,1,32,75,0,0
75707,-100,3,1,36,75,0,0
75811,-100,3,1,32,75,0,0
75916,-100,3,1,35,75,0,0
76127,-100,3,1,32,75,0,0
77805,-100,3,1,36,75,0,0
77910,-100,3,1,32,75,0,0
78014,-100,3,1,32,75,0,0
78225,-100,3,1,36,75,0,0
78329,-100,3,1,32,75,0,0
78434,-100,3,1,35,75,0,0
78644,-100,3,1,32,75,0,0
80322,-100,3,1,36,75,0,0
80532,-100,3,1,32,75,0,0
80742,-100,3,1,36,75,0,0
80952,-100,3,1,35,75,0,0
81266,-100,3,1,32,75,0,0
81372,-100,3,1,32,75,0,0
82420,-100,3,1,35,75,0,0
82630,-100,3,1,32,75,0,0
83364,-100,3,1,35,75,0,0
83573,-100,3,1,32,75,0,0
83889,-100,3,1,37,75,0,0
83994,-100,3,1,32,75,0,0
86092,-100,3,1,21,75,0,0
86302,-100,3,1,32,75,0,0
86406,-100,3,1,37,75,0,0
86825,-100,3,1,32,75,0,0
87036,-100,3,1,37,75,0,0
87455,-100,3,1,32,75,0,0
88924,-100,3,1,37,75,0,0
89133,-100,3,1,32,75,0,0
91441,-100,3,1,37,75,0,0
91860,-100,3,1,32,75,0,0
92071,-100,3,1,37,75,0,0
92490,-100,3,1,32,75,0,0
92700,-100,3,1,37,75,0,0
92804,-100,3,1,32,75,0,0
93399,-100,3,1,21,75,0,0
93487,-100,3,1,0,75,0,0
93539,-100,3,1,32,75,0,0
93609,-100,3,1,21,75,0,0
93697,-100,3,1,0,75,0,0
93749,-100,3,1,32,75,0,0
93959,-100,3,1,37,75,0,0
94063,-100,3,1,32,75,0,0
94169,-100,3,1,32,75,0,0
96057,-100,3,1,37,75,0,0
96162,-100,3,1,32,75,0,0
96267,-100,3,1,32,75,0,0
96476,-100,3,1,37,75,0,0
96685,-100,3,1,32,75,0,0
98365,-100,3,1,37,75,0,0
98469,-100,3,1,32,75,0,0
98574,-100,3,1,37,75,0,0
98679,-100,3,1,32,75,0,0
98994,-100,3,1,37,75,0,0
99203,-100,3,1,32,75,0,0
101511,-100,3,1,37,75,0,0
101616,-100,3,1,32,75,0,0
101721,-100,3,1,32,75,0,0
102770,-100,3,1,37,75,0,0
102875,-100,3,1,32,75,0,0
103085,-100,3,1,37,75,0,0
103189,-100,3,1,32,75,0,0
103399,-100,3,1,37,75,0,0
103503,-100,3,1,32,75,0,0
103714,-100,3,1,37,75,0,0
103819,-100,3,1,32,75,0,0
104029,217.391304347826,3,1,40,80,1,0
104029,-100,3,1,40,80,0,0
104246,-100,3,1,40,80,0,0
105659,-100,3,1,40,80,0,0
105768,-100,3,1,40,80,0,0
106202,-100,3,1,41,80,0,0
106275,-100,3,1,41,80,0,0
106420,-100,3,1,41,80,0,0
106855,-100,3,1,40,80,0,0
107506,-100,3,1,41,80,0,0
107615,-100,3,1,41,80,0,0
107724,-100,3,1,40,80,0,0
109029,-100,3,1,41,80,0,0
109246,-100,3,1,40,80,0,0
109463,-100,3,1,41,80,0,0
109572,-100,3,1,41,80,0,0
109681,-100,3,1,40,80,0,0
110224,-100,3,1,40,80,0,0
110333,-100,3,1,40,80,0,0
110768,-100,3,1,41,80,0,0
111419,-100,3,1,40,80,0,0
111474,-100,3,1,40,80,0,0
111637,-100,3,1,40,80,0,0
112942,-100,3,1,41,80,0,0
113159,-100,3,1,40,80,0,0
113231,-100,3,1,32,80,0,0
113376,-100,3,1,32,80,0,0
113702,-100,3,1,32,80,0,0
113739,-100,3,1,32,80,0,0
113811,-100,3,1,32,80,0,0
113920,-100,3,1,32,80,0,0
114029,-100,3,1,32,80,0,0
114137,-100,3,1,0,75,0,0
114246,-100,3,1,32,80,0,0
114355,-100,3,1,32,80,0,0
114463,225.563909774436,3,1,40,70,1,0
114463,-100,3,1,40,70,0,0
116719,-100,3,1,41,70,0,0
117394,-100,3,1,40,70,0,0
118072,-100,3,1,41,70,0,0
118297,-100,3,1,40,70,0,0
119650,-100,3,1,41,70,0,0
119876,-100,3,1,40,70,0,0
120101,-100,3,1,41,70,0,0
120327,-100,3,1,40,70,0,0
121455,-100,3,1,41,70,0,0
122357,-100,3,1,42,70,0,0
123259,-100,3,1,40,70,0,0
123484,-100,3,1,41,70,0,0
123936,209.79020979021,3,1,41,70,1,0
123936,-100,3,1,41,70,0,0
124040,-100,3,1,40,30,0,0
124145,-100,3,1,40,30,0,0
124249,-100,3,1,40,70,0,0
124775,-100,3,1,33,75,0,0
125142,-100,3,1,33,75,0,0
125194,209.79020979021,3,1,37,80,1,0
125194,-100,3,1,37,80,0,0
125403,-100,3,1,32,80,0,0
125509,-100,3,1,32,80,0,0
125614,-100,3,1,32,80,0,0
125824,-100,3,1,36,80,0,0
125928,-100,3,1,32,80,0,0
127082,-100,3,1,36,80,0,0
127187,-100,3,1,32,80,0,0
127712,-100,3,1,37,80,0,0
127817,-100,3,1,32,80,0,0
128341,-100,3,1,36,80,0,0
128411,-100,3,1,32,80,0,0
129600,-100,3,1,36,80,0,0
129705,-100,3,1,32,80,0,0
130229,-100,3,1,37,80,0,0
130334,-100,3,1,32,80,0,0
130859,-100,3,1,36,80,0,0
130963,-100,3,1,32,80,0,0
131172,-100,3,1,32,80,0,0
131278,-100,3,1,32,80,0,0
132117,-100,3,1,36,80,0,0
132221,-100,3,1,32,80,0,0
132747,-100,3,1,37,80,0,0
132956,-100,3,1,32,80,0,0
133376,-100,3,1,37,80,0,0
133481,-100,3,1,32,80,0,0
133585,-100,3,1,32,80,0,0
133795,-100,3,1,32,80,0,0
134215,-100,3,1,32,80,0,0
134320,-100,3,1,32,80,0,0
134740,-100,3,1,32,80,0,0
134845,-100,3,1,32,80,0,0
134949,-100,3,1,32,80,0,0
135054,-100,3,1,32,80,0,0
135159,-100,3,1,32,80,0,0
135264,-100,3,1,38,75,0,0
135474,-100,3,1,38,75,0,0
135683,-100,3,1,36,75,0,0
135788,-100,3,1,38,75,0,0
135894,-100,3,1,38,75,0,0
136942,-100,3,1,36,75,0,0
137046,-100,3,1,38,75,0,0
137152,-100,3,1,38,75,0,0
138201,-100,3,1,36,75,0,0
138411,-100,3,1,38,75,0,0
139459,-100,3,1,36,75,0,0
139670,-100,3,1,38,75,0,0
140299,-100,3,1,38,75,0,0
140509,-100,3,1,38,75,0,0
140719,-100,3,1,38,75,0,0
140929,-100,3,1,36,75,0,0
141138,-100,3,1,38,75,0,0
141348,-100,3,1,38,75,0,0
141558,-100,3,1,36,75,0,0
141663,-100,3,1,38,75,0,0
141768,-100,3,1,38,75,0,0
141977,-100,3,1,38,75,0,0
142187,-100,3,1,32,75,0,0
142292,-100,3,1,29,80,0,0
142397,-100,3,1,29,80,0,0
142607,-100,3,1,29,80,0,0
142816,225.563909774436,3,1,34,75,1,0
142816,-100,3,1,34,75,0,0
142873,-100,3,1,34,75,0,0
143492,-100,3,1,34,75,0,0
144197,-100,3,1,34,25,0,0
144734,-100,3,1,34,75,0,0
144846,-100,3,1,34,75,0,0
145522,209.79020979021,3,1,37,75,1,0
145522,-100,3,1,37,75,0,0
145626,-100,3,1,32,80,0,0
146151,-100,3,1,37,80,0,0
146255,-100,3,1,32,80,0,0
146360,-100,3,1,35,80,0,0
146780,-100,3,1,32,80,0,0
146884,-100,3,1,32,80,0,0
146990,-100,3,1,32,80,0,0
147304,-100,3,1,32,80,0,0
147410,-100,3,1,37,80,0,0
147515,-100,3,1,37,80,0,0
147549,-100,3,1,32,80,0,0
147619,-100,3,1,32,80,0,0
147724,-100,3,1,32,80,0,0
147829,-100,3,1,35,80,0,0
148039,-100,3,1,32,80,0,0
148354,-100,3,1,32,80,0,0
148459,-100,3,1,32,80,0,0
148668,-100,3,1,37,80,0,0
148773,-100,3,1,32,80,0,0
148982,-100,3,1,32,80,0,0
149088,-100,3,1,35,80,0,0
149298,-100,3,1,35,80,0,0
150661,-100,3,1,35,80,0,0
151815,-100,3,1,38,80,0,0
151868,-100,3,1,38,80,0,0
152235,-100,3,1,38,80,0,0
152287,-100,3,1,38,80,0,0
152969,-100,3,1,38,80,0,0
153022,-100,3,1,38,80,0,0
153074,-90.9090909090909,3,1,10,85,0,1
153284,-90.9090909090909,3,1,10,85,0,1
153389,-90.9090909090909,3,1,10,85,0,1
154542,-90.9090909090909,3,1,10,85,0,1
154647,-90.9090909090909,3,1,10,85,0,1
155591,-90.9090909090909,3,1,13,85,0,1
155695,-90.9090909090909,3,1,10,85,0,1
155801,-90.9090909090909,3,1,13,85,0,1
156010,-90.9090909090909,3,1,10,85,0,1
156221,-90.9090909090909,3,1,13,85,0,1
156640,-90.9090909090909,3,1,10,85,0,1
157480,-90.9090909090909,3,1,11,85,0,1
157584,-90.9090909090909,3,1,10,85,0,1
158109,-90.9090909090909,3,1,11,85,0,1
158319,-90.9090909090909,3,1,10,85,0,1
158423,-90.9090909090909,3,1,10,85,0,1
158948,-90.9090909090909,3,1,11,85,0,1
159053,-90.9090909090909,3,1,10,85,0,1
159787,-90.9090909090909,3,1,11,85,0,1
159997,-90.9090909090909,3,1,10,85,0,1
160312,-90.9090909090909,3,1,11,85,0,1
160417,-90.9090909090909,3,1,10,85,0,1
160626,-90.9090909090909,3,1,10,75,0,0
161256,-90.9090909090909,3,1,12,85,0,0
161466,-90.9090909090909,3,1,10,85,0,0
161745,-90.9090909090909,3,1,10,85,0,0
161885,-90.9090909090909,3,1,14,75,0,0
161955,-90.9090909090909,3,1,10,75,0,0
162095,-90.9090909090909,3,1,10,75,0,0
162200,-90.9090909090909,3,1,10,75,0,0
162235,-90.9090909090909,3,1,10,75,0,0
162305,-90.9090909090909,3,1,14,75,0,0
162357,-90.9090909090909,3,1,10,75,0,0
162410,-90.9090909090909,3,1,10,75,0,0
162515,-90.9090909090909,3,1,10,75,0,0
162619,-90.9090909090909,3,1,10,75,0,0
162724,-90.9090909090909,3,1,21,75,0,0
162829,-90.9090909090909,3,1,21,75,0,0
162934,-90.9090909090909,3,1,10,75,0,0
162987,-90.9090909090909,3,1,21,75,0,0
163039,-90.9090909090909,3,1,10,75,0,0
163091,-90.9090909090909,3,1,21,75,0,0
163144,-90.9090909090909,3,1,10,85,0,1
163354,-90.9090909090909,3,1,10,85,0,1
163459,-90.9090909090909,3,1,10,85,0,1
163563,-90.9090909090909,3,1,10,85,0,1
164612,-90.9090909090909,3,1,10,85,0,1
164822,-90.9090909090909,3,1,10,85,0,1
165137,-90.9090909090909,3,1,10,85,0,1
165242,-90.9090909090909,3,1,10,85,0,1
165347,-90.9090909090909,3,1,10,85,0,1
165452,-90.9090909090909,3,1,10,85,0,1
165556,-90.9090909090909,3,1,10,85,0,1
165661,-90.9090909090909,3,1,13,85,0,1
165765,-90.9090909090909,3,1,10,85,0,1
165871,-90.9090909090909,3,1,13,85,0,1
166081,-90.9090909090909,3,1,10,85,0,1
166291,-90.9090909090909,3,1,13,85,0,1
166710,-90.9090909090909,3,1,10,85,0,1
166920,-90.9090909090909,3,1,10,85,0,1
167549,-90.9090909090909,3,1,11,85,0,1
167654,-90.9090909090909,3,1,10,85,0,1
167969,-90.9090909090909,3,1,10,85,0,1
168022,-90.9090909090909,3,1,10,85,0,1
168074,-90.9090909090909,3,1,10,85,0,1
168126,-90.9090909090909,3,1,10,85,0,1
168179,-90.9090909090909,3,1,10,85,0,1
171325,-90.9090909090909,3,1,12,85,0,1
171378,-90.9090909090909,3,1,10,85,0,1
172584,-90.9090909090909,3,1,12,85,0,1
173214,-90.9090909090909,3,1,15,80,0,0
173319,-90.9090909090909,3,1,15,80,0,0
173354,-90.9090909090909,3,1,15,80,0,0
175731,-90.9090909090909,3,1,13,85,0,1
175835,-90.9090909090909,3,1,10,85,0,1
175941,-90.9090909090909,3,1,13,85,0,1
176150,-90.9090909090909,3,1,10,85,0,1
176361,-90.9090909090909,3,1,13,85,0,1
176780,-90.9090909090909,3,1,10,85,0,1
177619,-90.9090909090909,3,1,11,85,0,1
177724,-90.9090909090909,3,1,10,85,0,1
178039,-90.9090909090909,3,1,10,85,0,1
178091,-90.9090909090909,3,1,10,85,0,1
178144,-90.9090909090909,3,1,10,85,0,1
178196,-90.9090909090909,3,1,10,85,0,1
178249,-90.9090909090909,3,1,18,80,0,0
178354,-90.9090909090909,3,1,10,80,0,0
178878,-90.9090909090909,3,1,18,80,0,0
178948,-90.9090909090909,3,1,10,80,0,0
179508,-90.9090909090909,3,1,18,80,0,0
179612,-90.9090909090909,3,1,10,80,0,0
179717,-90.9090909090909,3,1,10,80,0,0
180137,-90.9090909090909,3,1,18,80,0,0
180241,-90.9090909090909,3,1,10,80,0,0
180976,-90.9090909090909,3,1,10,80,0,0
183126,-90.9090909090909,3,1,0,80,0,0
183179,-90.9090909090909,3,1,10,80,0,0
183229,-90.9090909090909,3,1,0,80,0,0
183284,217.391304347826,3,1,15,80,1,0
183284,-100,3,1,15,80,0,0
183501,-100,3,1,15,80,0,0
183827,-100,3,1,15,80,0,0
184153,-100,3,1,15,80,0,0
184370,-100,3,1,15,80,0,0
184443,-100,3,1,15,80,0,0
184588,-100,3,1,15,80,0,0
185349,-100,3,1,10,80,0,0
185838,-100,3,1,0,80,0,0
185892,225.563909774436,3,1,10,80,1,0
185892,-100,3,1,10,80,0,0
187170,-100,3,1,0,80,0,0
187245,234.375,3,1,10,80,1,0
187245,-100,3,1,10,80,0,0
187948,-100,3,1,11,80,0,0
188065,-100,3,1,10,80,0,0
188416,-100,3,1,10,80,0,0
188475,-100,3,1,10,80,0,0
188534,-100,3,1,10,80,0,0
188590,-100,3,1,0,80,0,0
188651,243.90243902439,3,1,11,80,1,0
188651,-100,3,1,11,80,0,0
188894,-100,3,1,16,80,0,0
189016,-100,3,1,16,80,0,0
189138,-100,3,1,16,80,0,0
189382,254.237288135593,3,1,16,80,1,0
189445,-100,3,1,16,80,0,0
189509,-100,3,1,16,80,0,0
189572,-100,3,1,16,80,0,0
189636,-100,3,1,16,80,0,0
189699,-100,3,1,16,80,0,0
189763,-100,3,1,16,80,0,0
189826,-100,3,1,16,80,0,0
189890,-100,3,1,16,80,0,0
189954,-100,3,1,16,80,0,0
190017,-100,3,1,16,80,0,0
190081,-100,3,1,16,80,0,0
190144,306.122448979592,3,1,16,80,1,0
190144,-100,3,1,16,80,0,0
190450,-100,3,1,16,80,0,0
190756,361.44578313253,3,1,16,80,1,0
190756,-100,3,1,16,80,0,0
191117,461.538461538462,3,1,16,80,1,1
191117,-43.4782608695652,3,1,16,80,0,0
191193,-100,3,1,16,80,0,0
191270,-100,3,1,16,80,0,0
191309,-100,3,1,16,80,0,0
191578,-100,3,1,16,80,0,0
191732,-55.5555555555556,3,1,16,80,0,0
191809,-100,3,1,16,80,0,0
191886,-100,3,1,16,80,0,0
191963,-100,3,1,16,80,0,0
192040,-100,3,1,16,80,0,0
192117,-100,3,1,16,80,0,0
192193,-100,3,1,16,80,0,0
192299,-100,3,1,16,80,0,0
192415,-100,3,1,16,80,0,0
192501,659.340659340659,3,1,16,80,1,0
192501,-100,3,1,16,80,0,0
194479,-100,3,1,38,80,0,0
196457,659.340659340659,3,1,16,50,1,0
196457,-50,3,1,16,50,0,0
197116,594.059405940594,3,1,17,50,1,0
197116,-50,3,1,17,50,0,0
198898,540.540540540541,3,1,17,50,1,0
198898,-50,3,1,17,50,0,0
203357,-50,3,1,17,50,0,0
203492,-50,3,1,17,50,0,0
203762,481.927710843374,3,1,17,60,1,0
203762,-50,3,1,17,60,0,0
205930,-50,3,1,17,60,0,0
206653,465.116279069767,3,1,17,60,1,0
206653,-50,3,1,17,60,0,0
209443,456.273764258555,3,1,1,60,1,0
209443,-50,3,1,1,60,0,0
209899,-50,3,1,17,60,0,0
210127,-50,3,1,32,60,0,0
210811,-50,3,1,1,60,0,0
211268,-50,3,1,17,60,0,0
211496,-50,3,1,32,60,0,0
212180,441.176470588235,3,1,1,70,1,0
212180,-50,3,1,1,70,0,0
212621,-50,3,1,17,70,0,0
212841,-50,3,1,32,70,0,0
213062,-50,3,1,17,70,0,0
213282,-50,3,1,32,70,0,0
213503,-50,3,1,1,70,0,0
213944,-50,3,1,17,70,0,0
214165,-50,3,1,32,70,0,0
214385,-50,3,1,17,70,0,0
214605,-50,3,1,10,70,0,0
214827,430.10752688172,3,1,1,75,1,0
214827,-50,3,1,1,75,0,0
215257,-50,3,1,10,75,0,0
215687,-50,3,1,1,75,0,0
215902,-50,3,1,10,75,0,0
216117,-50,3,1,1,75,0,0
216547,-50,3,1,10,75,0,0
216977,-50,3,1,1,75,0,0
217192,-50,3,1,10,75,0,0
217407,422.535211267606,3,1,1,75,1,0
217407,-50,3,1,1,75,0,0
217829,-50,3,1,10,75,0,0
218252,-50,3,1,1,75,0,0
218463,-50,3,1,10,75,0,0
218674,461.538461538462,3,1,1,80,1,1
218674,-50,3,1,1,80,0,0
219135,500,3,1,1,82,1,0
219135,-50,3,1,1,82,0,0
219385,545.454545454546,3,1,1,84,1,1
219385,-50,3,1,1,84,0,0
219657,600,3,1,1,86,1,1
219657,-50,3,1,1,86,0,0
219957,666.666666666667,3,1,1,88,1,1
219957,-50,3,1,1,88,0,0
220290,225.563909774436,3,1,10,90,1,1
220290,-90.9090909090909,3,1,10,90,0,1
220515,-90.9090909090909,3,1,10,90,0,1
220628,-90.9090909090909,3,1,10,90,0,1
220966,226.415094339623,3,1,10,90,1,1
220966,-90.9090909090909,3,1,10,90,0,1
221645,227.272727272727,3,1,10,90,1,1
221645,-90.9090909090909,3,1,10,90,0,1
221872,-90.9090909090909,3,1,10,90,0,1
221985,-90.9090909090909,3,1,10,90,0,1
222326,228.136882129278,3,1,10,90,1,1
222326,-90.9090909090909,3,1,10,90,0,1
223010,229.007633587786,3,1,10,90,1,1
223010,-90.9090909090909,3,1,10,90,0,1
223697,229.885057471264,3,1,10,90,1,1
223697,-90.9090909090909,3,1,10,90,0,1
224386,230.769230769231,3,1,10,90,1,1
224386,-90.9090909090909,3,1,10,90,0,1
224616,235.294117647059,3,1,10,90,1,1
224616,-90.9090909090909,3,1,10,90,0,1
224851,240,3,1,10,90,1,1
224851,-90.9090909090909,3,1,10,90,0,1
225091,244.897959183673,3,1,11,90,1,1
225091,-90.9090909090909,3,1,11,90,0,1
225213,-90.9090909090909,3,1,10,90,0,1
225335,250,3,1,10,90,1,1
225335,-90.9090909090909,3,1,10,90,0,1
225585,255.31914893617,3,1,10,90,1,1
225585,-90.9090909090909,3,1,10,90,0,1
225840,234.375,3,1,10,90,1,1
225840,-90.9090909090909,3,1,10,90,0,1
226074,-90.9090909090909,3,1,10,90,0,1
226191,-90.9090909090909,3,1,10,90,0,1
226543,236.220472440945,3,1,10,90,1,1
226543,-90.9090909090909,3,1,10,90,0,1
227251,238.095238095238,3,1,10,90,1,1
227251,-90.9090909090909,3,1,10,90,0,1
227965,240,3,1,10,90,1,1
227965,-90.9090909090909,3,1,10,90,0,1
228445,-90.9090909090909,3,1,11,90,0,1
228685,243.90243902439,3,1,10,90,1,1
228685,-90.9090909090909,3,1,10,90,0,1
229172,-90.9090909090909,3,1,40,90,0,1
229416,258.620689655172,3,1,12,90,1,1
229416,-90.9090909090909,3,1,12,90,0,1
229674,-90.9090909090909,3,1,10,90,0,1
229932,-90.9090909090909,3,1,40,90,0,1
230191,306.122448979592,3,1,10,90,1,1
230191,-83.3333333333333,3,1,10,90,0,1
231109,384.615384615385,3,1,10,90,1,1
231109,-55.5555555555556,3,1,10,90,0,1
231493,410.958904109589,3,1,10,90,1,1
231493,-52.6315789473684,3,1,10,90,0,1
231903,487.80487804878,3,1,1,90,1,1
231903,-50,3,1,1,90,0,1
232390,288.461538461538,4,1,10,80,1,0
232390,-90.9090909090909,4,1,10,80,0,0
232486,-90.9090909090909,4,1,40,80,0,0
232774,-90.9090909090909,4,1,10,80,0,0
233062,-90.9090909090909,4,1,40,80,0,0
233351,-90.9090909090909,4,1,10,80,0,0
233639,-90.9090909090909,4,1,40,80,0,0
233928,-90.9090909090909,4,1,10,80,0,0
234216,-90.9090909090909,4,1,40,80,0,0
234505,-90.9090909090909,4,1,10,80,0,0
234697,-90.9090909090909,4,1,1,80,0,0
237005,-90.9090909090909,4,1,10,80,0,0
237063,-90.9090909090909,4,1,10,80,0,0
237236,-90.9090909090909,4,1,40,80,0,0
237293,-90.9090909090909,4,1,10,80,0,0
237351,-90.9090909090909,4,1,10,80,0,0
237524,-90.9090909090909,4,1,40,80,0,0
237582,-90.9090909090909,4,1,10,80,0,0
237640,-90.9090909090909,4,1,10,80,0,0
237813,-90.9090909090909,4,1,40,80,0,0
237870,-90.9090909090909,4,1,10,80,0,0
237928,-90.9090909090909,4,1,10,80,0,0
238101,-90.9090909090909,4,1,40,80,0,0
238159,-90.9090909090909,4,1,10,80,0,0
238216,-90.9090909090909,4,1,10,80,0,0
238390,-90.9090909090909,4,1,40,80,0,0
238447,-90.9090909090909,4,1,10,80,0,0
238505,-90.9090909090909,4,1,10,80,0,0
238678,-90.9090909090909,4,1,40,80,0,0
238736,-90.9090909090909,4,1,10,80,0,0
238793,-90.9090909090909,4,1,10,80,0,0
238966,-90.9090909090909,4,1,40,80,0,0
239024,-90.9090909090909,4,1,10,80,0,0
239082,-90.9090909090909,4,1,10,80,0,0
239255,-90.9090909090909,4,1,40,80,0,0
239313,-90.9090909090909,4,1,1,80,0,0
239601,-83.3333333333333,4,1,10,80,0,0
240755,-83.3333333333333,4,1,1,80,0,0

[Colours]
Combo1 : 10,192,37
Combo2 : 0,221,221

[HitObjects]
139,270,625,6,0,P|88:221|145:180,1,160,12|0,0:0|2:1,2:2:0:0:
325,169,1044,2,0,L|409:166,1,80,0|0,3:1|3:0,0:0:0:0:
202,92,1254,2,0,P|116:84|51:32,2,160,0|0|0,3:0|2:1|3:0,2:2:0:0:
405,107,1883,6,0,P|484:227|380:327,1,313.599997128906,8|8,2:1|2:1,2:2:0:0:
169,338,2513,1,8,0:3:0:0:
375,328,2722,1,0,3:1:0:0:
150,335,2932,1,0,3:1:0:0:
433,211,3142,6,0,L|264:209,2,160,14|0|0,0:0|2:1|3:1,2:2:0:0:
329,211,3666,1,0,3:0:0:0:
123,169,3771,1,2,3:1:0:0:
298,156,3981,1,0,3:0:0:0:
473,143,4191,1,0,3:0:0:0:
129,113,4401,6,0,P|33:215|139:307,1,313.599997128906,14|8,0:0|3:1,0:0:0:0:
445,290,5030,6,0,P|302:219|142:215,1,323.199993588867,14|0,0:0|3:0,3:3:0:0:
256,192,5659,12,0,6708,0:0:0:0:
131,274,6918,6,0,P|179:158|304:150,1,264.000008056641,6|2,0:0|0:0,2:2:0:0:
73,213,7338,2,0,P|45:131|66:47,1,176.000005371094,10|2,0:3|0:0,2:2:0:0:
369,63,7758,2,0,L|463:52,1,88.000002685547,10|0,0:3|3:0,2:2:0:0:
255,201,7967,2,0,L|150:177,1,88.000002685547,8|0,3:0|0:0,0:0:0:0:
374,186,8177,6,0,P|464:257|375:331,1,264.000008056641,6|2,0:0|0:0,2:2:0:0:
126,324,8597,2,0,P|202:283|289:284,1,176.000005371094,10|2,0:3|0:0,2:2:0:0:
405,290,8912,1,2,0:0:0:0:
169,253,9016,2,0,L|150:154,1,88.000002685547,10|2,0:3|3:1,2:2:0:0:
340,176,9226,1,8,3:0:0:0:
388,165,9279,1,0,0:0:0:0:
378,118,9331,1,2,3:1:0:0:
330,108,9384,1,0,0:0:0:0:
125,123,9436,6,0,L|113:223,1,88.000002685547,6|0,0:0|3:0,2:2:0:0:
284,214,9646,2,0,L|300:320,1,88.000002685547,6|0,0:0|0:0,2:2:0:0:
59,314,9856,1,8,3:2:0:0:
352,277,10065,6,0,L|445:262,1,88.000002685547,6|2,0:0|2:1,2:2:0:0:
261,175,10275,2,0,L|142:158,1,88.000002685547,6|0,0:0|0:0,2:2:0:0:
374,140,10485,1,8,3:2:0:0:
416,140,10537,1,0,3:0:0:0:
445,172,10589,1,0,3:0:0:0:
443,214,10642,1,0,3:0:0:0:
212,252,10695,6,0,L|20:252,2,176.000005371094,2|8|8,0:2|0:3|0:3,2:2:0:0:
428,145,11324,2,0,L|239:144,2,176.000005371094,2|2|8,0:2|0:0|0:3,2:2:0:0:
424,87,11796,1,0,0:0:0:0:
381,47,11849,1,8,3:0:0:0:
325,36,11901,1,0,0:0:0:0:
124,85,11953,6,0,P|50:173|152:226,1,264.000008056641,6|2,0:0|0:1,2:2:0:0:
413,213,12373,2,0,L|237:194,2,176.000005371094,8|2|10,0:3|0:0|0:3,2:2:0:0:
318,224,12898,1,0,3:1:0:0:
123,173,13002,2,0,L|29:174,1,88.000002685547,8|0,0:3|3:1,0:0:0:0:
279,130,13212,6,0,P|360:146|378:227,1,176.000005371094,2|2,0:1|0:1,2:2:0:0:
272,239,13527,1,2,0:0:0:0:
90,249,13632,2,0,P|176:232|263:230,1,176.000005371094,10|2,0:3|0:2,2:2:0:0:
360,235,13946,1,2,0:0:0:0:
180,185,14051,2,0,L|165:89,1,88.000002685547,8|2,0:3|3:2,0:0:0:0:
344,86,14261,2,0,L|391:76,1,44.0000013427735,8|0,0:3|0:0,0:0:0:0:
244,59,14366,2,0,L|200:50,1,44.0000013427735,2|0,3:1|0:0,0:0:0:0:
378,148,14471,6,0,P|439:191|378:235,1,176.000005371094,6|8,0:1|0:3,2:2:0:0:
202,245,14891,2,0,L|88:234,1,88.000002685547,10|0,0:3|3:2,2:2:0:0:
334,212,15100,2,0,L|341:102,1,88.000002685547,6|0,0:0|0:0,2:2:0:0:
223,125,15310,2,0,L|207:18,1,88.000002685547,8|0,0:3|0:0,0:0:0:0:
325,30,15520,2,0,L|439:35,1,88.000002685547,2|0,0:0|0:0,0:0:0:0:
108,281,15730,6,0,L|286:258,2,176.000005371094,14|2|14,2:3|0:0|2:3,2:2:0:0:
382,340,16359,6,0,L|427:339,1,44.0000013427735,4|0,0:1|2:0,2:2:0:0:
265,265,16464,2,0,L|214:256,1,44.0000013427735,4|0,0:1|2:0,2:2:0:0:
81,231,16569,2,0,L|83:182,1,44.0000013427735,4|0,2:1|2:0,2:2:0:0:
232,158,16674,2,0,L|288:143,1,44.0000013427735,4|0,0:1|2:0,2:2:0:0:
118,116,16779,1,4,0:1:0:0:
72,102,16831,1,0,2:0:0:0:
89,56,16884,1,4,0:1:0:0:
136,49,16936,1,0,2:0:0:0:
324,87,16988,6,0,L|346:86,1,20,14|0,0:0|0:0,0:0:0:0:
430,83,17093,2,0,L|433:118,1,20,8|0,2:1|2:1,2:2:0:0:
343,86,17198,2,0,L|316:89,1,20,8|0,2:1|2:1,2:2:0:0:
125,95,17303,2,0,P|69:137|122:182,1,160,8|0,0:3|2:1,2:2:0:0:
346,97,17618,6,0,L|431:96,1,80,2|0,0:1|2:1,2:2:0:0:
238,189,17828,2,0,L|234:276,1,80,8|0,0:3|2:1,2:2:0:0:
39,362,18037,2,0,L|129:363,1,80,8|0,0:3|3:0,2:2:0:0:
324,346,18247,6,0,P|376:299|322:255,1,160,14|4,2:2|2:3,2:2:0:0:
293,256,18483,1,0,3:0:0:0:
111,239,18562,2,0,L|90:233,1,20,12|0,0:3|2:1,2:2:0:0:
176,210,18667,2,0,L|196:209,1,20,4|0,3:0|2:1,2:2:0:0:
111,176,18772,2,0,L|77:169,1,20,4|0,3:0|2:1,2:2:0:0:
376,71,18877,6,0,L|389:160,1,80,2|0,0:0|0:0,0:0:0:0:
214,208,19086,2,0,L|206:298,1,80,10|0,0:0|0:0,0:0:0:0:
29,318,19296,1,12,0:0:0:0:
29,279,19348,1,0,3:1:0:0:
54,249,19400,1,0,3:1:0:0:
92,240,19453,1,0,3:1:0:0:
335,215,19506,5,6,0:0:0:0:
176,141,19716,2,0,L|96:135,2,53.3333333333333,8|4|2,0:0|0:0|0:0,2:2:0:0:
333,100,19925,2,0,L|401:93,2,53.3333333333333,2|8|4,0:0|0:2|0:2,2:2:0:0:
154,201,20135,6,0,L|148:299,1,80,6|2,0:2|3:1,2:2:0:0:
261,293,20345,2,0,L|271:194,1,80,6|0,0:3|2:1,2:2:0:0:
156,201,20555,2,0,L|143:307,1,80,6|0,0:0|2:1,2:2:0:0:
352,264,20765,6,0,L|438:254,1,80,12|0,0:0|0:0,0:0:0:0:
328,195,20974,2,0,L|232:192,1,80,12|0,0:3|0:0,0:0:0:0:
346,195,21184,2,0,L|453:182,1,80,12|0,0:2|0:0,0:0:0:0:
207,269,21394,6,0,L|122:266,1,80,10|10,0:0|0:0,2:2:0:0:
350,177,21604,2,0,P|426:166|444:79,1,160,8|10,3:2|0:3,2:2:0:0:
165,85,22023,5,14,0:0:0:0:
268,90,22128,2,0,L|269:120,1,20,8|0,2:1|2:1,2:2:0:0:
188,118,22233,2,0,L|155:117,1,20,8|0,2:1|2:1,2:2:0:0:
310,316,22338,2,0,P|389:316|466:295,1,160,8|0,0:3|2:1,2:2:0:0:
170,302,22653,6,0,L|155:212,1,80,2|0,0:1|2:1,2:2:0:0:
378,206,22863,2,0,L|386:119,1,80,8|0,0:3|2:1,2:2:0:0:
168,127,23072,2,0,L|154:35,1,80,8|0,0:3|3:0,2:2:0:0:
386,113,23282,6,0,L|408:106,1,20,14|0,2:2|0:0,2:2:0:0:
321,99,23387,2,0,L|289:96,1,20,4|0,2:3|2:0,0:0:0:0:
388,136,23492,2,0,L|420:132,1,20,4|0,2:3|3:0,0:0:0:0:
194,238,23597,6,0,L|172:238,1,20,12|0,0:3|2:1,2:2:0:0:
89,228,23702,2,0,L|60:224,1,20,4|0,3:0|2:1,2:2:0:0:
154,199,23807,2,0,L|180:200,1,20,4|0,3:0|2:1,2:2:0:0:
405,197,23912,5,2,0:0:0:0:
230,194,24121,1,10,0:0:0:0:
399,152,24226,2,0,L|390:59,1,80,0|12,0:0|0:0,0:0:0:0:
98,81,24541,1,6,0:0:0:0:
290,74,24751,6,0,L|362:74,2,53.3333333333333,8|4|2,0:0|0:0|0:0,2:2:0:0:
104,113,24960,2,0,L|102:178,1,53.3333333333333,2|8,0:0|0:2,2:2:0:0:
178,165,25100,1,4,0:2:0:0:
371,176,25170,6,0,L|383:264,1,80,6|2,0:2|3:1,2:2:0:0:
277,271,25380,2,0,L|161:274,1,80,6|0,0:3|2:1,2:2:0:0:
308,342,25590,2,0,L|404:337,1,80,6|0,0:0|2:1,2:2:0:0:
158,330,25800,6,0,L|159:224,1,80,12|0,0:0|0:0,0:0:0:0:
270,239,26009,2,0,L|271:133,1,80,12|0,0:3|0:0,0:0:0:0:
157,157,26219,2,0,L|77:156,1,80,12|0,0:2|0:0,0:0:0:0:
310,320,26429,5,6,0:2:0:0:
128,308,26534,2,0,L|132:228,1,80,2|8,0:1|0:3,2:2:0:0:
309,223,26744,1,6,0:1:0:0:
129,179,26849,2,0,L|36:182,1,80,2|8,0:0|0:3,0:0:0:0:
289,174,27058,6,0,L|448:157,2,160,6|0|2,2:1|0:0|3:0,2:2:0:0:
97,195,27688,5,8,2:1:0:0:
257,189,27898,1,0,0:0:0:0:
416,185,28107,1,2,3:0:0:0:
194,127,28317,6,0,P|148:185|193:244,1,160,2|0,2:1|0:0,2:2:0:0:
276,236,28632,1,0,0:0:0:0:
171,232,28737,2,0,L|172:120,1,80,2|2,3:1|3:0,0:0:0:0:
353,139,28946,5,8,2:1:0:0:
206,130,29156,2,0,L|205:230,1,80,0|0,0:0|0:0,0:0:0:0:
310,215,29366,1,8,3:0:0:0:
144,312,29576,6,0,P|15:147|201:48,1,480,4|0,2:1|0:0,0:0:0:0:
392,130,30415,2,0,L|212:113,2,160,0|0|2,0:0|0:0|2:1,2:2:0:0:
288,121,30939,1,2,2:0:0:0:
176,112,31044,2,0,L|169:209,1,80,8|8,2:3|2:3,2:2:0:0:
282,201,31254,2,0,L|380:198,1,80,10|8,2:1|2:1,2:2:0:0:
132,304,31464,6,0,L|63:314,2,53.3333333333333,8|2|2,3:1|2:0|2:0,2:2:0:0:
321,291,31674,1,0,3:0:0:0:
373,265,31744,1,2,2:0:0:0:
401,213,31814,1,8,2:3:0:0:
210,182,31884,1,8,2:0:0:0:
158,156,31954,1,2,2:0:0:0:
130,104,32024,1,2,2:0:0:0:
318,268,32093,6,0,L|499:253,2,160,6|0|0,0:1|0:0|3:1,2:2:0:0:
116,274,32722,2,0,L|110:186,1,80,12|0,0:3|2:1,2:2:0:0:
223,187,32932,2,0,L|307:176,1,80,0|0,3:1|2:1,2:2:0:0:
106,143,33142,2,0,L|107:62,1,80,0|0,3:1|3:1,2:2:0:0:
318,92,33352,6,0,P|391:109|408:183,1,160,2|4,0:1|2:3,2:2:0:0:
192,230,33667,2,0,L|87:234,1,80,2|0,0:1|3:1,2:2:0:0:
402,317,33981,2,0,P|471:290|467:215,1,160,12|0,0:3|3:1,2:2:0:0:
361,174,34296,1,0,3:1:0:0:
185,116,34401,2,0,P|133:140|119:197,1,120,8|0,2:3|0:0,0:0:0:0:
328,226,34611,6,0,P|420:296|314:343,1,280,2|0,0:1|0:0,2:2:0:0:
185,324,35030,2,0,L|141:315,1,40,2|8,3:2|2:1,2:2:0:0:
278,302,35135,2,0,L|322:286,1,40,2|8,3:2|2:1,2:2:0:0:
143,239,35240,6,0,L|140:154,1,80,2|0,0:1|2:1,2:2:0:0:
254,159,35450,2,0,L|351:160,1,80,4|0,3:2|3:1,0:0:0:0:
152,68,35660,2,0,L|110:59,1,40,2|8,3:2|2:1,2:2:0:0:
252,50,35765,2,0,L|299:38,1,40,2|8,3:2|2:1,2:2:0:0:
121,194,35870,6,0,L|109:288,1,80,6|0,0:1|3:1,2:2:0:0:
287,234,36079,2,0,L|293:340,1,80,10|0,0:1|0:0,2:2:0:0:
113,328,36289,2,0,L|193:324,1,80,8|0,2:1|2:1,0:0:0:0:
387,309,36499,5,10,0:3:0:0:
208,245,36709,2,0,L|144:249,2,40,10|0|0,2:2|0:0|0:0,0:0:0:0:
396,195,36919,2,0,L|435:196,2,40,14|0|0,3:2|0:0|0:0,0:0:0:0:
159,202,37128,6,0,P|109:151|158:98,1,160,6|0,0:1|3:1,0:0:0:0:
339,98,37443,2,0,L|428:93,2,80,0|8|0,0:0|0:3|3:1,2:2:0:0:
143,82,37758,6,0,L|132:193,1,80,2|0,0:3|2:1,2:2:0:0:
321,205,37967,2,0,L|334:300,1,80,8|0,0:3|2:1,2:2:0:0:
152,304,38177,2,0,L|72:301,1,80,8|0,0:3|3:1,2:2:0:0:
314,193,38387,6,0,P|360:139|307:90,1,160,2|0,0:1|3:1,2:2:0:0:
111,105,38702,2,0,L|11:115,2,80,2|8|0,0:1|0:3|0:0,2:2:0:0:
314,88,39016,6,0,L|210:73,1,80,2|2,0:3|2:1,0:0:0:0:
417,200,39226,2,0,L|424:292,1,80,8|2,0:3|2:1,2:2:0:0:
228,314,39436,2,0,L|128:307,1,80,8|2,0:3|2:1,0:0:0:0:
152,247,39593,1,0,0:0:0:0:
314,148,39646,6,0,L|490:134,1,160,6|0,0:1|3:1,2:2:0:0:
174,96,39960,2,0,L|90:101,1,80,2|8,0:1|0:3,2:2:0:0:
90,199,40170,1,0,3:1:0:0:
304,249,40275,6,0,L|375:258,2,53.3333333333333,2|0|0,0:3|3:1|3:1,2:2:0:0:
145,233,40485,2,0,L|148:161,1,53.3333333333333,8|0,0:3|3:1,2:2:0:0:
217,182,40625,1,0,3:1:0:0:
357,179,40695,1,8,0:3:0:0:
415,175,40765,2,0,L|412:116,1,53.3333333333333,0|0,3:1|3:1,0:0:0:0:
203,84,40905,6,0,P|127:99|115:185,1,160,2|4,0:1|2:3,2:2:0:0:
212,175,41219,1,2,0:1:0:0:
387,193,41324,2,0,L|396:286,1,80,12|4,0:3|3:0,2:2:0:0:
198,300,41534,6,0,L|277:294,1,80,2|2,0:3|2:1,0:0:0:0:
102,242,41744,2,0,P|70:198|108:158,1,120,8|0,0:3|0:0,2:2:0:0:
275,149,41953,2,0,L|426:147,1,120,12|0,0:3|0:0,2:2:0:0:
183,198,42163,6,0,L|75:195,1,80,6|8,0:1|2:1,2:2:0:0:
211,145,42373,2,0,L|293:146,1,80,4|10,3:0|0:0,2:2:0:0:
89,313,42583,2,0,L|88:225,1,80,8|4,0:3|3:0,2:2:0:0:
292,214,42793,6,0,L|392:210,1,80,2|0,0:1|0:0,2:2:0:0:
262,185,43002,2,0,L|250:105,1,80,8|8,0:3|3:1,0:0:0:0:
363,113,43212,2,0,L|369:33,1,80,0|8,3:1|3:1,2:2:0:0:
152,58,43422,6,0,P|75:106|138:171,1,207.999990478516,6|0,0:1|3:1,2:2:0:0:
354,192,43737,2,0,P|285:117|183:109,1,207.999990478516,6|0,0:1|3:1,2:2:0:0:
369,97,44051,2,0,L|373:194,1,88.000002685547,2|10,0:1|3:1,2:2:0:0:
178,216,44261,2,0,L|73:216,1,80,10|10,0:2|3:1,0:0:0:0:
274,105,44471,2,0,L|187:105,1,80,10|8,0:2|0:3,0:0:0:0:
428,283,44680,6,0,L|26:290,2,384,6|8|2,3:2|3:2|3:3,0:0:0:0:
145,215,46710,2,0,L|305:210,2,160,8|2|4,3:3|3:3|3:3,3:3:0:0:
476,157,47386,6,0,P|404:125|324:129,1,160,6|0,0:1|3:1,2:2:0:0:
212,138,47700,1,8,0:3:0:0:
323,129,47805,2,0,L|326:211,1,80,0|0,2:1|3:1,2:2:0:0:
157,226,48015,6,0,L|150:309,1,80,6|0,0:1|2:1,2:2:0:0:
323,317,48225,2,0,L|239:314,1,80,2|2,3:0|3:0,2:2:0:0:
420,301,48434,2,8,L|424:217,1,80,8|8,3:0|3:0,2:2:0:0:
160,119,48644,6,0,P|105:160|161:200,1,160,10|8,0:1|0:3,2:2:0:0:
274,188,48959,1,0,3:1:0:0:
161,192,49064,2,0,L|85:196,2,53.3333333333333,8|0|0,0:3|3:1|3:1,2:2:0:0:
352,167,49274,6,0,L|447:162,1,80,6|0,0:1|2:1,2:2:0:0:
266,315,49483,2,0,L|347:313,1,80,8|8,0:3|0:3,2:2:0:0:
240,255,49693,2,0,L|146:255,1,80,2|8,3:0|3:0,2:2:0:0:
335,144,49903,6,0,L|255:146,1,80,10|2,0:1|2:1,0:0:0:0:
83,153,50113,2,0,L|83:65,1,80,8|0,0:3|0:0,2:2:0:0:
258,67,50323,2,0,L|178:62,1,80,8|0,0:3|3:1,0:0:0:0:
347,308,50532,2,0,L|437:304,1,80,6|2,0:1|2:1,0:0:0:0:
226,284,50742,2,0,L|111:283,1,80,2|0,2:1|0:0,2:2:0:0:
148,221,50899,1,0,0:0:0:0:
311,204,50952,2,0,L|409:204,1,80,8|2,3:0|3:0,0:0:0:0:
145,161,51162,6,0,L|43:161,1,80,2|8,0:1|2:2,2:2:0:0:
170,96,51372,2,2,L|270:96,1,80,8|8,2:2|2:2,2:2:0:0:
146,35,51581,2,0,L|48:34,1,80,8|8,2:2|2:2,2:2:0:0:
275,339,51791,6,0,L|322:334,1,40,2|2,2:2|2:2,2:2:0:0:
431,315,51896,2,0,L|428:264,1,40,2|2,2:2|2:2,2:2:0:0:
300,258,52001,2,0,L|257:255,1,40,2|2,2:2|2:2,2:2:0:0:
128,231,52106,2,0,L|129:187,1,40,2|2,2:2|2:2,2:2:0:0:
264,174,52211,2,0,L|306:170,1,40,2|2,2:2|2:2,2:2:0:0:
132,125,52316,6,0,L|82:115,1,40,2|2,2:2|2:2,2:2:0:0:
256,192,52525,12,0,53522,0:0:0:0:
338,157,53679,6,0,P|425:231|330:294,1,264.000008056641,6|2,0:0|0:0,2:2:0:0:
104,298,54099,2,0,P|182:261|270:259,1,176.000005371094,10|2,0:3|0:0,0:0:0:0:
375,267,54413,1,0,0:0:0:0:
183,199,54518,2,0,L|162:99,1,88.000002685547,10|0,0:3|3:0,2:2:0:0:
362,114,54728,2,0,L|378:7,1,88.000002685547,8|0,3:0|0:0,0:0:0:0:
178,60,54938,6,0,P|59:96|57:220,1,264.000008056641,6|2,0:0|0:0,2:2:0:0:
254,263,55358,2,0,L|432:253,1,176.000005371094,10|2,0:3|0:0,2:2:0:0:
324,250,55672,1,2,0:0:0:0:
153,238,55777,2,0,L|48:233,1,88.000002685547,10|2,0:3|3:1,2:2:0:0:
298,161,55987,2,0,L|188:158,1,88.000002685547,8|2,3:0|3:1,2:2:0:0:
207,105,56144,1,0,0:0:0:0:
398,107,56197,6,0,L|485:96,1,88.000002685547,6|0,0:0|0:0,2:2:0:0:
276,85,56406,2,0,L|180:73,1,88.000002685547,6|0,0:0|0:0,0:0:0:0:
405,216,56616,1,8,3:2:0:0:
117,205,56826,6,0,L|108:302,1,88.000002685547,6|0,0:0|0:0,2:2:0:0:
282,208,57036,2,0,L|297:314,1,88.000002685547,6|0,0:0|0:0,0:0:0:0:
122,322,57246,2,0,L|62:313,1,44.0000013427735,0|0,3:2|3:0,0:0:0:0:
259,319,57351,2,0,L|315:303,1,44.0000013427735,0|0,3:0|3:0,0:0:0:0:
130,255,57455,6,0,L|113:126,1,88.000002685547,2|0,0:2|3:1,2:2:0:0:
297,147,57665,2,0,L|405:135,1,88.000002685547,8|0,0:3|3:1,2:2:0:0:
165,79,57875,2,0,L|251:63,1,88.000002685547,8|0,0:3|3:1,0:0:0:0:
434,113,58085,6,0,L|446:205,1,88.000002685547,2|8,0:2|3:3,2:2:0:0:
264,214,58295,2,0,L|258:317,1,88.000002685547,2|8,0:0|3:0,2:2:0:0:
441,329,58504,2,0,L|381:329,1,44.0000013427735,8|0,0:3|0:0,0:0:0:0:
249,334,58609,2,0,L|184:330,1,44.0000013427735,8|0,3:0|0:0,0:0:0:0:
384,276,58714,6,0,P|473:203|385:128,1,264.000008056641,6|2,0:0|0:1,2:2:0:0:
178,153,59134,2,0,L|174:252,1,88.000002685547,8|0,0:3|2:1,2:2:0:0:
301,84,59344,2,0,L|213:73,1,88.000002685547,2|0,0:0|3:1,2:2:0:0:
393,290,59553,6,0,L|493:276,1,88.000002685547,10|0,0:3|3:1,2:2:0:0:
288,212,59763,2,0,L|380:199,1,88.000002685547,8|0,0:3|3:1,0:0:0:0:
175,168,59973,2,0,P|95:193|79:276,1,176.000005371094,2|2,0:1|0:1,2:2:0:0:
194,277,60288,1,2,0:0:0:0:
386,273,60392,6,0,P|446:224|389:172,1,176.000005371094,10|2,0:3|0:2,2:2:0:0:
274,180,60707,1,2,0:0:0:0:
97,183,60812,2,0,L|82:74,1,88.000002685547,8|6,0:3|3:2,0:0:0:0:
266,92,61022,1,8,0:3:0:0:
319,72,61074,1,0,0:0:0:0:
293,20,61127,1,2,3:1:0:0:
237,10,61179,1,0,0:0:0:0:
81,307,61232,6,0,P|166:285|253:273,1,176.000005371094,6|8,0:1|0:3,2:2:0:0:
433,253,61651,2,0,L|440:155,1,88.000002685547,10|0,0:3|3:2,2:2:0:0:
251,156,61861,2,0,L|145:147,1,88.000002685547,6|0,0:0|0:0,2:2:0:0:
356,101,62071,2,0,L|252:94,1,88.000002685547,8|0,0:3|0:0,0:0:0:0:
90,101,62281,6,0,L|20:106,2,58.6666684570313,2|0|0,0:0|0:0|0:0,0:0:0:0:
295,81,62490,2,0,L|361:68,1,58.6666684570313,2|0,0:1|3:1,2:2:0:0:
213,254,62630,2,0,L|147:260,1,58.6666684570313,0|2,3:1|0:1,2:2:0:0:
330,214,62770,2,0,L|396:209,1,58.6666684570313,0|0,3:1|3:1,2:2:0:0:
207,170,62910,6,0,L|92:166,1,88.000002685547,2|0,0:1|3:0,0:0:0:0:
163,129,63067,1,0,3:0:0:0:
315,107,63120,2,2,L|405:100,1,88.000002685547,2|2,0:1|0:1,0:0:0:0:
169,216,63330,2,0,L|76:212,1,88.000002685547,2|4,2:1|2:1,2:2:0:0:
264,349,63539,1,2,3:1:0:0:
317,316,63592,1,2,3:1:0:0:
264,349,63644,1,2,3:1:0:0:
202,342,63697,1,4,3:1:0:0:
357,251,63749,6,0,P|447:182|353:119,1,264.000008056641,6|0,0:0|3:0,2:2:0:0:
123,138,64169,2,0,L|311:121,2,176.000005371094,2|6|2,3:0|0:0|0:3,2:2:0:0:
415,235,64798,1,0,3:0:0:0:
119,344,65008,6,0,P|248:234|417:261,1,352.000010742188,6|2,0:0|2:3,2:2:0:0:
187,195,65637,2,0,L|179:102,1,88.000002685547,6|2,0:0|0:0,2:2:0:0:
363,90,65847,2,0,L|260:81,1,88.000002685547,10|2,0:3|3:1,2:2:0:0:
459,152,66057,2,0,L|474:244,1,88.000002685547,8|2,3:0|3:1,2:2:0:0:
242,273,66267,6,0,L|153:265,1,88.000002685547,6|0,0:0|3:0,0:0:0:0:
343,203,66476,2,0,L|437:189,1,88.000002685547,6|0,0:0|0:0,2:2:0:0:
164,153,66686,1,8,3:2:0:0:
471,93,66896,6,0,L|368:82,1,88.000002685547,6|2,0:0|2:1,0:0:0:0:
196,71,67106,2,0,L|97:58,1,88.000002685547,6|0,0:0|0:0,2:2:0:0:
294,179,67316,2,0,L|357:171,1,44.0000013427735,8|0,3:2|3:0,0:0:0:0:
196,247,67420,2,0,L|142:239,1,44.0000013427735,0|0,3:0|3:0,0:0:0:0:
370,251,67525,6,0,L|390:345,1,88.000002685547,2|0,0:2|3:1,2:2:0:0:
207,272,67735,2,0,L|198:371,1,88.000002685547,8|0,0:3|3:1,2:2:0:0:
378,243,67945,2,0,L|477:235,1,88.000002685547,8|0,0:3|3:1,0:0:0:0:
185,202,68155,6,0,L|177:101,1,88.000002685547,2|8,0:2|3:3,2:2:0:0:
368,101,68365,2,0,L|249:85,1,88.000002685547,2|8,0:0|3:0,2:2:0:0:
113,161,68575,1,8,0:3:0:0:
66,149,68627,1,0,0:0:0:0:
78,101,68680,1,8,3:0:0:0:
123,86,68732,1,0,0:0:0:0:
328,135,68784,6,0,P|388:185|332:240,1,176.000005371094,6|0,0:0|3:1,2:2:0:0:
216,243,69099,1,2,0:1:0:0:
330,243,69204,2,0,L|348:335,1,88.000002685547,8|0,0:3|2:1,2:2:0:0:
155,342,69413,6,0,L|92:349,2,58.6666684570313,2|0|0,0:1|3:1|3:1,2:2:0:0:
314,308,69623,1,8,0:3:0:0:
255,302,69693,1,0,3:1:0:0:
196,300,69763,1,0,3:1:0:0:
346,223,69833,2,0,L|412:223,2,58.6666684570313,8|0|0,0:3|3:1|3:1,2:2:0:0:
153,226,70043,6,0,P|96:173|157:125,1,176.000005371094,2|0,0:1|3:1,2:2:0:0:
273,130,70358,1,2,0:1:0:0:
466,133,70462,1,8,0:3:0:0:
148,321,70672,6,0,L|54:319,1,88.000002685547,2|2,0:1|0:1,2:2:0:0:
260,287,70882,2,0,L|264:192,1,88.000002685547,8|2,0:3|0:1,0:0:0:0:
83,211,71092,2,0,L|76:113,1,88.000002685547,8|8,3:3|3:3,2:2:0:0:
279,96,71302,6,0,P|363:102|410:173,1,176.000005371094,14|8,0:1|0:3,2:2:0:0:
229,235,71721,2,0,L|141:239,1,88.000002685547,10|0,0:3|3:2,2:2:0:0:
343,338,71931,5,6,0:0:0:0:
392,320,71983,1,0,3:0:0:0:
370,271,72036,1,0,3:0:0:0:
318,259,72088,1,0,3:0:0:0:
161,262,72141,1,8,0:3:0:0:
109,250,72193,1,0,3:0:0:0:
128,200,72246,1,0,3:0:0:0:
177,182,72298,1,0,3:0:0:0:
323,169,72351,2,0,L|384:160,1,44.0000013427735,2|0,0:0|3:0,0:0:0:0:
199,130,72455,2,0,L|147:123,1,44.0000013427735,8|0,3:0|3:0,0:0:0:0:
342,55,72560,6,0,P|481:196|343:338,1,440.000013427735,12|0,0:3|3:0,2:2:0:0:
75,336,73190,2,0,P|184:289|348:294,1,264.000008056641,12|0,0:3|2:1,2:2:0:0:
131,237,73609,2,0,L|115:127,1,88.000002685547,2|8,3:1|2:3,2:2:0:0:
342,120,73819,6,0,L|357:218,1,80,6|0,0:1|2:1,2:2:0:0:
241,211,74029,2,0,L|231:299,1,80,12|0,3:3|2:1,2:2:0:0:
344,300,74239,2,0,L|250:292,1,80,8|0,0:3|2:2,2:2:0:0:
64,188,74448,2,0,L|243:181,1,160,2|8,0:1|0:3,2:2:0:0:
328,175,74763,1,0,3:1:0:0:
216,183,74868,2,0,L|203:275,1,80,8|0,0:3|3:1,2:2:0:0:
398,251,75078,6,0,P|438:309|377:345,1,160,2|8,0:1|3:1,2:2:0:0:
265,339,75392,1,0,3:1:0:0:
441,216,75497,2,0,L|447:126,1,80,8|0,0:3|3:1,2:2:0:0:
333,129,75707,2,0,L|220:130,1,80,2|0,2:3|2:1,2:2:0:0:
68,122,75917,2,0,L|58:223,1,80,2|8,3:0|3:0,2:2:0:0:
174,235,76127,2,0,L|80:234,1,80,8|0,0:3|2:1,2:2:0:0:
300,266,76337,6,0,L|467:263,2,160,6|8|8,0:3|0:3|0:3,2:2:0:0:
188,275,76861,1,0,2:0:0:0:
369,108,76966,2,0,L|286:110,1,80,2|0,0:1|3:1,0:0:0:0:
176,102,77176,2,0,L|163:181,1,80,8|0,0:3|3:1,2:2:0:0:
276,184,77386,2,0,L|289:262,1,80,8|0,0:3|3:0,2:2:0:0:
46,264,77595,6,0,L|206:264,1,160,2|8,0:1|0:1,2:2:0:0:
313,258,77910,1,0,3:1:0:0:
207,251,78015,2,0,L|198:171,1,80,12|0,0:3|2:1,2:2:0:0:
310,162,78225,2,0,L|315:82,1,80,2|2,0:3|3:0,2:2:0:0:
203,84,78434,2,0,L|163:84,2,40,2|0|8,0:3|3:0|3:3,2:2:0:0:
323,71,78644,2,0,L|402:73,1,80,14|0,0:2|3:0,0:0:0:0:
142,113,78854,5,6,0:3:0:0:
318,115,79064,2,0,L|329:201,1,80,4|0,3:3|2:1,2:2:0:0:
215,202,79274,2,0,L|212:308,1,80,8|0,0:3|2:2,0:0:0:0:
413,293,79483,5,2,0:1:0:0:
130,317,79693,2,0,L|113:219,1,80,12|0,0:3|3:1,2:2:0:0:
227,219,79903,2,0,L|321:219,1,80,12|0,0:3|3:1,0:0:0:0:
40,185,80113,5,2,0:1:0:0:
231,174,80323,2,0,L|243:270,1,80,8|0,3:1|0:0,0:0:0:0:
129,269,80532,2,0,L|209:269,1,80,8|0,0:3|3:1,2:2:0:0:
413,252,80742,5,2,2:3:0:0:
252,257,80952,2,0,L|242:157,1,80,6|0,3:0|0:0,0:0:0:0:
357,174,81162,2,0,L|361:94,1,80,12|0,0:3|2:1,2:2:0:0:
170,93,81372,5,6,0:3:0:0:
345,93,81581,2,0,P|386:154|337:210,1,160,12|8,2:2|0:3,2:2:0:0:
163,222,82001,1,2,0:1:0:0:
324,201,82211,2,0,L|414:198,1,80,8|0,0:3|3:1,2:2:0:0:
309,265,82420,2,0,L|216:262,1,80,12|0,0:3|3:1,2:2:0:0:
40,257,82630,5,10,0:1:0:0:
216,261,82840,2,0,L|225:153,1,80,10|0,0:3|0:0,2:2:0:0:
109,188,83050,2,0,L|193:178,1,80,8|0,0:3|0:0,0:0:0:0:
375,146,83260,2,0,L|460:160,2,80,8|2|8,0:3|0:3|0:3,2:2:0:0:
176,110,83574,1,2,3:2:0:0:
87,112,83679,2,0,L|89:206,1,80,0|4,3:2|3:2,0:0:0:0:
448,192,83889,6,0,L|272:192,1,160,10|0,0:1|2:1,2:2:0:0:
103,186,84204,2,0,P|50:232|105:276,1,160,8|4,0:3|2:2,2:2:0:0:
329,221,84518,2,0,L|344:303,1,80,2|0,0:1|2:2,2:2:0:0:
239,310,84728,2,0,L|222:231,1,80,8|0,0:3|2:1,2:2:0:0:
329,221,84938,2,0,L|409:221,1,80,8|4,0:3|2:2,2:2:0:0:
75,212,85148,6,0,L|66:297,1,80,2|0,0:1|2:2,2:2:0:0:
179,301,85358,2,0,L|259:301,1,80,0|8,2:1|0:3,2:2:0:0:
156,256,85567,2,0,L|76:256,1,80,0|4,2:1|2:2,2:2:0:0:
278,241,85777,6,0,P|350:221|357:146,1,160,2|8,0:1|0:3,0:0:0:0:
244,147,86092,2,0,L|205:148,2,40,2|2|4,2:1|2:1|2:1,2:2:0:0:
357,142,86302,1,4,2:2:0:0:
99,158,86406,6,0,L|91:254,1,80,6|0,0:1|0:0,0:0:0:0:
281,317,86616,2,0,L|121:317,1,160,6|4,0:1|2:2,2:2:0:0:
122,203,86931,1,0,0:0:0:0:
330,189,87036,6,0,L|434:187,1,80,6|0,0:1|0:0,0:0:0:0:
236,282,87246,2,0,L|396:282,1,160,6|8,0:1|0:3,2:2:0:0:
392,225,87508,1,0,0:0:0:0:
229,222,87560,2,0,L|180:220,1,40,8|8,0:3|2:3,2:2:0:0:
320,176,87665,6,0,L|479:158,2,160,2|2|8,0:1|0:1|0:3,0:0:0:0:
127,196,88295,2,0,L|33:190,1,80,2|8,0:1|0:3,2:2:0:0:
233,323,88504,2,0,L|153:323,1,80,2|8,0:1|0:3,2:2:0:0:
320,199,88714,2,0,L|224:199,1,80,2|8,0:1|0:3,2:2:0:0:
406,163,88924,6,0,P|453:220|404:276,1,160,10|0,0:1|2:1,2:2:0:0:
178,286,89239,2,0,P|130:232|184:184,1,160,8|4,0:3|2:2,0:0:0:0:
388,170,89553,2,0,L|388:263,1,80,2|0,0:1|2:1,2:2:0:0:
282,252,89763,2,0,L|202:252,1,80,8|4,0:3|2:2,2:2:0:0:
307,251,89973,2,0,L|310:164,1,80,8|0,0:3|2:1,2:2:0:0:
46,213,90183,6,0,L|215:211,1,160,2|0,0:1|2:1,2:2:0:0:
310,207,90497,1,8,0:3:0:0:
206,218,90602,2,0,L|203:301,1,80,2|4,2:1|2:2,2:2:0:0:
385,303,90812,2,0,P|434:250|381:202,1,160,2|8,0:1|0:3,0:0:0:0:
268,212,91127,2,0,L|220:212,2,40,4|4|12,2:2|2:2|2:2,2:2:0:0:
381,202,91337,1,0,3:1:0:0:
145,206,91441,6,0,L|54:206,1,80,6|0,0:1|0:0,0:0:0:0:
256,112,91651,2,0,L|96:112,1,160,6|8,2:1|2:1,2:2:0:0:
96,34,91966,1,0,0:0:0:0:
306,43,92071,6,0,L|402:41,1,80,6|0,2:1|0:0,0:0:0:0:
181,295,92281,2,0,P|128:245|179:194,1,160,6|8,2:1|0:3,2:2:0:0:
236,193,92543,1,0,2:0:0:0:
373,183,92595,2,0,L|437:174,1,40,8|8,0:3|2:3,2:2:0:0:
191,110,92700,6,0,L|93:113,1,80,10|0,0:1|2:1,2:2:0:0:
216,229,92910,2,0,L|307:230,1,80,2|0,0:1|2:1,2:2:0:0:
191,340,93120,2,0,L|101:342,1,80,2|0,0:1|2:1,2:2:0:0:
336,253,93330,6,0,L|397:252,2,53.3333333333333,2|4|2,0:1|2:1|2:1,2:2:0:0:
154,256,93539,2,0,L|100:256,2,53.3333333333333,2|2|4,0:1|2:1|2:1,2:2:0:0:
334,214,93749,2,0,L|378:206,1,40,2|8,2:1|2:1,2:2:0:0:
212,164,93854,2,0,L|165:151,1,40,2|8,2:1|2:1,2:2:0:0:
369,122,93959,6,0,L|377:211,1,80,10|0,0:1|2:1,2:2:0:0:
185,204,94169,2,0,P|143:263|199:309,1,160,2|8,0:1|0:3,2:2:0:0:
311,299,94483,1,0,0:0:0:0:
126,227,94588,6,0,L|17:226,1,80,2|0,0:1|2:1,2:2:0:0:
294,219,94798,2,0,P|344:167|293:116,1,160,2|8,0:1|0:3,2:2:0:0:
179,118,95113,1,0,0:0:0:0:
399,182,95218,6,0,L|404:261,1,80,2|4,0:1|2:1,2:2:0:0:
216,277,95427,2,0,L|298:276,1,80,8|0,0:3|0:1,2:2:0:0:
104,269,95637,2,0,L|96:165,1,80,8|4,0:3|2:3,2:2:0:0:
305,167,95847,2,0,P|356:217|302:264,1,160,2|10,0:1|0:1,2:2:0:0:
205,263,96162,1,0,0:1:0:0:
427,213,96267,2,0,L|344:212,1,80,8|0,0:3|3:1,2:2:0:0:
107,203,96476,6,0,L|267:203,2,160,6|2|8,0:1|0:1|0:3,2:2:0:0:
203,201,97001,1,0,2:1:0:0:
379,95,97106,2,0,L|468:98,1,80,2|0,0:1|3:1,2:2:0:0:
352,153,97316,2,0,L|271:141,1,80,2|4,0:1|0:2,2:2:0:0:
377,208,97525,2,0,L|377:295,1,80,8|0,0:3|2:1,2:2:0:0:
143,302,97735,5,2,0:1:0:0:
238,294,97840,1,0,0:1:0:0:
333,286,97945,1,2,0:1:0:0:
131,223,98050,1,4,0:2:0:0:
226,217,98155,1,8,0:3:0:0:
131,223,98260,1,0,0:1:0:0:
358,184,98365,2,0,L|451:182,1,80,10|4,0:1|0:2,2:2:0:0:
245,126,98574,1,10,0:1:0:0:
437,117,98679,1,0,0:1:0:0:
245,126,98784,2,0,L|165:126,1,80,8|4,0:3|0:2,2:2:0:0:
413,311,98994,6,0,L|253:311,2,160,6|2|8,0:1|0:1|0:3,2:2:0:0:
141,144,99623,2,0,P|73:176|80:251,1,160,2|2,0:1|0:1,2:2:0:0:
127,265,99886,1,0,0:0:0:0:
176,281,99938,1,0,0:0:0:0:
227,286,99990,1,0,0:0:0:0:
401,248,100043,1,8,0:3:0:0:
448,227,100095,1,0,0:0:0:0:
419,183,100148,1,0,0:0:0:0:
368,173,100200,1,0,0:0:0:0:
201,193,100253,6,0,L|114:194,1,80,2|0,0:1|3:1,2:2:0:0:
222,261,100462,2,0,L|142:261,1,80,2|0,0:1|3:1,2:2:0:0:
323,247,100672,2,0,L|419:247,1,80,8|0,0:3|3:2,2:2:0:0:
225,174,100882,1,2,0:1:0:0:
120,176,100987,1,8,0:3:0:0:
225,174,101092,1,2,0:1:0:0:
398,131,101197,2,0,L|480:130,2,80,0|8|0,0:0|0:3|0:1,0:0:0:0:
165,174,101511,6,0,P|114:226|163:280,1,160,6|2,0:1|0:1,2:2:0:0:
268,278,101826,1,0,2:1:0:0:
163,280,101931,2,0,L|150:196,1,80,8|4,0:3|0:2,2:2:0:0:
342,170,102141,2,0,L|430:162,1,80,2|4,0:1|0:2,2:2:0:0:
190,117,102351,2,0,L|107:111,1,80,2|0,0:1|0:1,0:0:0:0:
355,113,102560,2,0,L|366:220,1,80,8|4,0:3|2:2,0:0:0:0:
134,272,102770,5,6,0:1:0:0:
231,273,102875,1,4,2:2:0:0:
328,275,102980,1,8,0:3:0:0:
129,176,103085,1,10,0:1:0:0:
233,175,103190,1,0,2:2:0:0:
337,172,103295,1,8,0:3:0:0:
97,101,103399,5,6,0:1:0:0:
264,94,103504,1,0,0:1:0:0:
368,92,103609,1,8,0:3:0:0:
80,282,103714,1,10,0:1:0:0:
248,284,103819,1,8,0:3:0:0:
416,283,103924,1,8,0:3:0:0:
172,160,104029,6,0,P|122:211|174:261,1,160,12|2,1:1|2:1,2:2:0:0:
278,258,104355,1,0,2:1:0:0:
174,261,104463,2,0,L|158:166,1,80,8|0,3:1|2:1,2:2:0:0:
354,162,104681,6,0,P|425:140|421:65,1,160,12|2,1:2|2:2,2:2:0:0:
317,69,105007,1,0,2:1:0:0:
213,70,105115,2,0,L|201:158,1,80,8|0,3:3|2:1,2:2:0:0:
381,195,105333,6,0,P|431:245|377:291,1,160,8|2,1:3|2:3,2:2:0:0:
272,294,105659,1,0,0:0:0:0:
98,292,105768,2,0,L|97:213,1,80,2|0,3:2|0:0,0:0:0:0:
293,195,105985,6,0,P|367:179|382:105,1,160,6|8,1:2|2:1,2:2:0:0:
312,107,106275,1,0,0:0:0:0:
243,102,106347,1,0,0:0:0:0:
86,111,106420,2,0,L|18:126,2,53.3333333333333,2|0|0,3:1|0:0|0:0,2:2:0:0:
259,272,106637,6,0,L|422:262,1,160,8|2,1:1|2:2,2:2:0:0:
315,246,106963,1,0,2:1:0:0:
210,253,107072,2,0,L|194:174,1,80,8|0,3:2|2:1,2:2:0:0:
393,144,107289,6,0,L|219:142,1,160,12|8,1:1|2:2,2:2:0:0:
129,142,107615,1,0,0:0:0:0:
325,85,107724,1,8,3:1:0:0:
140,305,107942,6,0,P|90:252|142:201,1,160,12|8,2:3|2:2,2:2:0:0:
247,200,108268,1,0,2:1:0:0:
351,206,108377,2,0,L|369:300,1,80,8|0,3:1|2:1,2:2:0:0:
264,307,108594,2,0,L|350:297,1,80,6|0,1:1|0:0,0:0:0:0:
104,277,108812,2,0,P|58:224|116:182,1,160,12|2,3:1|3:2,2:2:0:0:
394,142,109246,6,0,L|221:139,2,160,12|8|8,1:1|2:2|3:2,2:2:0:0:
87,317,109898,2,0,L|262:307,2,160,12|8|8,1:3|2:2|3:3,2:2:0:0:
392,293,110550,2,0,P|399:214|388:135,1,160,12|8,1:3|2:3,2:2:0:0:
163,144,110985,1,2,3:1:0:0:
447,186,111202,6,0,L|254:188,2,160,12|2|8,1:1|2:2|3:2,0:0:0:0:
138,214,111855,1,12,1:3:0:0:
329,212,112072,2,0,L|340:98,1,80,2|0,2:2|2:1,2:2:0:0:
240,135,112289,2,0,L|153:132,1,80,8|0,3:2|2:1,2:2:0:0:
332,305,112507,6,0,L|428:296,1,80,6|0,1:1|0:0,0:0:0:0:
308,222,112724,2,0,L|215:230,1,80,8|0,2:1|2:1,2:2:0:0:
334,116,112942,2,0,L|435:103,1,80,2|0,3:2|2:1,2:2:0:0:
152,125,113159,6,0,P|101:177|163:217,1,160,12|2,1:1|0:1,0:0:0:0:
219,213,113449,1,0,3:1:0:0:
281,201,113521,1,0,3:1:0:0:
87,320,113594,2,0,L|20:327,2,53.3333333333333,2|0|0,0:1|3:1|3:1,2:2:0:0:
280,300,113811,6,0,L|464:298,1,160,2|8,0:1|0:3,0:0:0:0:
146,185,114246,2,0,L|66:185,1,80,8|8,0:3|0:3,2:2:0:0:
306,157,114463,6,0,L|490:156,2,160,12|2|8,2:1|2:1|2:1,2:2:0:0:
82,168,115139,1,12,2:2:0:0:
274,167,115365,1,2,2:2:0:0:
465,168,115590,1,8,2:3:0:0:
178,319,115816,6,0,L|8:327,2,160,12|2|2,2:3|2:3|2:2,0:0:0:0:
385,302,116493,2,0,P|401:225|383:147,1,160,6|8,2:2|2:1,2:2:0:0:
175,159,116944,1,6,2:1:0:0:
461,153,117169,5,8,2:1:0:0:
268,155,117395,1,2,2:2:0:0:
76,163,117620,1,8,2:2:0:0:
369,313,117846,2,0,L|196:317,2,160,12|8|8,2:1|2:2|2:2,0:0:0:0:
83,306,118523,6,0,P|63:229|73:150,1,160,12|8,2:3|2:2,0:0:0:0:
266,146,118974,1,8,2:1:0:0:
71,289,119199,2,0,L|246:289,2,160,6|12|2,2:1|2:1|2:2,2:2:0:0:
281,183,119876,6,0,L|456:181,2,160,12|8|8,2:1|2:2|2:2,2:2:0:0:
89,203,120553,1,12,2:3:0:0:
280,200,120778,2,0,P|290:279|281:358,1,160,8|8,2:2|2:3,0:0:0:0:
89,359,121229,5,6,2:2:0:0:
281,359,121455,1,8,2:3:0:0:
473,355,121681,1,2,2:1:0:0:
243,250,121906,2,0,L|83:256,2,160,12|8|8,2:1|2:3|2:1,2:2:0:0:
434,237,122583,6,0,L|238:237,1,160,6|8,2:1|2:2,2:2:0:0:
274,44,123034,1,2,2:1:0:0:
57,192,123259,2,0,L|242:191,2,160,6|8|2,2:2|2:1|2:1,2:2:0:0:
368,152,123936,5,8,2:1:0:0:
177,165,124145,2,0,L|172:264,1,80,0|2,2:1|2:1,2:2:0:0:
269,251,124355,2,0,L|279:346,1,80,0|0,2:1|2:1,0:0:0:0:
98,351,124565,5,0,3:1:0:0:
306,347,124775,1,10,2:2:0:0:
98,321,124984,1,14,2:2:0:0:
398,187,125194,6,0,P|447:241|402:299,1,160,6|0,0:1|3:1,0:0:0:0:
287,302,125509,1,0,0:0:0:0:
119,286,125614,1,8,0:3:0:0:
332,170,125824,2,0,L|341:256,1,80,2|0,0:3|2:1,2:2:0:0:
161,267,126033,2,0,L|154:368,1,80,8|0,0:3|2:1,2:2:0:0:
267,265,126243,2,0,L|273:169,1,80,8|0,0:3|3:1,2:2:0:0:
87,193,126453,6,0,P|37:143|92:98,1,160,2|0,0:1|3:1,2:2:0:0:
205,98,126768,1,2,0:1:0:0:
400,99,126873,1,8,0:3:0:0:
209,210,127082,6,0,L|298:210,1,80,2|2,0:3|2:1,0:0:0:0:
104,252,127292,2,0,L|94:341,1,80,8|2,0:3|2:1,2:2:0:0:
288,337,127502,2,0,L|376:335,1,80,8|2,0:3|0:1,0:0:0:0:
367,279,127659,1,2,2:1:0:0:
189,286,127712,6,0,P|116:267|111:192,1,160,6|0,0:1|3:1,2:2:0:0:
223,186,128026,1,2,0:1:0:0:
407,179,128131,1,8,0:3:0:0:
221,117,128341,6,0,L|151:118,2,53.3333333333333,2|0|0,0:3|3:1|3:1,2:2:0:0:
391,102,128551,2,0,L|448:104,2,53.3333333333333,8|0|0,0:3|3:1|3:1,2:2:0:0:
232,73,128761,1,8,0:3:0:0:
280,72,128831,1,0,3:1:0:0:
328,70,128901,1,0,3:1:0:0:
178,177,128970,6,0,P|108:205|103:281,1,160,2|4,0:1|2:3,0:0:0:0:
216,279,129285,1,2,0:1:0:0:
408,273,129390,1,12,0:3:0:0:
215,208,129600,6,0,L|123:209,1,80,2|2,0:3|2:1,0:0:0:0:
325,178,129810,2,0,L|331:69,1,80,8|10,0:3|2:1,2:2:0:0:
217,103,130019,2,0,L|207:23,1,80,12|10,0:3|2:1,2:2:0:0:
401,44,130229,6,0,P|449:96|392:139,1,160,6|4,0:1|3:0,2:2:0:0:
279,137,130544,1,10,0:0:0:0:
87,144,130649,1,8,0:3:0:0:
287,244,130859,6,0,L|405:243,1,80,2|0,0:1|0:0,2:2:0:0:
151,263,131068,2,0,L|143:148,1,80,8|0,0:3|0:0,2:2:0:0:
321,164,131278,2,0,L|368:153,1,40,8|0,3:1|3:0,0:0:0:0:
200,109,131383,2,0,L|159:99,1,40,8|0,3:1|3:0,0:0:0:0:
339,223,131488,6,0,P|391:273|339:322,1,160,2|0,0:0|3:0,0:0:0:0:
226,328,131803,1,2,0:0:0:0:
42,327,131908,1,8,0:3:0:0:
248,250,132117,6,0,L|336:249,1,80,2|2,0:0|2:1,0:0:0:0:
106,150,132327,2,0,L|192:149,1,80,8|0,0:3|3:0,0:0:0:0:
366,134,132537,2,0,L|456:135,1,80,8|2,0:3|1:0,0:0:0:0:
401,134,132694,1,0,0:0:0:0:
193,118,132747,6,0,L|18:132,2,160,10|0|0,0:1|2:1|2:1,2:2:0:0:
410,258,133376,2,0,P|257:215|101:246,1,320,6|8,0:1|0:3,2:2:0:0:
323,211,134005,2,0,P|401:141|316:78,1,240,2|2,0:1|0:1,2:2:0:0:
110,93,134425,6,0,P|67:154|117:209,1,160,8|2,0:3|0:1,2:2:0:0:
230,214,134740,1,2,0:1:0:0:
415,198,134845,2,0,L|430:289,1,80,8|0,0:3|0:0,0:0:0:0:
238,308,135054,2,0,L|158:310,1,80,8|0,0:3|0:0,0:0:0:0:
367,224,135264,6,0,P|418:174|365:126,1,160,6|0,0:1|3:1,2:2:0:0:
171,129,135684,1,0,3:3:0:0:
363,125,135894,2,0,L|174:125,2,160,8|0|0,0:1|3:1|3:1,2:2:0:0:
84,220,136523,6,0,P|29:257|87:290,1,160,2|0,0:1|3:1,2:2:0:0:
200,282,136838,1,2,0:1:0:0:
390,273,136942,1,0,3:3:0:0:
200,241,137152,2,0,L|30:251,2,160,8|0|0,0:1|3:1|3:1,2:2:0:0:
409,246,137782,6,0,P|461:200|406:157,1,160,6|0,0:1|0:0,2:2:0:0:
212,170,138201,1,0,3:1:0:0:
403,157,138411,2,0,P|420:234|404:312,1,160,8|0,0:1|3:1,2:2:0:0:
209,320,138831,1,0,3:1:0:0:
400,320,139040,6,0,L|403:225,1,80,2|0,0:1|0:0,2:2:0:0:
206,239,139250,2,0,L|190:149,1,80,2|0,0:1|0:0,0:0:0:0:
381,131,139460,1,0,3:1:0:0:
190,103,139670,5,8,0:1:0:0:
382,109,139880,2,0,L|397:216,1,80,0|0,3:1|0:0,2:2:0:0:
203,206,140089,2,0,L|116:205,1,80,0|0,3:1|0:0,0:0:0:0:
317,301,140299,6,0,L|485:298,2,160,6|0|0,0:1|3:1|3:1,2:2:0:0:
106,300,140929,2,0,P|59:245|111:195,1,160,8|0,0:3|3:1,2:2:0:0:
304,191,141348,1,0,3:1:0:0:
111,191,141558,6,0,L|292:186,2,160,14|0|0,2:2|3:1|3:1,2:2:0:0:
442,273,142187,1,2,0:1:0:0:
250,274,142397,1,10,0:1:0:0:
58,273,142607,1,10,0:2:0:0:
424,206,142816,6,0,P|201:229|111:23,1,480,6|0,3:2|3:2,0:0:0:0:
422,91,144169,2,0,L|425:125,1,20,0|0,3:3|3:3,0:0:0:0:
195,125,144846,6,0,L|13:131,2,160,8|2|4,3:3|3:3|3:3,0:0:0:0:
486,49,145522,6,0,L|305:47,1,160,6|0,0:1|3:1,2:2:0:0:
222,53,145836,1,8,0:3:0:0:
326,47,145941,2,0,L|415:51,1,80,0|0,2:1|3:1,2:2:0:0:
157,226,146151,6,0,L|64:223,1,80,6|0,0:1|2:1,2:2:0:0:
257,162,146361,2,0,L|336:164,1,80,2|2,3:0|3:0,2:2:0:0:
148,321,146570,2,8,L|44:315,1,80,8|8,3:0|3:0,2:2:0:0:
333,243,146780,6,0,P|387:284|331:323,1,160,10|8,0:1|0:3,2:2:0:0:
226,324,147095,1,0,3:1:0:0:
329,313,147200,2,0,L|382:310,2,53.3333333333333,8|0|0,0:3|3:1|3:1,2:2:0:0:
95,312,147410,6,0,L|92:220,1,80,6|0,0:1|0:0,2:2:0:0:
301,210,147619,2,0,L|216:209,1,80,8|0,0:3|0:0,2:2:0:0:
431,235,147829,2,0,L|439:332,1,80,2|8,3:0|3:0,2:2:0:0:
227,325,148039,2,0,L|307:323,1,80,10|2,0:1|2:1,0:0:0:0:
83,153,148249,6,0,L|183:150,1,80,8|0,0:3|0:0,2:2:0:0:
349,138,148459,2,0,L|429:138,1,80,8|0,0:3|3:1,0:0:0:0:
256,216,148668,2,0,L|173:216,1,80,6|2,0:1|2:1,0:0:0:0:
386,323,148878,2,0,L|394:229,1,80,2|0,2:1|0:0,2:2:0:0:
188,234,149088,2,0,L|108:234,1,80,8|2,3:0|3:0,0:0:0:0:
401,240,149298,6,0,L|404:150,1,80,2|8,0:1|2:2,0:0:0:0:
290,165,149508,2,0,L|210:165,1,80,8|8,2:2|2:2,0:0:0:0:
325,84,149717,2,0,L|404:84,1,80,8|8,2:2|2:2,0:0:0:0:
217,326,149927,6,0,L|169:320,1,40,2|2,2:2|2:2,2:2:0:0:
35,275,150032,2,0,L|74:269,1,40,2|2,2:2|2:2,2:2:0:0:
198,246,150137,2,0,L|242:239,1,40,2|2,2:2|2:2,2:2:0:0:
350,224,150242,2,0,L|399:217,1,40,2|2,2:2|2:2,2:2:0:0:
236,180,150347,2,0,L|179:178,1,40,2|2,2:2|2:2,2:2:0:0:
351,140,150452,6,0,L|397:131,1,40,2|2,2:2|2:2,2:2:0:0:
256,192,150661,12,0,151605,0:0:0:0:
256,192,151815,5,2,2:2:0:0:
256,192,152235,12,0,152917,0:0:0:0:
148,177,153074,6,0,P|259:110|388:124,1,264.000008056641,6|2,0:0|0:0,2:2:0:0:
110,330,153494,2,0,P|58:269|117:216,1,176.000005371094,10|2,0:3|0:0,0:0:0:0:
241,218,153808,1,0,0:0:0:0:
423,191,153913,2,0,L|308:187,1,88.000002685547,10|0,0:3|3:0,2:2:0:0:
154,178,154123,2,0,L|53:173,1,88.000002685547,8|0,3:0|0:0,0:0:0:0:
299,71,154333,6,0,P|389:140|295:203,1,264.000008056641,14|2,0:0|0:0,2:2:0:0:
79,252,154753,2,0,P|74:168|148:129,1,176.000005371094,10|2,0:3|0:0,2:2:0:0:
271,137,155067,1,2,0:0:0:0:
93,321,155172,2,0,L|198:316,1,88.000002685547,10|2,0:3|3:1,2:2:0:0:
360,316,155382,2,0,L|448:314,1,88.000002685547,8|2,3:0|3:1,2:2:0:0:
394,314,155539,1,0,0:0:0:0:
226,309,155592,6,0,L|123:303,1,88.000002685547,6|0,0:0|0:0,2:2:0:0:
323,226,155801,2,0,L|410:227,1,88.000002685547,6|0,0:0|0:0,0:0:0:0:
176,186,156011,1,8,3:2:0:0:
477,168,156221,6,0,L|389:165,1,88.000002685547,6|0,0:0|0:0,2:2:0:0:
200,175,156431,2,0,L|185:281,1,88.000002685547,6|0,0:0|0:0,0:0:0:0:
367,315,156641,2,0,L|427:306,1,44.0000013427735,8|0,3:2|3:0,0:0:0:0:
288,275,156746,2,0,L|232:259,1,44.0000013427735,0|0,3:0|3:0,0:0:0:0:
406,252,156850,6,0,L|404:158,1,88.000002685547,2|0,0:2|3:1,2:2:0:0:
224,169,157060,2,0,L|116:157,1,88.000002685547,8|0,0:3|3:1,0:0:0:0:
323,81,157270,2,0,L|409:97,1,88.000002685547,8|0,0:3|3:1,0:0:0:0:
216,126,157480,6,0,L|122:128,1,88.000002685547,2|8,0:2|3:3,2:2:0:0:
311,210,157690,2,0,L|317:313,1,88.000002685547,2|8,0:0|3:0,0:0:0:0:
140,302,157899,2,0,L|96:302,1,44.0000013427735,8|0,0:3|0:0,0:0:0:0:
230,336,158004,2,0,L|273:333,1,44.0000013427735,8|0,3:0|0:0,0:0:0:0:
111,277,158109,6,0,P|22:203|121:150,1,264.000008056641,6|2,0:0|0:1,2:2:0:0:
323,120,158528,2,0,L|330:208,1,88.000002685547,8|0,0:3|2:1,2:2:0:0:
215,232,158738,2,0,L|314:222,1,88.000002685547,2|0,0:0|3:1,2:2:0:0:
103,330,158948,6,0,L|196:322,1,88.000002685547,10|0,0:3|3:1,2:2:0:0:
377,303,159158,2,0,L|484:294,1,88.000002685547,8|0,0:3|3:1,0:0:0:0:
192,262,159368,2,0,P|138:206|200:159,1,176.000005371094,2|2,0:1|0:1,0:0:0:0:
314,154,159682,1,2,0:0:0:0:
104,277,159787,6,0,P|44:228|101:176,1,176.000005371094,10|2,0:3|0:2,0:0:0:0:
216,184,160102,1,0,0:0:0:0:
392,186,160207,2,0,L|305:182,1,88.000002685547,8|6,0:3|3:2,0:0:0:0:
126,187,160417,2,0,L|80:184,1,44.0000013427735,8|0,0:3|0:0,0:0:0:0:
224,150,160522,2,0,L|270:143,1,44.0000013427735,2|0,3:1|0:0,0:0:0:0:
105,311,160627,6,0,P|52:254|116:209,1,176.000005371094,6|8,0:1|0:3,0:0:0:0:
308,199,161046,2,0,L|419:194,1,88.000002685547,10|0,0:3|3:2,2:2:0:0:
147,200,161256,2,0,L|132:286,1,88.000002685547,6|0,0:0|0:0,2:2:0:0:
320,214,161466,2,0,L|326:322,1,88.000002685547,8|0,0:3|0:0,0:0:0:0:
119,312,161676,6,0,L|60:307,2,58.6666684570313,2|0|0,0:0|0:0|0:0,0:0:0:0:
278,314,161885,2,0,L|348:308,1,58.6666684570313,2|0,0:1|3:1,2:2:0:0:
160,253,162025,2,0,L|101:247,1,58.6666684570313,0|0,3:1|0:0,2:2:0:0:
271,234,162165,2,0,L|331:233,1,58.6666684570313,0|0,3:1|0:0,2:2:0:0:
153,177,162305,6,0,L|39:178,1,88.000002685547,2|0,0:1|3:0,0:0:0:0:
62,107,162462,1,0,0:0:0:0:
252,96,162515,2,0,L|349:93,1,88.000002685547,2|2,0:1|0:1,0:0:0:0:
126,205,162725,2,0,L|219:201,1,88.000002685547,2|4,2:1|2:1,2:2:0:0:
392,195,162934,1,2,3:1:0:0:
452,179,162987,1,2,3:1:0:0:
425,124,163039,1,2,3:1:0:0:
364,115,163091,1,4,3:1:0:0:
213,218,163144,6,0,P|91:207|73:86,1,264.000008056641,6|0,0:0|3:0,2:2:0:0:
360,75,163563,2,0,L|184:79,2,176.000005371094,2|6|2,3:0|0:0|0:3,2:2:0:0:
49,250,164193,1,0,3:0:0:0:
358,121,164403,6,0,P|472:225|351:322,1,352.000010742188,6|2,0:0|2:3,2:2:0:0:
157,324,165032,2,0,L|37:316,1,88.000002685547,2|2,0:0|0:0,2:2:0:0:
305,244,165242,2,0,L|320:130,1,88.000002685547,10|2,0:3|3:1,2:2:0:0:
129,171,165452,2,0,L|114:54,1,88.000002685547,12|2,3:0|3:1,2:2:0:0:
318,69,165661,6,0,L|421:63,1,88.000002685547,6|0,0:0|3:0,0:0:0:0:
221,124,165871,2,0,L|117:121,1,88.000002685547,6|0,0:0|0:0,2:2:0:0:
377,185,166081,1,8,3:2:0:0:
74,199,166291,6,0,L|57:308,1,88.000002685547,6|2,0:0|2:1,0:0:0:0:
251,293,166501,2,0,L|350:294,1,88.000002685547,6|0,0:0|0:0,2:2:0:0:
143,256,166710,2,0,L|85:246,1,44.0000013427735,8|0,3:2|3:0,0:0:0:0:
233,230,166815,2,0,L|285:219,1,44.0000013427735,0|0,3:0|3:0,0:0:0:0:
108,175,166920,6,0,L|87:73,1,88.000002685547,2|0,0:2|0:0,0:0:0:0:
286,76,167130,2,0,L|402:66,1,88.000002685547,8|0,0:3|0:0,0:0:0:0:
171,201,167340,2,0,L|276:195,1,88.000002685547,8|0,0:3|0:0,0:0:0:0:
69,242,167549,6,0,L|58:341,1,88.000002685547,2|8,0:2|3:3,2:2:0:0:
265,333,167759,2,0,L|360:328,1,88.000002685547,2|8,0:0|3:0,2:2:0:0:
141,266,167969,1,8,0:3:0:0:
79,255,168022,1,0,0:0:0:0:
100,197,168074,1,8,3:0:0:0:
159,181,168126,1,0,0:0:0:0:
342,133,168179,6,0,P|402:184|336:231,1,176.000005371094,6|0,0:0|3:1,2:2:0:0:
219,242,168494,1,2,0:1:0:0:
342,239,168599,2,0,L|340:134,1,88.000002685547,8|0,0:3|2:1,0:0:0:0:
140,216,168808,6,0,L|77:223,2,58.6666684570313,2|0|0,0:1|3:1|3:1,2:2:0:0:
317,181,169018,2,0,L|404:190,2,58.6666684570313,8|0|0,0:3|3:1|3:1,2:2:0:0:
147,175,169228,1,8,0:3:0:0:
211,172,169298,1,0,3:1:0:0:
275,171,169368,1,0,3:1:0:0:
93,216,169438,6,0,P|40:157|101:108,1,176.000005371094,2|0,0:1|3:1,2:2:0:0:
226,107,169753,1,2,0:1:0:0:
445,104,169857,1,8,0:3:0:0:
140,307,170067,6,0,L|138:216,1,88.000002685547,2|2,0:1|0:1,2:2:0:0:
262,215,170277,2,0,L|358:209,1,88.000002685547,8|2,0:3|0:1,0:0:0:0:
114,156,170487,2,0,L|109:61,1,88.000002685547,8|8,3:3|3:3,2:2:0:0:
344,83,170697,6,0,P|402:133|342:182,1,176.000005371094,14|8,0:1|0:3,0:0:0:0:
140,203,171116,2,0,L|34:197,1,88.000002685547,10|0,0:3|3:2,2:2:0:0:
298,162,171326,5,6,0:0:0:0:
341,163,171378,1,0,3:0:0:0:
371,194,171430,1,0,3:0:0:0:
371,237,171483,1,0,3:0:0:0:
214,256,171535,1,8,0:3:0:0:
171,254,171587,1,0,3:0:0:0:
141,223,171639,1,0,3:0:0:0:
141,180,171692,1,0,3:0:0:0:
299,116,171745,2,0,L|356:108,1,44.0000013427735,2|0,0:0|3:0,0:0:0:0:
164,96,171850,2,0,L|120:91,1,44.0000013427735,0|0,3:0|3:0,0:0:0:0:
338,302,171955,6,0,L|442:299,1,88.000002685547,6|8,0:1|0:3,2:2:0:0:
240,225,172165,2,0,L|152:223,1,88.000002685547,8|8,0:3|0:3,0:0:0:0:
381,171,172375,2,0,L|294:162,1,88.000002685547,8|8,0:3|3:0,0:0:0:0:
107,145,172584,6,0,L|57:136,1,44.0000013427735,4|0,0:1|0:0,2:2:0:0:
232,120,172689,2,0,L|285:114,1,44.0000013427735,4|0,0:0|0:0,0:0:0:0:
402,85,172794,2,0,L|451:78,1,44.0000013427735,4|0,0:0|0:0,0:0:0:0:
282,55,172899,2,0,L|234:46,1,44.0000013427735,4|0,0:1|0:0,0:0:0:0:
381,115,173004,1,4,0:1:0:0:
423,115,173056,1,0,0:0:0:0:
452,147,173108,1,4,0:0:0:0:
447,189,173161,1,0,0:0:0:0:
228,211,173214,6,0,L|163:215,2,58.6666684570313,12|0|0,2:1|2:1|2:1,2:2:0:0:
382,174,173424,2,0,L|452:186,2,58.6666684570313,0|0|0,3:1|2:1|2:1,2:2:0:0:
188,142,173633,1,0,3:1:0:0:
123,140,173703,2,0,L|120:61,1,58.6666684570313,0|0,2:1|2:1,0:0:0:0:
311,62,173843,5,2,3:1:0:0:
246,53,173913,1,0,3:1:0:0:
182,44,173983,1,0,3:1:0:0:
344,122,174053,1,0,3:1:0:0:
408,117,174123,2,0,L|412:193,1,58.6666684570313,0|0,2:1|2:1,0:0:0:0:
219,200,174263,2,0,L|158:206,2,58.6666684570313,0|0|0,3:1|2:1|2:1,0:0:0:0:
390,188,174473,6,0,L|401:248,1,44.0000013427735,8|0,3:3|3:1,2:2:0:0:
333,243,174577,2,0,L|273:253,1,44.0000013427735,0|0,3:1|3:1,2:2:0:0:
223,261,174682,2,0,L|221:328,1,44.0000013427735,0|0,3:1|3:1,2:2:0:0:
385,331,174787,6,0,L|381:287,1,44.0000013427735,0|0,3:1|3:1,2:2:0:0:
310,289,174892,2,0,L|306:222,1,44.0000013427735,0|0,3:1|3:1,2:2:0:0:
377,231,174997,2,0,L|371:173,1,44.0000013427735,0|0,3:1|3:1,2:2:0:0:
230,177,175102,6,0,L|184:178,1,44.0000013427735,2|0,3:3|2:1,2:2:0:0:
119,180,175207,2,0,L|117:131,1,44.0000013427735,0|0,3:1|2:1,2:2:0:0:
187,127,175312,2,0,L|246:123,1,44.0000013427735,0|0,3:1|2:1,2:2:0:0:
381,112,175417,6,0,L|439:112,1,44.0000013427735,0|0,3:1|2:1,2:2:0:0:
265,79,175522,2,0,L|214:74,1,44.0000013427735,0|0,3:1|2:1,2:2:0:0:
151,70,175626,2,0,L|136:113,1,44.0000013427735,0|0,3:1|2:1,2:2:0:0:
310,177,175731,6,0,L|405:187,1,88.000002685547,14|0,0:0|3:0,0:0:0:0:
214,252,175941,2,0,L|114:251,1,88.000002685547,6|0,0:0|0:0,2:2:0:0:
347,266,176151,1,8,3:2:0:0:
54,277,176361,6,0,L|39:165,1,88.000002685547,14|2,0:0|2:1,0:0:0:0:
241,161,176570,2,0,L|328:159,1,88.000002685547,6|0,0:0|0:0,2:2:0:0:
135,138,176780,2,0,L|84:134,1,44.0000013427735,8|0,3:2|3:0,0:0:0:0:
215,244,176885,2,0,L|269:229,1,44.0000013427735,0|0,3:0|3:0,0:0:0:0:
119,241,176990,6,0,L|99:334,1,88.000002685547,10|0,0:2|0:0,0:0:0:0:
282,261,177200,2,0,L|291:360,1,88.000002685547,8|0,0:3|0:0,0:0:0:0:
119,232,177410,2,0,L|20:224,1,88.000002685547,8|0,0:3|0:0,0:0:0:0:
257,216,177620,6,0,L|265:115,1,88.000002685547,10|0,0:2|3:3,2:2:0:0:
98,122,177830,2,0,L|217:106,1,88.000002685547,10|0,0:3|3:0,2:2:0:0:
376,149,178040,1,8,0:3:0:0:
423,138,178092,1,0,3:0:0:0:
411,90,178144,1,8,3:0:0:0:
366,75,178197,1,8,3:0:0:0:
175,87,178249,6,0,P|119:143|178:195,1,176.000005371094,6|0,0:1|2:1,2:2:0:0:
241,193,178528,1,0,3:1:0:0:
305,185,178598,1,0,3:1:0:0:
126,295,178668,2,0,L|56:305,2,58.6666684570313,8|0|0,0:3|3:1|3:1,2:2:0:0:
321,258,178878,6,0,L|321:195,1,58.6666684570313,8|0,0:1|3:1,0:0:0:0:
249,199,179018,1,0,3:1:0:0:
101,192,179088,2,0,L|302:187,1,176.000005371094,8|8,0:3|0:3,2:2:0:0:
330,184,179368,1,0,3:1:0:0:
329,131,179438,1,0,3:1:0:0:
113,142,179508,6,0,L|108:234,1,88.000002685547,2|0,0:3|2:0,2:2:0:0:
222,225,179717,2,0,L|231:323,1,88.000002685547,0|2,3:1|0:1,2:2:0:0:
57,330,179927,2,0,L|150:324,1,88.000002685547,8|0,0:3|3:1,0:0:0:0:
364,315,180137,6,0,L|365:200,1,88.000002685547,8|2,0:3|0:1,2:2:0:0:
249,226,180347,2,0,L|239:138,1,88.000002685547,8|0,0:3|3:1,2:2:0:0:
416,130,180556,1,8,0:3:0:0:
471,113,180609,1,0,0:0:0:0:
454,58,180661,1,2,0:1:0:0:
397,45,180714,1,0,0:0:0:0:
178,57,180766,5,6,0:1:0:0:
345,180,180976,6,0,L|349:236,1,44.0000013427735,0|0,3:1|2:1,2:2:0:0:
290,229,181081,2,0,L|292:278,1,44.0000013427735,0|0,3:1|2:1,2:2:0:0:
349,274,181186,2,0,L|400:268,1,44.0000013427735,0|0,3:1|2:1,2:2:0:0:
339,314,181291,2,0,L|261:316,1,44.0000013427735,0|0,3:1|2:1,2:2:0:0:
114,312,181396,5,0,3:1:0:0:
71,306,181448,1,0,3:1:0:0:
46,271,181500,1,0,3:1:0:0:
53,229,181553,1,0,3:1:0:0:
216,186,181605,2,0,L|261:181,1,44.0000013427735,0|0,3:1|3:1,0:0:0:0:
111,152,181710,2,0,L|63:148,1,44.0000013427735,0|0,3:1|3:1,0:0:0:0:
272,119,181815,1,0,3:1:0:0:
315,119,181867,1,0,3:1:0:0:
347,147,181919,1,0,3:1:0:0:
351,190,181972,1,0,3:1:0:0:
156,213,182025,6,0,L|50:216,2,88.000002685547,6|8|8,0:1|0:3|0:3,2:2:0:0:
368,221,182340,1,2,0:1:0:0:
279,221,182445,1,8,0:3:0:0:
191,217,182549,1,8,0:3:0:0:
372,122,182654,6,0,L|464:126,2,88.000002685547,2|8|8,0:1|0:3|0:3,2:2:0:0:
92,100,182969,1,2,0:1:0:0:
265,88,183074,1,8,0:3:0:0:
438,87,183179,1,8,0:3:0:0:
155,144,183284,6,0,P|26:256|175:339,1,400,12|0,0:1|2:1,2:2:0:0:
378,331,183936,2,0,P|432:299|356:251,1,160,6|0,0:1|0:0,2:2:0:0:
318,239,184226,1,0,0:0:0:0:
254,240,184298,1,0,0:0:0:0:
94,239,184370,2,0,L|31:244,2,53.3333333333333,0|0|0,2:1|0:0|0:0,0:0:0:0:
297,166,184588,6,0,L|460:163,2,160,12|2|2,0:3|2:2|2:2,2:2:0:0:
104,170,185240,2,0,L|92:273,1,80,6|0,0:3|2:1,2:2:0:0:
274,261,185457,2,0,L|378:261,1,80,8|0,0:3|2:1,2:2:0:0:
171,188,185675,1,8,0:3:0:0:
120,176,185729,1,0,0:0:0:0:
136,126,185784,1,2,2:1:0:0:
186,116,185838,1,0,0:0:0:0:
379,106,185892,6,0,L|400:203,1,80,14|0,0:1|2:1,2:2:0:0:
224,215,186117,2,0,L|215:306,1,80,8|0,0:3|0:0,0:0:0:0:
402,305,186343,1,8,3:2:0:0:
113,309,186568,6,0,L|29:309,1,80,10|0,0:1|2:1,2:2:0:0:
206,232,186794,2,0,L|287:232,1,80,8|0,0:3|0:0,0:0:0:0:
102,195,187019,1,8,3:2:0:0:
69,175,187075,1,0,0:0:0:0:
73,138,187131,1,0,3:1:0:0:
110,127,187188,1,0,0:0:0:0:
326,111,187245,6,0,L|337:200,1,80,10|0,0:2|0:0,2:2:0:0:
159,209,187479,2,0,L|157:311,1,80,2|0,0:1|0:0,2:2:0:0:
335,298,187713,2,0,L|426:298,1,80,8|0,0:3|0:0,0:0:0:0:
234,258,187948,6,0,L|155:257,1,80,10|0,0:2|2:1,2:2:0:0:
340,169,188182,2,0,L|344:255,1,80,10|0,0:3|2:1,2:2:0:0:
167,256,188416,2,0,L|127:254,1,40,8|0,0:3|0:0,2:2:0:0:
256,344,188534,2,0,L|304:340,1,40,0|0,2:1|0:0,0:0:0:0:
105,252,188651,6,0,P|53:207|110:168,1,160,14|2,0:1|3:1,2:2:0:0:
166,164,188955,1,0,2:1:0:0:
217,141,189016,1,2,3:1:0:0:
219,85,189077,1,0,2:1:0:0:
171,54,189138,1,2,3:1:0:0:
115,58,189199,1,0,2:1:0:0:
66,106,189260,1,2,3:1:0:0:
119,147,189321,1,0,2:1:0:0:
284,156,189382,5,2,3:1:0:0:
323,150,189445,1,0,3:1:0:0:
362,154,189509,1,0,3:1:0:0:
399,169,189572,1,0,3:1:0:0:
430,194,189636,1,0,3:1:0:0:
453,227,189699,1,0,3:1:0:0:
466,265,189763,1,0,3:1:0:0:
468,305,189826,1,0,3:1:0:0:
459,343,189890,1,0,3:1:0:0:
441,366,189954,1,0,3:1:0:0:
282,362,190017,2,0,L|237:360,1,40,0|0,3:1|3:1,3:3:0:0:
417,240,190144,6,0,P|461:181|414:122,1,160,0|8,3:1|3:3,2:2:0:0:
121,119,190756,1,2,2:3:0:0:
332,147,191117,6,0,L|380:197,1,61.3333345031739,2|0,3:1|2:1,2:2:0:0:
177,152,191270,2,0,L|158:149,1,13.3333333333333,2|0,3:1|2:1,2:2:0:0:
324,344,191578,1,0,2:1:0:0:
429,336,191732,5,0,3:1:0:0:
426,289,191808,1,0,3:1:0:0:
411,244,191886,1,0,3:1:0:0:
382,205,191962,1,0,3:1:0:0:
344,176,192039,1,0,3:1:0:0:
299,160,192116,1,0,3:1:0:0:
251,157,192193,1,0,3:1:0:0:
199,159,192299,1,0,3:1:0:0:
146,179,192415,1,0,0:0:0:0:
367,318,192501,5,4,3:1:0:0:
256,192,192665,12,4,194479,2:1:0:0:
350,136,196457,6,0,P|399:189|348:241,1,160,2|0,2:2|2:2,2:2:0:0:
145,253,197116,2,0,P|135:174|143:95,1,160,2|0,2:3|2:1,2:2:0:0:
328,105,197710,2,0,L|409:109,2,80,2|0|2,2:0|2:1|2:0,2:2:0:0:
151,107,198304,2,0,P|78:129|60:204,1,160,0|2,2:1|2:0,0:0:0:0:
341,177,198898,6,0,P|455:249|344:327,1,320,8|0,2:3|2:1,2:2:0:0:
152,345,199708,1,2,2:0:0:0:
344,339,199979,2,0,P|353:260|340:182,1,160,0|2,2:1|2:0,0:0:0:0:
99,190,200519,6,0,P|162:55|309:76,1,320,8|0,2:3|2:1,2:2:0:0:
117,73,201330,1,2,2:0:0:0:
308,74,201600,2,0,P|381:91|397:165,1,160,0|2,2:1|2:0,0:0:0:0:
140,191,202141,6,0,P|58:302|187:350,1,320,8|0,2:3|2:1,2:2:0:0:
380,338,202952,2,0,P|432:290|378:243,1,160,2|8,2:0|2:3,2:2:0:0:
203,239,203492,2,0,L|99:238,1,80,4|0,2:3|2:0,2:2:0:0:
233,141,203762,6,0,P|308:159|349:225,1,160,2|4,2:3|2:3,0:0:0:0:
189,238,204243,2,0,L|196:325,1,80,8|0,2:3|2:1,2:2:0:0:
283,309,204484,1,2,2:0:0:0:
85,320,204725,6,0,P|34:271|91:231,1,160,0|0,2:1|2:3,0:0:0:0:
290,222,205207,2,0,L|449:221,2,160,8|0|2,2:3|2:1|2:0,2:2:0:0:
97,227,205930,1,2,2:2:0:0:
286,194,206171,2,0,P|306:270|284:346,1,160,0|2,2:2|2:2,0:0:0:0:
67,340,206653,6,0,P|114:196|264:173,1,320,8|2,2:3|2:0,2:2:0:0:
456,170,207350,2,0,L|267:171,2,160,2|0|2,2:0|2:1|2:0,2:2:0:0:
245,163,208048,5,8,2:3:0:0:
97,176,208280,1,0,2:1:0:0:
74,323,208513,1,2,2:0:0:0:
282,329,208746,2,0,L|468:327,1,160,0|2,2:3|2:0,0:0:0:0:
442,118,209211,1,2,2:0:0:0:
103,137,209443,6,0,P|53:189|104:239,1,160,12|2,0:1|2:1,2:2:0:0:
296,237,209899,2,0,L|307:335,1,80,2|2,2:2|2:0,2:2:0:0:
209,328,210127,2,0,L|49:338,2,160,8|0|8,2:1|2:1|2:1,2:2:0:0:
399,309,210811,6,0,P|504:217|392:134,1,320,8|2,2:1|2:0,0:0:0:0:
199,148,211496,2,0,L|24:157,2,160,8|0|8,2:1|2:1|2:1,2:2:0:0:
399,252,212180,6,0,P|373:104|225:82,1,320,8|2,2:1|2:2,0:0:0:0:
50,96,212841,1,8,2:1:0:0:
226,87,213062,1,2,2:0:0:0:
401,91,213282,1,0,2:1:0:0:
190,171,213503,6,0,P|81:256|191:340,1,320,8|2,2:1|2:2,2:2:0:0:
384,338,214165,2,0,L|224:338,2,160,8|2|0,2:1|2:2|2:1,0:0:0:0:
65,316,214827,6,0,P|50:238|66:160,1,160,12|2,2:1|2:1,2:2:0:0:
256,149,215257,2,0,L|367:137,1,80,0|0,3:1|3:1,0:0:0:0:
236,237,215472,2,0,L|55:247,2,160,2|2|2,2:1|2:1|2:1,2:2:0:0:
411,230,216117,6,0,P|363:87|212:74,1,320,8|2,2:1|3:1,2:2:0:0:
213,250,216762,1,2,2:1:0:0:
388,261,216977,2,0,P|405:184|385:108,1,160,2|2,2:1|2:1,0:0:0:0:
160,130,217407,6,0,P|55:223|160:318,1,320,8|0,2:1|3:1,2:2:0:0:
353,310,218040,1,2,2:1:0:0:
159,316,218252,2,0,P|146:238|159:159,1,160,2|2,2:1|2:1,0:0:0:0:
350,134,218674,6,0,P|453:230|346:322,1,320,8|8,2:1|2:1,2:2:0:0:
119,340,219385,1,2,2:1:0:0:
358,324,219657,1,2,2:1:0:0:
72,273,219957,1,8,2:1:0:0:
469,198,220290,6,0,P|419:83|293:72,1,264.000008056641,6|0,0:1|2:1,2:2:0:0:
171,85,220741,1,0,2:1:0:0:
471,270,220966,2,0,L|295:270,2,176.000005371094,2|0|0,0:1|2:1|2:0,0:0:0:0:
165,171,221645,6,0,P|50:214|54:338,1,264.000008056641,6|0,0:1|2:0,2:2:0:0:
169,338,222099,1,0,2:1:0:0:
478,231,222326,2,0,L|390:230,1,88.000002685547,2|0,2:1|2:1,2:2:0:0:
276,239,222554,2,0,L|270:135,1,88.000002685547,0|0,2:1|2:1,2:2:0:0:
384,138,222782,2,0,L|481:134,1,88.000002685547,0|0,2:1|2:1,2:2:0:0:
191,176,223010,6,0,L|182:81,1,88.000002685547,6|0,0:1|0:0,0:0:0:0:
368,71,223239,2,0,L|378:169,1,88.000002685547,2|0,2:1|0:0,2:2:0:0:
183,217,223468,1,8,2:2:0:0:
474,199,223697,6,0,L|365:195,1,88.000002685547,6|0,0:1|0:0,0:0:0:0:
209,192,223926,2,0,L|97:189,1,88.000002685547,2|0,2:1|0:0,2:2:0:0:
313,121,224156,1,8,3:2:0:0:
356,127,224213,1,0,3:1:0:0:
381,162,224270,1,0,3:1:0:0:
374,204,224328,1,0,3:1:0:0:
171,222,224386,6,0,L|153:319,1,88.000002685547,10|0,0:2|3:1,2:2:0:0:
335,328,224616,2,0,L|435:332,1,88.000002685547,2|0,0:1|2:1,2:2:0:0:
225,277,224851,2,0,L|220:177,1,88.000002685547,2|0,0:1|3:1,2:2:0:0:
404,182,225091,2,0,L|408:85,1,88.000002685547,2|0,0:2|3:1,2:2:0:0:
217,89,225335,6,0,L|200:192,1,88.000002685547,2|0,0:1|3:1,2:2:0:0:
443,197,225585,1,2,0:1:0:0:
79,199,225840,6,0,P|197:144|327:150,1,264.000008056641,6|0,0:2|2:1,2:2:0:0:
450,145,226308,1,6,0:2:0:0:
124,224,226543,2,0,L|119:334,1,88.000002685547,2|0,0:1|3:1,2:2:0:0:
242,319,226779,2,0,L|342:316,1,88.000002685547,2|2,0:1|0:1,2:2:0:0:
211,248,227015,2,0,L|123:247,1,88.000002685547,2|0,0:1|3:1,2:2:0:0:
319,186,227251,6,0,L|499:178,2,176.000005371094,2|0|0,0:1|3:1|3:1,2:2:0:0:
73,196,227965,2,0,P|49:279|71:363,1,176.000005371094,0|0,0:2|0:3,0:0:0:0:
194,367,228325,1,0,0:0:0:0:
316,359,228445,2,0,L|310:252,1,88.000002685547,4|0,0:2|0:0,0:0:0:0:
125,257,228685,6,0,P|130:172|213:148,1,176.000005371094,6|0,2:1|3:1,0:0:0:0:
417,156,229172,2,0,L|436:263,1,88.000002685547,0|0,2:1|2:1,2:2:0:0:
212,260,229416,2,0,L|31:278,2,176.000005371094,4|0|0,2:1|3:1|2:1,0:0:0:0:
405,243,230191,5,6,0:1:0:0:
406,195,230267,1,0,3:1:0:0:
392,149,230344,1,0,3:1:0:0:
365,110,230420,1,0,3:1:0:0:
327,81,230497,1,0,3:1:0:0:
282,65,230573,1,0,3:1:0:0:
234,65,230650,1,0,3:1:0:0:
188,79,230726,1,0,3:1:0:0:
149,107,230803,1,0,3:1:0:0:
121,145,230879,1,0,3:1:0:0:
106,191,230956,1,0,3:1:0:0:
106,238,231032,1,0,3:1:0:0:
341,260,231109,5,6,0:1:0:0:
72,332,231493,2,0,P|17:195|70:56,1,303.999991882324,2|2,2:1|2:1,2:2:0:0:
338,250,232390,6,0,L|423:252,2,58.6666684570313,6|0|0,0:0|2:1|2:1,2:2:0:0:
269,249,232678,1,0,2:1:0:0:
198,254,232774,2,0,L|198:329,1,58.6666684570313,0|0,3:1|3:1,0:0:0:0:
377,330,232966,6,0,L|447:331,2,58.6666684570313,2|0|0,0:1|2:1|2:1,0:0:0:0:
306,335,233255,2,0,L|303:265,1,58.6666684570313,0|0,2:1|3:1,0:0:0:0:
373,272,233447,1,0,3:1:0:0:
203,223,233543,6,0,L|140:235,2,58.6666684570313,2|0|0,0:1|2:1|2:1,2:2:0:0:
279,220,233832,2,0,L|337:222,2,58.6666684570313,0|0|0,2:1|3:1|3:1,2:2:0:0:
111,282,234120,2,0,L|47:291,2,58.6666684570313,2|0|0,0:1|2:1|2:1,0:0:0:0:
185,262,234409,2,0,L|185:203,1,58.6666684570313,0|0,2:1|3:1,0:0:0:0:
109,203,234601,1,0,3:1:0:0:
343,246,234697,6,0,L|336:195,1,44.0000013427735,2|0,2:1|2:1,2:2:0:0:
259,220,234841,2,0,L|246:152,1,44.0000013427735,0|0,3:1|2:1,2:2:0:0:
327,154,234986,2,0,L|380:145,1,44.0000013427735,0|0,3:1|2:1,2:2:0:0:
293,126,235130,2,0,L|246:134,1,44.0000013427735,0|0,3:1|2:1,2:2:0:0:
99,174,235274,6,0,L|87:227,1,44.0000013427735,8|0,2:1|2:1,2:2:0:0:
164,236,235418,2,0,L|147:289,1,44.0000013427735,0|0,3:1|2:1,2:2:0:0:
69,275,235563,2,0,L|65:329,1,44.0000013427735,0|0,3:1|2:1,2:2:0:0:
144,324,235707,2,0,L|198:324,1,44.0000013427735,0|0,3:1|2:1,2:2:0:0:
353,306,235851,6,0,L|402:302,1,44.0000013427735,2|0,2:1|2:1,2:2:0:0:
332,252,235995,2,0,L|261:253,1,44.0000013427735,0|0,3:1|2:1,2:2:0:0:
354,198,236140,2,0,L|405:196,1,44.0000013427735,0|0,3:1|2:1,2:2:0:0:
333,140,236284,2,0,L|284:143,1,44.0000013427735,0|0,3:1|2:1,2:2:0:0:
114,177,236428,6,0,L|180:172,1,44.0000013427735,8|0,2:1|2:1,2:2:0:0:
236,164,236572,2,0,L|249:220,1,44.0000013427735,0|0,3:1|2:1,2:2:0:0:
168,220,236716,2,0,L|167:269,1,44.0000013427735,0|0,3:1|2:1,2:2:0:0:
247,263,236861,2,0,L|311:262,1,44.0000013427735,0|0,3:1|2:1,2:2:0:0:
160,335,237005,6,0,L|109:334,1,35.2000010742188,0|0,3:1|0:0,0:0:0:0:
56,337,237120,2,0,L|58:279,1,35.2000010742188,0|0,0:0|0:0,0:0:0:0:
125,303,237236,1,0,2:1:0:0:
286,280,237293,5,0,3:1:0:0:
341,254,237351,1,0,0:0:0:0:
365,197,237409,1,0,0:0:0:0:
341,254,237466,1,0,0:0:0:0:
286,280,237524,1,0,2:1:0:0:
133,238,237582,5,0,3:1:0:0:
148,182,237640,1,0,0:0:0:0:
184,138,237697,1,0,0:0:0:0:
232,106,237755,1,0,0:0:0:0:
286,87,237813,1,0,2:1:0:0:
91,128,237870,6,0,L|54:129,1,35.2000010742188,0|0,3:1|0:0,0:0:0:0:
42,71,237986,2,0,L|77:71,1,35.2000010742188,0|0,0:0|0:0,0:0:0:0:
125,71,238101,1,0,2:1:0:0:
287,65,238159,5,0,3:1:0:0:
334,81,238216,1,0,0:0:0:0:
370,117,238274,1,0,0:0:0:0:
379,167,238332,1,0,0:0:0:0:
370,117,238390,1,0,2:1:0:0:
160,111,238447,5,0,3:1:0:0:
112,144,238505,1,0,0:0:0:0:
95,199,238563,1,0,0:0:0:0:
112,144,238620,1,0,0:0:0:0:
160,111,238678,1,0,2:1:0:0:
326,312,238736,6,0,L|376:310,1,35.2000010742188,0|0,3:1|0:0,0:0:0:0:
420,306,238851,2,0,L|420:244,1,35.2000010742188,0|0,0:0|0:0,0:0:0:0:
357,263,238966,1,0,2:1:0:0:
188,245,239024,6,0,L|146:240,1,35.2000010742188,0|0,3:1|0:0,0:0:0:0:
96,240,239139,2,0,L|94:180,1,35.2000010742188,0|0,0:0|0:0,0:0:0:0:
157,196,239254,1,0,2:1:0:0:
354,160,239313,6,0,P|414:209|355:259,1,176.000005371094,0|0,2:1|3:1,2:2:0:0:
297,262,239673,1,0,3:1:0:0:
146,169,239745,2,0,L|147:121,1,47.9999985351563,0|0,3:1|3:1,2:2:0:0:
215,120,239890,2,0,L|279:117,1,47.9999985351563,0|0,3:1|3:1,2:2:0:0:
200,93,240034,2,0,L|141:94,1,47.9999985351563,0|0,3:1|3:1,2:2:0:0:
337,99,240178,1,0,3:1:0:0:
383,105,240250,1,0,3:1:0:0:
411,143,240322,1,0,3:1:0:0:
404,189,240394,1,0,3:1:0:0:
178,196,240466,6,0,P|114:252|178:307,1,191.999994140625,8|0,0:3|3:1,2:2:0:0:
246,303,240827,1,0,3:1:0:0:
379,292,240899,2,0,L|426:284,1,47.9999985351563,0|0,3:1|3:1,0:0:0:0:
168,248,241043,6,0,P|86:210|90:120,1,191.999994140625,12|0,0:1|3:1,2:2:0:0:
241,116,241404,1,0,3:2:0:0:
391,113,241476,1,0,3:2:0:0:
241,116,241548,1,0,3:2:0:0:
91,120,241620,1,12,0:1:0:0:
