osu file format v14

[General]
AudioFilename: audio.mp3
AudioLeadIn: 0
PreviewTime: 196432
Countdown: 0
SampleSet: Normal
StackLeniency: 0.7
Mode: 2
LetterboxInBreaks: 0
WidescreenStoryboard: 1

[Editor]
DistanceSpacing: 1.2
BeatDivisor: 4
GridSize: 16
TimelineZoom: 4.899998

[Metadata]
Title:Fly Like You [Long Version]
TitleUnicode:Fly Like You [Long Version]
Artist:technoplanet
ArtistUnicode:technoplanet
Creator:[ TNTlealu ]
Version:Himiko's EXHAUST
Source:SOUND VOLTEX IV HEAVENLY HAVEN
Tags:electronic -Joakh Shinsekai- sdvx 4 旋律世界 ΩDimension -Phase.5+- full ver sv instrumental konami video game rhythm [_Chichinya_] Chi Vulkin uone Rocma _Asriel Yumeno Himiko examination Minato Yukina CLSW alienflybot AFB Loneight l1106188 L18 岡聡志 安部泉希 autofanboy
BeatmapID:2303700
BeatmapSetID:1079909

[Difficulty]
HPDrainRate:6
CircleSize:3.7
OverallDifficulty:9
ApproachRate:9
SliderMultiplier:1.3
SliderTickRate:1

[Events]
//Background and Video events
0,0,"fcb914da2343ca7cea85c6f8803cf27e4147f5c0.png",0,0
//Break Periods
2,194679,195857
//Storyboard Layer 0 (Background)
//Storyboard Layer 1 (Fail)
//Storyboard Layer 2 (Pass)
//Storyboard Layer 3 (Foreground)
//Storyboard Layer 4 (Overlay)
//Storyboard Sound Samples

[TimingPoints]
625,209.79020979021,3,1,1,75,1,0
625,-100,3,1,1,75,0,0
2093,-100,3,1,1,75,0,0
2303,-100,3,1,1,75,0,0
3142,-100,3,1,1,75,0,0
4611,-100,3,1,1,75,0,0
4820,-100,3,1,1,75,0,0
5240,-100,3,1,1,75,0,0
5450,-100,3,1,1,75,0,0
5869,-100,3,1,1,75,0,0
5974,-100,3,1,10,30,0,0
6708,-100,3,1,1,30,0,0
6918,-100,3,1,10,85,0,1
7127,-100,3,1,10,85,0,1
7232,-100,3,1,10,85,0,1
8386,-100,3,1,10,85,0,1
8491,-100,3,1,10,85,0,1
9435,-100,3,1,13,85,0,1
9539,-100,3,1,10,85,0,1
9645,-100,3,1,13,85,0,1
9855,-100,3,1,10,85,0,1
10064,-100,3,1,13,85,0,1
10484,-100,3,1,10,85,0,1
11323,-100,3,1,11,85,0,1
11427,-100,3,1,10,85,0,1
11533,-100,3,1,10,85,0,1
11952,-100,3,1,11,85,0,1
12161,-100,3,1,10,85,0,1
12266,-100,3,1,10,85,0,1
12792,-100,3,1,11,85,0,1
12896,-100,3,1,10,85,0,1
13630,-100,3,1,11,85,0,1
13841,-100,3,1,10,85,0,1
14155,-100,3,1,11,85,0,1
14260,-100,3,1,10,85,0,1
15099,-100,3,1,12,85,0,1
15308,-100,3,1,10,85,0,1
15729,-100,3,1,11,85,0,1
16358,-100,3,1,12,85,0,1
16988,-100,3,1,20,80,0,0
17092,-100,3,1,19,80,0,0
17196,-100,3,1,19,80,0,0
17302,-100,3,1,20,80,0,0
19085,-100,3,1,21,80,0,0
19348,-100,3,1,20,80,0,0
19400,-100,3,1,20,80,0,0
19505,-100,3,1,20,80,0,0
19714,-100,3,1,22,80,0,0
20134,-100,3,1,23,80,0,0
20238,-100,3,1,20,80,0,0
20344,-100,3,1,23,80,0,0
20921,-100,3,1,23,80,0,0
20973,-100,3,1,23,80,0,0
21131,-100,3,1,23,80,0,0
21183,-100,3,1,23,80,0,0
21341,-100,3,1,23,80,0,0
21393,-100,3,1,24,80,0,0
22022,-100,3,1,20,80,0,0
22127,-100,3,1,19,80,0,0
22231,-100,3,1,19,80,0,0
22337,-100,3,1,20,80,0,0
24120,-100,3,1,21,80,0,0
24383,-100,3,1,20,80,0,0
24434,-100,3,1,20,80,0,0
24540,-100,3,1,20,80,0,0
24749,-100,3,1,22,80,0,0
25169,-100,3,1,23,80,0,0
25956,-100,3,1,23,80,0,0
26008,-100,3,1,23,80,0,0
26166,-100,3,1,23,80,0,0
26218,-100,3,1,23,80,0,0
26376,-100,3,1,23,80,0,0
26428,-100,3,1,24,80,0,0
26533,-100,3,1,23,80,0,0
26638,-100,3,1,23,80,0,0
26743,-100,3,1,24,80,0,0
26848,-100,3,1,23,80,0,0
26952,-100,3,1,23,80,0,0
27057,-100,3,1,30,80,0,0
27267,-100,3,1,30,80,0,0
29785,-100,3,1,30,80,0,0
30204,-100,3,1,30,80,0,0
30624,-100,3,1,30,80,0,0
30834,-100,3,1,30,80,0,0
30938,-100,3,1,31,80,0,0
31043,-100,3,1,31,80,0,0
31148,-100,3,1,31,80,0,0
31253,-100,3,1,31,80,0,0
31358,-100,3,1,31,80,0,0
31463,-100,3,1,30,80,0,0
32092,-100,3,1,37,80,0,0
32302,-100,3,1,32,80,0,0
32406,-100,3,1,32,80,0,0
32512,-100,3,1,32,80,0,0
34399,-100,3,1,30,80,0,0
34610,-100,3,1,32,80,0,0
34820,-100,3,1,32,80,0,0
34977,-100,3,1,32,80,0,0
35029,-100,3,1,29,80,0,0
35239,-100,3,1,32,80,0,0
35659,-100,3,1,29,80,0,0
35869,-100,3,1,33,80,0,0
35973,-100,3,1,32,80,0,0
36078,-100,3,1,33,80,0,0
36393,-100,3,1,32,80,0,0
36498,-100,3,1,33,80,0,0
37127,-100,3,1,37,80,0,0
37337,-100,3,1,32,80,0,0
37757,-100,3,1,36,80,0,0
37861,-100,3,1,32,80,0,0
37966,-100,3,1,32,80,0,0
39015,-100,3,1,36,80,0,0
39119,-100,3,1,32,80,0,0
39645,-100,3,1,37,80,0,0
39750,-100,3,1,32,80,0,0
40274,-100,3,1,36,80,0,0
40343,-100,3,1,32,80,0,0
40484,-100,3,1,32,80,0,0
41533,-100,3,1,36,80,0,0
41637,-100,3,1,32,80,0,0
41900,-100,3,1,32,80,0,0
41952,-100,3,1,32,80,0,0
42110,-100,3,1,32,80,0,0
42162,-100,3,1,37,80,0,0
42266,-100,3,1,32,80,0,0
42371,-100,3,1,32,80,0,0
42792,-100,3,1,36,80,0,0
42897,-100,3,1,32,80,0,0
43001,-100,3,1,32,80,0,0
43421,-100,3,1,37,80,0,0
43526,-100,3,1,32,80,0,0
43736,-100,3,1,37,80,0,0
43841,-100,3,1,32,80,0,0
44154,-100,3,1,29,80,0,0
44259,-100,3,1,29,80,0,0
44574,-100,3,1,32,80,0,0
44680,225.563909774436,3,1,34,80,1,0
44680,-100,3,1,34,80,0,0
44905,-100,3,1,34,80,0,0
45356,-100,3,1,34,80,0,0
45582,-100,3,1,34,80,0,0
46033,-100,3,1,34,80,0,0
46710,-100,3,1,34,80,0,0
47386,209.79020979021,3,1,37,80,1,0
47386,-100,3,1,37,80,0,0
47490,-100,3,1,32,80,0,0
48015,-100,3,1,37,80,0,0
48119,-100,3,1,32,80,0,0
48224,-100,3,1,35,80,0,0
48644,-100,3,1,32,80,0,0
49274,-100,3,1,37,80,0,0
49378,-100,3,1,32,80,0,0
49483,-100,3,1,32,80,0,0
49693,-100,3,1,35,80,0,0
49903,-100,3,1,32,80,0,0
50532,-100,3,1,37,80,0,0
50636,-100,3,1,32,80,0,0
50951,-100,3,1,35,80,0,0
51004,-100,3,1,0,80,0,0
51057,-100,3,1,35,80,0,0
51162,-100,3,1,35,80,0,0
51266,-100,3,1,35,50,0,0
51371,-100,3,1,35,55,0,0
51476,-100,3,1,35,60,0,0
51581,-100,3,1,35,65,0,0
51686,-100,3,1,35,70,0,0
51791,-100,3,1,35,80,0,0
52630,-100,3,1,35,30,0,0
53679,-100,3,1,10,85,0,1
53889,-100,3,1,10,85,0,1
53994,-100,3,1,10,85,0,1
55148,-100,3,1,10,85,0,1
55253,-100,3,1,10,85,0,1
56197,-100,3,1,13,85,0,1
56301,-100,3,1,10,85,0,1
56406,-100,3,1,13,85,0,1
56616,-100,3,1,10,85,0,1
56826,-100,3,1,13,85,0,1
57246,-100,3,1,10,85,0,1
58085,-100,3,1,11,85,0,1
58189,-100,3,1,10,85,0,1
58295,-100,3,1,10,85,0,1
58714,-100,3,1,11,85,0,1
58923,-100,3,1,10,85,0,1
59028,-100,3,1,10,85,0,1
59553,-100,3,1,11,85,0,1
59657,-100,3,1,10,85,0,1
60392,-100,3,1,11,85,0,1
60602,-100,3,1,10,85,0,1
60917,-100,3,1,11,85,0,1
61021,-100,3,1,10,85,0,1
61126,-100,3,1,10,85,0,1
61232,-100,3,1,10,75,0,0
61861,-100,3,1,12,85,0,0
62071,-100,3,1,10,85,0,0
62350,-100,3,1,10,85,0,0
62490,-100,3,1,14,75,0,0
62559,-100,3,1,10,75,0,0
62700,-100,3,1,14,75,0,0
62769,-100,3,1,10,75,0,0
62910,-100,3,1,14,75,0,0
62962,-100,3,1,10,75,0,0
63015,-100,3,1,10,75,0,0
63120,-100,3,1,10,75,0,0
63225,-100,3,1,10,75,0,0
63330,-100,3,1,21,75,0,0
63434,-100,3,1,21,75,0,0
63539,-100,3,1,10,75,0,0
63592,-100,3,1,21,75,0,0
63644,-100,3,1,10,75,0,0
63697,-100,3,1,21,75,0,0
63749,-100,3,1,10,85,0,1
63959,-100,3,1,10,85,0,1
64064,-100,3,1,10,85,0,1
64169,-100,3,1,10,85,0,1
65218,-100,3,1,10,85,0,1
65427,-100,3,1,10,85,0,1
65742,-100,3,1,10,85,0,1
65847,-100,3,1,10,85,0,1
65952,-100,3,1,10,85,0,1
66057,-100,3,1,10,85,0,1
66162,-100,3,1,10,85,0,1
66267,-100,3,1,13,85,0,1
66372,-100,3,1,10,85,0,1
66476,-100,3,1,13,85,0,1
66686,-100,3,1,10,85,0,1
66896,-100,3,1,13,85,0,1
67316,-100,3,1,10,85,0,1
67525,-100,3,1,10,85,0,1
68155,-100,3,1,11,85,0,1
68259,-100,3,1,10,85,0,1
68364,-100,3,1,10,85,0,1
68574,-100,3,1,10,85,0,1
68627,-100,3,1,10,85,0,1
68679,-100,3,1,10,85,0,1
68732,-100,3,1,10,85,0,1
68784,-100,3,1,10,85,0,1
71931,-100,3,1,12,85,0,1
71983,-100,3,1,10,85,0,1
72560,-100,3,1,14,85,0,1
72770,-100,3,1,14,85,0,1
73084,-100,3,1,10,85,0,1
73190,-100,3,1,14,85,0,1
73399,-100,3,1,14,85,0,1
73504,-100,3,1,10,85,0,1
73819,-100,3,1,35,75,0,0
73923,-100,3,1,32,75,0,0
74029,-100,3,1,32,75,0,0
75288,-100,3,1,36,75,0,0
75392,-100,3,1,32,75,0,0
75497,-100,3,1,32,75,0,0
75707,-100,3,1,36,75,0,0
75811,-100,3,1,32,75,0,0
75917,-100,3,1,35,75,0,0
76126,-100,3,1,32,75,0,0
77805,-100,3,1,36,75,0,0
77910,-100,3,1,32,75,0,0
78014,-100,3,1,32,75,0,0
78225,-100,3,1,36,75,0,0
78329,-100,3,1,32,75,0,0
78434,-100,3,1,35,75,0,0
78643,-100,3,1,32,75,0,0
80323,-100,3,1,36,75,0,0
80532,-100,3,1,32,75,0,0
80742,-100,3,1,36,75,0,0
80952,-100,3,1,35,75,0,0
81266,-100,3,1,32,75,0,0
81372,-100,3,1,32,75,0,0
82420,-100,3,1,35,75,0,0
82630,-100,3,1,32,75,0,0
83364,-100,3,1,35,75,0,0
83574,-100,3,1,32,75,0,0
83889,-100,3,1,37,75,0,0
83994,-100,3,1,32,75,0,0
86092,-100,3,1,21,75,0,0
86196,-100,3,1,21,75,0,0
86302,-100,3,1,32,75,0,0
86406,-100,3,1,37,75,0,0
86826,-100,3,1,32,75,0,0
87036,-100,3,1,37,75,0,0
87455,-100,3,1,32,75,0,0
88924,-100,3,1,37,75,0,0
89133,-100,3,1,32,75,0,0
91441,-100,3,1,37,75,0,0
91861,-100,3,1,32,75,0,0
92071,-100,3,1,37,75,0,0
92490,-100,3,1,32,75,0,0
92700,-100,3,1,37,75,0,0
92804,-100,3,1,32,75,0,0
92909,-100,3,1,32,75,0,0
93399,-100,3,1,21,75,0,0
93487,-100,3,1,0,75,0,0
93539,-100,3,1,32,75,0,0
93608,-100,3,1,21,75,0,0
93697,-100,3,1,0,75,0,0
93749,-100,3,1,32,75,0,0
93959,-100,3,1,37,75,0,0
94063,-100,3,1,32,75,0,0
94169,-100,3,1,32,75,0,0
96057,-100,3,1,37,75,0,0
96161,-100,3,1,32,75,0,0
96267,-100,3,1,32,75,0,0
96476,-100,3,1,37,75,0,0
96685,-100,3,1,32,75,0,0
98365,-100,3,1,37,75,0,0
98469,-100,3,1,32,75,0,0
98574,-100,3,1,37,75,0,0
98679,-100,3,1,32,75,0,0
98994,-100,3,1,37,75,0,0
99203,-100,3,1,32,75,0,0
101511,-100,3,1,37,75,0,0
101616,-100,3,1,32,75,0,0
101721,-100,3,1,32,75,0,0
102770,-100,3,1,37,75,0,0
102874,-100,3,1,32,75,0,0
103085,-100,3,1,37,75,0,0
103189,-100,3,1,32,75,0,0
103399,-100,3,1,37,75,0,0
103504,-100,3,1,32,75,0,0
103714,-100,3,1,37,75,0,0
103819,-100,3,1,32,75,0,0
104029,217.391304347826,3,1,40,80,1,0
104029,-100,3,1,40,80,0,0
104246,-100,3,1,40,80,0,0
105659,-100,3,1,40,80,0,0
105768,-100,3,1,40,80,0,0
106093,-100,3,1,40,80,0,0
106202,-100,3,1,41,80,0,0
106275,-100,3,1,41,80,0,0
106420,-100,3,1,41,80,0,0
106854,-100,3,1,40,80,0,0
107506,-100,3,1,41,80,0,0
107615,-100,3,1,41,80,0,0
107724,-100,3,1,40,80,0,0
109029,-100,3,1,41,80,0,0
109246,-100,3,1,40,80,0,0
109463,-100,3,1,41,80,0,0
109572,-100,3,1,41,80,0,0
109681,-100,3,1,40,80,0,0
110224,-100,3,1,40,80,0,0
110333,-100,3,1,40,80,0,0
110768,-100,3,1,41,80,0,0
111419,-100,3,1,40,80,0,0
111474,-100,3,1,40,80,0,0
111637,-100,3,1,40,80,0,0
112941,-100,3,1,41,80,0,0
113159,-100,3,1,40,80,0,0
113231,-100,3,1,32,80,0,0
113267,-100,3,1,32,80,0,0
113376,-100,3,1,32,80,0,0
113484,-100,3,1,32,80,0,0
113594,-100,3,1,32,80,0,0
113702,-100,3,1,32,80,0,0
113739,-100,3,1,32,80,0,0
113811,-100,3,1,32,80,0,0
113920,-100,3,1,32,80,0,0
114029,-100,3,1,32,80,0,0
114137,-100,3,1,0,75,0,0
114246,-100,3,1,32,80,0,0
114355,-100,3,1,32,80,0,0
114463,225.563909774436,3,1,40,70,1,0
114463,-100,3,1,40,70,0,0
116718,-100,3,1,41,70,0,0
117395,-100,3,1,40,70,0,0
118072,-100,3,1,41,70,0,0
118297,-100,3,1,40,70,0,0
119650,-100,3,1,41,70,0,0
119876,-100,3,1,40,70,0,0
120101,-100,3,1,41,70,0,0
120327,-100,3,1,40,70,0,0
121455,-100,3,1,41,70,0,0
122357,-100,3,1,42,70,0,0
123259,-100,3,1,40,70,0,0
123485,-100,3,1,41,70,0,0
123936,209.79020979021,3,1,41,70,1,0
123936,-100,3,1,41,70,0,0
124040,-100,3,1,40,30,0,0
124145,-100,3,1,40,30,0,0
124250,-100,3,1,40,70,0,0
124460,-100,3,1,40,70,0,0
124775,-100,3,1,33,75,0,0
125142,-100,3,1,33,75,0,0
125194,209.79020979021,3,1,37,80,1,0
125194,-100,3,1,37,80,0,0
125403,-100,3,1,32,80,0,0
125509,-100,3,1,32,80,0,0
125614,-100,3,1,32,80,0,0
125824,-100,3,1,36,80,0,0
125928,-100,3,1,32,80,0,0
126033,-100,3,1,32,80,0,0
127082,-100,3,1,36,80,0,0
127186,-100,3,1,32,80,0,0
127712,-100,3,1,37,80,0,0
127817,-100,3,1,32,80,0,0
128341,-100,3,1,36,80,0,0
128410,-100,3,1,32,80,0,0
128445,-100,3,1,32,80,0,0
128551,-100,3,1,32,80,0,0
128655,-100,3,1,32,80,0,0
128761,-100,3,1,32,80,0,0
128865,-100,3,1,32,80,0,0
128970,-100,3,1,32,80,0,0
129600,-100,3,1,36,80,0,0
129704,-100,3,1,32,80,0,0
130229,-100,3,1,37,80,0,0
130334,-100,3,1,32,80,0,0
130859,-100,3,1,36,80,0,0
130963,-100,3,1,32,80,0,0
131068,-100,3,1,32,80,0,0
131172,-100,3,1,32,80,0,0
131278,-100,3,1,32,80,0,0
132117,-100,3,1,36,80,0,0
132221,-100,3,1,32,80,0,0
132747,-100,3,1,37,80,0,0
132956,-100,3,1,32,80,0,0
133376,-100,3,1,37,80,0,0
133481,-100,3,1,32,80,0,0
133585,-100,3,1,32,80,0,0
133795,-100,3,1,32,80,0,0
134215,-100,3,1,32,80,0,0
134320,-100,3,1,32,80,0,0
134740,-100,3,1,32,80,0,0
134845,-100,3,1,32,80,0,0
134949,-100,3,1,32,80,0,0
135054,-100,3,1,32,80,0,0
135159,-100,3,1,32,80,0,0
135264,-100,3,1,38,75,0,0
135474,-100,3,1,38,75,0,0
135578,-100,3,1,38,75,0,0
135684,-100,3,1,36,75,0,0
135788,-100,3,1,38,75,0,0
135894,-100,3,1,38,75,0,0
136942,-100,3,1,36,75,0,0
137046,-100,3,1,38,75,0,0
137152,-100,3,1,38,75,0,0
138201,-100,3,1,36,75,0,0
138411,-100,3,1,38,75,0,0
139459,-100,3,1,36,75,0,0
139670,-100,3,1,38,75,0,0
140299,-100,3,1,38,75,0,0
140509,-100,3,1,38,75,0,0
140719,-100,3,1,38,75,0,0
140929,-100,3,1,36,75,0,0
141138,-100,3,1,38,75,0,0
141348,-100,3,1,38,75,0,0
141558,-100,3,1,36,75,0,0
141663,-100,3,1,38,75,0,0
141768,-100,3,1,38,75,0,0
141977,-100,3,1,38,75,0,0
142187,-100,3,1,32,75,0,0
142292,-100,3,1,29,80,0,0
142397,-100,3,1,29,80,0,0
142607,-100,3,1,29,80,0,0
142816,225.563909774436,3,1,34,75,1,0
142816,-100,3,1,34,75,0,0
142873,-100,3,1,34,75,0,0
143492,-100,3,1,34,75,0,0
144197,-100,3,1,34,25,0,0
144734,-100,3,1,34,75,0,0
144846,-100,3,1,34,75,0,0
145522,209.79020979021,3,1,37,75,1,0
145522,-100,3,1,37,75,0,0
145626,-100,3,1,32,80,0,0
146151,-100,3,1,37,80,0,0
146255,-100,3,1,32,80,0,0
146360,-100,3,1,35,80,0,0
146780,-100,3,1,32,80,0,0
146884,-100,3,1,32,80,0,0
146990,-100,3,1,32,80,0,0
147304,-100,3,1,32,80,0,0
147410,-100,3,1,37,80,0,0
147515,-100,3,1,37,80,0,0
147549,-100,3,1,32,80,0,0
147619,-100,3,1,32,80,0,0
147724,-100,3,1,32,80,0,0
147829,-100,3,1,35,80,0,0
148039,-100,3,1,32,80,0,0
148353,-100,3,1,32,80,0,0
148459,-100,3,1,32,80,0,0
148668,-100,3,1,37,80,0,0
148772,-100,3,1,32,80,0,0
148982,-100,3,1,32,80,0,0
149088,-100,3,1,35,80,0,0
149298,-100,3,1,35,80,0,0
150661,-100,3,1,35,80,0,0
150714,-100,3,1,35,80,0,0
150766,-100,3,1,35,80,0,0
151815,-100,3,1,38,80,0,0
151868,-100,3,1,38,80,0,0
152235,-100,3,1,38,80,0,0
152287,-100,3,1,38,80,0,0
152969,-100,3,1,38,80,0,0
153022,-100,3,1,38,80,0,0
153074,-100,3,1,10,85,0,1
153284,-100,3,1,10,85,0,1
153389,-100,3,1,10,85,0,1
154542,-100,3,1,10,85,0,1
154647,-100,3,1,10,85,0,1
155591,-100,3,1,13,85,0,1
155695,-100,3,1,10,85,0,1
155801,-100,3,1,13,85,0,1
156011,-100,3,1,10,85,0,1
156221,-100,3,1,13,85,0,1
156640,-100,3,1,10,85,0,1
157480,-100,3,1,11,85,0,1
157584,-100,3,1,10,85,0,1
157689,-100,3,1,10,85,0,1
158109,-100,3,1,11,85,0,1
158318,-100,3,1,10,85,0,1
158423,-100,3,1,10,85,0,1
158948,-100,3,1,11,85,0,1
159052,-100,3,1,10,85,0,1
159787,-100,3,1,11,85,0,1
159997,-100,3,1,10,85,0,1
160312,-100,3,1,11,85,0,1
160417,-100,3,1,10,85,0,1
160521,-100,3,1,10,85,0,1
160626,-100,3,1,10,75,0,0
161256,-100,3,1,12,85,0,0
161465,-100,3,1,10,85,0,0
161745,-100,3,1,10,85,0,0
161885,-100,3,1,14,75,0,0
161954,-100,3,1,10,75,0,0
162095,-100,3,1,10,75,0,0
162200,-100,3,1,10,75,0,0
162235,-100,3,1,10,75,0,0
162305,-100,3,1,14,75,0,0
162357,-100,3,1,10,75,0,0
162410,-100,3,1,10,75,0,0
162515,-100,3,1,10,75,0,0
162619,-100,3,1,10,75,0,0
162724,-100,3,1,21,75,0,0
162829,-100,3,1,21,75,0,0
162934,-100,3,1,10,75,0,0
162986,-100,3,1,21,75,0,0
163038,-100,3,1,10,75,0,0
163091,-100,3,1,21,75,0,0
163144,-100,3,1,10,85,0,1
163354,-100,3,1,10,85,0,1
163459,-100,3,1,10,85,0,1
163563,-100,3,1,10,85,0,1
164612,-100,3,1,10,85,0,1
164822,-100,3,1,10,85,0,1
165137,-100,3,1,10,85,0,1
165242,-100,3,1,10,85,0,1
165347,-100,3,1,10,85,0,1
165452,-100,3,1,10,85,0,1
165556,-100,3,1,10,85,0,1
165661,-100,3,1,13,85,0,1
165765,-100,3,1,10,85,0,1
165871,-100,3,1,13,85,0,1
166081,-100,3,1,10,85,0,1
166291,-100,3,1,13,85,0,1
166710,-100,3,1,10,85,0,1
166920,-100,3,1,10,85,0,1
167549,-100,3,1,11,85,0,1
167653,-100,3,1,10,85,0,1
167759,-100,3,1,10,85,0,1
167969,-100,3,1,10,85,0,1
168074,-100,3,1,10,85,0,1
168126,-100,3,1,10,85,0,1
168179,-100,3,1,10,85,0,1
171326,-100,3,1,12,85,0,1
171378,-100,3,1,10,85,0,1
172584,-100,3,1,12,85,0,1
173214,-100,3,1,15,80,0,0
173266,-100,3,1,15,80,0,0
173319,-100,3,1,15,80,0,0
173354,-100,3,1,15,80,0,0
173423,-100,3,1,15,80,0,0
173476,-100,3,1,15,80,0,0
173633,-100,3,1,15,80,0,0
173686,-100,3,1,15,80,0,0
173843,-100,3,1,15,80,0,0
173895,-100,3,1,15,80,0,0
174052,-100,3,1,15,80,0,0
174105,-100,3,1,15,80,0,0
174262,-100,3,1,15,80,0,0
174315,-100,3,1,15,80,0,0
174473,-100,3,1,15,80,0,0
175731,-100,3,1,13,85,0,1
175835,-100,3,1,10,85,0,1
175941,-100,3,1,13,85,0,1
176151,-100,3,1,10,85,0,1
176361,-100,3,1,13,85,0,1
176780,-100,3,1,10,85,0,1
177619,-100,3,1,11,85,0,1
177723,-100,3,1,10,85,0,1
177829,-100,3,1,10,85,0,1
178039,-100,3,1,10,85,0,1
178091,-100,3,1,10,85,0,1
178144,-100,3,1,10,85,0,1
178196,-100,3,1,10,85,0,1
178249,-100,3,1,18,80,0,0
178354,-100,3,1,10,80,0,0
178878,-100,3,1,18,80,0,0
178948,-100,3,1,10,80,0,0
178982,-100,3,1,10,80,0,0
179088,-100,3,1,10,80,0,0
179508,-100,3,1,18,80,0,0
179612,-100,3,1,10,80,0,0
179717,-100,3,1,10,80,0,0
180137,-100,3,1,18,80,0,0
180241,-100,3,1,10,80,0,0
180347,-100,3,1,10,80,0,0
180976,-100,3,1,10,80,0,0
183126,-100,3,1,0,80,0,0
183179,-100,3,1,10,80,0,0
183229,-100,3,1,0,80,0,0
183284,217.391304347826,3,1,15,80,1,0
183284,-100,3,1,15,80,0,0
183501,-100,3,1,15,80,0,0
183827,-100,3,1,15,80,0,0
184153,-100,3,1,15,80,0,0
184370,-100,3,1,15,80,0,0
184443,-100,3,1,15,80,0,0
184588,-100,3,1,15,80,0,0
185348,-100,3,1,10,80,0,0
185838,-100,3,1,0,80,0,0
185892,225.563909774436,3,1,10,80,1,0
185892,-100,3,1,10,80,0,0
187170,-100,3,1,0,80,0,0
187245,234.375,3,1,10,80,1,0
187245,-100,3,1,10,80,0,0
187948,-100,3,1,11,80,0,0
188065,-100,3,1,10,80,0,0
188182,-100,3,1,10,80,0,0
188416,-100,3,1,10,80,0,0
188475,-100,3,1,10,80,0,0
188534,-100,3,1,10,80,0,0
188590,-100,3,1,0,80,0,0
188651,243.90243902439,3,1,11,80,1,0
188651,-100,3,1,11,80,0,0
188894,-100,3,1,16,80,0,0
189016,-100,3,1,16,80,0,0
189138,-100,3,1,16,80,0,0
189382,254.237288135593,3,1,16,80,1,0
189445,-100,3,1,16,80,0,0
189509,-100,3,1,16,80,0,0
189572,-100,3,1,16,80,0,0
189636,-100,3,1,16,80,0,0
189699,-100,3,1,16,80,0,0
189763,-100,3,1,16,80,0,0
189826,-100,3,1,16,80,0,0
189890,-100,3,1,16,80,0,0
189954,-100,3,1,16,80,0,0
190017,-100,3,1,16,80,0,0
190081,-100,3,1,16,80,0,0
190144,306.122448979592,3,1,16,80,1,0
190144,-100,3,1,16,80,0,0
190450,-100,3,1,16,80,0,0
190756,361.44578313253,3,1,16,80,1,0
190756,-100,3,1,16,80,0,0
191117,461.538461538462,3,1,16,80,1,1
191193,-100,3,1,16,80,0,0
191270,-100,3,1,16,80,0,0
191578,-100,3,1,16,80,0,0
191732,-100,3,1,16,80,0,0
191809,-100,3,1,16,80,0,0
191886,-100,3,1,16,80,0,0
191963,-100,3,1,16,80,0,0
192040,-100,3,1,16,80,0,0
192117,-100,3,1,16,80,0,0
192193,-100,3,1,16,80,0,0
192299,-100,3,1,16,80,0,0
192415,-100,3,1,16,80,0,0
192501,659.340659340659,3,1,16,80,1,0
192501,-100,3,1,16,80,0,0
192830,-100,3,1,16,80,0,0
194479,-100,3,1,38,80,0,0
196457,659.340659340659,3,1,16,50,1,0
196457,-100,3,1,16,50,0,0
197116,594.059405940594,3,1,17,50,1,0
197116,-100,3,1,17,50,0,0
198898,540.540540540541,3,1,17,50,1,0
198898,-100,3,1,17,50,0,0
203357,-100,3,1,17,50,0,0
203492,-100,3,1,17,50,0,0
203762,481.927710843374,3,1,17,60,1,0
203762,-100,3,1,17,60,0,0
205930,-100,3,1,17,60,0,0
206653,465.116279069767,3,1,17,60,1,0
206653,-100,3,1,17,60,0,0
209443,456.273764258555,3,1,1,60,1,0
209443,-100,3,1,1,60,0,0
209899,-100,3,1,17,60,0,0
210127,-100,3,1,32,60,0,0
210811,-100,3,1,1,60,0,0
211268,-100,3,1,17,60,0,0
211496,-100,3,1,32,60,0,0
212180,441.176470588235,3,1,1,70,1,0
212180,-100,3,1,1,70,0,0
212621,-100,3,1,17,70,0,0
212841,-100,3,1,32,70,0,0
213062,-100,3,1,17,70,0,0
213282,-100,3,1,32,70,0,0
213503,-100,3,1,1,70,0,0
213944,-100,3,1,17,70,0,0
214165,-100,3,1,32,70,0,0
214385,-100,3,1,17,70,0,0
214606,-100,3,1,10,70,0,0
214827,430.10752688172,3,1,1,75,1,0
214827,-100,3,1,1,75,0,0
215257,-100,3,1,10,75,0,0
215687,-100,3,1,1,75,0,0
215902,-100,3,1,10,75,0,0
216117,-100,3,1,1,75,0,0
216547,-100,3,1,10,75,0,0
216977,-100,3,1,1,75,0,0
217192,-100,3,1,10,75,0,0
217407,422.535211267606,3,1,1,75,1,0
217407,-100,3,1,1,75,0,0
217829,-100,3,1,10,75,0,0
218252,-100,3,1,1,75,0,0
218463,-100,3,1,10,75,0,0
218674,461.538461538462,3,1,1,80,1,1
218674,-100,3,1,1,80,0,0
219135,500,3,1,1,82,1,0
219135,-100,3,1,1,82,0,0
219385,545.454545454546,3,1,1,84,1,1
219385,-100,3,1,1,84,0,0
219657,600,3,1,1,86,1,1
219657,-100,3,1,1,86,0,0
219957,666.666666666667,3,1,1,88,1,1
219957,-100,3,1,1,88,0,0
220290,225.563909774436,3,1,10,90,1,1
220290,-100,3,1,10,90,0,1
220515,-100,3,1,10,90,0,1
220628,-100,3,1,10,90,0,1
220966,226.415094339623,3,1,10,90,1,1
220966,-100,3,1,10,90,0,1
221645,227.272727272727,3,1,10,90,1,1
221645,-100,3,1,10,90,0,1
221872,-100,3,1,10,90,0,1
221985,-100,3,1,10,90,0,1
222326,228.136882129278,3,1,10,90,1,1
222326,-100,3,1,10,90,0,1
223010,229.007633587786,3,1,10,90,1,1
223010,-100,3,1,10,90,0,1
223697,229.885057471264,3,1,10,90,1,1
223697,-100,3,1,10,90,0,1
224386,230.769230769231,3,1,10,90,1,1
224386,-100,3,1,10,90,0,1
224616,235.294117647059,3,1,10,90,1,1
224616,-100,3,1,10,90,0,1
224851,240,3,1,10,90,1,1
224851,-100,3,1,10,90,0,1
225091,244.897959183673,3,1,11,90,1,1
225091,-100,3,1,11,90,0,1
225213,-100,3,1,10,90,0,1
225335,250,3,1,10,90,1,1
225335,-100,3,1,10,90,0,1
225585,255.31914893617,3,1,10,90,1,1
225585,-100,3,1,10,90,0,1
225840,234.375,3,1,10,90,1,1
225840,-100,3,1,10,90,0,1
226074,-100,3,1,10,90,0,1
226191,-100,3,1,10,90,0,1
226543,236.220472440945,3,1,10,90,1,1
226543,-100,3,1,10,90,0,1
227251,238.095238095238,3,1,10,90,1,1
227251,-100,3,1,10,90,0,1
227965,240,3,1,10,90,1,1
227965,-100,3,1,10,90,0,1
228445,-100,3,1,11,90,0,1
228685,243.90243902439,3,1,10,90,1,1
228685,-100,3,1,10,90,0,1
229172,-100,3,1,40,90,0,1
229416,258.620689655172,3,1,12,90,1,1
229416,-100,3,1,12,90,0,1
229674,-100,3,1,10,90,0,1
229933,-100,3,1,40,90,0,1
230191,306.122448979592,3,1,10,90,1,1
230191,-100,3,1,10,90,0,1
231109,384.615384615385,3,1,10,90,1,1
231109,-100,3,1,10,90,0,1
231493,410.958904109589,3,1,10,90,1,1
231493,-100,3,1,10,90,0,1
231903,487.80487804878,3,1,1,90,1,1
231903,-100,3,1,1,90,0,1
232390,288.461538461538,4,1,10,80,1,0
232390,-71.4285714285714,4,1,10,80,0,0
232486,-71.4285714285714,4,1,40,80,0,0
232774,-71.4285714285714,4,1,10,80,0,0
233062,-71.4285714285714,4,1,40,80,0,0
233351,-71.4285714285714,4,1,10,80,0,0
233639,-71.4285714285714,4,1,40,80,0,0
233928,-71.4285714285714,4,1,10,80,0,0
234216,-71.4285714285714,4,1,40,80,0,0
234505,-71.4285714285714,4,1,10,80,0,0
234697,-71.4285714285714,4,1,1,80,0,0
237005,-55.5555555555556,4,1,10,80,0,0
237063,-55.5555555555556,4,1,10,80,0,0
237236,-55.5555555555556,4,1,40,80,0,0
237293,-55.5555555555556,4,1,10,80,0,0
237351,-55.5555555555556,4,1,10,80,0,0
237524,-55.5555555555556,4,1,40,80,0,0
237582,-55.5555555555556,4,1,10,80,0,0
237640,-55.5555555555556,4,1,10,80,0,0
237813,-55.5555555555556,4,1,40,80,0,0
237870,-55.5555555555556,4,1,10,80,0,0
237928,-55.5555555555556,4,1,10,80,0,0
238101,-55.5555555555556,4,1,40,80,0,0
238159,-55.5555555555556,4,1,10,80,0,0
238216,-55.5555555555556,4,1,10,80,0,0
238390,-55.5555555555556,4,1,40,80,0,0
238447,-55.5555555555556,4,1,10,80,0,0
238505,-55.5555555555556,4,1,10,80,0,0
238678,-55.5555555555556,4,1,40,80,0,0
238736,-55.5555555555556,4,1,10,80,0,0
238793,-55.5555555555556,4,1,10,80,0,0
238966,-55.5555555555556,4,1,40,80,0,0
239024,-55.5555555555556,4,1,10,80,0,0
239082,-55.5555555555556,4,1,10,80,0,0
239255,-55.5555555555556,4,1,40,80,0,0
239313,-55.5555555555556,4,1,1,80,0,0
239601,-71.4285714285714,4,1,10,80,0,0
239697,-71.4285714285714,4,1,10,80,0,0
239890,-71.4285714285714,4,1,10,80,0,0
239986,-71.4285714285714,4,1,10,80,0,0
240178,-71.4285714285714,4,1,10,80,0,0
240274,-71.4285714285714,4,1,10,80,0,0
240466,-71.4285714285714,4,1,10,80,0,0
240755,-100,4,1,1,80,0,0

[Colours]
Combo1 : 10,192,37
Combo2 : 0,221,221

[HitObjects]
272,240,625,6,0,L|384:160,2,130,12|0|0,0:0|2:1|3:1,2:2:0:0:
336,240,1149,1,0,3:0:0:0:
400,240,1254,1,0,3:0:0:0:
288,240,1464,1,0,2:1:0:0:
400,240,1673,1,0,3:0:0:0:
64,192,1883,5,8,2:1:0:0:
320,192,2303,1,8,2:1:0:0:
192,192,2513,1,8,0:3:0:0:
320,192,2722,1,0,3:1:0:0:
192,192,2932,1,0,3:1:0:0:
464,192,3142,6,0,L|464:48,1,130,14|0,0:0|2:1,2:2:0:0:
336,64,3562,1,0,3:1:0:0:
400,64,3666,1,0,3:0:0:0:
464,64,3771,1,2,3:1:0:0:
256,64,3981,2,0,L|112:64,1,130,0|0,3:0|3:0,0:0:0:0:
400,64,4401,6,0,P|464:112|389:255,1,260,14|8,0:0|3:1,0:0:0:0:
111,317,5030,2,0,P|32:176|206:85,1,390,14|0,0:0|0:0,0:0:0:0:
256,192,5869,12,0,6708,0:0:0:0:
128,304,6918,6,0,L|128:80,1,195,6|2,0:0|0:0,2:2:0:0:
192,96,7338,1,10,0:3:0:0:
64,96,7548,1,2,0:0:0:0:
400,96,7757,2,0,L|400:240,1,130,10|8,0:3|3:0,2:2:0:0:
256,336,8177,6,0,L|256:64,1,260,6|10,0:0|0:3,2:2:0:0:
464,80,8806,5,2,0:0:0:0:
464,144,8911,1,2,0:0:0:0:
400,144,9016,1,10,0:3:0:0:
336,144,9121,1,2,3:1:0:0:
400,208,9226,1,8,3:0:0:0:
464,208,9331,1,2,3:1:0:0:
336,80,9436,5,6,0:0:0:0:
512,80,9645,1,6,0:0:0:0:
208,80,9855,2,0,L|208:240,1,130,8|6,3:2|0:0,2:2:0:0:
384,208,10275,1,6,0:0:0:0:
253,208,10485,1,8,3:2:0:0:
227,187,10537,1,0,3:0:0:0:
253,167,10590,1,0,3:0:0:0:
352,144,10694,5,2,0:2:0:0:
144,144,10904,1,8,0:3:0:0:
464,144,11114,1,8,0:3:0:0:
304,144,11324,5,2,0:2:0:0:
464,144,11534,1,2,0:0:0:0:
160,272,11743,1,8,0:3:0:0:
133,253,11796,1,0,0:0:0:0:
161,236,11848,1,8,3:0:0:0:
256,304,11953,6,0,L|256:96,1,195,6|2,0:0|0:1,2:2:0:0:
192,112,12373,1,8,0:3:0:0:
320,112,12583,5,2,0:0:0:0:
384,112,12688,1,0,3:1:0:0:
288,112,12793,2,0,L|288:32,1,65,10|0,0:3|3:1,2:2:0:0:
400,192,13002,2,0,L|400:112,1,65,8|0,0:3|3:1,0:0:0:0:
288,192,13212,6,0,L|144:192,2,130,2|2|10,0:1|0:1|0:3,2:2:0:0:
16,208,13842,6,0,L|16:64,1,130,2|8,0:2|0:3,0:0:0:0:
144,80,14261,2,0,L|80:80,1,65,8|2,0:3|3:1,0:0:0:0:
272,80,14471,6,0,L|416:80,1,130,6|8,0:1|0:3,2:2:0:0:
272,80,14890,2,0,L|272:160,1,65,10|0,0:3|3:2,2:2:0:0:
464,160,15100,6,0,L|304:160,2,130,6|8|2,0:0|0:3|0:0,2:2:0:0:
144,288,15729,6,0,L|144:128,1,130,14|2,2:3|0:0,2:2:0:0:
352,160,16149,1,14,2:3:0:0:
224,160,16359,6,0,L|224:96,1,65,4|4,0:1|0:1,2:2:0:0:
352,112,16569,2,0,L|352:48,1,65,4|4,2:1|0:1,2:2:0:0:
224,32,16779,2,0,L|304:32,1,65,4|4,0:1|0:1,2:2:0:0:
496,32,16988,6,0,P|512:96|464:144,1,130,14|8,0:0|2:1,2:2:0:0:
368,144,17303,2,0,L|224:144,1,130,8|0,0:3|2:1,2:2:0:0:
432,320,17618,2,0,L|432:176,2,130,2|8|8,0:1|0:3|0:3,2:2:0:0:
160,304,18247,6,0,P|80:272|80:208,1,130,14|4,2:2|2:3,2:2:0:0:
192,192,18562,2,0,L|272:192,2,65,12|4|4,0:3|3:0|3:0,2:2:0:0:
16,192,18877,6,0,L|16:48,2,130,2|10|12,0:0|0:0|0:0,0:0:0:0:
80,195,19401,1,0,3:1:0:0:
256,208,19506,6,0,L|256:64,1,130,6|8,0:0|0:0,2:2:0:0:
263,121,19786,1,4,0:0:0:0:
255,163,19856,1,2,0:0:0:0:
240,203,19925,1,2,0:0:0:0:
199,218,19995,1,8,0:2:0:0:
155,220,20065,1,4,0:2:0:0:
288,224,20135,5,6,0:2:0:0:
496,224,20345,1,6,0:3:0:0:
288,224,20555,1,6,0:0:0:0:
16,112,20765,5,12,0:0:0:0:
224,112,20974,1,12,0:3:0:0:
16,112,21184,1,12,0:2:0:0:
160,112,21394,6,0,L|160:192,1,65,10|10,0:0|0:0,2:2:0:0:
96,176,21604,1,8,3:2:0:0:
304,176,21814,1,10,0:3:0:0:
32,320,22023,6,0,P|32:272|96:224,1,130,14|8,0:0|2:1,2:2:0:0:
272,224,22338,1,8,0:3:0:0:
464,224,22653,6,0,L|464:64,2,130,2|8|8,0:1|0:3|0:3,2:2:0:0:
368,224,23282,6,0,L|432:224,2,65,14|4|4,2:2|2:3|2:3,0:0:0:0:
256,176,23597,2,0,L|160:176,2,65,12|4|4,0:3|3:0|3:0,2:2:0:0:
384,176,23912,5,2,0:0:0:0:
224,256,24121,1,10,0:0:0:0:
306,214,24226,1,0,0:0:0:0:
384,176,24331,1,12,0:0:0:0:
80,160,24541,6,0,L|224:160,1,130,6|8,0:0|0:0,2:2:0:0:
170,139,24821,1,4,0:0:0:0:
147,101,24891,1,2,0:0:0:0:
147,58,24960,1,2,0:0:0:0:
177,27,25030,1,8,0:2:0:0:
219,19,25100,1,4,0:2:0:0:
352,192,25170,6,0,L|512:192,2,130,6|6|6,0:2|0:3|0:0,2:2:0:0:
64,192,25799,5,12,0:0:0:0:
256,192,26009,2,0,L|256:96,1,65,12|0,0:3|0:0,0:0:0:0:
176,128,26219,1,12,0:2:0:0:
448,144,26429,6,0,P|480:96|432:48,1,130,6|8,0:2|0:3,0:0:0:0:
336,224,26743,2,0,L|416:224,2,65,6|2|8,0:1|0:0|0:3,2:2:0:0:
128,224,27058,5,6,2:1:0:0:
48,192,27268,1,0,0:0:0:0:
80,112,27478,1,2,3:0:0:0:
288,112,27688,5,8,2:1:0:0:
320,112,27898,1,0,0:0:0:0:
224,112,28107,1,2,3:0:0:0:
464,112,28317,2,0,L|464:256,1,130,2|0,2:1|0:0,2:2:0:0:
368,240,28737,2,0,L|288:208,1,65,2|2,3:1|3:0,0:0:0:0:
432,240,28946,6,0,P|496:192|419:50,1,260,8|8,2:1|3:0,2:2:0:0:
256,192,29576,12,0,30625,0:0:0:0:
208,272,30834,6,0,L|208:208,1,65,2|2,2:1|2:0,2:2:0:0:
304,192,31044,2,0,L|304:128,1,65,8|8,2:3|2:3,2:2:0:0:
192,128,31254,2,0,L|192:64,1,65,10|8,2:1|2:1,2:2:0:0:
320,64,31464,5,8,3:1:0:0:
362,69,31533,1,2,2:0:0:0:
399,92,31603,1,2,2:0:0:0:
423,127,31673,1,0,3:0:0:0:
432,169,31743,1,2,2:0:0:0:
423,211,31813,1,8,2:3:0:0:
398,246,31883,1,8,2:0:0:0:
361,268,31953,1,2,2:0:0:0:
318,274,32023,1,2,2:0:0:0:
160,272,32093,6,0,L|16:272,2,130,6|0|0,0:1|0:0|3:1,2:2:0:0:
176,192,32618,1,0,3:1:0:0:
48,160,32723,6,0,L|32:80,1,65,12|0,0:3|2:1,2:2:0:0:
128,96,32932,2,0,L|144:16,1,65,0|0,3:1|2:1,2:2:0:0:
48,32,33142,2,0,L|144:32,1,65,0|0,3:1|3:1,2:2:0:0:
320,32,33352,6,0,P|368:64|304:176,1,195,2|2,0:1|0:1,2:2:0:0:
240,176,33771,1,0,3:1:0:0:
448,176,33981,6,0,P|380:179|271:323,1,260,12|8,0:3|2:3,2:2:0:0:
480,320,34611,6,0,P|512:272|384:160,1,260,2|2,0:1|3:2,2:2:0:0:
355,151,35083,1,8,2:1:0:0:
316,151,35135,1,2,3:2:0:0:
112,160,35240,6,0,L|96:304,1,130,2|4,0:1|3:2,2:2:0:0:
242,287,35659,1,2,3:2:0:0:
207,259,35711,1,8,2:1:0:0:
181,230,35764,1,2,3:2:0:0:
400,208,35869,6,0,L|416:64,1,130,6|10,0:1|0:1,2:2:0:0:
96,80,36498,5,10,0:3:0:0:
256,80,36708,2,0,L|304:80,1,32.5,10|0,2:2|0:0,0:0:0:0:
144,176,36918,2,0,L|96:176,1,32.5,14|0,3:2|0:0,0:0:0:0:
400,176,37127,5,6,0:1:0:0:
240,176,37337,1,0,3:1:0:0:
201,211,37407,1,0,3:1:0:0:
201,263,37477,1,0,2:1:0:0:
244,292,37547,1,8,0:3:0:0:
336,288,37652,1,0,3:1:0:0:
128,80,37757,6,0,L|272:80,2,130,2|8|8,0:3|0:3|0:3,2:2:0:0:
336,80,38386,6,0,P|400:96|368:208,1,195,2|2,0:1|0:1,2:2:0:0:
304,208,38806,1,8,0:3:0:0:
112,208,39016,5,2,0:3:0:0:
104,143,39121,1,2,2:1:0:0:
97,78,39226,1,8,0:3:0:0:
240,80,39436,2,0,L|160:80,1,65,8|2,0:3|2:1,0:0:0:0:
384,80,39645,6,0,P|448:96|400:192,1,195,6|2,0:1|0:1,2:2:0:0:
336,192,40065,1,8,0:3:0:0:
64,320,40275,6,0,L|48:256,1,65,2|0,0:3|0:0,2:2:0:0:
160,256,40485,2,0,L|176:176,1,65,8|0,0:3|0:0,2:2:0:0:
64,176,40694,2,0,L|48:96,1,65,8|0,0:3|0:0,0:0:0:0:
256,96,40904,6,0,P|288:144|192:224,1,195,2|2,0:1|0:1,2:2:0:0:
288,224,41323,1,12,0:3:0:0:
128,224,41533,6,0,L|208:224,1,65,2|2,0:3|2:1,0:0:0:0:
288,224,41743,2,0,L|288:144,1,65,8|10,0:3|2:1,2:2:0:0:
176,160,41953,2,0,L|176:96,1,65,12|10,0:3|2:1,2:2:0:0:
352,96,42163,6,0,L|496:96,2,130,6|4|8,0:1|3:0|0:3,2:2:0:0:
80,288,42792,5,2,0:1:0:0:
256,288,43002,1,8,0:3:0:0:
432,288,43212,1,0,3:1:0:0:
272,288,43421,6,0,P|240:240|288:192,1,130,6|0,0:1|3:1,2:2:0:0:
409,191,43736,2,0,P|425:143|361:95,1,130,6|0,0:1|3:1,2:2:0:0:
240,96,44051,6,0,L|96:96,1,130,2|10,0:1|0:2,2:2:0:0:
272,176,44471,2,0,L|368:176,1,65,10|8,0:2|0:3,0:0:0:0:
112,304,44680,5,6,3:2:0:0:
432,192,45356,1,8,3:2:0:0:
128,112,46033,1,2,3:3:0:0:
432,304,46710,5,8,3:3:0:0:
480,304,46935,1,2,3:3:0:0:
368,304,47161,1,4,3:3:0:0:
64,288,47386,6,0,P|32:240|80:176,1,130,6|0,0:1|3:1,2:2:0:0:
176,176,47700,2,0,L|32:176,1,130,8|0,0:3|3:1,0:0:0:0:
160,80,48015,6,8,L|304:80,2,130,6|2|8,0:1|3:0|3:0,2:2:0:0:
256,80,48539,1,8,3:0:0:0:
432,80,48644,6,0,L|432:224,1,130,10|8,0:1|0:3,2:2:0:0:
222,208,49064,1,8,0:3:0:0:
352,208,49274,6,0,L|208:208,2,130,6|8|2,0:1|0:3|3:0,2:2:0:0:
64,208,49903,6,0,L|64:128,1,65,10|2,0:1|2:1,0:0:0:0:
176,112,50113,2,0,P|128:112|64:176,1,130,8|8,0:3|0:3,2:2:0:0:
304,160,50532,6,0,L|368:160,1,65,6|2,0:1|2:1,0:0:0:0:
448,160,50742,2,0,P|480:112|432:64,1,130,2|8,2:1|3:0,2:2:0:0:
144,64,51162,5,2,0:1:0:0:
85,90,51266,1,8,2:2:0:0:
53,145,51371,1,8,2:2:0:0:
59,209,51476,1,8,2:2:0:0:
100,258,51581,1,8,2:2:0:0:
162,273,51686,1,8,2:2:0:0:
352,272,51791,5,2,2:2:0:0:
384,270,51843,1,2,2:2:0:0:
415,260,51895,1,2,2:2:0:0:
441,241,51948,1,2,2:2:0:0:
461,216,52000,1,2,2:2:0:0:
473,186,52053,1,2,2:2:0:0:
476,153,52105,1,2,2:2:0:0:
470,122,52158,1,2,2:2:0:0:
455,93,52210,1,2,2:2:0:0:
432,70,52263,1,2,2:2:0:0:
404,54,52315,1,2,2:2:0:0:
372,46,52367,1,2,2:2:0:0:
340,48,52420,1,0,0:0:0:0:
256,192,52630,12,0,53469,2:1:0:0:
384,304,53679,6,0,L|384:80,1,195,6|2,0:0|0:0,2:2:0:0:
464,112,54099,1,10,0:3:0:0:
304,112,54309,1,2,0:0:0:0:
96,112,54518,2,0,L|96:272,1,130,10|8,0:3|3:0,0:0:0:0:
256,240,54938,6,0,P|192:240|96:128,1,195,6|2,0:0|0:0,2:2:0:0:
96,80,55358,1,10,0:3:0:0:
304,80,55567,6,0,L|304:144,1,65,2|2,0:0|0:0,0:0:0:0:
224,144,55777,2,0,L|224:224,1,65,10|2,0:3|3:1,2:2:0:0:
320,208,55987,2,0,L|320:288,1,65,8|2,3:0|3:1,2:2:0:0:
192,272,56197,6,0,L|48:272,1,130,6|6,0:0|0:0,2:2:0:0:
368,128,56616,1,8,3:2:0:0:
64,128,56826,6,0,L|208:128,1,130,6|6,0:0|0:0,2:2:0:0:
400,128,57246,1,0,3:2:0:0:
428,128,57298,1,0,3:0:0:0:
400,128,57350,1,0,3:0:0:0:
208,288,57455,6,0,L|208:144,1,130,2|8,0:2|0:3,2:2:0:0:
368,160,57875,1,8,0:3:0:0:
64,160,58085,5,2,0:2:0:0:
224,160,58295,1,2,0:0:0:0:
80,160,58504,1,8,0:3:0:0:
46,139,58557,1,0,0:0:0:0:
80,121,58609,1,8,3:0:0:0:
272,64,58714,6,0,P|336:64|400:176,1,195,6|2,0:0|0:1,2:2:0:0:
304,160,59134,1,8,0:3:0:0:
464,160,59344,6,0,L|464:224,1,65,2|0,0:0|3:1,2:2:0:0:
368,224,59553,2,0,L|288:224,1,65,10|0,0:3|3:1,2:2:0:0:
416,304,59763,2,0,L|480:304,1,65,8|0,0:3|3:1,0:0:0:0:
352,304,59973,6,0,L|192:304,2,130,2|2|10,0:1|0:1|0:3,2:2:0:0:
192,304,60602,2,0,P|160:272|176:192,1,130,2|8,0:2|0:3,0:0:0:0:
288,176,60917,2,0,L|432:176,1,130,6|2,3:2|3:1,0:0:0:0:
192,176,61232,6,0,L|192:32,1,130,6|8,0:1|0:3,2:2:0:0:
352,48,61651,2,0,L|352:112,1,65,10|0,0:3|3:2,2:2:0:0:
240,112,61861,5,6,0:0:0:0:
416,112,62071,1,8,0:3:0:0:
192,112,62281,1,2,0:0:0:0:
352,112,62490,5,2,0:1:0:0:
382,142,62559,1,0,3:1:0:0:
397,182,62629,1,0,3:1:0:0:
392,225,62699,1,2,0:1:0:0:
369,261,62769,1,0,3:1:0:0:
332,283,62839,1,0,3:1:0:0:
290,288,62909,1,2,0:1:0:0:
208,288,63015,1,0,3:0:0:0:
320,288,63120,6,2,L|416:288,1,65,2|2,0:1|0:1,0:0:0:0:
272,288,63330,2,0,L|270:208,1,65,2|4,2:1|2:1,2:2:0:0:
392,225,63539,2,0,L|394:153,1,65,2|2,3:1|3:1,2:2:0:0:
208,160,63749,6,0,P|142:106|222:60,1,195,6|0,0:0|3:0,2:2:0:0:
288,55,64169,1,2,3:0:0:0:
112,112,64379,5,6,0:0:0:0:
288,160,64588,1,2,0:3:0:0:
112,224,64798,1,0,3:0:0:0:
384,320,65008,6,0,P|451:289|368:224,1,195,6|0,0:0|3:0,2:2:0:0:
320,208,65427,1,2,2:3:0:0:
144,208,65637,6,0,L|208:208,1,65,6|2,0:0|0:0,2:2:0:0:
336,128,65847,2,0,L|256:128,1,65,10|2,0:3|3:1,2:2:0:0:
144,128,66057,2,0,L|208:128,1,65,8|2,3:0|3:1,2:2:0:0:
448,320,66267,6,0,L|448:176,1,130,6|6,0:0|0:0,2:2:0:0:
144,176,66686,1,8,3:2:0:0:
304,176,66896,6,0,L|448:176,1,130,6|6,0:0|0:0,2:2:0:0:
256,269,67316,1,8,3:2:0:0:
218,260,67368,1,0,3:0:0:0:
254,247,67420,1,0,3:0:0:0:
432,144,67525,5,2,0:2:0:0:
233,114,67735,1,8,0:3:0:0:
41,81,67945,1,8,0:3:0:0:
336,288,68155,2,0,L|192:288,2,130,2|2|8,0:2|0:0|0:3,0:0:0:0:
369,267,68627,1,0,0:0:0:0:
335,247,68679,1,8,3:0:0:0:
168,193,68784,6,0,P|124:158|199:75,1,195,6|2,0:0|0:1,2:2:0:0:
272,64,69204,1,8,0:3:0:0:
96,272,69413,1,2,0:1:0:0:
58,250,69482,1,0,3:1:0:0:
31,217,69552,1,0,3:1:0:0:
16,176,69622,1,8,0:3:0:0:
15,133,69692,1,0,3:1:0:0:
29,92,69762,1,0,3:1:0:0:
56,59,69832,1,8,0:3:0:0:
92,36,69902,1,0,3:1:0:0:
134,27,69972,1,0,3:1:0:0:
304,32,70043,6,0,L|464:32,2,130,2|0|8,0:1|3:1|0:3,2:2:0:0:
464,32,70672,6,0,P|496:80|464:144,1,130,2|8,0:1|0:3,0:0:0:0:
368,144,70987,2,0,L|224:144,1,130,2|8,0:1|3:3,0:0:0:0:
368,320,71302,6,0,L|368:176,2,130,14|8|10,0:1|0:3|0:3,2:2:0:0:
288,320,71826,1,0,3:2:0:0:
416,320,71931,5,6,0:0:0:0:
444,305,71983,1,0,3:0:0:0:
469,284,72035,1,0,3:0:0:0:
489,258,72088,1,0,3:0:0:0:
502,228,72140,1,8,0:3:0:0:
508,196,72193,1,0,3:0:0:0:
506,164,72245,1,0,3:0:0:0:
498,133,72298,1,0,3:0:0:0:
482,104,72350,1,2,0:0:0:0:
461,80,72403,1,0,3:0:0:0:
434,61,72455,1,8,3:0:0:0:
224,48,72560,6,0,P|160:48|16:256,1,325,12|0,0:3|3:0,2:2:0:0:
208,240,73190,6,0,P|272:240|352:144,1,195,12|0,0:3|2:1,2:2:0:0:
248,144,73609,1,2,3:1:0:0:
464,272,73819,6,0,L|464:112,1,130,6|12,0:1|3:3,2:2:0:0:
240,144,74239,1,8,0:3:0:0:
400,144,74448,6,0,L|240:144,2,130,2|8|8,0:1|0:3|0:3,2:2:0:0:
176,144,75078,5,2,0:1:0:0:
336,144,75288,2,0,L|336:288,1,130,8|8,3:1|0:3,2:2:0:0:
112,272,75707,5,2,2:3:0:0:
272,272,75917,2,0,L|272:128,1,130,2|8,3:0|0:3,2:2:0:0:
48,144,76337,6,0,L|192:144,2,130,6|8|8,0:3|0:3|0:3,2:2:0:0:
208,144,76966,2,0,L|208:288,2,130,2|8|8,0:1|0:3|0:3,2:2:0:0:
416,144,77595,5,2,0:1:0:0:
256,144,77805,2,0,L|256:288,1,130,8|12,0:1|0:3,2:2:0:0:
480,144,78225,5,2,0:3:0:0:
320,144,78434,1,2,0:3:0:0:
320,187,78503,1,0,0:0:0:0:
320,230,78573,1,0,0:0:0:0:
320,274,78643,1,14,0:2:0:0:
496,272,78854,5,6,0:3:0:0:
304,272,79064,1,4,3:3:0:0:
112,272,79274,1,8,0:3:0:0:
272,272,79483,6,0,L|272:128,2,130,2|12|12,0:1|0:3|0:3,2:2:0:0:
112,272,80113,5,2,0:1:0:0:
320,272,80323,2,0,L|320:128,1,130,8|8,3:1|0:3,2:2:0:0:
160,144,80742,5,2,2:3:0:0:
320,142,80952,2,0,L|160:142,1,130,6|12,3:0|0:3,2:2:0:0:
416,144,81372,6,0,L|416:288,2,130,6|12|8,0:3|2:2|0:3,2:2:0:0:
192,144,82001,2,0,L|48:144,2,130,2|8|12,0:1|0:3|0:3,2:2:0:0:
384,144,82630,6,0,L|384:288,2,130,10|10|8,0:1|0:3|0:3,2:2:0:0:
224,144,83260,2,0,L|144:144,2,65,8|2|8,0:3|0:3|0:3,2:2:0:0:
304,144,83574,2,0,L|368:144,2,65,2|0|4,3:2|3:2|3:2,2:2:0:0:
80,144,83889,6,0,P|48:176|80:256,1,130,10|0,0:1|2:1,2:2:0:0:
176,256,84204,2,0,L|320:256,1,130,8|4,0:3|2:2,2:2:0:0:
112,112,84518,6,0,L|112:256,2,130,2|8|8,0:1|0:3|0:3,2:2:0:0:
336,112,85148,2,0,L|480:112,1,130,2|0,0:1|2:1,2:2:0:0:
400,128,85462,1,8,0:3:0:0:
336,144,85567,1,0,2:1:0:0:
144,176,85777,6,0,L|-16:176,2,130,2|8|4,0:1|0:3|2:1,0:0:0:0:
224,176,86302,1,4,2:2:0:0:
464,176,86406,6,0,L|464:32,1,130,6|6,0:1|0:1,2:2:0:0:
399,46,86826,2,0,L|479:46,1,65,4|0,2:2|0:0,0:0:0:0:
224,48,87036,6,0,L|224:192,1,130,6|6,0:1|0:1,2:2:0:0:
288,48,87455,1,8,0:3:0:0:
224,48,87560,1,8,0:3:0:0:
399,46,87665,6,0,L|399:190,1,130,2|2,0:1|0:1,0:0:0:0:
224,178,88085,1,8,0:3:0:0:
384,176,88295,2,0,L|464:176,1,65,2|8,0:1|0:3,2:2:0:0:
336,176,88504,2,0,L|336:256,1,65,2|8,0:1|0:3,2:2:0:0:
448,240,88714,2,0,L|448:336,1,65,2|8,0:1|0:3,2:2:0:0:
256,304,88924,6,0,L|96:304,2,130,10|0|2,0:1|2:1|2:1,2:2:0:0:
112,240,89553,1,2,0:1:0:0:
400,128,89763,2,0,L|400:272,1,130,8|8,0:3|0:3,2:2:0:0:
272,256,90183,6,0,L|416:256,2,130,2|0|2,0:1|2:1|2:1,2:2:0:0:
48,192,90812,2,0,L|48:48,1,130,2|8,0:1|0:3,0:0:0:0:
176,64,91232,2,0,L|80:64,1,65,12|0,2:2|3:1,0:0:0:0:
352,64,91441,6,0,L|352:208,1,130,6|6,0:1|2:1,2:2:0:0:
287,194,91861,2,0,L|383:194,1,65,8|0,2:1|0:0,0:0:0:0:
144,288,92071,6,0,L|0:288,2,130,6|6|8,2:1|2:1|0:3,2:2:0:0:
224,288,92595,1,8,0:3:0:0:
272,288,92648,1,8,2:3:0:0:
320,288,92700,6,0,L|464:288,2,130,10|2|2,0:1|0:1|0:1,2:2:0:0:
144,64,93330,5,2,0:1:0:0:
182,63,93382,1,0,0:0:0:0:
220,66,93434,1,0,0:0:0:0:
257,77,93487,1,0,0:0:0:0:
292,93,93539,1,2,0:1:0:0:
324,114,93592,1,0,0:0:0:0:
355,137,93644,1,0,0:0:0:0:
380,167,93697,1,0,0:0:0:0:
397,201,93749,1,2,2:1:0:0:
406,238,93802,1,8,2:1:0:0:
406,276,93854,1,2,2:1:0:0:
224,208,93959,6,0,L|224:64,1,130,10|2,0:1|0:1,2:2:0:0:
384,80,94379,1,8,0:3:0:0:
96,288,94588,6,0,L|256:288,1,130,2|2,0:1|0:1,2:2:0:0:
432,288,95008,1,8,0:3:0:0:
302,288,95218,6,0,L|462:288,2,130,2|8|8,0:1|0:3|0:3,2:2:0:0:
464,240,95847,2,0,L|464:160,1,65,2|0,0:1|0:0,2:2:0:0:
336,176,96057,2,0,L|272:176,1,65,10|0,0:1|0:1,0:0:0:0:
416,112,96267,2,0,L|496:112,1,65,8|0,0:3|3:1,2:2:0:0:
272,96,96476,6,0,L|112:96,2,130,6|2|8,0:1|0:1|0:3,2:2:0:0:
192,128,97001,1,0,2:1:0:0:
320,128,97106,5,2,0:1:0:0:
378,154,97210,1,0,3:1:0:0:
410,209,97315,1,2,0:1:0:0:
404,273,97420,1,4,0:2:0:0:
363,322,97525,1,8,0:3:0:0:
301,337,97630,1,0,2:1:0:0:
192,304,97735,5,2,0:1:0:0:
256,302,97839,1,0,0:1:0:0:
318,281,97944,1,2,0:1:0:0:
370,243,98049,1,4,0:2:0:0:
409,191,98154,1,8,0:3:0:0:
431,130,98259,1,0,0:1:0:0:
320,96,98365,5,10,0:1:0:0:
269,132,98469,1,4,0:2:0:0:
273,194,98574,1,10,0:1:0:0:
328,224,98679,1,0,0:1:0:0:
416,224,98784,2,0,L|320:224,1,65,8|4,0:3|0:2,2:2:0:0:
176,224,98994,6,0,L|32:224,2,130,6|2|8,0:1|0:1|0:3,2:2:0:0:
400,224,99623,2,0,L|400:80,1,130,2|2,0:1|0:1,2:2:0:0:
320,96,99938,2,0,L|240:96,2,65,0|8|0,0:0|0:3|0:0,2:2:0:0:
464,96,100253,6,0,L|464:176,1,65,2|0,0:1|3:1,2:2:0:0:
368,176,100462,2,0,L|368:240,1,65,2|0,0:1|3:1,2:2:0:0:
272,256,100672,2,0,L|272:320,1,65,8|0,0:3|3:2,2:2:0:0:
384,320,100882,6,0,L|384:176,1,130,2|2,0:1|0:1,2:2:0:0:
304,144,101302,2,0,L|368:144,1,65,8|0,0:3|0:1,0:0:0:0:
160,144,101511,2,0,L|160:0,1,130,6|2,0:1|0:1,2:2:0:0:
288,16,101931,1,8,0:3:0:0:
208,16,102036,1,4,0:2:0:0:
128,16,102141,5,2,0:1:0:0:
69,42,102245,1,4,0:2:0:0:
37,97,102350,1,2,0:1:0:0:
43,161,102455,1,0,0:1:0:0:
84,210,102560,1,8,0:3:0:0:
146,225,102665,1,4,2:2:0:0:
224,224,102770,6,0,L|320:224,2,65,6|4|8,0:1|2:2|0:3,2:2:0:0:
112,288,103085,2,0,L|16:288,2,65,10|0|8,0:1|2:2|0:3,2:2:0:0:
240,288,103399,5,6,0:1:0:0:
160,272,103504,1,0,0:1:0:0:
80,256,103609,1,8,0:3:0:0:
320,144,103714,1,10,0:1:0:0:
400,144,103819,1,8,0:3:0:0:
320,144,103924,1,8,0:3:0:0:
144,144,104029,6,0,L|0:144,1,130,12|2,1:1|2:1,2:2:0:0:
64,80,104355,1,0,2:1:0:0:
112,16,104463,1,8,3:1:0:0:
320,80,104681,6,0,L|176:80,2,130,12|2|8,1:2|2:2|3:3,2:2:0:0:
112,288,105333,6,0,L|112:144,1,130,8|2,1:3|2:3,2:2:0:0:
192,160,105659,1,0,0:0:0:0:
112,158,105768,1,2,3:2:0:0:
304,160,105985,6,0,L|384:160,1,65,6|0,1:2|0:0,0:0:0:0:
256,160,106202,2,0,L|256:80,1,65,8|0,2:1|2:1,2:2:0:0:
384,80,106420,2,0,L|384:0,1,65,2|0,3:1|2:1,2:2:0:0:
192,32,106637,6,0,L|352:32,2,130,8|2|8,1:1|2:2|3:2,2:2:0:0:
400,32,107289,2,0,L|400:176,1,130,12|8,1:1|2:2,2:2:0:0:
320,160,107615,1,0,0:0:0:0:
400,162,107724,1,8,3:1:0:0:
192,160,107942,6,0,L|48:160,1,130,12|8,2:3|2:2,2:2:0:0:
128,128,108268,1,0,2:1:0:0:
64,96,108376,1,8,3:1:0:0:
224,96,108594,6,0,L|80:96,1,130,6|12,1:1|3:1,2:2:0:0:
416,96,109029,1,2,3:2:0:0:
256,96,109246,6,0,L|256:256,1,130,12|8,1:1|2:2,2:2:0:0:
336,256,109572,1,0,0:0:0:0:
416,288,109681,1,8,3:2:0:0:
208,288,109898,6,0,L|64:288,2,130,12|8|8,1:3|2:2|3:3,2:2:0:0:
48,288,110550,1,12,1:3:0:0:
352,288,110768,2,0,L|352:192,1,65,8|0,2:3|2:1,2:2:0:0:
256,224,110985,1,2,3:1:0:0:
464,128,111202,6,0,L|320:128,1,130,12|2,1:1|2:2,0:0:0:0:
370,113,111474,1,0,0:0:0:0:
406,97,111529,1,0,0:0:0:0:
336,64,111637,1,8,3:2:0:0:
144,64,111855,6,0,L|0:64,1,130,12|2,1:3|2:2,2:2:0:0:
304,64,112289,1,8,3:2:0:0:
144,64,112507,5,6,1:1:0:0:
304,64,112724,2,0,L|160:64,1,130,8|2,2:1|3:2,2:2:0:0:
336,64,113159,6,0,L|336:128,1,65,12|0,1:1|0:0,0:0:0:0:
256,144,113376,2,0,L|256:224,1,65,2|0,0:1|0:0,0:0:0:0:
336,208,113594,2,0,L|336:272,1,65,2|0,0:1|0:0,2:2:0:0:
224,272,113811,6,0,L|144:272,1,65,2|0,0:1|0:0,0:0:0:0:
288,208,114029,2,0,L|352:208,1,65,8|0,0:3|0:0,0:0:0:0:
224,144,114246,2,0,L|160:144,1,65,8|8,0:3|0:3,2:2:0:0:
368,144,114463,6,0,L|368:0,2,130,12|2|8,2:1|2:1|2:1,2:2:0:0:
176,144,115139,2,0,L|176:304,2,130,12|2|8,2:2|2:2|2:3,2:2:0:0:
384,272,115816,6,0,L|256:208,2,130,12|2|2,2:3|2:3|2:2,0:0:0:0:
192,272,116493,2,0,L|64:192,2,130,6|8|6,2:2|2:1|2:1,2:2:0:0:
416,80,117169,5,8,2:1:0:0:
304,96,117395,1,2,2:2:0:0:
192,112,117620,1,8,2:2:0:0:
400,144,117846,5,12,2:1:0:0:
496,176,118072,1,8,2:2:0:0:
400,208,118297,1,8,2:2:0:0:
192,240,118523,5,12,2:3:0:0:
96,272,118748,1,8,2:2:0:0:
192,240,118974,1,8,2:1:0:0:
0,192,119199,5,6,2:1:0:0:
128,192,119425,1,12,2:1:0:0:
0,192,119650,1,2,2:2:0:0:
208,192,119876,6,0,L|208:32,2,130,12|8|8,2:1|2:2|2:2,2:2:0:0:
416,192,120553,2,0,L|416:352,2,130,12|8|8,2:3|2:2|2:3,2:2:0:0:
256,192,121229,5,6,2:2:0:0:
448,192,121455,2,0,L|448:32,1,130,8|2,2:3|2:1,2:2:0:0:
240,64,121906,6,0,L|96:64,2,130,12|8|8,2:1|2:3|2:1,2:2:0:0:
32,128,122583,5,6,2:1:0:0:
192,128,122808,1,8,2:2:0:0:
32,128,123034,1,2,2:1:0:0:
256,128,123259,5,6,2:2:0:0:
112,128,123485,2,0,L|112:272,1,130,8|2,2:1|2:1,0:0:0:0:
336,256,123936,6,0,P|432:224|328:96,1,325,8|0,2:1|2:1,2:2:0:0:
256,96,124565,1,0,3:1:0:0:
416,96,124775,2,0,L|416:256,1,130,10|14,2:2|2:2,0:0:0:0:
144,224,125194,6,0,L|0:224,1,130,6|0,0:1|3:1,0:0:0:0:
0,176,125474,1,0,3:1:0:0:
16,128,125544,1,0,2:1:0:0:
52,91,125614,1,8,0:3:0:0:
144,96,125719,1,0,3:1:0:0:
320,96,125824,6,0,L|480:96,2,130,2|8|8,0:3|0:3|0:3,2:2:0:0:
496,160,126453,2,0,P|432:160|304:304,1,260,2|8,0:1|0:3,2:2:0:0:
464,288,127082,6,0,L|464:208,1,65,2|2,0:3|2:1,0:0:0:0:
368,208,127292,2,0,L|368:128,1,65,8|2,0:3|2:1,2:2:0:0:
480,128,127502,2,0,L|480:48,1,65,8|2,0:3|0:1,0:0:0:0:
288,64,127712,6,0,L|144:64,1,130,6|0,0:1|3:1,2:2:0:0:
224,112,128026,1,2,0:1:0:0:
160,160,128131,1,8,0:3:0:0:
352,160,128341,2,0,L|272:160,1,65,2|0,0:3|0:0,2:2:0:0:
192,160,128551,2,0,L|96:160,1,65,8|0,0:3|0:0,2:2:0:0:
224,256,128761,2,0,L|288:256,1,65,8|0,0:3|0:0,0:0:0:0:
112,256,128970,6,0,P|64:224|128:112,1,195,2|2,0:1|0:1,0:0:0:0:
192,112,129390,1,12,0:3:0:0:
400,112,129600,2,0,L|400:192,1,65,2|2,0:3|2:1,0:0:0:0:
304,176,129810,2,0,L|240:176,1,65,8|10,0:3|2:1,2:2:0:0:
352,256,130019,2,0,L|432:256,1,65,12|10,0:3|2:1,2:2:0:0:
224,256,130229,6,0,L|64:256,1,130,6|4,0:1|3:0,2:2:0:0:
160,224,130544,1,10,0:0:0:0:
96,192,130649,1,8,0:3:0:0:
304,192,130859,1,2,0:1:0:0:
16,192,131068,6,0,P|48:112|160:80,1,195,8|8,0:3|3:1,0:0:0:0:
352,80,131488,6,0,P|268:86|213:195,1,195,2|2,0:0|0:0,0:0:0:0:
320,192,131908,1,8,0:3:0:0:
160,192,132117,6,0,L|256:192,1,65,2|2,0:0|2:1,0:0:0:0:
128,192,132327,2,0,L|128:288,1,65,8|0,0:3|3:0,0:0:0:0:
256,256,132537,2,0,L|256:336,1,65,8|2,0:3|1:0,0:0:0:0:
64,320,132747,6,0,L|208:320,2,130,10|0|0,0:1|2:1|2:1,2:2:0:0:
352,224,133376,2,0,P|272:224|160:96,1,260,6|8,0:1|0:3,2:2:0:0:
432,96,134005,6,0,P|489:145|406:225,1,195,2|2,0:1|0:1,2:2:0:0:
352,224,134425,1,8,0:3:0:0:
160,224,134635,6,0,L|160:144,1,65,2|2,0:1|0:1,0:0:0:0:
256,160,134845,2,0,L|256:80,1,65,8|0,0:3|0:0,0:0:0:0:
144,96,135054,2,0,L|80:96,1,65,8|0,0:3|0:0,0:0:0:0:
320,96,135264,6,0,P|374:118|320:208,1,195,6|0,0:1|0:0,0:0:0:0:
240,208,135684,1,0,3:3:0:0:
448,208,135894,6,0,L|448:64,2,130,8|0|0,0:1|3:1|3:1,2:2:0:0:
128,288,136523,2,0,P|231:288|310:212,1,195,2|2,0:1|0:1,0:0:0:0:
320,160,136942,1,0,3:3:0:0:
112,96,137152,6,0,P|36:137|122:251,1,260,8|0,0:1|3:1,2:2:0:0:
416,256,137782,6,0,P|317:250|244:168,1,195,6|0,0:1|0:0,2:2:0:0:
224,112,138201,1,0,3:1:0:0:
496,64,138411,6,0,L|496:208,2,130,8|0|0,0:1|3:1|3:1,2:2:0:0:
288,64,139040,2,0,L|448:64,2,130,2|2|0,0:1|0:1|3:1,2:2:0:0:
16,64,139670,5,8,0:1:0:0:
176,64,139880,2,0,L|224:64,1,32.5,0|0,3:1|0:0,2:2:0:0:
64,144,140089,2,0,L|16:144,1,32.5,0|0,3:1|0:0,0:0:0:0:
304,144,140299,6,0,L|448:144,2,130,6|0|0,0:1|3:1|3:1,2:2:0:0:
16,304,140929,6,0,L|176:304,2,130,8|0|0,0:3|3:1|3:1,2:2:0:0:
368,272,141558,5,14,2:2:0:0:
256,240,141768,1,0,3:1:0:0:
144,208,141977,1,0,3:1:0:0:
416,176,142187,5,2,0:1:0:0:
240,112,142397,1,10,0:1:0:0:
64,48,142607,1,10,0:2:0:0:
336,48,142816,5,6,3:2:0:0:
144,240,143492,5,0,3:2:0:0:
368,320,144169,6,0,L|368:304,1,16.25,0|0,3:3|3:3,0:0:0:0:
192,304,144846,5,8,3:3:0:0:
112,256,145071,1,2,3:3:0:0:
80,176,145297,1,4,3:3:0:0:
368,176,145522,6,0,P|400:128|352:64,1,130,6|0,0:1|3:1,2:2:0:0:
272,48,145836,2,0,L|432:48,1,130,8|0,0:3|3:1,0:0:0:0:
304,128,146151,2,8,L|144:128,2,130,6|2|8,0:1|3:0|3:0,2:2:0:0:
368,128,146675,1,8,3:0:0:0:
176,288,146780,6,0,L|176:224,1,65,10|0,0:1|0:0,2:2:0:0:
272,224,146990,2,0,L|272:160,1,65,8|0,0:3|3:1,0:0:0:0:
176,160,147200,2,0,L|176:96,1,65,8|0,0:3|0:0,2:2:0:0:
368,80,147410,6,0,L|512:80,2,130,6|8|2,0:1|0:3|3:0,2:2:0:0:
288,80,147934,1,8,3:0:0:0:
80,80,148039,6,0,L|80:160,1,65,10|2,0:1|2:1,0:0:0:0:
176,144,148249,2,0,L|176:208,1,65,8|0,0:3|0:0,2:2:0:0:
64,208,148459,2,0,L|64:272,1,65,8|0,0:3|3:1,0:0:0:0:
288,272,148668,1,6,0:1:0:0:
353,272,148772,1,2,2:1:0:0:
418,272,148877,1,2,2:1:0:0:
208,192,149088,2,0,L|112:192,1,65,8|2,3:0|3:0,0:0:0:0:
368,64,149298,5,2,0:1:0:0:
429,80,149402,1,8,2:2:0:0:
469,130,149507,1,8,2:2:0:0:
473,194,149612,1,8,2:2:0:0:
439,248,149717,1,8,2:2:0:0:
379,271,149822,1,8,2:2:0:0:
160,272,149927,5,2,2:2:0:0:
127,274,149979,1,2,2:2:0:0:
96,266,150031,1,2,2:2:0:0:
68,250,150084,1,2,2:2:0:0:
46,226,150136,1,2,2:2:0:0:
32,197,150189,1,2,2:2:0:0:
27,165,150241,1,2,2:2:0:0:
32,133,150294,1,2,2:2:0:0:
46,104,150346,1,2,2:2:0:0:
68,80,150399,1,2,2:2:0:0:
96,64,150451,1,2,2:2:0:0:
127,56,150503,1,2,2:2:0:0:
159,59,150556,1,0,0:0:0:0:
256,192,150766,12,2,151815,2:2:0:0:
368,288,153074,6,0,L|368:64,1,195,6|2,0:0|0:0,2:2:0:0:
448,96,153494,1,10,0:3:0:0:
256,96,153703,1,2,0:0:0:0:
48,96,153913,2,0,L|48:240,1,130,10|8,0:3|3:0,0:0:0:0:
352,224,154333,6,0,L|144:224,1,195,14|2,0:0|0:0,2:2:0:0:
240,224,154752,1,10,0:3:0:0:
80,224,154962,6,0,L|80:128,1,65,2|2,0:0|0:0,0:0:0:0:
176,160,155172,2,0,L|176:80,1,65,10|2,0:3|3:1,2:2:0:0:
64,112,155382,2,0,L|64:32,1,65,8|2,3:0|3:1,2:2:0:0:
288,48,155591,6,0,L|448:48,1,130,6|6,0:0|0:0,0:0:0:0:
112,192,156011,1,8,3:2:0:0:
400,288,156221,6,0,L|400:144,1,130,6|6,0:0|0:0,0:0:0:0:
193,162,156640,1,8,3:2:0:0:
155,151,156693,1,0,3:0:0:0:
191,139,156745,1,0,3:0:0:0:
359,64,156850,5,2,0:2:0:0:
199,112,157060,1,8,0:3:0:0:
359,160,157270,1,8,0:3:0:0:
64,304,157480,1,2,0:2:0:0:
256,272,157689,1,2,0:0:0:0:
448,240,157899,1,8,0:3:0:0:
141,232,158109,6,0,L|342:200,1,195,6|2,0:0|0:1,2:2:0:0:
352,32,158528,1,8,0:3:0:0:
128,32,158738,6,0,L|128:112,1,65,2|0,0:0|3:1,2:2:0:0:
224,96,158948,2,0,L|144:96,1,65,10|0,0:3|3:1,2:2:0:0:
48,192,159158,2,0,L|128:192,1,65,8|0,0:3|3:1,0:0:0:0:
288,192,159368,6,0,L|448:192,2,130,2|2|10,0:1|0:1|0:3,2:2:0:0:
80,192,159997,2,0,P|49:146|100:79,1,130,2|8,0:2|0:3,0:0:0:0:
192,80,160312,2,0,L|48:80,1,130,6|2,3:2|3:1,0:0:0:0:
320,80,160626,6,0,L|320:224,1,130,6|8,0:1|0:3,0:0:0:0:
256,208,161046,2,0,L|336:208,1,65,10|0,0:3|3:2,2:2:0:0:
144,320,161256,2,0,L|0:320,2,130,6|8|2,0:0|0:3|0:0,0:0:0:0:
432,320,161885,6,0,L|432:256,1,65,2|0,0:1|0:0,2:2:0:0:
352,256,162095,2,0,L|288:256,1,65,0|0,0:0|0:0,0:0:0:0:
384,192,162305,2,0,L|464:192,1,65,2|0,0:1|3:0,0:0:0:0:
224,192,162515,6,0,L|224:48,1,130,2|2,0:1|2:1,2:2:0:0:
400,64,162934,1,2,3:1:0:0:
427,91,162986,1,2,3:1:0:0:
400,119,163038,1,2,3:1:0:0:
208,304,163144,6,0,P|135:277|208:160,1,260,6|2,0:0|3:0,2:2:0:0:
384,160,163773,5,6,0:0:0:0:
208,240,163983,1,2,0:3:0:0:
384,240,164193,1,0,3:0:0:0:
80,240,164403,6,0,P|26:194|111:104,1,195,6|0,0:0|3:0,2:2:0:0:
176,96,164822,1,2,2:3:0:0:
368,96,165032,6,0,L|368:160,1,65,2|2,0:0|0:0,2:2:0:0:
256,176,165242,2,0,L|336:176,1,65,10|2,0:3|3:1,2:2:0:0:
448,240,165452,2,0,L|368:240,1,65,12|2,3:0|3:1,2:2:0:0:
208,240,165661,6,0,L|64:240,1,130,6|6,0:0|0:0,2:2:0:0:
208,240,166081,1,8,3:2:0:0:
496,96,166291,6,0,L|496:240,1,130,6|6,0:0|0:0,2:2:0:0:
286,222,166710,1,8,3:2:0:0:
255,197,166763,1,0,3:0:0:0:
286,174,166815,1,0,3:0:0:0:
463,127,166920,5,2,0:2:0:0:
272,176,167130,1,8,0:3:0:0:
96,208,167340,1,8,0:3:0:0:
400,304,167549,1,2,0:2:0:0:
224,288,167759,1,2,0:0:0:0:
400,256,167969,2,0,L|480:256,1,65,8|8,0:3|3:0,0:0:0:0:
240,192,168179,6,0,P|207:148|240:89,1,130,6|0,0:0|3:1,2:2:0:0:
352,80,168494,2,0,L|512:80,1,130,2|0,0:1|2:1,2:2:0:0:
176,80,168808,5,2,0:1:0:0:
133,72,168877,1,0,3:1:0:0:
92,84,168947,1,0,3:1:0:0:
62,114,169017,1,8,0:3:0:0:
49,155,169087,1,0,3:1:0:0:
56,197,169157,1,0,3:1:0:0:
82,231,169227,1,8,0:3:0:0:
121,249,169297,1,0,3:1:0:0:
164,247,169367,1,0,3:1:0:0:
336,240,169438,6,0,L|496:240,1,130,2|0,0:1|3:1,2:2:0:0:
400,192,169752,1,2,0:1:0:0:
336,160,169857,1,8,0:3:0:0:
48,144,170067,6,0,P|125:151|156:199,1,130,2|8,0:1|0:3,0:0:0:0:
64,144,170382,2,0,P|32:176|80:247,1,130,2|8,0:1|3:3,0:0:0:0:
240,240,170696,6,0,L|240:96,1,130,14|8,0:1|0:3,0:0:0:0:
160,112,171116,2,0,L|160:16,1,65,10|0,0:3|3:2,2:2:0:0:
336,48,171326,5,6,0:0:0:0:
368,45,171378,1,0,3:0:0:0:
399,54,171430,1,0,3:0:0:0:
426,72,171483,1,0,3:0:0:0:
445,98,171535,1,8,0:3:0:0:
455,129,171588,1,0,3:0:0:0:
455,161,171640,1,0,3:0:0:0:
444,191,171693,1,0,3:0:0:0:
424,217,171745,1,2,0:0:0:0:
397,234,171798,1,0,3:0:0:0:
365,242,171850,1,0,3:0:0:0:
160,240,171955,6,0,L|160:176,1,65,6|8,0:1|0:3,2:2:0:0:
256,160,172165,2,0,L|256:96,1,65,8|8,0:3|0:3,0:0:0:0:
144,112,172375,2,0,L|144:48,1,65,8|8,0:3|3:0,0:0:0:0:
336,48,172584,5,4,0:1:0:0:
368,48,172636,1,0,0:0:0:0:
401,48,172688,1,4,0:0:0:0:
320,112,172794,1,4,0:0:0:0:
287,112,172846,1,0,0:0:0:0:
255,112,172898,1,4,0:1:0:0:
368,192,173004,1,4,0:1:0:0:
400,192,173056,1,0,0:0:0:0:
433,192,173108,1,4,0:0:0:0:
160,320,173214,5,12,2:1:0:0:
117,313,173284,1,0,2:1:0:0:
81,289,173354,1,0,2:1:0:0:
59,253,173424,1,0,3:1:0:0:
54,210,173494,1,0,2:1:0:0:
67,169,173563,1,0,2:1:0:0:
96,138,173633,1,0,3:1:0:0:
136,121,173703,1,0,2:1:0:0:
179,123,173773,1,0,2:1:0:0:
368,128,173843,5,2,3:1:0:0:
325,122,173913,1,0,3:1:0:0:
282,125,173983,1,0,3:1:0:0:
240,138,174053,1,0,3:1:0:0:
203,160,174123,1,0,2:1:0:0:
172,190,174193,1,0,2:1:0:0:
148,226,174263,1,0,3:1:0:0:
132,267,174333,1,0,2:1:0:0:
126,309,174403,1,0,2:1:0:0:
336,320,174473,5,8,3:3:0:0:
369,320,174525,1,0,3:1:0:0:
399,310,174577,1,0,3:1:0:0:
425,290,174630,1,0,3:1:0:0:
441,262,174682,1,0,3:1:0:0:
448,231,174735,1,0,3:1:0:0:
443,199,174787,1,0,3:1:0:0:
427,171,174840,1,0,3:1:0:0:
402,150,174892,1,0,3:1:0:0:
372,138,174945,1,0,3:1:0:0:
340,138,174997,1,0,3:1:0:0:
112,288,175102,5,2,3:3:0:0:
80,288,175154,1,0,2:1:0:0:
50,278,175206,1,0,3:1:0:0:
24,258,175259,1,0,2:1:0:0:
8,230,175311,1,0,3:1:0:0:
1,199,175364,1,0,2:1:0:0:
6,167,175416,1,0,3:1:0:0:
22,139,175469,1,0,2:1:0:0:
47,118,175521,1,0,3:1:0:0:
77,106,175574,1,0,2:1:0:0:
109,106,175626,1,0,3:1:0:0:
304,112,175731,6,0,L|464:112,1,130,14|6,0:0|0:0,2:2:0:0:
96,288,176151,1,8,3:2:0:0:
240,288,176361,6,0,L|96:288,1,130,14|6,0:0|0:0,2:2:0:0:
448,288,176780,1,8,3:2:0:0:
96,96,176990,5,10,0:2:0:0:
288,96,177200,1,8,0:3:0:0:
96,96,177410,1,8,0:3:0:0:
416,96,177619,5,10,0:2:0:0:
224,96,177829,1,10,0:3:0:0:
427,96,178039,1,8,0:3:0:0:
453,95,178091,1,0,3:0:0:0:
427,96,178144,1,8,3:0:0:0:
256,192,178249,6,0,L|96:192,1,130,6|0,0:1|2:1,2:2:0:0:
176,128,178563,1,0,0:0:0:0:
87,131,178668,2,0,L|71:51,1,65,8|0,0:3|0:0,2:2:0:0:
256,64,178878,6,0,L|336:64,1,65,8|0,0:1|0:0,0:0:0:0:
208,64,179088,2,0,L|208:144,1,65,8|0,0:3|0:0,2:2:0:0:
320,128,179298,2,0,L|320:192,1,65,8|0,0:3|0:0,0:0:0:0:
96,304,179508,6,0,L|96:160,1,130,2|0,0:3|3:1,2:2:0:0:
176,176,179927,2,0,L|96:176,1,65,8|0,0:3|3:1,0:0:0:0:
352,176,180137,5,8,0:3:0:0:
192,80,180347,2,0,L|112:80,1,65,8|0,0:3|3:1,2:2:0:0:
304,288,180556,2,0,L|400:288,1,65,8|2,0:3|0:1,2:2:0:0:
192,288,180766,5,6,0:1:0:0:
48,288,180976,1,0,3:1:0:0:
17,257,181045,1,0,0:0:0:0:
2,217,181115,1,0,0:0:0:0:
7,174,181185,1,0,3:1:0:0:
30,138,181255,1,0,0:0:0:0:
66,115,181325,1,0,0:0:0:0:
240,112,181396,5,0,3:1:0:0:
272,109,181448,1,0,3:1:0:0:
303,117,181500,1,0,3:1:0:0:
330,135,181553,1,0,3:1:0:0:
350,160,181605,1,0,3:1:0:0:
360,191,181658,1,0,3:1:0:0:
360,223,181710,1,0,3:1:0:0:
349,254,181763,1,0,3:1:0:0:
329,279,181815,1,0,3:1:0:0:
302,297,181868,1,0,3:1:0:0:
270,304,181920,1,0,3:1:0:0:
90,304,182025,6,0,L|-6:304,2,65,6|8|8,0:1|0:3|0:3,2:2:0:0:
182,305,182340,2,0,L|102:305,2,65,2|8|8,0:1|0:3|0:3,2:2:0:0:
400,160,182654,6,0,L|480:160,2,65,2|8|8,0:1|0:3|0:3,2:2:0:0:
208,144,182969,1,2,0:1:0:0:
288,128,183074,1,8,0:3:0:0:
368,112,183179,1,8,0:3:0:0:
176,96,183284,6,0,P|101:109|192:263,1,325,12|0,0:1|2:1,2:2:0:0:
352,176,183936,6,0,P|414:198|334:374,1,325,6|0,0:1|2:1,2:2:0:0:
160,336,184588,6,0,L|16:336,2,130,12|2|2,0:3|2:2|2:2,2:2:0:0:
368,336,185240,2,0,L|368:272,1,65,6|0,0:3|2:1,2:2:0:0:
272,256,185457,2,0,L|272:192,1,65,8|0,0:3|2:1,2:2:0:0:
384,192,185675,2,0,L|384:128,1,65,8|2,0:3|2:1,2:2:0:0:
192,112,185892,6,0,L|48:112,1,130,14|8,0:1|0:3,2:2:0:0:
384,112,186343,1,8,3:2:0:0:
224,112,186568,6,0,L|224:256,1,130,10|8,0:1|0:3,2:2:0:0:
384,240,187019,1,8,3:2:0:0:
420,224,187076,1,0,0:0:0:0:
384,208,187132,1,0,3:1:0:0:
128,64,187245,5,10,0:2:0:0:
320,64,187479,1,2,0:1:0:0:
128,64,187713,1,8,0:3:0:0:
432,288,187948,5,10,0:2:0:0:
240,256,188182,1,10,0:3:0:0:
432,224,188416,1,8,0:3:0:0:
460,196,188475,1,0,0:0:0:0:
431,169,188534,1,0,2:1:0:0:
240,144,188651,6,0,L|240:288,1,130,14|2,0:1|3:1,2:2:0:0:
240,274,189016,1,2,3:1:0:0:
240,274,189138,1,2,3:1:0:0:
128,160,189382,6,0,L|96:144,12,32.5,2|0|0|0|0|0|0|0|0|0|0|0|0,3:1|3:1|3:1|3:1|3:1|3:1|3:1|3:1|3:1|3:1|3:1|3:1|3:1,2:2:0:0:
256,160,190450,6,0,L|256:256,1,65,8|0,3:3|0:0,0:0:0:0:
256,225,190756,1,2,2:3:0:0:
368,224,191117,6,0,L|368:192,1,21.6666666666667,2|0,3:1|2:1,2:2:0:0:
368,192,191232,1,0,0:0:0:0:
368,176,191270,1,2,3:1:0:0:
256,192,191578,12,4,192501,3:1:0:0:
256,192,192830,12,4,194479,2:1:0:0:
144,288,196457,6,0,L|144:208,1,65,2|0,2:2|2:2,2:2:0:0:
368,208,197116,2,0,L|368:112,1,65,2|0,2:3|2:1,2:2:0:0:
224,144,197710,1,2,2:0:0:0:
144,144,197858,1,0,2:1:0:0:
64,144,198007,2,0,L|64:224,1,65,2|0,2:0|2:1,2:2:0:0:
208,208,198601,1,2,2:0:0:0:
464,208,198898,6,0,L|464:64,1,130,8|0,2:3|2:1,2:2:0:0:
352,80,199708,1,2,2:0:0:0:
464,80,199979,1,0,2:1:0:0:
352,80,200249,1,2,2:0:0:0:
112,80,200519,6,0,L|112:224,1,130,8|0,2:3|2:1,2:2:0:0:
224,208,201330,1,2,2:0:0:0:
112,208,201600,1,0,2:1:0:0:
224,208,201870,1,2,2:0:0:0:
464,208,202141,6,0,L|464:48,1,130,8|0,2:3|2:1,2:2:0:0:
352,80,202952,1,2,2:0:0:0:
464,80,203222,2,0,L|464:128,1,32.5,8|0,2:3|0:0,0:0:0:0:
400,128,203492,2,0,L|400:176,1,32.5,4|0,2:3|2:0,2:2:0:0:
256,176,203762,6,0,L|256:256,1,65,2|4,2:3|2:3,0:0:0:0:
144,176,204243,1,8,2:3:0:0:
144,176,204364,1,0,2:1:0:0:
144,176,204484,1,2,2:0:0:0:
256,176,204725,1,0,2:1:0:0:
144,176,204966,1,0,2:3:0:0:
368,176,205207,6,0,L|368:96,1,65,8|0,2:3|2:1,2:2:0:0:
256,112,205689,2,0,L|256:16,1,65,2|2,2:0|2:2,2:2:0:0:
368,48,206171,1,0,2:2:0:0:
256,48,206412,1,2,2:2:0:0:
16,48,206653,6,0,L|16:192,1,130,8|2,2:3|2:0,2:2:0:0:
112,176,207350,1,2,2:0:0:0:
208,176,207583,1,0,2:1:0:0:
112,176,207815,1,2,2:0:0:0:
336,176,208048,6,0,L|336:80,1,65,8|0,2:3|2:1,2:2:0:0:
448,112,208513,2,0,L|448:32,1,65,2|0,2:0|2:3,0:0:0:0:
336,48,208978,1,2,2:0:0:0:
448,48,209211,1,2,2:0:0:0:
224,48,209443,6,0,L|224:128,1,65,12|2,0:1|2:1,2:2:0:0:
336,112,209899,1,2,2:2:0:0:
336,112,210013,1,2,2:0:0:0:
336,112,210127,1,8,2:1:0:0:
224,112,210355,1,0,2:1:0:0:
336,112,210583,1,8,2:1:0:0:
112,112,210811,6,0,L|112:208,1,65,8|2,2:1|2:1,2:2:0:0:
208,176,211268,1,2,2:0:0:0:
112,176,211496,1,8,2:1:0:0:
208,176,211724,1,0,2:1:0:0:
112,176,211952,1,8,2:1:0:0:
352,176,212180,6,0,L|352:96,1,65,8|2,2:1|2:1,2:2:0:0:
224,112,212621,1,2,2:2:0:0:
352,112,212841,1,8,2:1:0:0:
224,112,213062,1,2,2:0:0:0:
352,112,213282,1,0,2:1:0:0:
128,112,213503,6,0,L|128:208,1,65,8|2,2:1|2:1,2:2:0:0:
288,176,213944,1,2,2:2:0:0:
128,177,214165,1,8,2:1:0:0:
288,176,214385,1,2,2:2:0:0:
128,177,214606,1,0,2:1:0:0:
416,176,214827,6,0,L|416:80,1,65,12|2,2:1|2:1,2:2:0:0:
240,112,215257,1,0,3:1:0:0:
175,112,215364,1,0,3:1:0:0:
112,112,215472,1,2,2:1:0:0:
240,192,215687,1,2,2:1:0:0:
96,192,215902,1,2,2:1:0:0:
384,192,216117,6,0,L|384:272,1,65,8|2,2:1|2:1,2:2:0:0:
224,256,216547,1,2,3:1:0:0:
384,256,216762,1,2,2:1:0:0:
224,256,216977,1,2,2:1:0:0:
384,256,217192,1,2,2:1:0:0:
96,256,217407,6,0,L|96:160,1,65,8|2,2:1|2:1,2:2:0:0:
256,192,217829,1,0,3:1:0:0:
96,192,218040,1,2,2:1:0:0:
256,192,218252,1,2,2:1:0:0:
96,192,218463,1,2,2:1:0:0:
368,192,218674,6,0,L|368:128,1,65,8|8,2:1|2:1,2:2:0:0:
208,128,219135,1,8,2:1:0:0:
400,272,219385,1,2,2:1:0:0:
192,272,219657,1,2,2:1:0:0:
432,160,219957,1,8,2:1:0:0:
32,192,220290,6,0,P|71:103|224:64,1,260,6|0,0:1|2:1,2:2:0:0:
432,80,220966,6,0,L|432:224,2,130,2|0|0,0:1|2:1|2:0,0:0:0:0:
224,240,221645,6,0,P|288:240|400:96,1,260,6|0,0:1|2:1,2:2:0:0:
192,80,222326,6,0,L|128:80,1,65,2|0,2:1|2:1,2:2:0:0:
240,80,222554,2,0,L|240:160,1,65,0|0,2:1|2:1,2:2:0:0:
128,160,222782,2,0,L|192:160,1,65,0|0,2:1|2:1,2:2:0:0:
400,160,223010,6,0,L|400:16,1,130,6|2,0:1|2:1,2:2:0:0:
64,288,223468,1,8,2:2:0:0:
192,288,223697,6,0,L|48:288,1,130,6|2,0:1|2:1,2:2:0:0:
256,288,224156,1,8,3:2:0:0:
289,269,224213,1,0,3:1:0:0:
256,248,224270,1,0,3:1:0:0:
67,131,224386,5,10,0:2:0:0:
270,113,224616,1,2,0:1:0:0:
67,131,224851,1,2,0:1:0:0:
432,288,225091,5,2,0:2:0:0:
224,256,225335,1,2,0:1:0:0:
448,288,225585,1,2,0:1:0:0:
448,208,225712,1,0,3:1:0:0:
256,208,225840,6,0,P|112:175|68:62,1,260,6|6,0:2|0:2,2:2:0:0:
256,80,226543,6,0,L|256:160,1,65,2|0,0:1|3:1,2:2:0:0:
160,160,226779,2,0,L|160:224,1,65,2|2,0:1|0:1,2:2:0:0:
272,224,227015,2,0,L|352:224,1,65,2|0,0:1|3:1,2:2:0:0:
160,304,227251,6,0,L|0:304,2,130,2|0|0,0:1|3:1|3:1,2:2:0:0:
368,304,227965,2,0,P|400:256|368:192,1,130,0|0,0:2|0:3,0:0:0:0:
304,192,228325,1,0,0:0:0:0:
372,195,228445,1,4,0:2:0:0:
304,192,228565,1,0,0:0:0:0:
80,192,228685,6,0,L|80:48,1,130,6|0,2:1|3:1,0:0:0:0:
176,64,229172,1,0,2:1:0:0:
256,64,229294,1,0,2:1:0:0:
464,64,229416,6,0,L|304:64,2,130,4|0|0,2:1|3:1|2:1,0:0:0:0:
144,64,230191,5,6,0:1:0:0:
101,71,230293,1,0,0:0:0:0:
64,93,230395,1,0,0:0:0:0:
39,128,230497,1,0,3:1:0:0:
28,169,230599,1,0,0:0:0:0:
34,212,230701,1,0,0:0:0:0:
56,249,230803,1,0,3:1:0:0:
90,276,230905,1,0,0:0:0:0:
131,287,231007,1,0,0:0:0:0:
320,288,231109,5,6,0:1:0:0:
112,176,231493,1,2,2:1:0:0:
416,128,231903,1,2,2:1:0:0:
112,288,232390,5,6,0:0:0:0:
60,256,232486,1,0,2:1:0:0:
32,203,232582,1,0,2:1:0:0:
34,143,232678,1,0,2:1:0:0:
67,93,232774,1,0,3:1:0:0:
120,65,232870,1,0,3:1:0:0:
302,63,232966,6,0,L|459:54,1,121.333329630534,2|0,0:1|2:1,0:0:0:0:
353,79,233255,1,0,2:1:0:0:
425,76,233351,1,0,3:1:0:0:
432,148,233447,1,0,3:1:0:0:
175,221,233543,6,0,L|171:55,1,121.333329630534,2|0,0:1|2:1,2:2:0:0:
243,84,233832,1,0,2:1:0:0:
172,67,233928,1,0,3:1:0:0:
100,51,234024,1,0,3:1:0:0:
303,184,234120,6,0,L|437:170,1,121.333329630534,2|0,0:1|2:1,0:0:0:0:
355,142,234409,1,0,2:1:0:0:
285,119,234505,1,0,3:1:0:0:
355,101,234601,1,0,3:1:0:0:
192,256,234697,6,0,L|96:256,3,90.9999972229005,2|0|0|0,2:1|3:1|3:1|3:1,2:2:0:0:
352,128,235274,6,0,L|256:128,3,90.9999972229005,8|0|0|0,2:1|3:1|3:1|3:1,2:2:0:0:
32,128,235851,5,2,2:1:0:0:
144,128,235995,1,0,3:1:0:0:
256,128,236140,1,0,3:1:0:0:
144,128,236284,1,0,3:1:0:0:
400,160,236428,5,8,2:1:0:0:
288,160,236572,1,0,3:1:0:0:
176,160,236716,1,0,3:1:0:0:
288,160,236861,1,0,3:1:0:0:
64,323,237005,6,0,P|41:236|101:150,1,187.19999428711,0|0,3:1|2:1,0:0:0:0:
135,148,237293,2,0,L|328:138,1,187.19999428711,0|0,3:1|2:1,0:0:0:0:
369,138,237582,2,0,L|151:115,1,187.19999428711,0|0,3:1|2:1,0:0:0:0:
229,120,237870,2,0,L|240:337,1,187.19999428711,0|0,3:1|2:1,0:0:0:0:
191,314,238159,6,0,L|14:218,1,187.19999428711,0|0,3:1|2:1,0:0:0:0:
71,210,238447,2,0,L|288:185,1,187.19999428711,0|0,3:1|2:1,0:0:0:0:
304,183,238736,2,0,L|510:165,1,187.19999428711,0|0,3:1|2:1,0:0:0:0:
444,154,239024,2,0,L|219:125,1,187.19999428711,0|0,3:1|2:1,0:0:0:0:
306,130,239313,5,0,2:1:0:0:
124,126,239601,5,0,3:1:0:0:
85,150,239673,1,0,3:1:0:0:
86,195,239745,1,0,3:1:0:0:
124,219,239817,1,0,3:1:0:0:
207,217,239890,2,0,L|220:146,1,45.4999986114502,0|0,3:1|3:1,2:2:0:0:
160,157,240034,2,0,L|150:96,1,45.4999986114502,0|0,3:1|3:1,2:2:0:0:
235,109,240178,1,0,3:1:0:0:
270,83,240250,1,0,3:1:0:0:
269,39,240322,1,0,3:1:0:0:
232,15,240394,1,0,3:1:0:0:
96,272,240466,5,8,0:3:0:0:
256,272,240755,1,0,3:1:0:0:
304,256,240827,1,0,3:1:0:0:
304,208,240899,1,0,3:1:0:0:
256,192,240971,1,0,3:1:0:0:
112,128,241043,1,12,0:1:0:0:
256,80,241332,5,0,3:1:0:0:
208,96,241404,1,0,3:2:0:0:
208,128,241476,1,0,3:2:0:0:
256,144,241548,1,0,3:2:0:0:
432,80,241620,1,12,0:1:0:0:
