osu file format v14

[General]
AudioFilename: audio.mp3
AudioLeadIn: 0
PreviewTime: 196432
Countdown: 0
SampleSet: Normal
StackLeniency: 0.7
Mode: 1
LetterboxInBreaks: 0
WidescreenStoryboard: 0

[Editor]
DistanceSpacing: 0.8
BeatDivisor: 4
GridSize: 32
TimelineZoom: 4.299998

[Metadata]
Title:Fly Like You [Long Version]
TitleUnicode:Fly Like You [Long Version]
Artist:technoplanet
ArtistUnicode:technoplanet
Creator:[ TNTlealu ]
Version:HEAVENLY
Source:SOUND VOLTEX IV HEAVENLY HAVEN
Tags:electronic -Joakh Shinsekai- sdvx 4 旋律世界 ΩDimension -Phase.5+- full ver sv instrumental konami video game rhythm [_Chichinya_] Chi Vulkin uone Rocma _Asriel Yumeno Himiko examination Minato Yukina CLSW alienflybot AFB Loneight l1106188 L18 岡聡志 安部泉希 autofanboy
BeatmapID:2259349
BeatmapSetID:1079909

[Difficulty]
HPDrainRate:6
CircleSize:2
OverallDifficulty:7
ApproachRate:10
SliderMultiplier:1.4
SliderTickRate:1

[Events]
//Background and Video events
0,0,"fcb914da2343ca7cea85c6f8803cf27e4147f5c0.png",0,0
//Break Periods
//Storyboard Layer 0 (Background)
//Storyboard Layer 1 (Fail)
//Storyboard Layer 2 (Pass)
//Storyboard Layer 3 (Foreground)
//Storyboard Layer 4 (Overlay)
//Storyboard Sound Samples

[TimingPoints]
625,209.79020979021,3,1,0,75,1,0
625,-125,3,1,0,75,0,0
3142,-111.111111111111,3,1,0,75,0,0
5030,-105.263157894737,3,1,0,75,0,0
5555,-105.263157894737,3,1,0,30,0,0
6811,-100,3,1,0,85,0,8
6918,-100,3,1,0,85,0,9
16988,-100,3,1,0,80,0,0
26428,-104.166666666667,3,1,0,80,0,0
26533,-108.695652173913,3,1,0,80,0,0
26638,-113.636363636364,3,1,0,80,0,0
26743,-119.047619047619,3,1,0,80,0,0
26848,-125,3,1,0,80,0,0
26952,-131.578947368421,3,1,0,80,0,0
27057,-138.888888888889,3,1,0,80,0,0
27372,-142.857142857143,3,1,0,80,0,0
31463,-136.986301369863,3,1,0,80,0,0
31533,-131.578947368421,3,1,0,80,0,0
31603,-126.582278481013,3,1,0,80,0,0
31673,-121.951219512195,3,1,0,80,0,0
31743,-117.647058823529,3,1,0,80,0,0
31813,-113.636363636364,3,1,0,80,0,0
31883,-109.89010989011,3,1,0,80,0,0
31952,-106.382978723404,3,1,0,80,0,0
32022,-103.092783505155,3,1,0,80,0,0
32092,-100,3,1,0,80,0,0
44050,-104.166666666667,3,1,0,80,0,0
44155,-108.695652173913,3,1,0,80,0,0
44260,-113.636363636364,3,1,0,80,0,0
44365,-119.047619047619,3,1,0,80,0,0
44470,-125,3,1,0,80,0,0
44575,-131.578947368421,3,1,0,80,0,0
44680,225.563909774436,3,1,0,80,1,0
44680,-129.198966408269,3,1,0,80,0,0
44736,-129.198966408269,3,1,0,50,0,0
46710,-142.857142857143,3,1,0,50,0,0
46935,-125,3,1,0,50,0,0
47161,-111.111111111111,3,1,0,50,0,0
47386,209.79020979021,3,1,0,80,1,0
51162,-100,3,1,0,80,0,0
51267,-99.009900990099,3,1,0,80,0,0
51372,-98.0392156862745,3,1,0,80,0,0
51476,-97.0873786407767,3,1,0,80,0,0
51581,-96.1538461538461,3,1,0,80,0,0
51686,-95.2380952380952,3,1,0,80,0,0
51791,-94.3396226415094,3,1,0,80,0,0
52525,-94.3396226415094,3,1,0,30,0,0
52630,-66.6666666666667,3,1,0,30,0,0
53574,-66.6666666666667,3,1,0,85,0,0
53679,-100,3,1,0,85,0,1
61232,-100,3,1,0,75,0,0
62490,-100,3,1,0,75,0,0
62700,-104.166666666667,3,1,0,75,0,0
62910,-106.382978723404,3,1,0,75,0,0
63120,-108.695652173913,3,1,0,75,0,0
63225,-111.111111111111,3,1,0,75,0,0
63330,-113.636363636364,3,1,0,75,0,0
63434,-116.279069767442,3,1,0,75,0,0
63539,-117.647058823529,3,1,0,75,0,0
63592,-119.047619047619,3,1,0,75,0,0
63644,-120.481927710843,3,1,0,75,0,0
63697,-121.951219512195,3,1,0,75,0,0
63749,-123.456790123457,3,1,0,85,0,1
64169,-125,3,1,0,85,0,1
65637,-120.481927710843,3,1,0,85,0,1
65742,-116.279069767442,3,1,0,85,0,1
65847,-112.359550561798,3,1,0,85,0,1
65952,-108.695652173913,3,1,0,85,0,1
66057,-105.263157894737,3,1,0,85,0,1
66162,-102.040816326531,3,1,0,85,0,1
66267,-90.9090909090909,3,1,0,85,0,1
73819,-100,3,1,0,75,0,0
93330,-101.010101010101,3,1,0,75,0,0
93382,-102.040816326531,3,1,0,75,0,0
93434,-103.092783505155,3,1,0,75,0,0
93487,-104.166666666667,3,1,0,75,0,0
93539,-105.263157894737,3,1,0,75,0,0
93592,-106.382978723404,3,1,0,75,0,0
93644,-107.52688172043,3,1,0,75,0,0
93697,-108.695652173913,3,1,0,75,0,0
93749,-109.89010989011,3,1,0,75,0,0
93802,-111.111111111111,3,1,0,75,0,0
93854,-112.359550561798,3,1,0,75,0,0
93906,-113.636363636364,3,1,0,75,0,0
93959,-114.942528735632,3,1,0,75,0,0
102770,-113.636363636364,3,1,0,75,0,0
102875,-111.111111111111,3,1,0,75,0,0
102980,-108.695652173913,3,1,0,75,0,0
103085,-106.382978723404,3,1,0,75,0,0
103190,-104.166666666667,3,1,0,75,0,0
103295,-102.040816326531,3,1,0,75,0,0
103399,-100,3,1,0,75,0,0
103504,-98.0392156862745,3,1,0,75,0,0
103609,-96.1538461538461,3,1,0,75,0,0
103714,-94.3396226415094,3,1,0,75,0,0
103819,-96.1538461538461,3,1,0,75,0,0
103872,-97.0873786407767,3,1,0,75,0,0
103924,-98.0392156862745,3,1,0,75,0,0
103976,-99.009900990099,3,1,0,75,0,0
104029,217.391304347826,3,1,0,75,1,0
104029,-95.2380952380952,3,1,0,75,0,0
114029,-97.0873786407767,3,1,0,75,0,0
114137,-99.009900990099,3,1,0,75,0,0
114246,-101.010101010101,3,1,0,75,0,0
114355,-103.092783505155,3,1,0,75,0,0
114463,225.563909774436,3,1,0,60,1,0
114688,-101.112234580384,3,1,0,60,0,0
114914,-102.040816326531,3,1,0,60,0,0
115139,-103.092783505155,3,1,0,60,0,0
115365,-104.166666666667,3,1,0,60,0,0
115590,-105.263157894737,3,1,0,60,0,0
115816,-106.382978723404,3,1,0,60,0,0
116041,-107.52688172043,3,1,0,60,0,0
116267,-108.695652173913,3,1,0,60,0,0
116493,-109.89010989011,3,1,0,60,0,0
116718,-111.111111111111,3,1,0,60,0,0
116944,-112.359550561798,3,1,0,60,0,0
117169,-113.636363636364,3,1,0,60,0,0
117395,-114.942528735632,3,1,0,60,0,0
117620,-116.279069767442,3,1,0,60,0,0
117846,-117.647058823529,3,1,0,60,0,0
118072,-119.047619047619,3,1,0,60,0,0
118297,-120.481927710843,3,1,0,60,0,0
118523,-121.951219512195,3,1,0,60,0,0
118748,-123.456790123457,3,1,0,60,0,0
118974,-125,3,1,0,60,0,0
119199,-126.582278481013,3,1,0,60,0,0
119425,-128.205128205128,3,1,0,60,0,0
119650,-129.87012987013,3,1,0,60,0,0
119876,-131.578947368421,3,1,0,60,0,0
120102,-133.333333333333,3,1,0,60,0,0
120327,-135.135135135135,3,1,0,60,0,0
120553,-136.986301369863,3,1,0,60,0,0
120778,-138.888888888889,3,1,0,60,0,0
121004,-140.845070422535,3,1,0,60,0,0
121229,-142.857142857143,3,1,0,60,0,0
121455,-144.927536231884,3,1,0,60,0,0
121681,-147.058823529412,3,1,0,60,0,0
121906,-149.253731343284,3,1,0,60,0,0
122132,-151.515151515152,3,1,0,60,0,0
122357,-153.846153846154,3,1,0,60,0,0
122583,-156.25,3,1,0,60,0,0
122808,-158.730158730159,3,1,0,60,0,0
123034,-161.290322580645,3,1,0,60,0,0
123259,-163.934426229508,3,1,0,60,0,0
123485,-166.666666666667,3,1,0,60,0,0
123711,-169.491525423729,3,1,0,60,0,0
123936,209.79020979021,3,1,0,60,1,0
123936,-185.185185185185,3,1,0,60,0,0
124040,-117.647058823529,3,1,0,30,0,0
124775,-111.111111111111,3,1,0,60,0,0
124984,-105.263157894737,3,1,0,60,0,0
125194,209.79020979021,3,1,0,75,1,0
125194,-100,3,1,0,75,0,0
140298,-102.040816326531,3,1,0,75,0,0
140509,-104.166666666667,3,1,0,75,0,0
140719,-106.382978723404,3,1,0,75,0,0
140928,-108.695652173913,3,1,0,75,0,0
141138,-111.111111111111,3,1,0,75,0,0
141348,-113.636363636364,3,1,0,75,0,0
141557,-116.279069767442,3,1,0,75,0,0
141768,-119.047619047619,3,1,0,75,0,0
141977,-121.951219512195,3,1,0,75,0,0
142187,-125,3,1,0,75,0,0
142397,-128.205128205128,3,1,0,75,0,0
142607,-131.578947368421,3,1,0,75,0,0
142816,225.563909774436,3,1,0,75,1,0
142816,-126.582278481013,3,1,0,75,0,0
142873,-126.582278481013,3,1,0,50,0,0
144846,-142.857142857143,3,1,0,50,0,0
145071,-125,3,1,0,50,0,0
145297,-111.111111111111,3,1,0,50,0,0
145522,209.79020979021,3,1,0,75,1,0
149298,-100,3,1,0,75,0,0
149403,-99.009900990099,3,1,0,75,0,0
149508,-98.0392156862745,3,1,0,75,0,0
149612,-97.0873786407767,3,1,0,75,0,0
149717,-96.1538461538461,3,1,0,75,0,0
149822,-95.2380952380952,3,1,0,75,0,0
149927,-94.3396226415094,3,1,0,75,0,0
150661,-94.3396226415094,3,1,0,30,0,0
150766,-66.6666666666667,3,1,0,30,0,0
152969,-66.6666666666667,3,1,0,85,0,0
153074,-100,3,1,0,85,0,1
160626,-100,3,1,0,75,0,0
161885,-102.040816326531,3,1,0,75,0,0
162095,-104.166666666667,3,1,0,75,0,0
162305,-106.382978723404,3,1,0,75,0,0
162515,-108.695652173913,3,1,0,75,0,0
162619,-111.111111111111,3,1,0,75,0,0
162724,-113.636363636364,3,1,0,75,0,0
162829,-116.279069767442,3,1,0,75,0,0
162934,-117.647058823529,3,1,0,75,0,0
162987,-119.047619047619,3,1,0,75,0,0
163039,-120.481927710843,3,1,0,75,0,0
163091,-121.951219512195,3,1,0,75,0,0
163144,-123.456790123457,3,1,0,85,0,1
163563,-125,3,1,0,85,0,1
165032,-120.481927710843,3,1,0,85,0,1
165137,-116.279069767442,3,1,0,85,0,1
165242,-112.359550561798,3,1,0,85,0,1
165347,-108.695652173913,3,1,0,85,0,1
165452,-105.263157894737,3,1,0,85,0,1
165556,-102.040816326531,3,1,0,85,0,1
165661,-90.9090909090909,3,1,0,85,0,1
173214,-100,3,1,0,80,0,0
175731,-100,3,1,0,85,0,1
178249,-100,3,1,0,80,0,0
183126,-101.010101010101,3,1,0,80,0,0
183179,-102.040816326531,3,1,0,80,0,0
183229,-103.092783505155,3,1,0,80,0,0
183284,217.391304347826,3,1,0,80,1,0
183284,-101.010101010101,3,1,0,80,0,0
183936,-100,3,1,0,80,0,0
185675,-101.010101010101,3,1,0,80,0,0
185784,-102.040816326531,3,1,0,80,0,0
185838,-103.092783505155,3,1,0,80,0,0
185892,225.563909774436,3,1,0,80,1,0
187076,-101.010101010101,3,1,0,80,0,0
187132,-102.040816326531,3,1,0,80,0,0
187188,-103.092783505155,3,1,0,80,0,0
187245,234.375,3,1,0,80,1,0
188475,-101.010101010101,3,1,0,80,0,0
188534,-102.040816326531,3,1,0,80,0,0
188590,-103.092783505155,3,1,0,80,0,0
188651,243.90243902439,3,1,0,80,1,0
189016,-101.010101010101,3,1,0,80,0,0
189138,-102.040816326531,3,1,0,80,0,0
189260,-103.092783505155,3,1,0,80,0,0
189382,254.237288135593,3,1,0,80,1,0
189445,-102.040816326531,3,1,0,80,0,0
189509,-104.166666666667,3,1,0,80,0,0
189572,-106.382978723404,3,1,0,80,0,0
189636,-108.695652173913,3,1,0,80,0,0
189699,-111.111111111111,3,1,0,80,0,0
189763,-113.636363636364,3,1,0,80,0,0
189826,-116.279069767442,3,1,0,80,0,0
189890,-119.047619047619,3,1,0,80,0,0
189954,-121.951219512195,3,1,0,80,0,0
190017,-125,3,1,0,80,0,0
190081,-128.205128205128,3,1,0,80,0,0
190144,306.122448979592,3,1,0,80,1,0
190144,-108.695652173913,3,1,0,80,0,0
190450,-116.279069767442,3,1,0,80,0,0
190756,361.44578313253,3,1,0,80,1,8
190756,-114.942528735632,3,1,0,80,0,0
191117,461.538461538462,3,1,0,80,1,0
191193,-101.010101010101,3,1,0,80,0,0
191270,-102.040816326531,3,1,0,80,0,0
191578,-103.092783505155,3,1,0,80,0,0
191732,-104.166666666667,3,1,0,80,0,0
191809,-105.263157894737,3,1,0,80,0,0
191886,-106.382978723404,3,1,0,80,0,0
191963,-107.52688172043,3,1,0,80,0,0
192040,-108.695652173913,3,1,0,80,0,0
192117,-109.89010989011,3,1,0,80,0,0
192193,-111.111111111111,3,1,0,80,0,0
192299,-112.359550561798,3,1,0,80,0,0
192386,-113.636363636364,3,1,0,80,0,0
192501,659.340659340659,3,1,0,80,1,0
192501,-80.6451612903226,3,1,0,80,0,0
194479,-80.6451612903226,3,1,0,80,0,1
194643,-80.6451612903226,3,1,0,80,0,0
196457,659.340659340659,3,1,0,75,1,8
196457,-100,3,1,0,50,0,0
196786,-95.2380952380952,3,1,0,50,0,0
197116,594.059405940594,3,1,0,50,1,0
197413,-99.009900990099,3,1,0,50,0,0
197710,-98.0392156862745,3,1,0,50,0,0
197858,-96.1538461538461,3,1,0,50,0,0
198007,-94.3396226415094,3,1,0,50,0,0
198304,-92.5925925925926,3,1,0,50,0,0
198601,-90.9090909090909,3,1,0,50,0,0
198898,540.540540540541,3,1,0,50,1,0
198898,-98.0392156862745,3,1,0,50,0,0
202952,-96.1538461538461,3,1,0,50,0,0
203222,-94.3396226415094,3,1,0,50,0,0
203492,-92.5925925925926,3,1,0,50,0,0
203762,481.927710843374,3,1,0,60,1,0
205930,-99.009900990099,3,1,0,60,0,0
206171,-98.0392156862745,3,1,0,60,0,0
206412,-97.0873786407767,3,1,0,60,0,0
206653,465.116279069767,3,1,0,60,1,0
209211,-99.009900990099,3,1,0,60,0,0
209443,456.273764258555,3,1,0,60,1,0
211724,-99.009900990099,3,1,0,60,0,0
211952,-98.0392156862745,3,1,0,60,0,0
212180,441.176470588235,3,1,0,70,1,0
214385,-99.009900990099,3,1,0,70,0,0
214606,-98.0392156862745,3,1,0,70,0,0
214827,430.10752688172,3,1,0,75,1,0
217192,-99.009900990099,3,1,0,75,0,0
217407,422.535211267606,3,1,0,75,1,0
218040,-102.040816326531,3,1,0,75,0,0
218252,-104.166666666667,3,1,0,75,0,0
218463,-106.382978723404,3,1,0,75,0,0
218674,461.538461538462,3,1,0,80,1,0
219135,500,3,1,0,82,1,8
219135,-95.2380952380952,3,1,0,82,0,8
219385,545.454545454546,3,1,0,84,1,8
219385,-80,3,1,0,84,0,8
219657,600,3,1,0,86,1,8
219657,-66.6666666666667,3,1,0,86,0,8
219957,666.666666666667,3,1,0,88,1,8
219957,-50,3,1,0,88,0,8
220290,225.563909774436,3,1,0,90,1,1
220966,226.415094339623,3,1,0,90,1,1
221645,227.272727272727,3,1,0,90,1,1
222326,228.136882129278,3,1,0,90,1,1
223010,229.007633587786,3,1,0,90,1,1
223697,229.885057471264,3,1,0,90,1,1
224386,230.769230769231,3,1,0,90,1,1
224616,235.294117647059,3,1,0,90,1,9
224851,240,3,1,0,90,1,9
225091,244.897959183673,3,1,0,90,1,1
225335,250,3,1,0,90,1,9
225585,255.31914893617,3,1,0,90,1,9
225840,234.375,3,1,0,90,1,1
226543,236.220472440945,3,1,0,90,1,1
227133,-101.010101010101,3,1,0,90,0,1
227251,238.095238095238,3,1,0,90,1,1
227727,-101.010101010101,3,1,0,90,0,1
227965,240,3,1,0,90,1,1
228205,-102.040816326531,3,1,0,90,0,1
228685,243.90243902439,3,1,0,90,1,1
229172,-102.040816326531,3,1,0,90,0,1
229294,-104.166666666667,3,1,0,90,0,1
229416,258.620689655172,3,1,0,90,1,1
229674,-105.263157894737,3,1,0,90,0,1
229933,-111.111111111111,3,1,0,90,0,1
230191,306.122448979592,3,1,0,90,1,1
230267,-102.040816326531,3,1,0,90,0,1
230344,-104.166666666667,3,1,0,90,0,1
230420,-106.382978723404,3,1,0,90,0,1
230497,-108.695652173913,3,1,0,90,0,1
230573,-111.111111111111,3,1,0,90,0,1
230650,-113.636363636364,3,1,0,90,0,1
230726,-116.279069767442,3,1,0,90,0,1
230803,-119.047619047619,3,1,0,90,0,1
230879,-121.951219512195,3,1,0,90,0,1
230956,-125,3,1,0,90,0,1
231032,-128.205128205128,3,1,0,90,0,1
231109,384.615384615385,3,1,0,90,1,1
231109,-104.166666666667,3,1,0,90,0,1
231493,410.958904109589,3,1,0,90,1,9
231493,-105.263157894737,3,1,0,90,0,1
231903,487.80487804878,3,1,0,90,1,9
231903,-95.2380952380952,3,1,0,90,0,1
232390,288.461538461538,4,1,0,80,1,0
239601,-99.009900990099,4,1,0,80,0,0
239673,-98.0392156862745,4,1,0,80,0,0
239745,-97.0873786407767,4,1,0,80,0,0
239817,-96.1538461538461,4,1,0,80,0,0
239890,-95.2380952380952,4,1,0,80,0,0
239962,-94.3396226415094,4,1,0,80,0,0
240034,-93.4579439252336,4,1,0,80,0,0
240106,-92.5925925925926,4,1,0,80,0,0
240178,-91.743119266055,4,1,0,80,0,0
240250,-90.9090909090909,4,1,0,80,0,0
240322,-90.0900900900901,4,1,0,80,0,0
240394,-89.2857142857143,4,1,0,80,0,0
240466,-88.4955752212389,4,1,0,80,0,0
240755,-76.9230769230769,4,1,0,90,0,0
240827,-74.0740740740741,4,1,0,90,0,0
240899,-71.4285714285714,4,1,0,90,0,0
240971,-68.9655172413793,4,1,0,90,0,0
241043,-66.6666666666667,4,1,0,90,0,0
241332,-62.5,4,1,0,90,0,0
241404,-60.6060606060606,4,1,0,90,0,0
241476,-58.8235294117647,4,1,0,90,0,0
241548,-57.1428571428571,4,1,0,90,0,0
241620,-55.5555555555556,4,1,0,90,0,0

[HitObjects]
256,192,625,5,4,0:0:0:0:
256,192,834,1,8,0:0:0:0:
256,192,1044,1,0,0:0:0:0:
256,192,1149,1,0,0:0:0:0:
256,192,1254,1,0,0:0:0:0:
256,192,1464,1,8,0:0:0:0:
256,192,1673,1,8,0:0:0:0:
256,192,1883,1,0,0:0:0:0:
256,192,2303,1,0,0:0:0:0:
256,192,2513,1,0,0:0:0:0:
256,192,2722,1,8,0:0:0:0:
256,192,2932,1,8,0:0:0:0:
256,192,3142,1,4,0:0:0:0:
256,192,3352,1,8,0:0:0:0:
256,192,3562,1,0,0:0:0:0:
256,192,3666,1,0,0:0:0:0:
256,192,3771,1,0,0:0:0:0:
256,192,3981,1,8,0:0:0:0:
256,192,4191,1,8,0:0:0:0:
256,192,4401,1,4,0:0:0:0:
256,192,5030,1,12,0:0:0:0:
256,192,5974,12,0,6708,0:0:0:0:
256,192,6918,5,4,0:0:0:0:
256,192,7232,1,0,0:0:0:0:
256,192,7337,1,8,0:0:0:0:
256,192,7547,1,0,0:0:0:0:
256,192,7757,1,8,0:0:0:0:
256,192,7862,1,0,0:0:0:0:
256,192,7966,1,8,0:0:0:0:
256,192,8176,1,4,0:0:0:0:
256,192,8491,1,0,0:0:0:0:
256,192,8596,1,8,0:0:0:0:
256,192,8806,1,8,0:0:0:0:
256,192,8911,1,0,0:0:0:0:
256,192,9015,1,8,0:0:0:0:
256,192,9120,1,8,0:0:0:0:
256,192,9225,1,0,0:0:0:0:
256,192,9330,1,0,0:0:0:0:
256,192,9435,1,12,0:0:0:0:
256,192,9645,1,4,0:0:0:0:
256,192,9855,1,8,0:0:0:0:
256,192,9881,1,8,0:0:0:0:
256,192,10064,1,12,0:0:0:0:
256,192,10274,1,4,0:0:0:0:
256,192,10484,1,0,0:0:0:0:
256,192,10536,1,0,0:0:0:0:
256,192,10589,1,8,0:0:0:0:
256,192,10694,1,12,0:0:0:0:
256,192,10904,1,12,0:0:0:0:
256,192,11113,1,4,0:0:0:0:
256,192,11323,1,4,0:0:0:0:
256,192,11533,1,12,0:0:0:0:
256,192,11743,1,8,0:0:0:0:
256,192,11848,1,0,0:0:0:0:
256,192,11900,1,0,0:0:0:0:
256,192,11952,1,8,0:0:0:0:
256,192,12267,1,0,0:0:0:0:
256,192,12372,1,8,0:0:0:0:
256,192,12582,1,8,0:0:0:0:
256,192,12687,1,0,0:0:0:0:
256,192,12792,1,8,0:0:0:0:
256,192,12897,1,8,0:0:0:0:
256,192,13001,1,0,0:0:0:0:
256,192,13211,1,8,0:0:0:0:
256,192,13421,1,0,0:0:0:0:
256,192,13526,1,0,0:0:0:0:
256,192,13631,1,8,0:0:0:0:
256,192,13841,1,0,0:0:0:0:
256,192,13945,1,0,0:0:0:0:
256,192,14050,1,8,0:0:0:0:
256,192,14155,1,0,0:0:0:0:
256,192,14260,1,8,0:0:0:0:
256,192,14365,1,0,0:0:0:0:
256,192,14418,1,0,0:0:0:0:
256,192,14470,1,8,0:0:0:0:
256,192,14680,1,0,0:0:0:0:
256,192,14890,1,0,0:0:0:0:
256,192,14994,1,0,0:0:0:0:
256,192,15099,1,8,0:0:0:0:
256,192,15204,1,8,0:0:0:0:
256,192,15309,1,0,0:0:0:0:
256,192,15414,1,0,0:0:0:0:
256,192,15519,1,8,0:0:0:0:
256,192,15729,1,0,0:0:0:0:
256,192,15938,1,0,0:0:0:0:
256,192,16148,1,8,0:0:0:0:
256,192,16358,1,0,0:0:0:0:
256,192,16411,1,0,0:0:0:0:
256,192,16463,1,8,0:0:0:0:
256,192,16515,1,8,0:0:0:0:
256,192,16568,1,0,0:0:0:0:
256,192,16620,1,0,0:0:0:0:
256,192,16673,1,8,0:0:0:0:
256,192,16725,1,8,0:0:0:0:
256,192,16778,1,0,0:0:0:0:
256,192,16830,1,0,0:0:0:0:
256,192,16883,1,8,0:0:0:0:
256,192,16935,1,8,0:0:0:0:
256,192,16987,5,0,0:0:0:0:
256,192,17092,1,0,0:0:0:0:
256,192,17197,1,0,0:0:0:0:
256,192,17302,1,8,0:0:0:0:
256,192,17617,1,0,0:0:0:0:
256,192,17827,1,8,0:0:0:0:
256,192,18036,1,8,0:0:0:0:
256,192,18246,1,0,0:0:0:0:
256,192,18456,1,8,0:0:0:0:
256,192,18561,1,0,0:0:0:0:
256,192,18666,1,8,0:0:0:0:
256,192,18771,1,8,0:0:0:0:
256,192,18876,1,0,0:0:0:0:
256,192,19085,1,8,0:0:0:0:
256,192,19295,1,0,0:0:0:0:
256,192,19348,1,0,0:0:0:0:
256,192,19400,1,8,0:0:0:0:
256,192,19452,1,8,0:0:0:0:
256,192,19505,1,0,0:0:0:0:
256,192,19715,1,0,0:0:0:0:
256,192,19785,1,8,0:0:0:0:
256,192,19855,1,8,0:0:0:0:
256,192,19924,1,0,0:0:0:0:
256,192,19994,1,8,0:0:0:0:
256,192,20064,1,8,0:0:0:0:
256,192,20134,1,0,0:0:0:0:
256,192,20239,1,0,0:0:0:0:
256,192,20344,1,8,0:0:0:0:
256,192,20554,1,8,0:0:0:0:
256,192,20764,1,0,0:0:0:0:
256,192,20973,1,8,0:0:0:0:
256,192,21078,1,0,0:0:0:0:
256,192,21183,1,8,0:0:0:0:
256,192,21288,1,0,0:0:0:0:
256,192,21393,1,8,0:0:0:0:
256,192,21498,1,0,0:0:0:0:
256,192,21603,1,0,0:0:0:0:
256,192,21813,1,8,0:0:0:0:
256,192,22022,1,0,0:0:0:0:
256,192,22232,1,8,0:0:0:0:
256,192,22337,1,0,0:0:0:0:
256,192,22652,1,0,0:0:0:0:
256,192,22862,1,8,0:0:0:0:
256,192,23071,1,0,0:0:0:0:
256,192,23281,1,0,0:0:0:0:
256,192,23386,1,8,0:0:0:0:
256,192,23491,1,8,0:0:0:0:
256,192,23596,1,0,0:0:0:0:
256,192,23701,1,8,0:0:0:0:
256,192,23806,1,8,0:0:0:0:
256,192,23911,1,0,0:0:0:0:
256,192,24120,1,8,0:0:0:0:
256,192,24225,1,8,0:0:0:0:
256,192,24330,1,0,0:0:0:0:
256,192,24540,1,8,0:0:0:0:
256,192,24750,1,8,0:0:0:0:
256,192,24820,1,0,0:0:0:0:
256,192,24890,1,0,0:0:0:0:
256,192,24959,1,8,0:0:0:0:
256,192,25029,1,0,0:0:0:0:
256,192,25099,1,0,0:0:0:0:
256,192,25169,1,8,0:0:0:0:
256,192,25274,1,0,0:0:0:0:
256,192,25379,1,0,0:0:0:0:
256,192,25589,1,8,0:0:0:0:
256,192,25799,1,0,0:0:0:0:
256,192,25904,1,8,0:0:0:0:
256,192,26008,1,0,0:0:0:0:
256,192,26113,1,8,0:0:0:0:
256,192,26218,1,0,0:0:0:0:
256,192,26428,1,0,0:0:0:0:
256,192,26533,1,0,0:0:0:0:
256,192,26638,1,8,0:0:0:0:
256,192,26743,1,0,0:0:0:0:
256,192,26848,1,8,0:0:0:0:
256,192,26952,1,8,0:0:0:0:
256,192,27057,1,0,0:0:0:0:
256,192,27372,1,0,0:0:0:0:
256,192,27477,1,8,0:0:0:0:
256,192,27687,1,8,0:0:0:0:
256,192,27897,1,0,0:0:0:0:
256,192,28106,1,0,0:0:0:0:
256,192,28316,1,8,0:0:0:0:
224,192,28526,1,0,0:0:0:0:
224,192,28631,1,0,0:0:0:0:
256,192,28736,1,8,0:0:0:0:
256,192,28841,1,0,0:0:0:0:
256,192,28945,1,8,0:0:0:0:
256,192,29155,5,0,0:0:0:0:
256,192,29260,1,8,0:0:0:0:
256,192,29365,1,0,0:0:0:0:
256,192,29575,1,8,0:0:0:0:
256,192,30414,1,0,0:0:0:0:
256,192,30624,1,8,0:0:0:0:
256,192,30834,1,0,0:0:0:0:
256,192,30938,1,8,0:0:0:0:
256,192,31043,1,0,0:0:0:0:
256,192,31148,1,8,0:0:0:0:
256,192,31253,1,0,0:0:0:0:
256,192,31358,1,8,0:0:0:0:
256,192,31463,1,0,0:0:0:0:
256,192,31533,1,0,0:0:0:0:
256,192,31603,1,8,0:0:0:0:
256,192,31673,1,0,0:0:0:0:
256,192,31743,1,0,0:0:0:0:
256,192,31813,1,8,0:0:0:0:
256,192,31883,1,0,0:0:0:0:
256,192,31952,1,8,0:0:0:0:
256,192,32022,1,8,0:0:0:0:
256,192,32092,1,0,0:0:0:0:
256,192,32302,1,8,0:0:0:0:
256,192,32512,1,0,0:0:0:0:
256,192,32617,1,8,0:0:0:0:
256,192,32722,1,0,0:0:0:0:
256,192,32827,1,8,0:0:0:0:
256,192,32931,1,0,0:0:0:0:
256,192,33036,1,0,0:0:0:0:
256,192,33141,1,8,0:0:0:0:
256,192,33246,1,8,0:0:0:0:
256,192,33351,1,0,0:0:0:0:
256,192,33561,1,8,0:0:0:0:
256,192,33666,1,0,0:0:0:0:
256,192,33771,1,8,0:0:0:0:
256,192,33980,1,8,0:0:0:0:
256,192,34190,1,8,0:0:0:0:
256,192,34295,1,8,0:0:0:0:
256,192,34400,1,0,0:0:0:0:
256,192,34610,1,0,0:0:0:0:
256,192,34820,1,8,0:0:0:0:
256,192,34924,1,0,0:0:0:0:
256,192,35029,1,8,0:0:0:0:
256,192,35082,1,8,0:0:0:0:
256,192,35134,1,8,0:0:0:0:
256,192,35187,1,8,0:0:0:0:
256,192,35239,1,0,0:0:0:0:
256,192,35449,1,8,0:0:0:0:
256,192,35554,1,0,0:0:0:0:
256,192,35659,1,8,0:0:0:0:
256,192,35711,1,8,0:0:0:0:
256,192,35764,1,8,0:0:0:0:
256,192,35816,1,8,0:0:0:0:
256,192,35869,1,0,0:0:0:0:
256,192,36078,1,8,0:0:0:0:
256,192,36288,1,0,0:0:0:0:
256,192,36393,1,8,0:0:0:0:
256,192,36498,1,0,0:0:0:0:
256,192,36708,1,8,0:0:0:0:
256,192,36918,1,8,0:0:0:0:
256,192,37127,1,4,0:0:0:0:
256,192,37337,1,0,0:0:0:0:
256,192,37390,1,0,0:0:0:0:
256,192,37442,1,0,0:0:0:0:
256,192,37547,1,8,0:0:0:0:
256,192,37652,1,0,0:0:0:0:
256,192,37757,1,8,0:0:0:0:
256,192,37966,1,8,0:0:0:0:
256,192,38071,1,0,0:0:0:0:
256,192,38176,1,8,0:0:0:0:
256,192,38386,1,8,0:0:0:0:
256,192,38596,1,0,0:0:0:0:
256,192,38701,1,8,0:0:0:0:
256,192,38806,1,0,0:0:0:0:
256,192,39015,1,0,0:0:0:0:
256,192,39120,1,0,0:0:0:0:
256,192,39225,1,8,0:0:0:0:
256,192,39330,1,0,0:0:0:0:
256,192,39435,1,8,0:0:0:0:
256,192,39540,1,0,0:0:0:0:
256,192,39592,1,0,0:0:0:0:
256,192,39645,1,8,0:0:0:0:
256,192,39855,1,0,0:0:0:0:
256,192,39959,1,0,0:0:0:0:
256,192,40064,1,8,0:0:0:0:
256,192,40274,1,8,0:0:0:0:
256,192,40344,1,0,0:0:0:0:
256,192,40414,1,0,0:0:0:0:
256,192,40484,1,8,0:0:0:0:
256,192,40554,1,0,0:0:0:0:
256,192,40624,1,0,0:0:0:0:
256,192,40694,1,8,0:0:0:0:
256,192,40764,1,8,0:0:0:0:
256,192,40834,1,0,0:0:0:0:
256,192,40904,1,8,0:0:0:0:
256,192,41113,1,8,0:0:0:0:
256,192,41218,1,0,0:0:0:0:
256,192,41323,1,8,0:0:0:0:
256,192,41533,1,0,0:0:0:0:
256,192,41638,1,0,0:0:0:0:
256,192,41743,1,8,0:0:0:0:
256,192,41848,1,0,0:0:0:0:
256,192,41952,1,8,0:0:0:0:
256,192,42057,1,0,0:0:0:0:
256,192,42110,1,0,0:0:0:0:
256,192,42162,1,8,0:0:0:0:
256,192,42372,1,8,0:0:0:0:
256,192,42477,1,0,0:0:0:0:
256,192,42582,1,8,0:0:0:0:
256,192,42792,1,0,0:0:0:0:
256,192,43001,1,8,0:0:0:0:
256,192,43106,1,8,0:0:0:0:
256,192,43211,1,0,0:0:0:0:
256,192,43316,1,8,0:0:0:0:
256,192,43369,1,8,0:0:0:0:
256,192,43421,1,0,0:0:0:0:
256,192,43736,1,0,0:0:0:0:
256,192,44050,1,8,0:0:0:0:
256,192,44155,1,0,0:0:0:0:
256,192,44260,1,0,0:0:0:0:
256,192,44365,1,8,0:0:0:0:
256,192,44470,1,0,0:0:0:0:
256,192,44575,1,8,0:0:0:0:
256,192,44680,1,8,0:0:0:0:
256,192,45356,1,8,0:0:0:0:
256,192,46033,1,8,0:0:0:0:
256,192,46710,1,0,0:0:0:0:
256,192,46935,1,8,0:0:0:0:
256,192,47161,1,8,0:0:0:0:
256,192,47386,1,4,0:0:0:0:
256,192,47595,1,0,0:0:0:0:
256,192,47700,1,8,0:0:0:0:
256,192,47910,1,0,0:0:0:0:
256,192,48015,1,8,0:0:0:0:
256,192,48225,1,0,0:0:0:0:
256,192,48330,1,0,0:0:0:0:
256,192,48434,1,8,0:0:0:0:
256,192,48539,1,0,0:0:0:0:
256,192,48644,1,8,0:0:0:0:
256,192,48854,1,0,0:0:0:0:
256,192,49064,1,0,0:0:0:0:
256,192,49169,1,0,0:0:0:0:
256,192,49274,1,8,0:0:0:0:
256,192,49483,1,0,0:0:0:0:
256,192,49588,1,0,0:0:0:0:
256,192,49693,1,8,0:0:0:0:
256,192,49798,1,8,0:0:0:0:
256,192,49903,1,0,0:0:0:0:
256,192,50008,1,0,0:0:0:0:
256,192,50113,1,8,0:0:0:0:
256,192,50323,1,0,0:0:0:0:
256,192,50532,1,0,0:0:0:0:
256,192,50637,1,8,0:0:0:0:
256,192,50742,1,0,0:0:0:0:
256,192,50812,1,8,0:0:0:0:
256,192,50882,1,8,0:0:0:0:
256,192,50952,1,0,0:0:0:0:
256,192,51022,1,8,0:0:0:0:
256,192,51092,1,0,0:0:0:0:
256,192,51162,1,8,0:0:0:0:
256,192,51267,1,0,0:0:0:0:
256,192,51372,1,8,0:0:0:0:
256,192,51476,1,0,0:0:0:0:
256,192,51581,1,8,0:0:0:0:
256,192,51686,1,0,0:0:0:0:
256,192,51791,1,0,0:0:0:0:
256,192,51844,1,0,0:0:0:0:
256,192,51896,1,0,0:0:0:0:
256,192,51948,1,0,0:0:0:0:
256,192,52001,1,8,0:0:0:0:
256,192,52053,1,8,0:0:0:0:
256,192,52106,1,8,0:0:0:0:
256,192,52158,1,8,0:0:0:0:
256,192,52211,1,0,0:0:0:0:
256,192,52263,1,0,0:0:0:0:
256,192,52316,1,8,0:0:0:0:
256,192,52368,1,8,0:0:0:0:
256,192,52420,1,0,0:0:0:0:
256,192,52630,12,0,53469,0:0:0:0:
256,192,53679,5,4,0:0:0:0:
256,192,53994,1,0,0:0:0:0:
256,192,54099,1,8,0:0:0:0:
256,192,54309,1,0,0:0:0:0:
256,192,54518,1,8,0:0:0:0:
244,191,54623,1,0,0:0:0:0:
256,192,54728,1,8,0:0:0:0:
256,192,54938,1,4,0:0:0:0:
256,192,55253,1,0,0:0:0:0:
256,192,55358,1,8,0:0:0:0:
256,192,55567,1,8,0:0:0:0:
256,192,55672,1,0,0:0:0:0:
256,192,55777,1,8,0:0:0:0:
256,192,55882,1,8,0:0:0:0:
256,192,55987,1,0,0:0:0:0:
248,187,56092,1,0,0:0:0:0:
256,192,56197,1,12,0:0:0:0:
256,192,56406,1,4,0:0:0:0:
256,192,56616,1,8,0:0:0:0:
256,192,56642,1,8,0:0:0:0:
256,192,56826,1,12,0:0:0:0:
256,192,57036,1,4,0:0:0:0:
256,192,57246,1,0,0:0:0:0:
256,192,57298,1,0,0:0:0:0:
256,192,57351,1,0,0:0:0:0:
256,192,57403,1,0,0:0:0:0:
256,192,57455,1,12,0:0:0:0:
256,192,57665,1,12,0:0:0:0:
256,192,57875,1,4,0:0:0:0:
256,192,58085,1,4,0:0:0:0:
256,192,58295,1,12,0:0:0:0:
256,192,58504,1,8,0:0:0:0:
256,192,58557,1,8,0:0:0:0:
256,192,58609,1,0,0:0:0:0:
256,192,58662,1,0,0:0:0:0:
256,192,58714,1,8,0:0:0:0:
256,192,59029,1,0,0:0:0:0:
256,192,59134,1,8,0:0:0:0:
256,192,59344,1,8,0:0:0:0:
256,192,59448,1,0,0:0:0:0:
256,192,59553,1,8,0:0:0:0:
256,192,59658,1,8,0:0:0:0:
256,192,59763,1,0,0:0:0:0:
256,192,59868,1,0,0:0:0:0:
256,192,59973,1,8,0:0:0:0:
256,192,60183,1,0,0:0:0:0:
256,192,60288,1,0,0:0:0:0:
256,192,60392,1,8,0:0:0:0:
256,192,60602,1,0,0:0:0:0:
256,192,60707,1,0,0:0:0:0:
256,192,60812,1,8,0:0:0:0:
256,192,60917,1,0,0:0:0:0:
256,192,61022,1,8,0:0:0:0:
256,192,61127,1,0,0:0:0:0:
256,192,61179,1,0,0:0:0:0:
256,192,61232,1,8,0:0:0:0:
256,192,61441,1,8,0:0:0:0:
256,192,61651,1,0,0:0:0:0:
256,192,61756,1,0,0:0:0:0:
256,192,61861,1,8,0:0:0:0:
256,192,61966,1,8,0:0:0:0:
256,192,62071,1,0,0:0:0:0:
256,192,62176,1,0,0:0:0:0:
256,192,62281,1,8,0:0:0:0:
256,192,62351,1,0,0:0:0:0:
256,192,62420,1,0,0:0:0:0:
256,192,62490,1,8,0:0:0:0:
256,192,62700,1,0,0:0:0:0:
256,192,62910,1,8,0:0:0:0:
256,192,63015,1,0,0:0:0:0:
256,192,63120,1,0,0:0:0:0:
256,192,63225,1,8,0:0:0:0:
256,192,63330,1,0,0:0:0:0:
256,192,63434,1,8,0:0:0:0:
256,192,63539,1,0,0:0:0:0:
256,192,63592,1,0,0:0:0:0:
256,192,63644,1,8,0:0:0:0:
256,192,63697,1,8,0:0:0:0:
256,192,63749,1,4,0:0:0:0:
256,192,64064,1,0,0:0:0:0:
256,192,64169,1,8,0:0:0:0:
256,192,64379,1,0,0:0:0:0:
256,192,64588,1,8,0:0:0:0:
256,192,64798,1,8,0:0:0:0:
256,192,65008,1,4,0:0:0:0:
256,192,65323,1,0,0:0:0:0:
256,192,65427,1,8,0:0:0:0:
256,192,65637,1,0,0:0:0:0:
256,192,65742,1,0,0:0:0:0:
256,192,65847,1,8,0:0:0:0:
256,192,65952,1,8,0:0:0:0:
256,192,66057,1,0,0:0:0:0:
256,192,66162,1,0,0:0:0:0:
256,192,66267,1,12,0:0:0:0:
256,192,66476,1,4,0:0:0:0:
256,192,66686,1,8,0:0:0:0:
256,192,66712,1,8,0:0:0:0:
256,192,66896,1,12,0:0:0:0:
256,192,67106,1,4,0:0:0:0:
256,192,67316,1,0,0:0:0:0:
256,192,67368,1,0,0:0:0:0:
256,192,67420,1,0,0:0:0:0:
256,192,67473,1,0,0:0:0:0:
256,192,67525,1,12,0:0:0:0:
256,192,67735,1,4,0:0:0:0:
256,192,67945,1,4,0:0:0:0:
256,192,68155,1,12,0:0:0:0:
256,192,68365,1,4,0:0:0:0:
256,192,68574,1,8,0:0:0:0:
256,192,68627,1,0,0:0:0:0:
256,192,68679,1,0,0:0:0:0:
256,192,68732,1,0,0:0:0:0:
256,192,68784,1,8,0:0:0:0:
256,192,69099,1,0,0:0:0:0:
256,192,69204,1,8,0:0:0:0:
256,192,69413,1,8,0:0:0:0:
256,192,69483,1,0,0:0:0:0:
256,192,69553,1,0,0:0:0:0:
256,192,69623,1,8,0:0:0:0:
256,192,69693,1,0,0:0:0:0:
256,192,69763,1,0,0:0:0:0:
256,192,69833,1,8,0:0:0:0:
256,192,69903,1,8,0:0:0:0:
256,192,69973,1,0,0:0:0:0:
256,192,70043,1,8,0:0:0:0:
256,192,70253,1,8,0:0:0:0:
256,192,70358,1,0,0:0:0:0:
256,192,70462,1,8,0:0:0:0:
256,192,70672,1,0,0:0:0:0:
256,192,70777,1,8,0:0:0:0:
256,192,70882,1,0,0:0:0:0:
256,192,70987,1,8,0:0:0:0:
256,192,71092,1,0,0:0:0:0:
256,192,71197,1,0,0:0:0:0:
256,192,71249,1,0,0:0:0:0:
256,192,71302,1,8,0:0:0:0:
256,192,71511,1,8,0:0:0:0:
256,192,71721,1,0,0:0:0:0:
256,192,71826,1,8,0:0:0:0:
256,192,71931,1,0,0:0:0:0:
256,192,71983,1,8,0:0:0:0:
256,192,72036,1,0,0:0:0:0:
256,192,72088,1,0,0:0:0:0:
256,192,72141,1,8,0:0:0:0:
256,192,72193,1,0,0:0:0:0:
256,192,72246,1,8,0:0:0:0:
256,192,72298,1,8,0:0:0:0:
256,192,72351,1,0,0:0:0:0:
256,192,72403,1,0,0:0:0:0:
256,192,72455,1,8,0:0:0:0:
256,192,72508,1,8,0:0:0:0:
256,192,72560,1,0,0:0:0:0:
256,192,73190,5,0,0:0:0:0:
256,192,73609,1,8,0:0:0:0:
256,192,73819,5,0,0:0:0:0:
256,192,74029,1,8,0:0:0:0:
256,192,74099,1,0,0:0:0:0:
256,192,74169,1,0,0:0:0:0:
256,192,74239,1,8,0:0:0:0:
256,192,74448,1,8,0:0:0:0:
256,192,74658,1,0,0:0:0:0:
256,192,74868,1,0,0:0:0:0:
256,192,74973,1,0,0:0:0:0:
256,192,75078,1,8,0:0:0:0:
256,192,75288,1,0,0:0:0:0:
256,192,75497,1,0,0:0:0:0:
256,192,75602,1,8,0:0:0:0:
256,192,75707,1,0,0:0:0:0:
256,192,75812,1,0,0:0:0:0:
256,192,75917,1,8,0:0:0:0:
256,192,76022,1,8,0:0:0:0:
256,192,76127,1,0,0:0:0:0:
256,192,76232,1,0,0:0:0:0:
256,192,76337,1,8,0:0:0:0:
256,192,76546,1,0,0:0:0:0:
256,192,76616,1,8,0:0:0:0:
256,192,76686,1,8,0:0:0:0:
256,192,76756,1,0,0:0:0:0:
256,192,76966,1,8,0:0:0:0:
256,192,77176,1,0,0:0:0:0:
256,192,77386,1,0,0:0:0:0:
256,192,77490,1,0,0:0:0:0:
256,192,77595,1,8,0:0:0:0:
256,192,77805,1,8,0:0:0:0:
256,192,78015,1,8,0:0:0:0:
256,192,78120,1,0,0:0:0:0:
256,192,78225,1,0,0:0:0:0:
256,192,78330,1,8,0:0:0:0:
256,192,78434,1,0,0:0:0:0:
256,192,78504,1,8,0:0:0:0:
256,192,78574,1,8,0:0:0:0:
256,192,78644,1,0,0:0:0:0:
256,192,78749,1,0,0:0:0:0:
256,192,78854,1,8,0:0:0:0:
256,192,79064,1,8,0:0:0:0:
256,192,79134,1,0,0:0:0:0:
256,192,79204,1,0,0:0:0:0:
256,192,79274,1,8,0:0:0:0:
256,192,79483,1,0,0:0:0:0:
256,192,79693,1,8,0:0:0:0:
256,192,79798,1,0,0:0:0:0:
256,192,79903,1,8,0:0:0:0:
256,192,80113,1,8,0:0:0:0:
256,192,80323,1,0,0:0:0:0:
256,192,80427,1,0,0:0:0:0:
256,192,80532,1,8,0:0:0:0:
256,192,80742,1,0,0:0:0:0:
256,192,80952,1,8,0:0:0:0:
256,192,81057,1,0,0:0:0:0:
256,192,81162,1,8,0:0:0:0:
256,192,81267,1,0,0:0:0:0:
256,192,81372,1,0,0:0:0:0:
256,192,81581,1,8,0:0:0:0:
256,192,81686,1,0,0:0:0:0:
256,192,81791,1,8,0:0:0:0:
256,192,82001,1,0,0:0:0:0:
256,192,82106,1,8,0:0:0:0:
256,192,82211,1,0,0:0:0:0:
256,192,82316,1,8,0:0:0:0:
256,192,82420,1,8,0:0:0:0:
256,192,82630,1,0,0:0:0:0:
256,192,82840,1,8,0:0:0:0:
256,192,82945,1,0,0:0:0:0:
256,192,83050,1,8,0:0:0:0:
256,192,83260,1,0,0:0:0:0:
256,192,83365,1,0,0:0:0:0:
256,192,83469,1,8,0:0:0:0:
256,192,83574,1,8,0:0:0:0:
256,192,83679,1,0,0:0:0:0:
256,192,83784,1,0,0:0:0:0:
256,192,83889,1,12,0:0:0:0:
256,192,84204,1,8,0:0:0:0:
256,192,84518,1,0,0:0:0:0:
256,192,84728,1,8,0:0:0:0:
256,192,84938,1,8,0:0:0:0:
256,192,85148,1,0,0:0:0:0:
256,192,85358,1,0,0:0:0:0:
256,192,85462,1,8,0:0:0:0:
256,192,85567,1,0,0:0:0:0:
256,192,85777,1,0,0:0:0:0:
256,192,85987,1,0,0:0:0:0:
256,192,86092,1,8,0:0:0:0:
256,192,86144,1,8,0:0:0:0:
256,192,86197,1,8,0:0:0:0:
256,192,86302,1,0,0:0:0:0:
256,192,86406,1,12,0:0:0:0:
256,192,86616,1,4,0:0:0:0:
256,192,87036,1,12,0:0:0:0:
256,192,87246,1,4,0:0:0:0:
256,192,87455,1,0,0:0:0:0:
256,192,87560,1,8,0:0:0:0:
256,192,87613,1,8,0:0:0:0:
256,192,87665,1,8,0:0:0:0:
256,192,87770,1,0,0:0:0:0:
256,192,87875,5,8,0:0:0:0:
256,192,87980,1,0,0:0:0:0:
256,192,88085,1,8,0:0:0:0:
256,192,88190,1,0,0:0:0:0:
256,192,88295,1,8,0:0:0:0:
256,192,88399,1,8,0:0:0:0:
256,192,88504,1,0,0:0:0:0:
256,192,88609,1,0,0:0:0:0:
256,192,88714,1,8,0:0:0:0:
256,192,88819,1,0,0:0:0:0:
256,192,88872,1,0,0:0:0:0:
256,192,88924,1,8,0:0:0:0:
256,192,89134,1,8,0:0:0:0:
256,192,89239,1,0,0:0:0:0:
256,192,89344,1,8,0:0:0:0:
256,192,89553,1,0,0:0:0:0:
256,192,89763,1,8,0:0:0:0:
256,192,89973,1,8,0:0:0:0:
256,192,90183,1,0,0:0:0:0:
256,192,90392,1,0,0:0:0:0:
256,192,90497,1,8,0:0:0:0:
256,192,90602,1,0,0:0:0:0:
256,192,90812,1,0,0:0:0:0:
256,192,91022,1,8,0:0:0:0:
256,192,91127,1,0,0:0:0:0:
256,192,91179,1,8,0:0:0:0:
256,192,91232,1,0,0:0:0:0:
256,192,91337,1,0,0:0:0:0:
256,192,91441,1,12,0:0:0:0:
256,192,91651,1,12,0:0:0:0:
256,192,91861,1,0,0:0:0:0:
256,192,91966,1,0,0:0:0:0:
256,192,92071,1,12,0:0:0:0:
256,192,92281,1,12,0:0:0:0:
256,192,92490,1,8,0:0:0:0:
256,192,92595,1,0,0:0:0:0:
256,192,92648,1,0,0:0:0:0:
256,192,92700,1,8,0:0:0:0:
256,192,92910,1,0,0:0:0:0:
256,192,93120,1,0,0:0:0:0:
256,192,93330,1,0,0:0:0:0:
256,192,93382,1,0,0:0:0:0:
256,192,93434,1,0,0:0:0:0:
256,192,93487,1,0,0:0:0:0:
256,192,93539,1,8,0:0:0:0:
256,192,93592,1,8,0:0:0:0:
256,192,93644,1,8,0:0:0:0:
256,192,93697,1,8,0:0:0:0:
256,192,93749,1,0,0:0:0:0:
256,192,93802,1,0,0:0:0:0:
256,192,93854,1,8,0:0:0:0:
256,192,93906,1,8,0:0:0:0:
256,192,93959,1,0,0:0:0:0:
256,192,94169,1,8,0:0:0:0:
256,192,94379,1,8,0:0:0:0:
256,192,94588,1,0,0:0:0:0:
256,192,94798,1,8,0:0:0:0:
256,192,95008,1,8,0:0:0:0:
256,192,95218,1,0,0:0:0:0:
256,192,95427,1,8,0:0:0:0:
256,192,95637,1,0,0:0:0:0:
256,192,95847,1,0,0:0:0:0:
256,192,96057,1,8,0:0:0:0:
256,192,96267,1,8,0:0:0:0:
256,192,96372,1,0,0:0:0:0:
256,192,96476,1,8,0:0:0:0:
256,192,96686,1,0,0:0:0:0:
256,192,96896,1,8,0:0:0:0:
256,192,97001,1,0,0:0:0:0:
256,192,97106,1,8,0:0:0:0:
256,192,97211,1,8,0:0:0:0:
256,192,97316,1,0,0:0:0:0:
256,192,97420,1,0,0:0:0:0:
256,192,97525,1,8,0:0:0:0:
256,192,97630,1,0,0:0:0:0:
256,192,97735,1,8,0:0:0:0:
256,192,97788,1,0,0:0:0:0:
256,192,97840,1,0,0:0:0:0:
256,192,97945,1,8,0:0:0:0:
256,192,98050,1,0,0:0:0:0:
256,192,98102,1,0,0:0:0:0:
256,192,98155,1,8,0:0:0:0:
256,192,98260,1,8,0:0:0:0:
256,192,98365,1,0,0:0:0:0:
256,192,98417,1,0,0:0:0:0:
256,192,98469,1,8,0:0:0:0:
256,192,98574,1,0,0:0:0:0:
256,192,98679,1,8,0:0:0:0:
256,192,98732,1,0,0:0:0:0:
256,192,98784,1,8,0:0:0:0:
256,192,98837,1,0,0:0:0:0:
256,192,98889,1,0,0:0:0:0:
256,192,98941,1,0,0:0:0:0:
256,192,98994,1,8,0:0:0:0:
256,192,99204,1,0,0:0:0:0:
256,192,99413,1,0,0:0:0:0:
256,192,99623,1,8,0:0:0:0:
256,192,99833,1,0,0:0:0:0:
256,192,99903,1,8,0:0:0:0:
256,192,99973,1,8,0:0:0:0:
256,192,100043,1,0,0:0:0:0:
256,192,100095,1,0,0:0:0:0:
256,192,100148,1,8,0:0:0:0:
256,192,100200,1,8,0:0:0:0:
256,192,100253,1,0,0:0:0:0:
256,192,100358,1,8,0:0:0:0:
256,192,100462,1,0,0:0:0:0:
256,192,100567,1,8,0:0:0:0:
256,192,100672,1,0,0:0:0:0:
256,192,100777,1,8,0:0:0:0:
256,192,100882,1,0,0:0:0:0:
256,192,101092,1,8,0:0:0:0:
256,192,101162,1,0,0:0:0:0:
256,192,101232,1,0,0:0:0:0:
256,192,101302,1,8,0:0:0:0:
256,192,101406,1,0,0:0:0:0:
256,192,101511,1,8,0:0:0:0:
256,192,101721,1,8,0:0:0:0:
256,192,101826,1,8,0:0:0:0:
256,192,101931,1,0,0:0:0:0:
256,192,102036,1,0,0:0:0:0:
256,192,102141,1,8,0:0:0:0:
256,192,102246,1,0,0:0:0:0:
256,192,102351,1,8,0:0:0:0:
256,192,102455,1,0,0:0:0:0:
256,192,102560,1,8,0:0:0:0:
256,192,102613,1,0,0:0:0:0:
256,192,102665,1,8,0:0:0:0:
256,192,102770,1,0,0:0:0:0:
256,192,102875,1,8,0:0:0:0:
256,192,102980,1,0,0:0:0:0:
256,192,103085,1,0,0:0:0:0:
256,192,103190,1,8,0:0:0:0:
256,192,103295,1,0,0:0:0:0:
256,192,103399,1,8,0:0:0:0:
256,192,103504,1,8,0:0:0:0:
256,192,103609,1,0,0:0:0:0:
256,192,103714,1,8,0:0:0:0:
256,192,103819,1,0,0:0:0:0:
256,192,103872,1,0,0:0:0:0:
256,192,103924,1,0,0:0:0:0:
256,192,103976,1,0,0:0:0:0:
256,192,104029,1,8,0:0:0:0:
256,192,104246,1,0,0:0:0:0:
256,192,104355,1,8,0:0:0:0:
256,192,104463,1,0,0:0:0:0:
256,192,104681,1,8,0:0:0:0:
256,192,104898,1,0,0:0:0:0:
256,192,105007,1,0,0:0:0:0:
256,192,105115,1,8,0:0:0:0:
256,192,105333,1,0,0:0:0:0:
256,192,105550,1,8,0:0:0:0:
256,192,105659,1,0,0:0:0:0:
256,192,105768,1,8,0:0:0:0:
256,192,105985,1,8,0:0:0:0:
256,192,106202,1,0,0:0:0:0:
256,192,106275,1,8,0:0:0:0:
256,192,106347,1,8,0:0:0:0:
256,192,106420,1,0,0:0:0:0:
256,192,106637,1,8,0:0:0:0:
256,192,106855,1,0,0:0:0:0:
256,192,106963,1,8,0:0:0:0:
256,192,107072,1,0,0:0:0:0:
256,192,107289,1,0,0:0:0:0:
256,192,107507,1,8,0:0:0:0:
256,192,107615,1,0,0:0:0:0:
256,192,107724,1,8,0:0:0:0:
256,192,107942,1,0,0:0:0:0:
256,192,108159,1,8,0:0:0:0:
256,192,108268,1,8,0:0:0:0:
256,192,108376,1,0,0:0:0:0:
256,192,108594,1,8,0:0:0:0:
256,192,108811,1,0,0:0:0:0:
256,192,108920,1,0,0:0:0:0:
256,192,109029,1,8,0:0:0:0:
256,192,109246,1,0,0:0:0:0:
256,192,109463,1,0,0:0:0:0:
256,192,109572,1,0,0:0:0:0:
256,192,109681,1,8,0:0:0:0:
256,192,109898,1,8,0:0:0:0:
256,192,110115,1,0,0:0:0:0:
256,192,110188,1,0,0:0:0:0:
256,192,110260,1,8,0:0:0:0:
256,192,110333,1,8,0:0:0:0:
256,192,110550,1,0,0:0:0:0:
256,192,110768,1,8,0:0:0:0:
256,192,110876,1,8,0:0:0:0:
256,192,110985,1,0,0:0:0:0:
256,192,111202,1,8,0:0:0:0:
256,192,111420,1,8,0:0:0:0:
256,192,111492,1,8,0:0:0:0:
256,192,111565,1,8,0:0:0:0:
256,192,111637,1,0,0:0:0:0:
256,192,111855,1,8,0:0:0:0:
256,192,112072,1,0,0:0:0:0:
256,192,112181,1,8,0:0:0:0:
256,192,112289,1,0,0:0:0:0:
256,192,112507,1,0,0:0:0:0:
256,192,112724,1,8,0:0:0:0:
256,192,112833,1,0,0:0:0:0:
256,192,112942,1,8,0:0:0:0:
256,192,113159,1,0,0:0:0:0:
256,192,113376,1,0,0:0:0:0:
256,192,113449,1,0,0:0:0:0:
256,192,113521,1,8,0:0:0:0:
256,192,113594,1,8,0:0:0:0:
256,192,113666,1,0,0:0:0:0:
256,192,113739,1,0,0:0:0:0:
256,192,113811,1,8,0:0:0:0:
256,192,114029,1,0,0:0:0:0:
256,192,114137,1,8,0:0:0:0:
256,192,114246,1,0,0:0:0:0:
256,192,114355,1,0,0:0:0:0:
256,192,114463,1,8,0:0:0:0:
256,192,114688,1,0,0:0:0:0:
256,192,114914,1,0,0:0:0:0:
256,192,115139,1,8,0:0:0:0:
256,192,115365,1,0,0:0:0:0:
256,192,115590,1,0,0:0:0:0:
256,192,115816,1,8,0:0:0:0:
256,192,116041,1,8,0:0:0:0:
256,192,116267,1,0,0:0:0:0:
256,192,116493,1,8,0:0:0:0:
256,192,116718,1,0,0:0:0:0:
256,192,116944,1,8,0:0:0:0:
256,192,117169,1,0,0:0:0:0:
256,192,117395,1,0,0:0:0:0:
256,192,117620,1,8,0:0:0:0:
256,192,117846,1,0,0:0:0:0:
256,192,118072,1,0,0:0:0:0:
256,192,118297,1,8,0:0:0:0:
256,192,118523,1,0,0:0:0:0:
256,192,118748,1,8,0:0:0:0:
256,192,118974,1,0,0:0:0:0:
256,192,119199,1,8,0:0:0:0:
256,192,119425,1,0,0:0:0:0:
256,192,119650,1,0,0:0:0:0:
256,192,119876,1,8,0:0:0:0:
256,192,120102,1,8,0:0:0:0:
256,192,120327,1,0,0:0:0:0:
256,192,120553,1,8,0:0:0:0:
256,192,120778,1,0,0:0:0:0:
256,192,121004,1,8,0:0:0:0:
256,192,121229,1,0,0:0:0:0:
256,192,121455,1,8,0:0:0:0:
256,192,121681,1,8,0:0:0:0:
256,192,121906,1,0,0:0:0:0:
256,192,122132,1,8,0:0:0:0:
256,192,122357,1,8,0:0:0:0:
256,192,122583,1,0,0:0:0:0:
256,192,122808,1,8,0:0:0:0:
256,192,123034,1,0,0:0:0:0:
256,192,123259,1,0,0:0:0:0:
256,192,123485,1,8,0:0:0:0:
256,192,123711,1,0,0:0:0:0:
256,192,123936,1,8,0:0:0:0:
256,192,124040,12,0,124565,0:0:0:0:
256,192,124775,5,8,0:0:0:0:
256,192,124984,1,8,0:0:0:0:
256,192,125194,5,4,0:0:0:0:
256,192,125404,1,0,0:0:0:0:
256,192,125474,1,8,0:0:0:0:
256,192,125544,1,8,0:0:0:0:
256,192,125614,1,0,0:0:0:0:
288,192,125719,1,8,0:0:0:0:
256,192,125824,1,0,0:0:0:0:
256,192,125876,1,0,0:0:0:0:
256,192,125929,1,0,0:0:0:0:
256,192,126033,1,8,0:0:0:0:
256,192,126138,1,0,0:0:0:0:
256,192,126243,1,0,0:0:0:0:
256,192,126348,1,8,0:0:0:0:
256,192,126453,1,0,0:0:0:0:
256,192,126663,1,8,0:0:0:0:
256,192,126768,1,0,0:0:0:0:
256,192,126873,1,8,0:0:0:0:
256,192,127082,1,0,0:0:0:0:
256,192,127187,1,8,0:0:0:0:
256,192,127292,1,0,0:0:0:0:
256,192,127397,1,8,0:0:0:0:
256,192,127502,1,8,0:0:0:0:
256,192,127607,1,0,0:0:0:0:
256,192,127659,1,0,0:0:0:0:
256,192,127712,1,8,0:0:0:0:
256,192,127922,1,0,0:0:0:0:
256,192,128026,1,8,0:0:0:0:
256,192,128131,1,0,0:0:0:0:
256,192,128341,1,0,0:0:0:0:
256,192,128411,1,0,0:0:0:0:
256,192,128481,1,0,0:0:0:0:
256,192,128551,1,8,0:0:0:0:
256,192,128621,1,8,0:0:0:0:
256,192,128691,1,8,0:0:0:0:
256,192,128761,1,0,0:0:0:0:
256,192,128831,1,0,0:0:0:0:
256,192,128901,1,0,0:0:0:0:
256,192,128970,1,8,0:0:0:0:
256,192,129180,1,8,0:0:0:0:
256,192,129285,1,0,0:0:0:0:
256,192,129390,1,8,0:0:0:0:
256,192,129600,1,0,0:0:0:0:
256,192,129705,1,0,0:0:0:0:
256,192,129810,1,8,0:0:0:0:
256,192,129862,1,8,0:0:0:0:
256,192,129915,1,8,0:0:0:0:
256,192,130019,1,0,0:0:0:0:
256,192,130124,1,0,0:0:0:0:
256,192,130229,1,8,0:0:0:0:
256,192,130439,1,0,0:0:0:0:
256,192,130544,1,8,0:0:0:0:
256,192,130649,1,0,0:0:0:0:
256,192,130859,1,8,0:0:0:0:
256,192,131068,1,0,0:0:0:0:
256,192,131173,1,8,0:0:0:0:
256,192,131278,1,0,0:0:0:0:
256,192,131348,1,8,0:0:0:0:
256,192,131418,1,8,0:0:0:0:
256,192,131488,1,0,0:0:0:0:
256,192,131698,1,8,0:0:0:0:
256,192,131803,1,0,0:0:0:0:
256,192,131908,1,8,0:0:0:0:
256,192,132117,1,0,0:0:0:0:
256,192,132222,1,8,0:0:0:0:
256,192,132327,1,0,0:0:0:0:
256,192,132432,1,8,0:0:0:0:
256,192,132537,1,8,0:0:0:0:
256,192,132642,1,0,0:0:0:0:
256,192,132694,1,0,0:0:0:0:
256,192,132747,1,8,0:0:0:0:
256,192,132956,1,0,0:0:0:0:
256,192,133166,1,0,0:0:0:0:
256,192,133376,1,8,0:0:0:0:
256,192,133796,1,0,0:0:0:0:
256,192,134005,1,8,0:0:0:0:
256,192,134215,1,0,0:0:0:0:
256,192,134320,1,8,0:0:0:0:
256,192,134425,1,0,0:0:0:0:
256,192,134635,1,0,0:0:0:0:
256,192,134740,1,0,0:0:0:0:
256,192,134845,1,8,0:0:0:0:
256,192,134949,1,0,0:0:0:0:
256,192,135054,1,8,0:0:0:0:
256,192,135159,1,0,0:0:0:0:
256,192,135212,1,0,0:0:0:0:
256,192,135264,1,8,0:0:0:0:
256,192,135474,1,0,0:0:0:0:
256,192,135544,1,0,0:0:0:0:
256,192,135614,1,0,0:0:0:0:
256,192,135684,1,8,0:0:0:0:
256,192,135894,1,0,0:0:0:0:
256,192,135998,1,0,0:0:0:0:
256,192,136103,1,8,0:0:0:0:
256,192,136313,1,8,0:0:0:0:
256,192,136523,1,0,0:0:0:0:
256,192,136733,1,0,0:0:0:0:
256,192,136838,1,0,0:0:0:0:
256,192,136942,1,8,0:0:0:0:
256,192,137152,1,0,0:0:0:0:
256,192,137362,1,8,0:0:0:0:
256,192,137467,1,0,0:0:0:0:
256,192,137572,1,8,0:0:0:0:
256,192,137782,1,0,0:0:0:0:
256,192,138201,1,8,0:0:0:0:
256,192,138411,1,0,0:0:0:0:
256,192,138621,1,8,0:0:0:0:
256,192,138726,1,0,0:0:0:0:
256,192,138831,1,8,0:0:0:0:
256,192,139040,1,0,0:0:0:0:
256,192,139250,1,0,0:0:0:0:
256,192,139460,1,8,0:0:0:0:
256,192,139670,1,0,0:0:0:0:
256,192,139775,1,0,0:0:0:0:
256,192,139880,1,8,0:0:0:0:
256,192,140089,1,8,0:0:0:0:
256,192,140298,1,0,0:0:0:0:
256,192,140509,1,0,0:0:0:0:
256,192,140719,1,8,0:0:0:0:
256,192,140928,1,0,0:0:0:0:
256,192,141138,1,8,0:0:0:0:
256,192,141348,1,8,0:0:0:0:
256,192,141557,1,0,0:0:0:0:
256,192,141768,1,8,0:0:0:0:
256,192,141977,1,8,0:0:0:0:
256,192,142187,1,0,0:0:0:0:
256,192,142397,1,8,0:0:0:0:
256,192,142607,1,0,0:0:0:0:
256,192,142816,1,8,0:0:0:0:
256,192,143492,1,8,0:0:0:0:
256,192,144141,1,8,0:0:0:0:
256,192,144169,1,8,0:0:0:0:
256,192,144846,1,0,0:0:0:0:
256,192,145071,1,8,0:0:0:0:
256,192,145297,1,8,0:0:0:0:
256,192,145522,1,4,0:0:0:0:
256,192,145731,1,0,0:0:0:0:
256,192,145836,1,8,0:0:0:0:
256,192,146046,1,0,0:0:0:0:
256,192,146151,1,8,0:0:0:0:
256,192,146361,1,0,0:0:0:0:
256,192,146466,1,0,0:0:0:0:
256,192,146570,1,8,0:0:0:0:
256,192,146675,1,0,0:0:0:0:
256,192,146780,1,8,0:0:0:0:
256,192,146990,1,0,0:0:0:0:
256,192,147200,1,0,0:0:0:0:
256,192,147305,1,0,0:0:0:0:
256,192,147410,1,8,0:0:0:0:
256,192,147619,1,0,0:0:0:0:
256,192,147724,1,0,0:0:0:0:
256,192,147829,1,8,0:0:0:0:
256,192,147934,1,8,0:0:0:0:
256,192,148039,1,0,0:0:0:0:
256,192,148144,1,0,0:0:0:0:
256,192,148249,1,8,0:0:0:0:
256,192,148459,1,0,0:0:0:0:
256,192,148668,1,0,0:0:0:0:
256,192,148773,1,8,0:0:0:0:
256,192,148878,1,0,0:0:0:0:
256,192,148948,1,0,0:0:0:0:
256,192,149018,1,8,0:0:0:0:
256,192,149088,1,8,0:0:0:0:
256,192,149158,1,8,0:0:0:0:
256,192,149228,1,0,0:0:0:0:
256,192,149298,1,8,0:0:0:0:
256,192,149403,1,0,0:0:0:0:
256,192,149508,1,8,0:0:0:0:
256,192,149612,1,0,0:0:0:0:
256,192,149717,1,8,0:0:0:0:
256,192,149822,1,0,0:0:0:0:
256,192,149927,1,0,0:0:0:0:
256,192,149980,1,0,0:0:0:0:
256,192,150032,1,0,0:0:0:0:
256,192,150084,1,0,0:0:0:0:
256,192,150137,1,8,0:0:0:0:
256,192,150189,1,8,0:0:0:0:
256,192,150242,1,8,0:0:0:0:
256,192,150294,1,8,0:0:0:0:
256,192,150347,1,0,0:0:0:0:
256,192,150399,1,0,0:0:0:0:
256,192,150452,1,8,0:0:0:0:
256,192,150504,1,8,0:0:0:0:
256,192,150556,1,0,0:0:0:0:
256,192,150766,12,0,151815,0:0:0:0:
256,192,153074,5,12,0:0:0:0:
256,192,153389,1,8,0:0:0:0:
256,192,153494,1,0,0:0:0:0:
256,192,153703,1,8,0:0:0:0:
256,192,153913,1,0,0:0:0:0:
256,192,154018,1,8,0:0:0:0:
256,192,154123,1,0,0:0:0:0:
256,192,154333,1,12,0:0:0:0:
256,192,154647,1,8,0:0:0:0:
256,192,154752,1,0,0:0:0:0:
256,192,154962,1,0,0:0:0:0:
256,192,155067,1,8,0:0:0:0:
256,192,155172,1,0,0:0:0:0:
256,192,155277,1,0,0:0:0:0:
256,192,155382,1,8,0:0:0:0:
256,192,155487,1,0,0:0:0:0:
256,192,155591,1,12,0:0:0:0:
256,192,155801,1,4,0:0:0:0:
256,192,156011,1,8,0:0:0:0:
256,192,156037,1,8,0:0:0:0:
256,192,156221,1,4,0:0:0:0:
256,192,156431,1,12,0:0:0:0:
256,192,156640,1,0,0:0:0:0:
256,192,156693,1,0,0:0:0:0:
256,192,156745,1,0,0:0:0:0:
256,192,156798,1,0,0:0:0:0:
256,192,156850,1,12,0:0:0:0:
256,192,157060,1,4,0:0:0:0:
256,192,157270,1,4,0:0:0:0:
256,192,157480,1,12,0:0:0:0:
256,192,157689,1,4,0:0:0:0:
256,192,157899,1,0,0:0:0:0:
256,192,157952,1,0,0:0:0:0:
256,192,158004,1,0,0:0:0:0:
256,192,158056,1,0,0:0:0:0:
256,192,158109,1,8,0:0:0:0:
256,192,158424,1,8,0:0:0:0:
256,192,158528,1,0,0:0:0:0:
256,192,158738,1,8,0:0:0:0:
256,192,158843,1,8,0:0:0:0:
256,192,158948,1,0,0:0:0:0:
256,192,159053,1,8,0:0:0:0:
256,192,159158,1,0,0:0:0:0:
256,192,159263,1,0,0:0:0:0:
256,192,159368,1,8,0:0:0:0:
256,192,159577,1,0,0:0:0:0:
256,192,159682,1,8,0:0:0:0:
256,192,159787,1,0,0:0:0:0:
256,192,159997,1,8,0:0:0:0:
256,192,160102,1,8,0:0:0:0:
256,192,160207,1,0,0:0:0:0:
256,192,160312,1,8,0:0:0:0:
256,192,160417,1,0,0:0:0:0:
256,192,160522,1,0,0:0:0:0:
256,192,160574,1,0,0:0:0:0:
256,192,160626,1,12,0:0:0:0:
256,192,160836,1,8,0:0:0:0:
256,192,161046,1,8,0:0:0:0:
256,192,161151,1,0,0:0:0:0:
256,192,161256,1,8,0:0:0:0:
256,192,161361,1,8,0:0:0:0:
256,192,161466,1,0,0:0:0:0:
256,192,161570,1,0,0:0:0:0:
256,192,161675,1,8,0:0:0:0:
256,192,161745,1,0,0:0:0:0:
256,192,161815,1,0,0:0:0:0:
256,192,161885,1,8,0:0:0:0:
256,192,162095,1,8,0:0:0:0:
256,192,162305,1,0,0:0:0:0:
256,192,162410,1,0,0:0:0:0:
256,192,162515,1,8,0:0:0:0:
256,192,162619,1,0,0:0:0:0:
256,192,162724,1,0,0:0:0:0:
256,192,162829,1,8,0:0:0:0:
256,192,162934,1,0,0:0:0:0:
256,192,162987,1,8,0:0:0:0:
256,192,163039,1,0,0:0:0:0:
256,192,163091,1,0,0:0:0:0:
256,192,163144,1,12,0:0:0:0:
256,192,163459,1,0,0:0:0:0:
256,192,163563,1,8,0:0:0:0:
256,192,163773,1,0,0:0:0:0:
256,192,163983,1,0,0:0:0:0:
256,192,164193,1,8,0:0:0:0:
256,192,164403,1,12,0:0:0:0:
256,192,164717,1,0,0:0:0:0:
256,192,164822,1,8,0:0:0:0:
256,192,165032,1,0,0:0:0:0:
256,192,165137,1,0,0:0:0:0:
256,192,165242,1,8,0:0:0:0:
256,192,165347,1,0,0:0:0:0:
256,192,165452,1,0,0:0:0:0:
256,192,165556,1,8,0:0:0:0:
256,192,165661,1,4,0:0:0:0:
256,192,165871,1,12,0:0:0:0:
256,192,166081,1,0,0:0:0:0:
256,192,166107,1,0,0:0:0:0:
256,192,166291,1,4,0:0:0:0:
256,192,166501,1,12,0:0:0:0:
256,192,166710,1,0,0:0:0:0:
256,192,166763,1,8,0:0:0:0:
256,192,166815,1,0,0:0:0:0:
256,192,166868,1,0,0:0:0:0:
256,192,166920,1,12,0:0:0:0:
256,192,167130,1,4,0:0:0:0:
256,192,167340,1,12,0:0:0:0:
256,192,167549,1,4,0:0:0:0:
256,192,167759,1,12,0:0:0:0:
256,192,167969,1,0,0:0:0:0:
256,192,168022,1,0,0:0:0:0:
256,192,168074,1,0,0:0:0:0:
256,192,168126,1,0,0:0:0:0:
256,192,168179,1,8,0:0:0:0:
256,192,168494,1,0,0:0:0:0:
256,192,168598,1,8,0:0:0:0:
256,192,168808,1,0,0:0:0:0:
256,192,168878,1,8,0:0:0:0:
256,192,168948,1,8,0:0:0:0:
256,192,169018,1,0,0:0:0:0:
256,192,169088,1,8,0:0:0:0:
256,192,169158,1,8,0:0:0:0:
256,192,169228,1,0,0:0:0:0:
256,192,169298,1,0,0:0:0:0:
256,192,169368,1,8,0:0:0:0:
256,192,169438,1,0,0:0:0:0:
256,192,169647,1,8,0:0:0:0:
256,192,169752,1,0,0:0:0:0:
256,192,169857,1,8,0:0:0:0:
256,192,170067,1,0,0:0:0:0:
256,192,170172,1,8,0:0:0:0:
256,192,170277,1,8,0:0:0:0:
256,192,170382,1,0,0:0:0:0:
256,192,170487,1,0,0:0:0:0:
256,192,170591,1,8,0:0:0:0:
256,192,170644,1,0,0:0:0:0:
256,192,170696,1,8,0:0:0:0:
256,192,170906,1,8,0:0:0:0:
256,192,171116,1,0,0:0:0:0:
256,192,171221,1,8,0:0:0:0:
256,192,171326,1,0,0:0:0:0:
256,192,171378,1,0,0:0:0:0:
256,192,171431,1,8,0:0:0:0:
256,192,171483,1,8,0:0:0:0:
256,192,171535,1,0,0:0:0:0:
256,192,171588,1,0,0:0:0:0:
256,192,171640,1,8,0:0:0:0:
256,192,171693,1,8,0:0:0:0:
256,192,171745,1,0,0:0:0:0:
256,192,171850,1,0,0:0:0:0:
256,192,171903,1,0,0:0:0:0:
256,192,171955,1,8,0:0:0:0:
256,192,172060,1,0,0:0:0:0:
256,192,172165,1,8,0:0:0:0:
256,192,172217,1,8,0:0:0:0:
256,192,172270,1,8,0:0:0:0:
256,192,172375,1,0,0:0:0:0:
256,192,172427,1,0,0:0:0:0:
256,192,172480,1,0,0:0:0:0:
256,192,172584,1,8,0:0:0:0:
256,192,172637,1,8,0:0:0:0:
256,192,172689,1,0,0:0:0:0:
256,192,172742,1,0,0:0:0:0:
256,192,172794,1,8,0:0:0:0:
256,192,172847,1,8,0:0:0:0:
256,192,172899,1,0,0:0:0:0:
256,192,172952,1,0,0:0:0:0:
256,192,173004,1,8,0:0:0:0:
256,192,173056,1,8,0:0:0:0:
256,192,173109,1,8,0:0:0:0:
256,192,173161,1,8,0:0:0:0:
256,192,173214,1,0,0:0:0:0:
256,192,173284,1,8,0:0:0:0:
256,192,173354,1,8,0:0:0:0:
256,192,173424,1,0,0:0:0:0:
256,192,173494,1,0,0:0:0:0:
256,192,173563,1,8,0:0:0:0:
256,192,173633,1,8,0:0:0:0:
256,192,173703,1,0,0:0:0:0:
256,192,173773,1,0,0:0:0:0:
256,192,173843,1,8,0:0:0:0:
256,192,173913,1,0,0:0:0:0:
256,192,173983,1,0,0:0:0:0:
256,192,174053,1,0,0:0:0:0:
256,192,174123,1,8,0:0:0:0:
256,192,174193,1,8,0:0:0:0:
256,192,174263,1,0,0:0:0:0:
256,192,174333,1,8,0:0:0:0:
256,192,174403,1,8,0:0:0:0:
256,192,174473,1,0,0:0:0:0:
256,192,174525,1,0,0:0:0:0:
256,192,174577,1,8,0:0:0:0:
256,192,174630,1,8,0:0:0:0:
256,192,174682,1,0,0:0:0:0:
256,192,174735,1,0,0:0:0:0:
256,192,174787,1,8,0:0:0:0:
256,192,174840,1,0,0:0:0:0:
256,192,174892,1,8,0:0:0:0:
256,192,174945,1,0,0:0:0:0:
256,192,174997,1,8,0:0:0:0:
256,192,175049,1,8,0:0:0:0:
256,192,175102,1,8,0:0:0:0:
256,192,175154,1,0,0:0:0:0:
256,192,175207,1,8,0:0:0:0:
256,192,175259,1,0,0:0:0:0:
256,192,175312,1,8,0:0:0:0:
256,192,175364,1,8,0:0:0:0:
256,192,175417,1,0,0:0:0:0:
256,192,175469,1,0,0:0:0:0:
256,192,175522,1,8,0:0:0:0:
256,192,175574,1,8,0:0:0:0:
256,192,175626,1,0,0:0:0:0:
256,192,175679,1,8,0:0:0:0:
256,192,175731,1,4,0:0:0:0:
256,192,175836,1,8,0:0:0:0:
256,192,175941,1,4,0:0:0:0:
256,192,176151,1,8,0:0:0:0:
256,192,176177,1,8,0:0:0:0:
256,192,176361,1,4,0:0:0:0:
256,192,176466,1,8,0:0:0:0:
256,192,176570,1,4,0:0:0:0:
256,192,176780,1,0,0:0:0:0:
256,192,176833,1,8,0:0:0:0:
256,192,176885,1,8,0:0:0:0:
256,192,176990,1,4,0:0:0:0:
256,192,177200,1,12,0:0:0:0:
256,192,177410,1,12,0:0:0:0:
256,192,177619,1,4,0:0:0:0:
256,192,177829,1,12,0:0:0:0:
256,192,178039,1,0,0:0:0:0:
256,192,178091,1,8,0:0:0:0:
256,192,178144,1,8,0:0:0:0:
256,192,178196,1,8,0:0:0:0:
256,192,178249,1,0,0:0:0:0:
256,192,178319,1,0,0:0:0:0:
256,192,178389,1,0,0:0:0:0:
256,192,178459,1,8,0:0:0:0:
256,192,178528,1,8,0:0:0:0:
256,192,178598,1,0,0:0:0:0:
256,192,178668,1,8,0:0:0:0:
256,192,178738,1,0,0:0:0:0:
256,192,178808,1,0,0:0:0:0:
256,192,178878,1,8,0:0:0:0:
256,192,178948,1,8,0:0:0:0:
256,192,179018,1,0,0:0:0:0:
256,192,179088,1,8,0:0:0:0:
256,192,179298,1,0,0:0:0:0:
256,192,179368,1,0,0:0:0:0:
256,192,179438,1,8,0:0:0:0:
256,192,179508,1,8,0:0:0:0:
256,192,179717,1,8,0:0:0:0:
256,192,179770,1,0,0:0:0:0:
256,192,179822,1,8,0:0:0:0:
256,192,179927,1,8,0:0:0:0:
256,192,180032,1,0,0:0:0:0:
256,192,180137,1,8,0:0:0:0:
256,192,180242,1,8,0:0:0:0:
256,192,180347,1,0,0:0:0:0:
256,192,180399,1,0,0:0:0:0:
256,192,180452,1,8,0:0:0:0:
256,192,180556,1,8,0:0:0:0:
256,192,180661,1,0,0:0:0:0:
256,192,180714,1,0,0:0:0:0:
256,192,180766,1,8,0:0:0:0:
256,192,180976,1,0,0:0:0:0:
256,192,181028,1,0,0:0:0:0:
256,192,181081,1,8,0:0:0:0:
256,192,181133,1,8,0:0:0:0:
256,192,181186,1,0,0:0:0:0:
256,192,181238,1,0,0:0:0:0:
256,192,181291,1,8,0:0:0:0:
256,192,181343,1,8,0:0:0:0:
256,192,181396,1,0,0:0:0:0:
256,192,181448,1,0,0:0:0:0:
256,192,181501,1,8,0:0:0:0:
256,192,181553,1,8,0:0:0:0:
256,192,181605,1,8,0:0:0:0:
256,192,181658,1,0,0:0:0:0:
256,192,181710,1,0,0:0:0:0:
256,192,181763,1,0,0:0:0:0:
256,192,181815,1,8,0:0:0:0:
256,192,181868,1,0,0:0:0:0:
256,192,181920,1,8,0:0:0:0:
256,192,181973,1,8,0:0:0:0:
256,192,182025,1,0,0:0:0:0:
256,192,182130,1,8,0:0:0:0:
256,192,182235,1,8,0:0:0:0:
256,192,182340,1,0,0:0:0:0:
256,192,182445,1,8,0:0:0:0:
256,192,182549,1,8,0:0:0:0:
256,192,182654,1,0,0:0:0:0:
256,192,182759,1,8,0:0:0:0:
256,192,182864,1,8,0:0:0:0:
256,192,182969,1,0,0:0:0:0:
256,192,183074,1,8,0:0:0:0:
256,192,183126,1,0,0:0:0:0:
256,192,183179,1,0,0:0:0:0:
256,192,183231,1,8,0:0:0:0:
256,192,183284,1,8,0:0:0:0:
128,224,183392,2,0,L|383:223,1,242.549999259796
256,160,183936,5,8,0:0:0:0:
256,160,184008,1,8,0:0:0:0:
256,160,184081,1,0,0:0:0:0:
256,160,184153,1,8,0:0:0:0:
256,160,184226,1,8,0:0:0:0:
256,160,184298,1,0,0:0:0:0:
256,160,184370,1,8,0:0:0:0:
256,160,184443,1,0,0:0:0:0:
256,160,184515,1,0,0:0:0:0:
256,160,184588,1,8,0:0:0:0:
256,160,184697,1,0,0:0:0:0:
256,160,184805,1,0,0:0:0:0:
256,160,184914,1,8,0:0:0:0:
256,160,185023,1,8,0:0:0:0:
256,160,185240,1,0,0:0:0:0:
256,160,185349,1,8,0:0:0:0:
256,160,185403,1,0,0:0:0:0:
256,160,185457,1,8,0:0:0:0:
256,160,185566,1,0,0:0:0:0:
256,160,185675,1,0,0:0:0:0:
256,160,185784,1,8,0:0:0:0:
256,160,185838,1,0,0:0:0:0:
256,160,185892,1,8,0:0:0:0:
256,160,186004,1,0,0:0:0:0:
256,160,186117,1,8,0:0:0:0:
256,160,186230,1,0,0:0:0:0:
256,160,186343,1,8,0:0:0:0:
256,160,186418,1,0,0:0:0:0:
256,160,186493,1,0,0:0:0:0:
256,160,186568,1,8,0:0:0:0:
256,160,186681,1,0,0:0:0:0:
256,160,186794,1,8,0:0:0:0:
256,160,186850,1,0,0:0:0:0:
256,160,186907,1,0,0:0:0:0:
256,160,187019,1,8,0:0:0:0:
267,255,187076,1,0,0:0:0:0:
256,160,187132,1,0,0:0:0:0:
264,155,187188,1,0,0:0:0:0:
256,160,187245,1,8,0:0:0:0:
256,160,187362,1,0,0:0:0:0:
256,160,187479,1,8,0:0:0:0:
256,160,187596,1,0,0:0:0:0:
256,160,187713,1,8,0:0:0:0:
256,160,187830,1,0,0:0:0:0:
256,160,187948,1,8,0:0:0:0:
256,160,188065,1,0,0:0:0:0:
256,160,188182,1,8,0:0:0:0:
256,160,188241,1,0,0:0:0:0:
256,160,188299,1,8,0:0:0:0:
256,160,188416,1,0,0:0:0:0:
256,160,188475,1,8,0:0:0:0:
256,160,188534,1,0,0:0:0:0:
256,160,188592,1,0,0:0:0:0:
256,160,188651,1,8,0:0:0:0:
256,160,188894,1,8,0:0:0:0:
256,160,189016,1,8,0:0:0:0:
256,160,189138,1,8,0:0:0:0:
256,160,189260,1,8,0:0:0:0:
256,160,189382,1,0,0:0:0:0:
256,160,189445,1,0,0:0:0:0:
256,160,189509,1,8,0:0:0:0:
256,160,189572,1,8,0:0:0:0:
256,160,189636,1,0,0:0:0:0:
256,160,189699,1,0,0:0:0:0:
256,160,189763,1,8,0:0:0:0:
256,160,189826,1,0,0:0:0:0:
256,160,189890,1,8,0:0:0:0:
256,160,189954,1,8,0:0:0:0:
256,160,190017,1,8,0:0:0:0:
256,160,190081,1,0,0:0:0:0:
256,160,190144,1,8,0:0:0:0:
256,160,190182,1,0,0:0:0:0:
256,160,190450,1,0,0:0:0:0:
256,160,190488,1,8,0:0:0:0:
256,160,190756,1,8,0:0:0:0:
256,160,190801,1,8,0:0:0:0:
256,160,191117,1,0,0:0:0:0:
256,160,191193,1,0,0:0:0:0:
256,160,191270,1,8,0:0:0:0:
256,160,191578,1,8,0:0:0:0:
256,160,191732,1,0,0:0:0:0:
256,160,191809,1,8,0:0:0:0:
256,160,191886,1,0,0:0:0:0:
256,160,191963,1,8,0:0:0:0:
256,160,192040,1,8,0:0:0:0:
256,160,192117,1,0,0:0:0:0:
256,160,192193,1,8,0:0:0:0:
256,160,192299,1,8,0:0:0:0:
256,160,192386,1,8,0:0:0:0:
256,160,192501,1,8,0:0:0:0:
256,192,196457,1,0,0:0:0:0:
256,192,196786,1,0,0:0:0:0:
256,192,197116,1,8,0:0:0:0:
256,192,197413,1,0,0:0:0:0:
256,192,197710,1,8,0:0:0:0:
256,192,197858,1,0,0:0:0:0:
256,192,198007,1,8,0:0:0:0:
256,192,198304,1,0,0:0:0:0:
256,192,198601,1,8,0:0:0:0:
256,192,198898,1,8,0:0:0:0:
256,192,199438,1,0,0:0:0:0:
256,192,199708,1,8,0:0:0:0:
256,192,199979,1,0,0:0:0:0:
256,192,200249,1,8,0:0:0:0:
256,192,200519,1,8,0:0:0:0:
256,192,201060,1,0,0:0:0:0:
256,192,201330,1,8,0:0:0:0:
256,192,201600,1,0,0:0:0:0:
256,192,201870,1,8,0:0:0:0:
256,192,202141,1,8,0:0:0:0:
256,192,202681,1,0,0:0:0:0:
256,192,202952,1,0,0:0:0:0:
256,192,203222,1,8,0:0:0:0:
256,192,203492,1,0,0:0:0:0:
256,192,203762,1,8,0:0:0:0:
256,192,204002,1,0,0:0:0:0:
256,192,204243,1,8,0:0:0:0:
256,192,204364,1,0,0:0:0:0:
256,192,204484,1,8,0:0:0:0:
256,192,204725,1,0,0:0:0:0:
256,192,204966,1,8,0:0:0:0:
256,192,205207,1,8,0:0:0:0:
256,192,205689,1,0,0:0:0:0:
256,192,205930,1,8,0:0:0:0:
256,192,206171,1,0,0:0:0:0:
256,192,206412,1,8,0:0:0:0:
256,192,206653,1,8,0:0:0:0:
256,192,207118,1,8,0:0:0:0:
256,192,207350,1,0,0:0:0:0:
256,192,207583,1,0,0:0:0:0:
256,192,207815,1,8,0:0:0:0:
256,192,208048,1,8,0:0:0:0:
256,192,208513,1,8,0:0:0:0:
256,192,208746,1,8,0:0:0:0:
256,192,208978,1,0,0:0:0:0:
256,192,209211,1,0,0:0:0:0:
256,192,209443,1,8,0:0:0:0:
256,192,209671,1,0,0:0:0:0:
256,192,209899,1,8,0:0:0:0:
256,192,210013,1,0,0:0:0:0:
256,192,210127,1,8,0:0:0:0:
256,192,210355,1,0,0:0:0:0:
256,192,210583,1,8,0:0:0:0:
256,192,210811,1,8,0:0:0:0:
256,192,211268,1,8,0:0:0:0:
256,192,211496,1,8,0:0:0:0:
256,192,211724,1,0,0:0:0:0:
256,192,211952,1,8,0:0:0:0:
256,192,212180,1,8,0:0:0:0:
256,192,212621,1,8,0:0:0:0:
256,192,212841,1,8,0:0:0:0:
256,192,213062,1,0,0:0:0:0:
256,192,213282,1,8,0:0:0:0:
256,192,213503,1,0,0:0:0:0:
256,192,213944,1,0,0:0:0:0:
256,192,214165,1,8,0:0:0:0:
256,192,214385,1,8,0:0:0:0:
256,192,214606,1,0,0:0:0:0:
256,192,214827,1,8,0:0:0:0:
256,192,215042,1,0,0:0:0:0:
256,192,215257,1,8,0:0:0:0:
256,192,215364,1,0,0:0:0:0:
256,192,215472,1,8,0:0:0:0:
256,192,215687,1,0,0:0:0:0:
256,192,215902,1,8,0:0:0:0:
256,192,216117,1,8,0:0:0:0:
256,192,216547,1,0,0:0:0:0:
256,192,216762,1,8,0:0:0:0:
256,192,216977,1,8,0:0:0:0:
256,192,217192,1,0,0:0:0:0:
256,192,217407,1,8,0:0:0:0:
256,192,217829,1,0,0:0:0:0:
256,192,218040,1,8,0:0:0:0:
256,192,218252,1,0,0:0:0:0:
256,192,218463,1,0,0:0:0:0:
256,192,218674,1,8,0:0:0:0:
256,192,219135,1,8,0:0:0:0:
256,192,219385,1,0,0:0:0:0:
256,192,219657,1,8,0:0:0:0:
256,192,219957,1,8,0:0:0:0:
256,192,220290,1,4,0:0:0:0:
256,192,220628,1,0,0:0:0:0:
256,192,220741,1,8,0:0:0:0:
256,192,220966,1,0,0:0:0:0:
256,192,221192,1,8,0:0:0:0:
256,192,221418,1,8,0:0:0:0:
256,192,221645,1,4,0:0:0:0:
256,192,221985,1,0,0:0:0:0:
256,192,222099,1,8,0:0:0:0:
256,192,222326,1,0,0:0:0:0:
256,192,222440,1,8,0:0:0:0:
256,192,222554,1,0,0:0:0:0:
256,192,222668,1,8,0:0:0:0:
256,192,222782,1,8,0:0:0:0:
256,192,222896,1,8,0:0:0:0:
256,192,223010,1,4,0:0:0:0:
256,192,223239,1,12,0:0:0:0:
256,192,223468,1,8,0:0:0:0:
256,192,223496,1,8,0:0:0:0:
256,192,223697,1,4,0:0:0:0:
256,192,223926,1,12,0:0:0:0:
256,192,224156,1,8,0:0:0:0:
256,192,224214,1,0,0:0:0:0:
256,192,224271,1,0,0:0:0:0:
256,192,224329,1,0,0:0:0:0:
256,192,224386,1,12,0:0:0:0:
256,192,224616,1,12,0:0:0:0:
256,192,224851,1,4,0:0:0:0:
256,192,225091,1,12,0:0:0:0:
256,192,225335,1,4,0:0:0:0:
256,192,225585,1,12,0:0:0:0:
256,192,225840,1,4,0:0:0:0:
256,192,226191,1,0,0:0:0:0:
256,192,226308,1,8,0:0:0:0:
256,192,226543,1,0,0:0:0:0:
256,192,226661,1,0,0:0:0:0:
256,192,226779,1,8,0:0:0:0:
256,192,226897,1,8,0:0:0:0:
256,192,227015,1,0,0:0:0:0:
256,192,227133,1,0,0:0:0:0:
256,192,227251,1,8,0:0:0:0:
256,192,227489,1,0,0:0:0:0:
256,192,227727,1,0,0:0:0:0:
256,192,227965,1,8,0:0:0:0:
256,192,228205,1,0,0:0:0:0:
256,192,228325,1,0,0:0:0:0:
256,192,228445,1,8,0:0:0:0:
256,192,228565,1,0,0:0:0:0:
256,192,228685,1,8,0:0:0:0:
256,192,228928,1,0,0:0:0:0:
256,192,229172,1,8,0:0:0:0:
256,192,229294,1,0,0:0:0:0:
256,192,229416,1,8,0:0:0:0:
256,192,229674,1,0,0:0:0:0:
256,192,229933,1,8,0:0:0:0:
256,192,230191,1,0,0:0:0:0:
256,192,230267,1,0,0:0:0:0:
256,192,230344,1,8,0:0:0:0:
256,192,230420,1,8,0:0:0:0:
256,192,230497,1,0,0:0:0:0:
256,192,230573,1,8,0:0:0:0:
256,192,230650,1,0,0:0:0:0:
256,192,230726,1,0,0:0:0:0:
256,192,230803,1,8,0:0:0:0:
256,192,230879,1,8,0:0:0:0:
256,192,230956,1,0,0:0:0:0:
256,192,231032,1,0,0:0:0:0:
256,192,231109,1,8,0:0:0:0:
256,192,231493,1,0,0:0:0:0:
256,192,231903,1,8,0:0:0:0:
256,192,232390,1,0,0:0:0:0:
256,192,232486,1,8,0:0:0:0:
256,192,232582,1,0,0:0:0:0:
256,192,232678,1,8,0:0:0:0:
256,192,232774,1,8,0:0:0:0:
256,192,232870,1,0,0:0:0:0:
256,192,232966,1,8,0:0:0:0:
256,192,233063,1,0,0:0:0:0:
256,192,233159,1,0,0:0:0:0:
256,192,233255,1,0,0:0:0:0:
256,192,233351,1,8,0:0:0:0:
256,192,233447,1,0,0:0:0:0:
256,192,233543,1,8,0:0:0:0:
256,192,233640,1,8,0:0:0:0:
256,192,233736,1,0,0:0:0:0:
256,192,233832,1,0,0:0:0:0:
256,192,233928,1,8,0:0:0:0:
256,192,234024,1,8,0:0:0:0:
256,192,234120,1,8,0:0:0:0:
256,192,234216,1,0,0:0:0:0:
256,192,234313,1,8,0:0:0:0:
256,192,234409,1,0,0:0:0:0:
256,192,234505,1,0,0:0:0:0:
256,192,234601,1,8,0:0:0:0:
256,192,234697,1,0,0:0:0:0:
256,192,234769,1,0,0:0:0:0:
256,192,234841,1,0,0:0:0:0:
256,192,234914,1,0,0:0:0:0:
256,192,234986,1,8,0:0:0:0:
256,192,235058,1,8,0:0:0:0:
256,192,235130,1,8,0:0:0:0:
256,192,235202,1,8,0:0:0:0:
256,192,235274,1,0,0:0:0:0:
256,192,235346,1,0,0:0:0:0:
256,192,235418,1,8,0:0:0:0:
256,192,235490,1,8,0:0:0:0:
256,192,235563,1,0,0:0:0:0:
256,192,235635,1,0,0:0:0:0:
256,192,235707,1,8,0:0:0:0:
256,192,235779,1,8,0:0:0:0:
256,192,235851,1,0,0:0:0:0:
256,192,235923,1,0,0:0:0:0:
256,192,235995,1,0,0:0:0:0:
256,192,236067,1,0,0:0:0:0:
256,192,236140,1,8,0:0:0:0:
256,192,236212,1,8,0:0:0:0:
256,192,236284,1,8,0:0:0:0:
256,192,236356,1,8,0:0:0:0:
256,192,236428,1,0,0:0:0:0:
256,192,236500,1,0,0:0:0:0:
256,192,236572,1,8,0:0:0:0:
256,192,236644,1,8,0:0:0:0:
256,192,236716,1,0,0:0:0:0:
256,192,236789,1,0,0:0:0:0:
256,192,236861,1,8,0:0:0:0:
256,192,236933,1,8,0:0:0:0:
256,192,237005,1,0,0:0:0:0:
256,192,237063,1,8,0:0:0:0:
256,192,237120,1,0,0:0:0:0:
256,192,237178,1,8,0:0:0:0:
256,192,237236,1,8,0:0:0:0:
256,192,237293,1,0,0:0:0:0:
256,192,237351,1,8,0:0:0:0:
256,192,237409,1,0,0:0:0:0:
256,192,237466,1,0,0:0:0:0:
256,192,237524,1,8,0:0:0:0:
256,192,237582,1,8,0:0:0:0:
256,192,237640,1,0,0:0:0:0:
256,192,237697,1,0,0:0:0:0:
256,192,237755,1,8,0:0:0:0:
256,192,237813,1,8,0:0:0:0:
256,192,237870,1,0,0:0:0:0:
256,192,237928,1,8,0:0:0:0:
256,192,237986,1,0,0:0:0:0:
256,192,238043,1,0,0:0:0:0:
256,192,238101,1,8,0:0:0:0:
256,192,238159,1,8,0:0:0:0:
256,192,238216,1,0,0:0:0:0:
256,192,238274,1,8,0:0:0:0:
256,192,238332,1,8,0:0:0:0:
256,192,238390,1,0,0:0:0:0:
256,192,238447,1,0,0:0:0:0:
256,192,238505,1,8,0:0:0:0:
256,192,238563,1,0,0:0:0:0:
256,192,238620,1,8,0:0:0:0:
256,192,238678,1,8,0:0:0:0:
256,192,238736,1,0,0:0:0:0:
256,192,238793,1,8,0:0:0:0:
256,192,238851,1,0,0:0:0:0:
256,192,238909,1,0,0:0:0:0:
256,192,238966,1,8,0:0:0:0:
256,192,239024,1,8,0:0:0:0:
256,192,239082,1,0,0:0:0:0:
256,192,239140,1,8,0:0:0:0:
256,192,239197,1,0,0:0:0:0:
256,192,239255,1,0,0:0:0:0:
256,192,239313,1,8,0:0:0:0:
256,192,239601,1,0,0:0:0:0:
256,192,239673,1,0,0:0:0:0:
256,192,239745,1,8,0:0:0:0:
256,192,239817,1,0,0:0:0:0:
256,192,239890,1,8,0:0:0:0:
256,192,239962,1,0,0:0:0:0:
256,192,240034,1,0,0:0:0:0:
256,192,240106,1,8,0:0:0:0:
256,192,240178,1,8,0:0:0:0:
256,192,240250,1,8,0:0:0:0:
256,192,240322,1,0,0:0:0:0:
256,192,240394,1,0,0:0:0:0:
256,192,240466,1,8,0:0:0:0:
256,192,240755,1,0,0:0:0:0:
256,192,240827,1,0,0:0:0:0:
256,192,240899,1,0,0:0:0:0:
256,192,240971,1,0,0:0:0:0:
256,192,241043,1,0,0:0:0:0:
256,192,241332,1,8,0:0:0:0:
256,192,241404,1,8,0:0:0:0:
256,192,241476,1,8,0:0:0:0:
256,192,241548,1,8,0:0:0:0:
256,192,241620,1,8,0:0:0:0:
