osu file format v14

[General]
AudioFilename: audio.mp3
AudioLeadIn: 0
PreviewTime: 196432
Countdown: 0
SampleSet: Normal
StackLeniency: 0.7
Mode: 1
LetterboxInBreaks: 0
WidescreenStoryboard: 1

[Editor]
DistanceSpacing: 3.3
BeatDivisor: 2
GridSize: 32
TimelineZoom: 2.4

[Metadata]
Title:Fly Like You [Long Version]
TitleUnicode:Fly Like You [Long Version]
Artist:technoplanet
ArtistUnicode:technoplanet
Creator:[ TNTlealu ]
Version:Chi's NOVICE
Source:SOUND VOLTEX IV HEAVENLY HAVEN
Tags:electronic -Joakh Shinsekai- sdvx 4 旋律世界 ΩDimension -Phase.5+- full ver sv instrumental konami video game rhythm [_Chichinya_] Chi Vulkin uone Rocma _Asriel Yumeno Himiko examination Minato Yukina CLSW alienflybot AFB Loneight l1106188 L18 岡聡志 安部泉希 autofanboy
BeatmapID:2293271
BeatmapSetID:1079909

[Difficulty]
HPDrainRate:7
CircleSize:2
OverallDifficulty:4
ApproachRate:10
SliderMultiplier:1.4
SliderTickRate:1

[Events]
//Background and Video events
0,0,"fcb914da2343ca7cea85c6f8803cf27e4147f5c0.png",0,0
//Break Periods
//Storyboard Layer 0 (Background)
//Storyboard Layer 1 (Fail)
//Storyboard Layer 2 (Pass)
//Storyboard Layer 3 (Foreground)
//Storyboard Layer 4 (Overlay)
//Storyboard Sound Samples

[TimingPoints]
625,209.79020979021,3,1,0,75,1,0
625,-161.290322580645,3,1,0,75,0,0
5555,-161.290322580645,3,1,0,30,0,0
5659,-161.290322580645,3,1,0,30,0,0
6078,-161.290322580645,3,1,0,30,0,8
6707,-161.290322580645,3,1,0,30,0,8
6811,-161.290322580645,3,1,0,85,0,8
6918,-161.290322580645,3,1,0,85,0,1
16988,-161.290322580645,3,1,0,80,0,0
44680,225.563909774436,3,1,0,80,1,0
44680,-149.253731343284,3,1,0,80,0,0
47386,209.79020979021,3,1,0,80,1,0
47386,-161.290322580645,3,1,0,80,0,0
52630,-161.290322580645,3,1,0,30,0,0
53574,-161.290322580645,3,1,0,85,0,0
53679,-161.290322580645,3,1,0,85,0,1
61232,-161.290322580645,3,1,0,75,0,0
63749,-161.290322580645,3,1,0,85,0,1
64169,-161.290322580645,3,1,0,85,0,1
66267,-161.290322580645,3,1,0,85,0,1
67525,-161.290322580645,3,1,0,85,0,1
68784,-161.290322580645,3,1,0,85,0,1
73819,-161.290322580645,3,1,0,75,0,0
104029,217.391304347826,3,1,0,75,1,0
104029,-153.846153846154,3,1,0,75,0,0
114463,225.563909774436,3,1,0,60,1,0
114463,-149.253731343284,3,1,0,60,0,0
123936,209.79020979021,3,1,0,60,1,0
123936,-161.290322580645,3,1,0,60,0,0
125142,-161.290322580645,3,1,0,75,0,0
125194,209.79020979021,3,1,0,75,1,0
125194,-161.290322580645,3,1,0,75,0,0
142816,225.563909774436,3,1,0,75,1,0
142816,-149.253731343284,3,1,0,75,0,0
142873,-149.253731343284,3,1,0,50,0,0
144734,-149.253731343284,3,1,0,75,0,0
145522,209.79020979021,3,1,0,75,1,0
145522,-161.290322580645,3,1,0,75,0,0
150766,-161.290322580645,3,1,0,30,0,0
152969,-161.290322580645,3,1,0,85,0,0
153074,-161.290322580645,3,1,0,85,0,1
160626,-161.290322580645,3,1,0,75,0,0
163144,-161.290322580645,3,1,0,85,0,1
163563,-161.290322580645,3,1,0,85,0,1
165242,-161.290322580645,3,1,0,85,0,1
165452,-161.290322580645,3,1,0,85,0,1
165661,-161.290322580645,3,1,0,85,0,1
166710,-161.290322580645,3,1,0,85,0,1
166920,-161.290322580645,3,1,0,85,0,1
168179,-161.290322580645,3,1,0,85,0,1
173214,-161.290322580645,3,1,0,80,0,0
175731,-161.290322580645,3,1,0,85,0,1
178249,-161.290322580645,3,1,0,80,0,0
183284,217.391304347826,3,1,0,80,1,0
183284,-153.846153846154,3,1,0,80,0,0
185892,225.563909774436,3,1,0,80,1,0
185892,-149.253731343284,3,1,0,80,0,0
187245,234.375,3,1,0,80,1,0
187245,-142.857142857143,3,1,0,80,0,0
188651,243.90243902439,3,1,0,80,1,0
188651,-136.986301369863,3,1,0,80,0,0
189382,254.237288135593,3,1,0,80,1,0
189382,-131.578947368421,3,1,0,80,0,0
190144,306.122448979592,3,1,0,80,1,0
190144,-109.89010989011,3,1,0,80,0,0
190756,361.44578313253,3,1,0,80,1,8
190756,-92.5925925925926,3,1,0,80,0,0
191117,461.538461538462,3,1,0,80,1,0
191117,-72.463768115942,3,1,0,80,0,0
192501,659.340659340659,3,1,0,80,1,0
192501,-50.761421319797,3,1,0,80,0,0
196457,659.340659340659,3,1,0,75,1,8
196457,-50.761421319797,3,1,0,50,0,0
197116,594.059405940594,3,1,0,45,1,0
197116,-56.1797752808989,3,1,0,45,0,0
198898,540.540540540541,3,1,0,35,1,0
198898,-61.7283950617284,3,1,0,35,0,0
203762,481.927710843374,3,1,0,60,1,0
203762,-69.4444444444444,3,1,0,60,0,0
206653,465.116279069767,3,1,0,60,1,0
206653,-71.9424460431655,3,1,0,60,0,0
209443,456.273764258555,3,1,0,60,1,0
209443,-73.5294117647059,3,1,0,80,0,0
209899,-73.5294117647059,3,1,0,60,0,0
212180,441.176470588235,3,1,0,70,1,0
212180,-75.7575757575758,3,1,0,70,0,0
214827,430.10752688172,3,1,0,75,1,0
214827,-77.5193798449612,3,1,0,75,0,0
217407,422.535211267606,3,1,0,75,1,0
217407,-79.3650793650794,3,1,0,75,0,0
218674,461.538461538462,3,1,0,80,1,0
218674,-72.463768115942,3,1,0,80,0,0
219135,500,3,1,0,82,1,8
219135,-66.6666666666667,3,1,0,82,0,0
219385,545.454545454546,3,1,0,84,1,8
219385,-61.3496932515337,3,1,0,84,0,0
219657,600,3,1,0,86,1,8
219657,-55.5555555555556,3,1,0,86,0,0
219957,666.666666666667,3,1,0,88,1,8
219957,-50,3,1,0,88,0,0
220290,225.563909774436,3,1,0,90,1,1
220290,-149.253731343284,3,1,0,90,0,1
220966,226.415094339623,3,1,0,90,1,1
220966,-149.253731343284,3,1,0,90,0,1
221645,227.272727272727,3,1,0,90,1,1
221645,-147.058823529412,3,1,0,90,0,1
222326,228.136882129278,3,1,0,90,1,1
222326,-146.198830409357,3,1,0,90,0,1
223010,229.007633587786,3,1,0,90,1,1
223010,-145.560407569141,3,1,0,90,0,1
223697,229.885057471264,3,1,0,90,1,1
223697,-145.137880986938,3,1,0,90,0,1
224386,230.769230769231,3,1,0,90,1,1
224386,-144.927536231884,3,1,0,90,0,1
224616,235.294117647059,3,1,0,90,1,9
224616,-142.857142857143,3,1,0,90,0,1
224851,240,3,1,0,90,1,9
224851,-138.888888888889,3,1,0,90,0,1
225091,244.897959183673,3,1,0,90,1,1
225091,-136.986301369863,3,1,0,90,0,1
225335,250,3,1,0,90,1,9
225335,-133.333333333333,3,1,0,90,0,1
225585,255.31914893617,3,1,0,90,1,9
225585,-131.578947368421,3,1,0,90,0,1
225840,234.375,3,1,0,90,1,1
225840,-142.857142857143,3,1,0,90,0,1
226543,236.220472440945,3,1,0,90,1,1
226543,-142.857142857143,3,1,0,90,0,1
227251,238.095238095238,3,1,0,90,1,1
227251,-140.845070422535,3,1,0,90,0,1
227965,240,3,1,0,90,1,1
227965,-138.888888888889,3,1,0,90,0,1
228685,243.90243902439,3,1,0,90,1,1
228685,-136.986301369863,3,1,0,90,0,1
229416,258.620689655172,3,1,0,90,1,1
229416,-129.87012987013,3,1,0,90,0,1
230191,306.122448979592,3,1,0,90,1,1
230191,-109.89010989011,3,1,0,90,0,1
231109,384.615384615385,3,1,0,90,1,1
231109,-86.9565217391304,3,1,0,90,0,1
231493,410.958904109589,3,1,0,90,1,9
231493,-81.3008130081301,3,1,0,90,0,1
231903,487.80487804878,3,1,0,90,1,9
231903,-68.4931506849315,3,1,0,90,0,1
232390,288.461538461538,4,1,0,80,1,0
232390,-116.279069767442,4,1,0,80,0,0
240755,-116.279069767442,4,1,0,90,0,0

[HitObjects]
256,192,625,5,4,0:0:0:0:
256,192,1254,1,0,0:0:0:0:
256,192,1673,1,0,0:0:0:0:
256,192,1883,1,8,0:0:0:0:
256,192,2513,1,0,0:0:0:0:
256,192,3142,1,12,0:0:0:0:
256,192,3771,1,0,0:0:0:0:
256,192,4191,1,0,0:0:0:0:
256,192,4401,1,12,0:0:0:0:
256,192,5030,1,12,0:0:0:0:
256,192,5973,12,0,6707,0:0:0:0:
256,192,6918,5,4,0:0:0:0:
256,192,7232,1,8,0:0:0:0:
256,192,7337,1,8,0:0:0:0:
256,192,7547,1,0,0:0:0:0:
256,192,8176,1,8,0:0:0:0:
256,192,8491,1,0,0:0:0:0:
256,192,8596,1,0,0:0:0:0:
256,192,8806,1,8,0:0:0:0:
256,192,9435,1,0,0:0:0:0:
256,192,9645,1,0,0:0:0:0:
256,192,10064,1,0,0:0:0:0:
256,192,10274,1,0,0:0:0:0:
256,192,10694,1,8,0:0:0:0:
256,192,10904,1,8,0:0:0:0:
256,192,11113,1,8,0:0:0:0:
256,192,11323,1,8,0:0:0:0:
256,192,11952,1,4,0:0:0:0:
256,192,12267,1,0,0:0:0:0:
256,192,12372,1,0,0:0:0:0:
256,192,12582,1,8,0:0:0:0:
256,192,13211,1,8,0:0:0:0:
256,192,13422,1,0,0:0:0:0:
256,192,13631,1,0,0:0:0:0:
256,192,13841,1,8,0:0:0:0:
256,192,14470,1,4,0:0:0:0:
256,192,15099,1,12,0:0:0:0:
256,192,15729,1,4,0:0:0:0:
256,192,16148,1,0,0:0:0:0:
256,192,16358,1,8,0:0:0:0:
256,192,16568,1,8,0:0:0:0:
256,192,16987,1,4,0:0:0:0:
256,192,17617,1,8,0:0:0:0:
256,192,17827,1,8,0:0:0:0:
256,192,18246,1,4,0:0:0:0:
256,192,18876,1,8,0:0:0:0:
256,192,19085,1,8,0:0:0:0:
256,192,19296,1,0,0:0:0:0:
256,192,19505,1,4,0:0:0:0:
256,192,20134,1,0,0:0:0:0:
256,192,20764,1,8,0:0:0:0:
256,192,20973,1,8,0:0:0:0:
256,192,21183,1,8,0:0:0:0:
256,192,21393,1,0,0:0:0:0:
256,192,22022,1,12,0:0:0:0:
256,192,22652,1,0,0:0:0:0:
256,192,22862,1,8,0:0:0:0:
256,192,23281,1,12,0:0:0:0:
256,192,23911,1,0,0:0:0:0:
256,192,24120,1,0,0:0:0:0:
256,192,24330,1,8,0:0:0:0:
256,192,24540,1,12,0:0:0:0:
256,192,25169,1,0,0:0:0:0:
256,192,25799,1,8,0:0:0:0:
256,192,26428,1,0,0:0:0:0:
256,192,26743,1,0,0:0:0:0:
256,192,27057,1,12,0:0:0:0:
256,192,28316,1,0,0:0:0:0:
256,192,29575,1,8,0:0:0:0:
262,198,30834,1,8,0:0:0:0:
262,198,31044,1,0,0:0:0:0:
262,198,31254,1,0,0:0:0:0:
297,148,31464,2,0,L|305:200,4,43.3999982781983
256,192,32092,1,4,0:0:0:0:
256,192,32722,1,8,0:0:0:0:
256,192,33351,1,0,0:0:0:0:
256,192,33666,1,0,0:0:0:0:
256,192,33980,1,8,0:0:0:0:
256,192,34610,1,0,0:0:0:0:
256,192,35239,1,0,0:0:0:0:
256,192,35869,1,0,0:0:0:0:
256,192,36078,1,0,0:0:0:0:
256,192,36498,1,8,0:0:0:0:
256,192,37127,1,4,0:0:0:0:
256,192,37442,1,0,0:0:0:0:
256,192,37757,1,8,0:0:0:0:
256,192,38177,1,8,0:0:0:0:
256,192,38386,1,0,0:0:0:0:
256,192,38806,1,8,0:0:0:0:
256,192,39015,1,0,0:0:0:0:
256,192,39645,1,12,0:0:0:0:
256,192,39959,1,0,0:0:0:0:
256,192,40274,1,0,0:0:0:0:
256,192,40694,1,8,0:0:0:0:
256,192,40904,1,0,0:0:0:0:
256,192,41323,1,0,0:0:0:0:
256,192,41533,1,8,0:0:0:0:
256,192,42162,1,4,0:0:0:0:
256,192,42582,1,8,0:0:0:0:
256,192,42792,1,0,0:0:0:0:
256,192,43421,1,12,0:0:0:0:
256,192,43736,1,12,0:0:0:0:
256,192,44050,1,4,0:0:0:0:
256,192,44471,1,0,0:0:0:0:
256,192,44680,1,12,0:0:0:0:
256,192,45356,1,0,0:0:0:0:
256,192,46033,1,8,0:0:0:0:
256,192,46710,1,0,0:0:0:0:
256,192,47386,1,4,0:0:0:0:
256,192,48015,1,4,0:0:0:0:
256,192,48644,1,12,0:0:0:0:
256,192,49274,1,12,0:0:0:0:
256,192,49903,1,4,0:0:0:0:
256,192,50323,1,8,0:0:0:0:
256,192,50532,1,12,0:0:0:0:
256,192,50952,1,0,0:0:0:0:
256,192,51162,1,4,0:0:0:0:
256,192,51791,1,12,0:0:0:0:
256,192,52630,12,0,53469,0:0:0:0:
256,192,53679,5,4,0:0:0:0:
256,192,54099,1,8,0:0:0:0:
256,192,54309,1,0,0:0:0:0:
256,192,54938,1,8,0:0:0:0:
256,192,55148,1,0,0:0:0:0:
256,192,55358,1,0,0:0:0:0:
256,192,55567,1,8,0:0:0:0:
256,192,56197,1,0,0:0:0:0:
256,192,56406,1,0,0:0:0:0:
256,192,56826,1,8,0:0:0:0:
256,192,57036,1,8,0:0:0:0:
256,192,57455,1,0,0:0:0:0:
256,192,57665,1,0,0:0:0:0:
256,192,57875,1,0,0:0:0:0:
256,192,58085,1,0,0:0:0:0:
256,192,58714,1,12,0:0:0:0:
256,192,59029,1,0,0:0:0:0:
256,192,59134,1,0,0:0:0:0:
256,192,59344,1,8,0:0:0:0:
256,192,59973,1,8,0:0:0:0:
256,192,60183,1,8,0:0:0:0:
256,192,60392,1,8,0:0:0:0:
256,192,60602,1,0,0:0:0:0:
256,192,61232,1,4,0:0:0:0:
256,192,61861,1,4,0:0:0:0:
256,192,62490,1,8,0:0:0:0:
256,192,63120,1,0,0:0:0:0:
256,192,63539,1,8,0:0:0:0:
256,192,63749,1,4,0:0:0:0:
256,192,64379,1,12,0:0:0:0:
256,192,65008,1,4,0:0:0:0:
256,192,65637,1,4,0:0:0:0:
256,192,66267,1,0,0:0:0:0:
256,192,66476,1,0,0:0:0:0:
256,192,66896,1,8,0:0:0:0:
256,192,67106,1,8,0:0:0:0:
256,192,67525,1,0,0:0:0:0:
256,192,67735,1,0,0:0:0:0:
256,192,67945,1,0,0:0:0:0:
256,192,68155,1,0,0:0:0:0:
256,192,68784,1,4,0:0:0:0:
256,192,69099,1,0,0:0:0:0:
256,192,69204,1,0,0:0:0:0:
256,192,69413,1,8,0:0:0:0:
256,192,69833,1,8,0:0:0:0:
256,192,70043,1,8,0:0:0:0:
256,192,70462,1,8,0:0:0:0:
256,192,70672,1,0,0:0:0:0:
256,192,70987,1,0,0:0:0:0:
256,192,71302,1,12,0:0:0:0:
256,192,71931,1,4,0:0:0:0:
256,192,72560,1,12,0:0:0:0:
256,192,73190,1,12,0:0:0:0:
256,192,73819,1,4,0:0:0:0:
256,192,74448,1,0,0:0:0:0:
256,192,75078,1,8,0:0:0:0:
256,192,75707,1,0,0:0:0:0:
256,192,75917,1,0,0:0:0:0:
256,192,76337,1,8,0:0:0:0:
256,192,76966,1,0,0:0:0:0:
256,192,77595,1,8,0:0:0:0:
256,192,78225,1,8,0:0:0:0:
256,192,78434,1,0,0:0:0:0:
256,192,78854,1,0,0:0:0:0:
256,192,79483,1,0,0:0:0:0:
256,192,80113,1,8,0:0:0:0:
256,192,80742,1,0,0:0:0:0:
256,192,80952,1,0,0:0:0:0:
256,192,81372,1,0,0:0:0:0:
256,192,82001,1,8,0:0:0:0:
256,192,82630,1,0,0:0:0:0:
256,192,83260,1,0,0:0:0:0:
256,192,83889,1,4,0:0:0:0:
256,192,84518,1,0,0:0:0:0:
256,192,84938,1,8,0:0:0:0:
256,192,85148,1,0,0:0:0:0:
256,192,85777,1,0,0:0:0:0:
256,192,86197,1,8,0:0:0:0:
256,192,86406,1,0,0:0:0:0:
256,192,86616,1,0,0:0:0:0:
256,192,87036,1,8,0:0:0:0:
256,192,87246,1,8,0:0:0:0:
256,192,87665,1,0,0:0:0:0:
256,192,87875,1,0,0:0:0:0:
256,192,88085,1,0,0:0:0:0:
256,192,88295,1,0,0:0:0:0:
256,192,88924,1,12,0:0:0:0:
256,192,89553,1,0,0:0:0:0:
256,192,89973,1,8,0:0:0:0:
256,192,90183,1,0,0:0:0:0:
256,192,90812,1,0,0:0:0:0:
256,192,91232,1,8,0:0:0:0:
256,192,91441,1,0,0:0:0:0:
256,192,91651,1,0,0:0:0:0:
256,192,92071,1,8,0:0:0:0:
256,192,92281,1,8,0:0:0:0:
256,192,92700,1,0,0:0:0:0:
256,192,92910,1,0,0:0:0:0:
256,192,93120,1,0,0:0:0:0:
256,192,93330,1,0,0:0:0:0:
256,192,93959,1,12,0:0:0:0:
256,192,94588,1,0,0:0:0:0:
256,192,95218,1,8,0:0:0:0:
256,192,95427,1,8,0:0:0:0:
256,192,95637,1,8,0:0:0:0:
256,192,95847,1,8,0:0:0:0:
256,192,96476,1,0,0:0:0:0:
256,192,97106,1,8,0:0:0:0:
256,192,97316,1,0,0:0:0:0:
256,192,97525,1,0,0:0:0:0:
256,192,97735,1,0,0:0:0:0:
256,192,98365,1,8,0:0:0:0:
256,192,98574,1,8,0:0:0:0:
256,192,98784,1,8,0:0:0:0:
256,192,98994,1,0,0:0:0:0:
256,192,99623,1,0,0:0:0:0:
256,192,100253,1,8,0:0:0:0:
256,192,100672,1,0,0:0:0:0:
256,192,100882,1,8,0:0:0:0:
256,192,101511,1,0,0:0:0:0:
256,192,101721,1,0,0:0:0:0:
256,192,101931,1,0,0:0:0:0:
256,192,102141,1,0,0:0:0:0:
256,192,102770,1,12,0:0:0:0:
256,192,103085,1,12,0:0:0:0:
256,192,103399,1,12,0:0:0:0:
256,192,103714,1,12,0:0:0:0:
256,192,104029,1,4,0:0:0:0:
256,192,104681,1,4,0:0:0:0:
256,192,105333,1,8,0:0:0:0:
256,192,105985,1,4,0:0:0:0:
256,192,106420,1,0,0:0:0:0:
256,192,106637,1,0,0:0:0:0:
256,192,107289,1,4,0:0:0:0:
256,192,107942,1,8,0:0:0:0:
256,192,108594,1,12,0:0:0:0:
256,192,109029,1,0,0:0:0:0:
256,192,109246,1,0,0:0:0:0:
256,192,109898,1,8,0:0:0:0:
256,192,110333,1,8,0:0:0:0:
256,192,110550,1,8,0:0:0:0:
256,192,111202,1,4,0:0:0:0:
256,192,111637,1,8,0:0:0:0:
256,192,111855,1,0,0:0:0:0:
256,192,112507,1,12,0:0:0:0:
256,192,112942,1,0,0:0:0:0:
256,192,113159,1,0,0:0:0:0:
256,192,113811,1,12,0:0:0:0:
256,192,114246,1,0,0:0:0:0:
256,192,114463,1,12,0:0:0:0:
256,192,115139,1,0,0:0:0:0:
256,192,115816,1,8,0:0:0:0:
256,192,116493,1,0,0:0:0:0:
256,192,117169,1,8,0:0:0:0:
256,192,117846,1,0,0:0:0:0:
256,192,119199,1,8,0:0:0:0:
256,192,119876,1,0,0:0:0:0:
256,192,120553,1,8,0:0:0:0:
256,192,121229,1,0,0:0:0:0:
256,192,121906,1,8,0:0:0:0:
256,192,122583,1,8,0:0:0:0:
256,192,123259,1,0,0:0:0:0:
256,192,123936,1,0,0:0:0:0:
256,192,124565,1,8,0:0:0:0:
256,192,125194,1,12,0:0:0:0:
256,192,125508,1,0,0:0:0:0:
256,192,125824,1,8,0:0:0:0:
256,192,126453,1,0,0:0:0:0:
256,192,126767,1,8,0:0:0:0:
256,192,127082,1,0,0:0:0:0:
256,192,127712,1,12,0:0:0:0:
256,192,128026,1,0,0:0:0:0:
256,192,128341,1,8,0:0:0:0:
256,192,128970,1,8,0:0:0:0:
256,192,129284,1,0,0:0:0:0:
256,192,129389,1,0,0:0:0:0:
256,192,129600,1,0,0:0:0:0:
256,192,130229,1,4,0:0:0:0:
256,192,130648,1,8,0:0:0:0:
256,192,130859,1,0,0:0:0:0:
256,192,131488,1,8,0:0:0:0:
256,192,131907,1,0,0:0:0:0:
256,192,132117,1,8,0:0:0:0:
256,192,132747,1,4,0:0:0:0:
256,192,133376,1,12,0:0:0:0:
256,192,134005,1,0,0:0:0:0:
256,192,134635,1,0,0:0:0:0:
256,192,134844,1,8,0:0:0:0:
256,192,135054,1,8,0:0:0:0:
256,192,135263,1,4,0:0:0:0:
256,192,135894,1,8,0:0:0:0:
256,192,136523,1,0,0:0:0:0:
256,192,136942,1,0,0:0:0:0:
256,192,137152,1,8,0:0:0:0:
256,192,137782,1,4,0:0:0:0:
256,192,138411,1,8,0:0:0:0:
256,192,139040,1,0,0:0:0:0:
256,192,139460,1,8,0:0:0:0:
256,192,139670,1,0,0:0:0:0:
256,192,140299,1,4,0:0:0:0:
256,192,140929,1,8,0:0:0:0:
256,192,141557,1,4,0:0:0:0:
256,192,142187,1,8,0:0:0:0:
256,192,142397,1,0,0:0:0:0:
256,192,142607,1,0,0:0:0:0:
256,192,142816,1,12,0:0:0:0:
256,192,143492,1,8,0:0:0:0:
256,192,144169,1,8,0:0:0:0:
256,192,144846,1,0,0:0:0:0:
256,192,145522,1,4,0:0:0:0:
256,192,145941,1,8,0:0:0:0:
256,192,146151,1,12,0:0:0:0:
256,192,146570,1,0,0:0:0:0:
256,192,146780,1,0,0:0:0:0:
256,192,146990,1,0,0:0:0:0:
256,192,147200,1,0,0:0:0:0:
256,192,147410,1,12,0:0:0:0:
256,192,148039,1,8,0:0:0:0:
256,192,148249,1,8,0:0:0:0:
256,192,148668,1,4,0:0:0:0:
256,192,149298,1,4,0:0:0:0:
256,192,149927,1,12,0:0:0:0:
256,192,150766,12,0,151815,0:0:0:0:
256,192,153074,5,4,0:0:0:0:
256,192,153494,1,8,0:0:0:0:
256,192,153703,1,0,0:0:0:0:
256,192,154333,1,0,0:0:0:0:
256,192,154647,1,8,0:0:0:0:
256,192,154752,1,8,0:0:0:0:
256,192,154962,1,0,0:0:0:0:
256,192,155591,1,8,0:0:0:0:
256,192,155801,1,8,0:0:0:0:
256,192,156221,1,0,0:0:0:0:
256,192,156431,1,0,0:0:0:0:
256,192,156850,1,8,0:0:0:0:
256,192,157060,1,8,0:0:0:0:
256,192,157270,1,8,0:0:0:0:
256,192,157480,1,8,0:0:0:0:
256,192,158109,1,4,0:0:0:0:
256,192,158424,1,0,0:0:0:0:
256,192,158528,1,0,0:0:0:0:
256,192,158738,1,8,0:0:0:0:
256,192,159368,1,8,0:0:0:0:
256,192,159577,1,0,0:0:0:0:
256,192,159787,1,0,0:0:0:0:
256,192,159997,1,0,0:0:0:0:
256,192,160626,1,12,0:0:0:0:
256,192,161256,1,0,0:0:0:0:
256,192,161885,1,0,0:0:0:0:
256,192,162095,1,0,0:0:0:0:
256,192,162305,1,0,0:0:0:0:
256,192,162515,1,8,0:0:0:0:
256,192,163144,1,12,0:0:0:0:
256,192,163773,1,4,0:0:0:0:
256,192,164403,1,12,0:0:0:0:
256,192,165032,1,0,0:0:0:0:
256,192,165242,1,0,0:0:0:0:
256,192,165452,1,0,0:0:0:0:
256,192,165661,1,0,0:0:0:0:
256,192,165871,1,8,0:0:0:0:
256,192,166291,1,0,0:0:0:0:
256,192,166501,1,8,0:0:0:0:
256,192,166920,1,8,0:0:0:0:
256,192,167130,1,8,0:0:0:0:
256,192,167340,1,0,0:0:0:0:
256,192,167549,1,0,0:0:0:0:
256,192,168179,1,4,0:0:0:0:
256,192,168494,1,8,0:0:0:0:
256,192,168598,1,8,0:0:0:0:
256,192,168808,1,0,0:0:0:0:
256,192,169228,1,0,0:0:0:0:
256,192,169438,1,8,0:0:0:0:
256,192,169857,1,8,0:0:0:0:
256,192,170067,1,0,0:0:0:0:
256,192,170382,1,0,0:0:0:0:
256,192,170696,1,4,0:0:0:0:
256,192,171326,1,0,0:0:0:0:
256,192,171535,1,0,0:0:0:0:
256,192,171745,1,0,0:0:0:0:
256,192,171955,1,8,0:0:0:0:
256,192,172584,1,8,0:0:0:0:
256,192,173004,1,0,0:0:0:0:
256,192,173214,1,4,0:0:0:0:
256,192,173843,1,0,0:0:0:0:
256,192,174473,1,8,0:0:0:0:
256,192,175102,1,8,0:0:0:0:
256,192,175731,1,0,0:0:0:0:
256,192,175941,1,8,0:0:0:0:
256,192,176361,1,0,0:0:0:0:
256,192,176570,1,8,0:0:0:0:
256,192,176990,1,0,0:0:0:0:
256,192,177200,1,0,0:0:0:0:
256,192,177410,1,8,0:0:0:0:
256,192,177619,1,8,0:0:0:0:
256,192,177829,1,0,0:0:0:0:
256,192,178249,1,12,0:0:0:0:
256,192,178878,1,0,0:0:0:0:
256,192,179193,1,0,0:0:0:0:
256,192,179508,1,8,0:0:0:0:
256,192,180137,1,0,0:0:0:0:
256,192,180347,1,8,0:0:0:0:
256,192,180556,1,8,0:0:0:0:
256,192,180766,1,4,0:0:0:0:
256,192,181396,1,4,0:0:0:0:
256,192,182025,1,8,0:0:0:0:
256,192,182340,1,0,0:0:0:0:
256,192,182654,1,0,0:0:0:0:
256,192,182969,1,8,0:0:0:0:
256,192,183284,1,4,0:0:0:0:
256,192,183936,1,0,0:0:0:0:
256,192,184588,1,8,0:0:0:0:
256,192,184805,1,8,0:0:0:0:
256,192,185023,1,0,0:0:0:0:
256,192,185240,1,0,0:0:0:0:
256,192,185892,1,8,0:0:0:0:
256,192,186118,1,8,0:0:0:0:
256,192,186569,1,0,0:0:0:0:
256,192,186794,1,0,0:0:0:0:
256,192,187245,1,8,0:0:0:0:
256,192,187479,1,8,0:0:0:0:
256,192,187713,1,0,0:0:0:0:
256,192,187948,1,0,0:0:0:0:
256,192,188182,1,8,0:0:0:0:
256,192,188416,1,8,0:0:0:0:
256,192,188651,1,4,0:0:0:0:
256,192,189382,1,0,0:0:0:0:
256,192,190144,1,8,0:0:0:0:
256,192,190450,1,0,0:0:0:0:
256,192,190756,1,0,0:0:0:0:
256,192,191117,1,8,0:0:0:0:
256,192,192501,1,0,0:0:0:0:
256,192,194479,5,8,0:0:0:0:
256,224,196457,5,0,0:0:0:0:
256,192,197116,1,8,0:0:0:0:
256,192,197710,1,8,0:0:0:0:
256,192,198007,1,8,0:0:0:0:
256,192,198304,1,0,0:0:0:0:
256,192,198898,1,8,0:0:0:0:
256,192,199438,1,0,0:0:0:0:
256,192,199708,1,0,0:0:0:0:
256,192,200249,1,0,0:0:0:0:
256,192,200519,1,8,0:0:0:0:
256,192,201060,1,0,0:0:0:0:
256,192,201330,1,0,0:0:0:0:
256,192,201870,1,0,0:0:0:0:
256,192,202141,1,8,0:0:0:0:
256,192,202681,1,0,0:0:0:0:
256,192,202952,1,0,0:0:0:0:
256,192,203222,1,0,0:0:0:0:
256,192,203762,1,8,0:0:0:0:
256,192,204243,1,0,0:0:0:0:
256,192,204484,1,0,0:0:0:0:
256,192,204725,1,8,0:0:0:0:
256,192,205207,1,8,0:0:0:0:
256,192,205930,1,0,0:0:0:0:
256,192,206412,1,8,0:0:0:0:
256,224,206653,1,0,0:0:0:0:
256,192,207118,1,8,0:0:0:0:
256,192,207350,1,8,0:0:0:0:
256,192,207815,1,8,0:0:0:0:
256,224,208048,1,0,0:0:0:0:
256,192,208513,1,0,0:0:0:0:
256,192,208746,1,0,0:0:0:0:
256,192,209211,1,0,0:0:0:0:
256,192,209443,1,12,0:0:0:0:
256,192,209899,1,8,0:0:0:0:
256,192,210127,1,8,0:0:0:0:
256,192,210355,1,8,0:0:0:0:
256,224,210811,1,0,0:0:0:0:
256,192,211268,1,0,0:0:0:0:
256,192,211496,1,0,0:0:0:0:
256,224,211724,1,0,0:0:0:0:
256,192,211952,1,0,0:0:0:0:
256,192,212180,1,8,0:0:0:0:
256,192,212621,1,0,0:0:0:0:
256,192,212841,1,0,0:0:0:0:
256,224,213062,1,0,0:0:0:0:
256,192,213282,1,0,0:0:0:0:
256,192,213503,1,8,0:0:0:0:
256,192,213944,1,0,0:0:0:0:
256,192,214165,1,0,0:0:0:0:
256,224,214385,1,0,0:0:0:0:
256,192,214606,1,0,0:0:0:0:
256,192,214827,1,12,0:0:0:0:
256,192,215257,1,8,0:0:0:0:
256,192,215472,1,8,0:0:0:0:
256,192,215687,1,8,0:0:0:0:
256,224,216117,1,0,0:0:0:0:
256,192,216547,1,8,0:0:0:0:
256,192,216762,1,0,0:0:0:0:
256,224,216977,1,0,0:0:0:0:
256,192,217192,1,0,0:0:0:0:
256,192,217407,1,8,0:0:0:0:
256,192,217829,1,8,0:0:0:0:
256,192,218040,1,0,0:0:0:0:
256,224,218252,1,0,0:0:0:0:
256,192,218463,1,0,0:0:0:0:
256,192,218674,1,8,0:0:0:0:
256,224,219135,1,8,0:0:0:0:
256,224,219385,1,0,0:0:0:0:
256,224,219657,1,0,0:0:0:0:
256,192,219957,1,8,0:0:0:0:
256,192,220290,1,12,0:0:0:0:
256,192,220966,1,4,0:0:0:0:
256,192,221645,1,12,0:0:0:0:
256,192,222326,1,4,0:0:0:0:
256,224,222782,1,0,0:0:0:0:
256,224,223010,1,0,0:0:0:0:
256,192,223239,1,8,0:0:0:0:
256,224,223697,1,0,0:0:0:0:
256,192,223926,1,8,0:0:0:0:
256,192,224386,1,8,0:0:0:0:
256,192,224616,1,8,0:0:0:0:
256,224,224851,1,0,0:0:0:0:
256,224,225091,1,0,0:0:0:0:
256,192,225335,1,8,0:0:0:0:
256,192,225585,1,8,0:0:0:0:
256,224,225840,1,4,0:0:0:0:
256,224,226543,1,0,0:0:0:0:
256,224,227251,1,8,0:0:0:0:
256,224,227965,1,0,0:0:0:0:
256,224,228685,1,12,0:0:0:0:
256,192,229416,1,12,0:0:0:0:
256,192,229674,1,0,0:0:0:0:
256,192,230191,1,8,0:0:0:0:
256,224,231109,1,0,0:0:0:0:
256,224,231493,1,0,0:0:0:0:
256,224,231903,1,0,0:0:0:0:
256,192,232390,1,12,0:0:0:0:
256,224,232966,1,0,0:0:0:0:
256,192,233543,1,8,0:0:0:0:
256,224,234120,1,0,0:0:0:0:
256,192,234697,2,0,L|416:192,7,120.400001837158
256,192,237005,2,0,L|320:192,14,60.2000009185791
288,192,239313,1,4,0:0:0:0:
256,192,240466,1,8,0:0:0:0:
256,192,241043,1,4,0:0:0:0:
256,192,241620,1,12,0:0:0:0:
