osu file format v14

[General]
AudioFilename: audio.mp3
AudioLeadIn: 0
PreviewTime: 196432
Countdown: 0
SampleSet: Normal
StackLeniency: 0.7
Mode: 2
LetterboxInBreaks: 0
WidescreenStoryboard: 0

[Editor]
Bookmarks: 173818,180531
DistanceSpacing: 1
BeatDivisor: 4
GridSize: 16
TimelineZoom: 3.799999

[Metadata]
Title:Fly Like You [Long Version]
TitleUnicode:Fly Like You [Long Version]
Artist:technoplanet
ArtistUnicode:technoplanet
Creator:[ TNTlealu ]
Version:Crystal's HEAVENLY
Source:SOUND VOLTEX IV HEAVENLY HAVEN
Tags:electronic -Joakh Shinsekai- sdvx 4 旋律世界 ΩDimension -Phase.5+- full ver sv instrumental konami video game rhythm [_Chichinya_] Chi Vulkin uone Rocma _Asriel Yumeno Himiko examination Minato Yukina CLSW alienflybot AFB Loneight l1106188 L18 岡聡志 安部泉希 autofanboy
BeatmapID:2813055
BeatmapSetID:1079909

[Difficulty]
HPDrainRate:6
CircleSize:4
OverallDifficulty:9.7
ApproachRate:9.7
SliderMultiplier:1.6
SliderTickRate:1

[Events]
//Background and Video events
0,0,"fcb914da2343ca7cea85c6f8803cf27e4147f5c0.png",0,0
//Break Periods
//Storyboard Layer 0 (Background)
//Storyboard Layer 1 (Fail)
//Storyboard Layer 2 (Pass)
//Storyboard Layer 3 (Foreground)
//Storyboard Layer 4 (Overlay)
//Storyboard Sound Samples

[TimingPoints]
625,209.79020979021,3,1,1,75,1,0
625,-100,3,1,1,75,0,0
3142,-100,3,1,1,75,0,0
5030,-100,3,1,1,75,0,0
5974,-100,3,1,10,30,0,0
6707,-100,3,1,1,30,0,8
6918,-83.3333333333333,3,1,10,85,0,1
9435,-83.3333333333333,3,1,13,85,0,1
9539,-83.3333333333333,3,1,10,85,0,1
9645,-83.3333333333333,3,1,13,85,0,1
9854,-83.3333333333333,3,1,10,85,0,1
10064,-83.3333333333333,3,1,13,85,0,1
10483,-83.3333333333333,3,1,10,85,0,1
11323,-83.3333333333333,3,1,11,85,0,1
11427,-83.3333333333333,3,1,10,85,0,1
11952,-83.3333333333333,3,1,11,85,0,1
12161,-83.3333333333333,3,1,10,85,0,1
12792,-83.3333333333333,3,1,11,85,0,1
12896,-83.3333333333333,3,1,10,85,0,1
13631,-83.3333333333333,3,1,11,85,0,1
13841,-83.3333333333333,3,1,10,85,0,1
14155,-83.3333333333333,3,1,11,85,0,1
14260,-83.3333333333333,3,1,10,85,0,1
15099,-83.3333333333333,3,1,12,85,0,1
15308,-83.3333333333333,3,1,10,85,0,1
15729,-83.3333333333333,3,1,11,85,0,1
16358,-83.3333333333333,3,1,12,85,0,1
16988,-83.3333333333333,3,1,20,80,0,0
17092,-83.3333333333333,3,1,19,80,0,0
17302,-83.3333333333333,3,1,20,80,0,0
19085,-83.3333333333333,3,1,21,80,0,0
19348,-83.3333333333333,3,1,20,80,0,0
19715,-83.3333333333333,3,1,22,80,0,0
20134,-83.3333333333333,3,1,23,80,0,0
20238,-83.3333333333333,3,1,20,80,0,0
20344,-83.3333333333333,3,1,23,80,0,0
21393,-83.3333333333333,3,1,24,80,0,0
22022,-83.3333333333333,3,1,20,80,0,0
22127,-83.3333333333333,3,1,19,80,0,0
22337,-83.3333333333333,3,1,20,80,0,0
24120,-83.3333333333333,3,1,21,80,0,0
24383,-83.3333333333333,3,1,20,80,0,0
24750,-83.3333333333333,3,1,22,80,0,0
25169,-83.3333333333333,3,1,23,80,0,0
26428,-83.3333333333333,3,1,24,80,0,0
26533,-83.3333333333333,3,1,23,80,0,0
26743,-83.3333333333333,3,1,24,80,0,0
26847,-83.3333333333333,3,1,23,80,0,0
27057,-166.666666666667,3,1,30,80,0,0
30938,-166.666666666667,3,1,31,80,0,0
31463,-100,3,1,30,80,0,0
32092,-100,3,1,37,80,0,0
32302,-100,3,1,32,80,0,0
34400,-100,3,1,30,80,0,0
34610,-100,3,1,32,80,0,0
35029,-100,3,1,29,80,0,0
35239,-100,3,1,32,80,0,0
35658,-100,3,1,29,80,0,0
35869,-100,3,1,33,80,0,0
35973,-100,3,1,32,80,0,0
36078,-100,3,1,33,80,0,0
36393,-100,3,1,32,80,0,0
36498,-100,3,1,33,80,0,0
37127,-100,3,1,37,80,0,0
37337,-100,3,1,32,80,0,0
37757,-100,3,1,36,80,0,0
37861,-100,3,1,32,80,0,0
39015,-100,3,1,36,80,0,0
39120,-100,3,1,32,80,0,0
39645,-100,3,1,37,80,0,0
39750,-100,3,1,32,80,0,0
40274,-100,3,1,36,80,0,0
40343,-100,3,1,32,80,0,0
41533,-100,3,1,36,80,0,0
41638,-100,3,1,32,80,0,0
42162,-100,3,1,37,80,0,0
42266,-100,3,1,32,80,0,0
42792,-100,3,1,36,80,0,0
42897,-100,3,1,32,80,0,0
43421,-100,3,1,37,80,0,0
43526,-100,3,1,32,80,0,0
43736,-100,3,1,37,80,0,0
43841,-100,3,1,32,80,0,0
44154,-100,3,1,29,80,0,0
44575,-100,3,1,32,80,0,0
44680,225.563909774436,3,1,34,80,1,0
44680,-129.198966408269,3,1,34,80,0,0
47386,209.79020979021,3,1,37,80,1,8
47386,-100,3,1,37,80,0,0
47490,-100,3,1,32,80,0,0
47595,-100,3,1,32,80,0,0
47700,-100,3,1,32,80,0,0
47910,-100,3,1,32,80,0,0
48015,-100,3,1,37,80,0,0
48119,-100,3,1,32,80,0,0
48225,-100,3,1,35,80,0,0
48330,-100,3,1,35,80,0,0
48434,-100,3,1,35,80,0,0
48644,-100,3,1,32,80,0,0
48854,-100,3,1,32,80,0,0
49064,-100,3,1,32,80,0,0
49274,-100,3,1,37,80,0,0
49378,-100,3,1,32,80,0,0
49483,-100,3,1,32,80,0,0
49588,-100,3,1,32,80,0,0
49693,-100,3,1,35,80,0,0
49798,-100,3,1,35,80,0,0
49903,-100,3,1,32,80,0,0
50008,-100,3,1,32,80,0,0
50113,-100,3,1,32,80,0,0
50323,-100,3,1,32,80,0,0
50532,-100,3,1,37,80,0,0
50637,-100,3,1,32,80,0,0
50742,-100,3,1,32,80,0,0
50952,-100,3,1,35,80,0,0
51004,-100,3,1,0,80,0,0
51057,-100,3,1,35,80,0,0
51162,-100,3,1,35,80,0,0
51267,-100,3,1,35,50,0,0
51372,-100,3,1,35,55,0,0
51476,-100,3,1,35,60,0,0
51581,-100,3,1,35,65,0,0
51686,-100,3,1,35,70,0,0
51791,-100,3,1,35,80,0,0
52630,-100,3,1,35,30,0,0
53679,-83.3333333333333,3,1,10,85,0,1
56197,-83.3333333333333,3,1,13,85,0,1
56301,-83.3333333333333,3,1,10,85,0,1
56406,-83.3333333333333,3,1,13,85,0,1
56616,-83.3333333333333,3,1,10,85,0,1
56826,-83.3333333333333,3,1,13,85,0,1
57036,-83.3333333333333,3,1,13,85,0,1
57246,-83.3333333333333,3,1,10,85,0,1
58085,-83.3333333333333,3,1,11,85,0,1
58189,-83.3333333333333,3,1,10,85,0,1
58714,-83.3333333333333,3,1,11,85,0,1
58923,-83.3333333333333,3,1,10,85,0,1
59553,-83.3333333333333,3,1,11,85,0,1
59657,-83.3333333333333,3,1,10,85,0,1
60392,-83.3333333333333,3,1,11,85,0,1
60601,-83.3333333333333,3,1,10,85,0,1
60917,-83.3333333333333,3,1,11,85,0,1
61021,-83.3333333333333,3,1,10,85,0,1
61232,-83.3333333333333,3,1,10,75,0,0
61861,-83.3333333333333,3,1,12,85,0,0
62070,-83.3333333333333,3,1,10,85,0,0
62490,-83.3333333333333,3,1,14,75,0,0
62559,-83.3333333333333,3,1,10,75,0,0
62700,-83.3333333333333,3,1,14,75,0,0
62770,-83.3333333333333,3,1,10,75,0,0
62910,-83.3333333333333,3,1,14,75,0,0
62962,-83.3333333333333,3,1,10,75,0,0
63120,-83.3333333333333,3,1,10,75,0,0
63225,-83.3333333333333,3,1,10,75,0,0
63330,-83.3333333333333,3,1,21,75,0,0
63434,-83.3333333333333,3,1,21,75,0,0
63539,-83.3333333333333,3,1,10,75,0,0
63592,-83.3333333333333,3,1,21,75,0,0
63644,-83.3333333333333,3,1,10,75,0,0
63697,-83.3333333333333,3,1,21,75,0,0
63749,-83.3333333333333,3,1,10,85,0,1
64169,-83.3333333333333,3,1,10,85,0,1
65637,-83.3333333333333,3,1,10,85,0,1
65742,-83.3333333333333,3,1,10,85,0,1
65847,-83.3333333333333,3,1,10,85,0,1
65952,-83.3333333333333,3,1,10,85,0,1
66057,-83.3333333333333,3,1,10,85,0,1
66162,-83.3333333333333,3,1,10,85,0,1
66267,-83.3333333333333,3,1,13,85,0,1
66372,-83.3333333333333,3,1,10,85,0,1
66476,-83.3333333333333,3,1,13,85,0,1
66685,-83.3333333333333,3,1,10,85,0,1
66896,-83.3333333333333,3,1,13,85,0,1
67106,-83.3333333333333,3,1,13,85,0,1
67316,-83.3333333333333,3,1,10,85,0,1
68155,-83.3333333333333,3,1,11,85,0,1
68259,-83.3333333333333,3,1,10,85,0,1
71931,-83.3333333333333,3,1,12,85,0,1
71983,-83.3333333333333,3,1,10,85,0,1
72560,-83.3333333333333,3,1,14,85,0,1
73084,-83.3333333333333,3,1,10,85,0,1
73190,-83.3333333333333,3,1,14,85,0,1
73504,-83.3333333333333,3,1,10,85,0,1
73819,-100,3,1,35,75,0,0
73923,-100,3,1,32,75,0,0
75287,-100,3,1,36,75,0,0
75392,-100,3,1,32,75,0,0
75707,-100,3,1,36,75,0,0
75811,-100,3,1,32,75,0,0
75917,-100,3,1,35,75,0,0
76127,-100,3,1,32,75,0,0
77804,-100,3,1,36,75,0,0
77910,-100,3,1,32,75,0,0
78225,-100,3,1,36,75,0,0
78329,-100,3,1,32,75,0,0
78434,-100,3,1,35,75,0,0
78644,-100,3,1,32,75,0,0
80323,-100,3,1,36,75,0,0
80532,-100,3,1,32,75,0,0
80742,-100,3,1,36,75,0,0
80952,-100,3,1,35,75,0,0
81266,-100,3,1,32,75,0,0
82420,-100,3,1,35,75,0,0
82630,-100,3,1,32,75,0,0
83364,-100,3,1,35,75,0,0
83574,-100,3,1,32,75,0,0
83889,-100,3,1,37,75,0,0
83994,-100,3,1,32,75,0,0
86092,-100,3,1,21,75,0,0
86302,-100,3,1,32,75,0,0
86406,-100,3,1,37,75,0,0
86825,-100,3,1,32,75,0,0
87036,-100,3,1,37,75,0,0
87455,-100,3,1,32,75,0,0
88924,-100,3,1,37,75,0,0
89133,-100,3,1,32,75,0,0
91441,-100,3,1,37,75,0,0
91860,-100,3,1,32,75,0,0
92071,-100,3,1,37,75,0,0
92490,-100,3,1,32,75,0,0
92700,-100,3,1,37,75,0,0
92804,-100,3,1,32,75,0,0
93330,-100,3,1,32,75,0,0
93399,-100,3,1,21,75,0,0
93487,-100,3,1,0,75,0,0
93539,-100,3,1,32,75,0,0
93608,-100,3,1,21,75,0,0
93697,-100,3,1,0,75,0,0
93749,-83.3333333333333,3,1,32,75,0,0
93802,-83.3333333333333,3,1,32,75,0,0
93854,-83.3333333333333,3,1,32,75,0,0
93906,-83.3333333333333,3,1,32,75,0,0
93959,-100,3,1,37,75,0,0
94063,-100,3,1,32,75,0,0
94169,-100,3,1,32,75,0,0
94379,-100,3,1,32,75,0,0
94588,-100,3,1,32,75,0,0
94798,-100,3,1,32,75,0,0
95008,-100,3,1,32,75,0,0
95218,-100,3,1,32,75,0,0
95427,-100,3,1,32,75,0,0
95637,-100,3,1,32,75,0,0
95847,-100,3,1,32,75,0,0
96057,-100,3,1,37,75,0,0
96162,-100,3,1,32,75,0,0
96267,-100,3,1,32,75,0,0
96372,-100,3,1,32,75,0,0
96476,-100,3,1,37,75,0,0
96685,-100,3,1,32,75,0,0
96896,-100,3,1,32,75,0,0
97001,-100,3,1,32,75,0,0
97106,-100,3,1,32,75,0,0
97211,-100,3,1,32,75,0,0
97316,-100,3,1,32,75,0,0
97420,-100,3,1,32,75,0,0
97525,-100,3,1,32,75,0,0
97630,-100,3,1,32,75,0,0
97735,-100,3,1,32,75,0,0
97945,-100,3,1,32,75,0,0
98050,-100,3,1,32,75,0,0
98155,-100,3,1,32,75,0,0
98260,-100,3,1,32,75,0,0
98365,-100,3,1,37,75,0,0
98469,-100,3,1,32,75,0,0
98574,-100,3,1,37,75,0,0
98679,-100,3,1,32,75,0,0
98994,-100,3,1,37,75,0,0
99203,-100,3,1,32,75,0,0
101511,-100,3,1,37,75,0,0
101616,-100,3,1,32,75,0,0
102770,-100,3,1,37,75,0,0
102875,-100,3,1,32,75,0,0
102980,-100,3,1,32,75,0,0
103085,-100,3,1,37,75,0,0
103190,-100,3,1,32,75,0,0
103295,-100,3,1,32,75,0,0
103399,-100,3,1,37,75,0,0
103504,-100,3,1,32,75,0,0
103609,-100,3,1,32,75,0,0
103714,-100,3,1,37,75,0,0
103819,-100,3,1,32,75,0,0
104029,217.391304347826,3,1,40,80,1,0
104029,-100,3,1,40,80,0,0
106202,-100,3,1,41,80,0,0
106854,-100,3,1,40,80,0,0
107507,-100,3,1,41,80,0,0
107724,-100,3,1,40,80,0,0
109029,-100,3,1,41,80,0,0
109246,-100,3,1,40,80,0,0
109463,-100,3,1,41,80,0,0
109681,-100,3,1,40,80,0,0
110768,-100,3,1,41,80,0,0
111420,-100,3,1,40,80,0,0
112942,-100,3,1,41,80,0,0
113159,-100,3,1,40,80,0,0
113231,-100,3,1,32,80,0,0
114029,-100,3,1,32,80,0,0
114137,-100,3,1,0,75,0,0
114246,-100,3,1,32,80,0,0
114355,-100,3,1,32,80,0,0
114463,225.563909774436,3,1,40,70,1,8
116718,-100,3,1,41,70,0,8
117394,-100,3,1,40,70,0,8
118072,-100,3,1,41,70,0,8
118297,-100,3,1,40,70,0,8
119650,-100,3,1,41,70,0,8
119876,-100,3,1,40,70,0,8
120101,-100,3,1,41,70,0,8
120327,-100,3,1,40,70,0,8
121455,-100,3,1,41,70,0,8
122357,-100,3,1,42,70,0,8
123259,-100,3,1,40,70,0,8
123484,-100,3,1,41,70,0,8
123936,209.79020979021,3,1,41,70,1,8
123936,-100,3,1,41,70,0,0
124040,-100,3,1,40,30,0,0
124250,-100,3,1,40,70,0,0
124775,-100,3,1,33,75,0,0
124984,-100,3,1,33,75,0,0
125194,209.79020979021,3,1,37,80,1,0
125194,-100,3,1,37,80,0,0
125403,-100,3,1,32,80,0,0
125824,-100,3,1,36,80,0,0
125928,-100,3,1,32,80,0,0
127082,-100,3,1,36,80,0,0
127186,-100,3,1,32,80,0,0
127712,-100,3,1,37,80,0,0
127817,-100,3,1,32,80,0,0
128341,-100,3,1,36,80,0,0
128410,-100,3,1,32,80,0,0
129600,-100,3,1,36,80,0,0
129704,-100,3,1,32,80,0,0
130229,-100,3,1,37,80,0,0
130334,-100,3,1,32,80,0,0
130859,-100,3,1,36,80,0,0
130963,-100,3,1,32,80,0,0
132117,-100,3,1,36,80,0,0
132221,-100,3,1,32,80,0,0
132747,-100,3,1,37,80,0,0
132956,-100,3,1,32,80,0,0
133376,-100,3,1,37,80,0,0
133481,-100,3,1,32,80,0,0
135264,-166.666666666667,3,1,38,75,0,0
135684,-166.666666666667,3,1,36,75,0,0
135788,-166.666666666667,3,1,38,75,0,0
136942,-166.666666666667,3,1,36,75,0,0
137046,-166.666666666667,3,1,38,75,0,0
138201,-166.666666666667,3,1,36,75,0,0
138411,-166.666666666667,3,1,38,75,0,0
139459,-166.666666666667,3,1,36,75,0,0
139670,-166.666666666667,3,1,38,75,0,0
140929,-166.666666666667,3,1,36,75,0,0
141138,-166.666666666667,3,1,38,75,0,0
141558,-166.666666666667,3,1,36,75,0,0
141663,-166.666666666667,3,1,38,75,0,0
142187,-166.666666666667,3,1,32,75,0,0
142292,-166.666666666667,3,1,29,80,0,0
142816,225.563909774436,3,1,34,75,1,0
142816,-120.481927710843,3,1,34,75,0,0
145522,209.79020979021,3,1,37,75,1,0
145522,-100,3,1,37,75,0,0
145626,-100,3,1,32,80,0,0
146151,-100,3,1,37,80,0,0
146255,-100,3,1,32,80,0,0
146361,-100,3,1,35,80,0,0
146780,-100,3,1,32,80,0,0
147410,-100,3,1,37,80,0,0
147549,-100,3,1,32,80,0,0
147829,-100,3,1,35,80,0,0
148039,-100,3,1,32,80,0,0
148668,-100,3,1,37,80,0,0
148773,-100,3,1,32,80,0,0
149087,-100,3,1,35,80,0,0
151815,-100,3,1,38,80,0,0
153074,-83.3333333333333,3,1,10,85,0,1
155591,-83.3333333333333,3,1,13,85,0,1
155695,-83.3333333333333,3,1,10,85,0,1
155801,-83.3333333333333,3,1,13,85,0,1
156010,-83.3333333333333,3,1,10,85,0,1
156221,-83.3333333333333,3,1,13,85,0,1
156431,-83.3333333333333,3,1,13,85,0,1
156640,-83.3333333333333,3,1,10,85,0,1
157480,-83.3333333333333,3,1,11,85,0,1
157584,-83.3333333333333,3,1,10,85,0,1
158109,-83.3333333333333,3,1,11,85,0,1
158318,-83.3333333333333,3,1,10,85,0,1
158948,-83.3333333333333,3,1,11,85,0,1
159052,-83.3333333333333,3,1,10,85,0,1
159787,-83.3333333333333,3,1,11,85,0,1
159997,-83.3333333333333,3,1,10,85,0,1
160312,-83.3333333333333,3,1,11,85,0,1
160417,-83.3333333333333,3,1,10,85,0,1
160626,-100,3,1,10,75,0,0
161256,-100,3,1,12,85,0,0
161466,-100,3,1,10,85,0,0
161885,-83.3333333333333,3,1,14,75,0,0
161954,-83.3333333333333,3,1,10,75,0,0
162095,-83.3333333333333,3,1,10,75,0,0
162305,-83.3333333333333,3,1,14,75,0,0
162357,-83.3333333333333,3,1,10,75,0,0
162515,-83.3333333333333,3,1,10,75,0,0
162619,-83.3333333333333,3,1,10,75,0,0
162724,-83.3333333333333,3,1,21,75,0,0
162829,-83.3333333333333,3,1,21,75,0,0
162934,-83.3333333333333,3,1,10,75,0,0
162987,-83.3333333333333,3,1,21,75,0,0
163039,-83.3333333333333,3,1,10,75,0,0
163091,-83.3333333333333,3,1,21,75,0,0
163144,-100,3,1,10,85,0,1
163563,-100,3,1,10,85,0,1
165032,-83.3333333333333,3,1,10,85,0,1
165137,-83.3333333333333,3,1,10,85,0,1
165242,-83.3333333333333,3,1,10,85,0,1
165347,-83.3333333333333,3,1,10,85,0,1
165452,-83.3333333333333,3,1,10,85,0,1
165556,-83.3333333333333,3,1,10,85,0,1
165661,-83.3333333333333,3,1,13,85,0,1
165765,-83.3333333333333,3,1,10,85,0,1
165871,-83.3333333333333,3,1,13,85,0,1
166080,-83.3333333333333,3,1,10,85,0,1
166291,-83.3333333333333,3,1,13,85,0,1
166501,-83.3333333333333,3,1,13,85,0,1
166710,-83.3333333333333,3,1,10,85,0,1
167549,-83.3333333333333,3,1,11,85,0,1
167653,-83.3333333333333,3,1,10,85,0,1
171325,-83.3333333333333,3,1,12,85,0,1
171378,-83.3333333333333,3,1,10,85,0,1
172584,-83.3333333333333,3,1,12,85,0,1
173214,-83.3333333333333,3,1,15,80,0,0
175731,-83.3333333333333,3,1,13,85,0,1
175835,-83.3333333333333,3,1,10,85,0,1
175941,-83.3333333333333,3,1,13,85,0,1
176150,-83.3333333333333,3,1,10,85,0,1
176361,-83.3333333333333,3,1,13,85,0,1
176780,-83.3333333333333,3,1,10,85,0,1
177619,-83.3333333333333,3,1,11,85,0,1
177723,-83.3333333333333,3,1,10,85,0,1
178249,-83.3333333333333,3,1,18,80,0,0
178354,-83.3333333333333,3,1,10,80,0,0
178878,-83.3333333333333,3,1,18,80,0,0
178948,-83.3333333333333,3,1,10,80,0,0
179508,-83.3333333333333,3,1,18,80,0,0
179612,-83.3333333333333,3,1,10,80,0,0
180137,-83.3333333333333,3,1,18,80,0,0
180241,-83.3333333333333,3,1,10,80,0,0
183126,-83.3333333333333,3,1,0,80,0,0
183179,-83.3333333333333,3,1,10,80,0,0
183229,-83.3333333333333,3,1,0,80,0,0
183284,217.391304347826,3,1,15,80,1,0
183284,-83.3333333333333,3,1,15,80,0,0
183936,-83.3333333333333,3,1,15,80,0,0
185348,-83.3333333333333,3,1,10,80,0,0
185675,-83.3333333333333,3,1,10,80,0,0
185784,-83.3333333333333,3,1,10,80,0,0
185838,-83.3333333333333,3,1,0,80,0,0
185892,225.563909774436,3,1,10,80,1,8
185892,-83.3333333333333,3,1,10,80,0,8
187019,-83.3333333333333,3,1,10,80,0,0
187170,-83.3333333333333,3,1,0,80,0,0
187245,234.375,3,1,10,80,1,8
187948,-100,3,1,11,80,0,8
188065,-100,3,1,10,80,0,8
188534,-100,3,1,10,80,0,0
188590,-100,3,1,0,80,0,0
188651,243.90243902439,3,1,11,80,1,8
188894,-100,3,1,16,80,0,8
189016,-100,3,1,16,80,0,0
189138,-100,3,1,16,80,0,0
189260,-100,3,1,16,80,0,0
189382,254.237288135593,3,1,16,80,1,0
189445,-100,3,1,16,80,0,0
189509,-100,3,1,16,80,0,0
189572,-100,3,1,16,80,0,0
189636,-100,3,1,16,80,0,0
189699,-100,3,1,16,80,0,0
189763,-100,3,1,16,80,0,0
189826,-100,3,1,16,80,0,0
189890,-100,3,1,16,80,0,0
189954,-100,3,1,16,80,0,0
190017,-100,3,1,16,80,0,0
190081,-100,3,1,16,80,0,0
190144,306.122448979592,3,1,16,80,1,8
190144,-100,3,1,16,80,0,0
190450,-100,3,1,16,80,0,0
190756,361.44578313253,3,1,16,80,1,8
190756,-100,3,1,16,80,0,0
191117,461.538461538462,3,1,16,80,1,8
191117,-50,3,1,16,80,0,8
191193,-50,3,1,16,80,0,0
191270,-50,3,1,16,80,0,0
191578,-50,3,1,16,80,0,0
191732,-50,3,1,16,80,0,0
191809,-50,3,1,16,80,0,0
191886,-50,3,1,16,80,0,0
191963,-50,3,1,16,80,0,0
192040,-50,3,1,16,80,0,0
192117,-50,3,1,16,80,0,0
192193,-50,3,1,16,80,0,0
192299,-50,3,1,16,80,0,0
192386,-50,3,1,16,80,0,0
192501,659.340659340659,3,1,16,80,1,8
192501,-50,3,1,16,80,0,0
194479,-50,3,1,38,80,0,0
196457,659.340659340659,3,1,16,50,1,0
196457,-50,3,1,16,50,0,0
196786,-50,3,1,16,50,0,0
197116,594.059405940594,3,1,17,50,1,8
197116,-50,3,1,17,50,0,8
197413,-50,3,1,17,50,0,0
197710,-50,3,1,17,50,0,0
197858,-50,3,1,17,50,0,0
198007,-50,3,1,17,50,0,0
198304,-50,3,1,17,50,0,0
198601,-50,3,1,17,50,0,0
198898,540.540540540541,3,1,17,50,1,8
198898,-50,3,1,17,50,0,0
202952,-50,3,1,17,50,0,0
203222,-50,3,1,17,50,0,0
203492,-50,3,1,17,50,0,0
203762,481.927710843374,3,1,17,60,1,8
203762,-50,3,1,17,60,0,8
205930,-50,3,1,17,60,0,0
206171,-50,3,1,17,60,0,0
206412,-50,3,1,17,60,0,0
206653,465.116279069767,3,1,17,60,1,8
206653,-50,3,1,17,60,0,8
209211,-50,3,1,17,60,0,0
209443,456.273764258555,3,1,1,60,1,8
209443,-50,3,1,1,60,0,8
209899,-50,3,1,17,60,0,8
210127,-50,3,1,32,60,0,8
210811,-50,3,1,1,60,0,8
211267,-50,3,1,17,60,0,8
211496,-50,3,1,32,60,0,8
211724,-50,3,1,32,60,0,0
211952,-50,3,1,32,60,0,0
212180,441.176470588235,3,1,1,70,1,8
212180,-50,3,1,1,70,0,8
212620,-50,3,1,17,70,0,8
212841,-50,3,1,32,70,0,8
213062,-50,3,1,17,70,0,8
213282,-50,3,1,32,70,0,8
213503,-50,3,1,1,70,0,8
213944,-50,3,1,17,70,0,8
214165,-50,3,1,32,70,0,8
214385,-50,3,1,17,70,0,0
214606,-50,3,1,10,70,0,0
214827,430.10752688172,3,1,1,75,1,8
214827,-50,3,1,1,75,0,8
215257,-50,3,1,10,75,0,8
215687,-50,3,1,1,75,0,8
215902,-50,3,1,10,75,0,8
216117,-50,3,1,1,75,0,8
216547,-50,3,1,10,75,0,8
216977,-50,3,1,1,75,0,8
217192,-50,3,1,10,75,0,0
217407,422.535211267606,3,1,1,75,1,8
217407,-50,3,1,1,75,0,8
217829,-50,3,1,10,75,0,8
218040,-50,3,1,10,75,0,0
218252,-50,3,1,1,75,0,0
218463,-50,3,1,10,75,0,0
218674,461.538461538462,3,1,1,80,1,8
218674,-50,3,1,1,80,0,8
219135,500,3,1,1,82,1,0
219385,545.454545454546,3,1,1,84,1,8
219657,600,3,1,1,86,1,8
219957,666.666666666667,3,1,1,88,1,8
220290,225.563909774436,3,1,10,90,1,1
220290,-83.3333333333333,3,1,10,90,0,1
220966,226.415094339623,3,1,10,90,1,9
221645,227.272727272727,3,1,10,90,1,1
221645,-83.3333333333333,3,1,10,90,0,1
222326,228.136882129278,3,1,10,90,1,1
223010,229.007633587786,3,1,10,90,1,1
223697,229.885057471264,3,1,10,90,1,1
224386,230.769230769231,3,1,10,90,1,1
224386,-83.3333333333333,3,1,10,90,0,1
224616,235.294117647059,3,1,10,90,1,9
224616,-83.3333333333333,3,1,10,90,0,1
224851,240,3,1,10,90,1,9
224851,-83.3333333333333,3,1,10,90,0,1
225091,244.897959183673,3,1,11,90,1,9
225091,-83.3333333333333,3,1,11,90,0,1
225213,-83.3333333333333,3,1,10,90,0,1
225335,250,3,1,10,90,1,9
225335,-83.3333333333333,3,1,10,90,0,1
225585,255.31914893617,3,1,10,90,1,9
225585,-83.3333333333333,3,1,10,90,0,1
225840,234.375,3,1,10,90,1,1
225840,-83.3333333333333,3,1,10,90,0,1
226543,236.220472440945,3,1,10,90,1,1
226543,-83.3333333333333,3,1,10,90,0,1
227133,-100,3,1,10,90,0,1
227251,238.095238095238,3,1,10,90,1,1
227727,-100,3,1,10,90,0,1
227965,240,3,1,10,90,1,1
228205,-100,3,1,10,90,0,1
228445,-100,3,1,11,90,0,1
228685,243.90243902439,3,1,10,90,1,1
229172,-100,3,1,40,90,0,1
229294,-100,3,1,40,90,0,1
229416,258.620689655172,3,1,12,90,1,1
229674,-100,3,1,10,90,0,1
229933,-100,3,1,40,90,0,1
230191,306.122448979592,3,1,10,90,1,1
230267,-100,3,1,10,90,0,1
230344,-100,3,1,10,90,0,1
230420,-100,3,1,10,90,0,1
230497,-100,3,1,10,90,0,1
230573,-100,3,1,10,90,0,1
230650,-100,3,1,10,90,0,1
230726,-100,3,1,10,90,0,1
230803,-100,3,1,10,90,0,1
230879,-100,3,1,10,90,0,1
230956,-100,3,1,10,90,0,1
231032,-100,3,1,10,90,0,1
231109,384.615384615385,3,1,10,90,1,1
231109,-104.166666666667,3,1,10,90,0,1
231493,410.958904109589,3,1,10,90,1,9
231493,-105.263157894737,3,1,10,90,0,1
231903,487.80487804878,3,1,1,90,1,9
231903,-95.2380952380952,3,1,1,90,0,1
232390,288.461538461538,4,1,10,80,1,0
232390,-83.3333333333333,4,1,10,80,0,0
232486,-83.3333333333333,4,1,40,80,0,0
232774,-83.3333333333333,4,1,10,80,0,0
233063,-83.3333333333333,4,1,40,80,0,0
233351,-83.3333333333333,4,1,10,80,0,0
233639,-83.3333333333333,4,1,40,80,0,0
233927,-83.3333333333333,4,1,10,80,0,0
234216,-83.3333333333333,4,1,40,80,0,0
234505,-83.3333333333333,4,1,10,80,0,0
234697,-83.3333333333333,4,1,1,80,0,0
237005,-83.3333333333333,4,1,10,80,0,0
237236,-83.3333333333333,4,1,40,80,0,0
237293,-83.3333333333333,4,1,10,80,0,0
237524,-83.3333333333333,4,1,40,80,0,0
237582,-83.3333333333333,4,1,10,80,0,0
237813,-83.3333333333333,4,1,40,80,0,0
237870,-83.3333333333333,4,1,10,80,0,0
238101,-83.3333333333333,4,1,40,80,0,0
238159,-83.3333333333333,4,1,10,80,0,0
238390,-83.3333333333333,4,1,40,80,0,0
238447,-83.3333333333333,4,1,10,80,0,0
238678,-83.3333333333333,4,1,40,80,0,0
238736,-83.3333333333333,4,1,10,80,0,0
238966,-83.3333333333333,4,1,40,80,0,0
239024,-83.3333333333333,4,1,10,80,0,0
239255,-83.3333333333333,4,1,40,80,0,0
239313,-83.3333333333333,4,1,1,80,0,0
239601,-83.3333333333333,4,1,10,80,0,0
239673,-83.3333333333333,4,1,10,80,0,0
239745,-83.3333333333333,4,1,10,80,0,0
239817,-83.3333333333333,4,1,10,80,0,0
239890,-83.3333333333333,4,1,10,80,0,0
239962,-83.3333333333333,4,1,10,80,0,0
240034,-83.3333333333333,4,1,10,80,0,0
240106,-83.3333333333333,4,1,10,80,0,0
240178,-83.3333333333333,4,1,10,80,0,0
240250,-83.3333333333333,4,1,10,80,0,0
240322,-83.3333333333333,4,1,10,80,0,0
240394,-83.3333333333333,4,1,10,80,0,0
240466,-83.3333333333333,4,1,10,80,0,0
240755,-83.3333333333333,4,1,1,80,0,0
240827,-83.3333333333333,4,1,1,80,0,0
240899,-83.3333333333333,4,1,1,80,0,0
240971,-83.3333333333333,4,1,1,80,0,0
241043,-83.3333333333333,4,1,1,80,0,0
241332,-83.3333333333333,4,1,1,80,0,0
241404,-83.3333333333333,4,1,1,80,0,0
241476,-83.3333333333333,4,1,1,80,0,0
241548,-83.3333333333333,4,1,1,80,0,0
241620,-83.3333333333333,4,1,1,80,0,0

[Colours]
Combo1 : 0,255,128
Combo2 : 128,255,255

[HitObjects]
496,96,625,6,0,L|320:96,2,160,12|0|0,0:0|2:1|3:1,2:2:0:0:
416,128,1149,1,0,3:0:0:0:
336,128,1254,2,0,L|160:128,1,160,0|0,3:0|2:1,2:2:0:0:
368,192,1673,1,0,3:0:0:0:
96,32,1883,6,0,P|48:160|112:352,1,320,8|8,2:1|2:1,2:2:0:0:
256,256,2513,1,8,0:3:0:0:
96,256,2722,1,0,3:1:0:0:
416,176,2932,1,0,3:1:0:0:
16,80,3142,6,0,L|176:80,2,160,14|0|0,0:0|2:1|3:1,2:2:0:0:
96,128,3666,1,0,3:0:0:0:
176,112,3771,2,0,L|336:112,2,160,2|0|0,3:1|3:0|3:0,2:2:0:0:
496,80,4401,5,14,0:0:0:0:
336,80,4611,2,0,L|336:240,1,160,0|8,3:0|3:1,2:2:0:0:
16,192,5030,5,14,0:0:0:0:
32,224,5082,1,0,0:0:0:0:
64,256,5134,1,0,0:0:0:0:
112,272,5187,1,0,0:0:0:0:
256,272,5240,1,0,0:0:0:0:
240,304,5292,1,0,0:0:0:0:
208,336,5344,1,0,0:0:0:0:
160,352,5397,1,0,0:0:0:0:
16,144,5450,2,0,L|80:144,1,40,0|0,3:0|3:0,3:3:0:0:
208,192,5555,2,0,L|256:192,1,40
256,192,6078,12,0,6707,0:0:0:0:
400,80,6918,6,0,L|112:80,1,287.999991210938,6|2,0:0|0:0,2:2:0:0:
304,128,7338,2,0,L|432:128,1,95.9999970703126,10|0,0:3|2:0,2:2:0:0:
208,176,7548,1,2,0:0:0:0:
400,240,7758,2,0,L|272:240,2,95.9999970703126,10|0|8,0:3|3:0|3:0,2:2:0:0:
112,144,8177,6,0,L|400:144,1,287.999991210938,6|2,0:0|0:0,2:2:0:0:
208,96,8597,2,0,L|96:96,1,95.9999970703126,10|0,0:3|3:1,2:2:0:0:
288,96,8807,2,0,L|304:192,1,95.9999970703126,2|2,0:0|0:0,2:2:0:0:
112,192,9016,2,0,L|224:192,1,95.9999970703126,10|2,0:3|3:1,2:2:0:0:
384,192,9226,2,0,L|368:288,1,95.9999970703126,8|2,3:0|3:1,2:2:0:0:
160,256,9436,6,0,L|272:256,1,95.9999970703126,6|0,0:0|3:0,2:2:0:0:
80,208,9646,2,0,P|16:240|80:336,1,191.999994140625,6|8,0:0|3:2,2:2:0:0:
144,336,9960,1,0,3:0:0:0:
352,256,10065,2,0,L|256:256,1,95.9999970703126,6|2,0:0|2:1,2:2:0:0:
432,208,10275,2,0,P|496:240|432:336,1,191.999994140625,6|8,0:0|3:2,2:2:0:0:
417,360,10537,1,0,3:0:0:0:
369,371,10590,1,0,3:0:0:0:
321,372,10642,1,0,3:0:0:0:
112,176,10695,6,0,L|235:178,1,95.9999970703126,2|0,0:2|3:1,2:2:0:0:
16,112,10905,2,0,L|144:112,3,95.9999970703126,8|0|8|0,0:3|3:1|0:3|3:1,2:2:0:0:
304,48,11324,2,0,L|192:48,1,95.9999970703126,2|8,0:2|3:3,2:2:0:0:
400,112,11534,2,0,L|304:112,3,95.9999970703126,2|8|8|8,0:0|3:0|0:3|3:0,2:2:0:0:
112,176,11953,6,0,L|304:176,1,191.999994140625,6|0,0:0|2:1,2:2:0:0:
208,128,12268,1,2,0:1:0:0:
400,176,12373,2,0,L|512:176,1,95.9999970703126,8|0,0:3|2:1,2:2:0:0:
304,224,12583,2,0,L|288:320,1,95.9999970703126,2|0,0:0|3:1,2:2:0:0:
400,320,12793,2,0,L|416:224,1,95.9999970703126,10|0,0:3|3:1,2:2:0:0:
304,160,13002,1,8,0:3:0:0:
480,160,13107,1,0,3:1:0:0:
208,96,13212,6,0,L|80:96,1,95.9999970703126,2|0,0:1|2:1,2:2:0:0:
304,48,13422,2,0,L|176:48,1,95.9999970703126,2|2,0:1|0:0,2:2:0:0:
320,96,13632,2,0,L|336:192,1,95.9999970703126,10|0,0:3|2:1,2:2:0:0:
96,192,13842,1,2,0:2:0:0:
208,208,13946,1,2,0:0:0:0:
320,192,14051,1,8,0:3:0:0:
384,112,14156,1,2,3:2:0:0:
208,112,14261,1,8,0:3:0:0:
32,112,14366,1,2,3:1:0:0:
256,32,14471,6,0,L|48:32,1,191.999994140625,6|8,0:1|0:3,2:2:0:0:
256,80,14891,2,0,L|144:80,1,95.9999970703126,10|0,0:3|3:2,2:2:0:0:
352,32,15100,2,0,L|144:32,1,191.999994140625,6|8,0:0|0:3,2:2:0:0:
448,32,15520,1,2,0:0:0:0:
16,128,15730,6,0,L|224:128,2,191.999994140625,14|2|14,2:3|0:0|2:3,2:2:0:0:
384,208,16359,6,0,L|384:160,1,47.9999985351563,4|0,0:1|2:0,2:2:0:0:
352,112,16464,2,0,L|288:112,1,47.9999985351563,4|0,0:1|2:0,2:2:0:0:
145,107,16569,2,0,L|161:59,1,47.9999985351563,4|0,2:1|2:0,2:2:0:0:
193,43,16674,2,0,L|273:43,1,47.9999985351563,4|0,0:1|2:0,2:2:0:0:
411,39,16779,2,0,L|459:39,1,47.9999985351563,4|0,0:1|2:0,2:2:0:0:
304,32,16884,2,0,L|256:32,1,47.9999985351563,4|0,0:1|2:0,2:2:0:0:
96,64,16988,5,14,0:0:0:0:
177,42,17093,2,0,L|186:70,1,23.9999992675781,8|0,2:1|2:1,2:2:0:0:
103,41,17198,2,0,L|94:69,1,23.9999992675781,8|0,2:1|2:1,2:2:0:0:
289,70,17303,2,0,P|348:121|284:194,1,191.999994140625,8|0,0:3|2:1,2:2:0:0:
96,192,17618,6,0,L|80:288,1,95.9999970703126,2|0,0:1|2:1,2:2:0:0:
416,192,17827,2,0,L|432:288,1,95.9999970703126,8|0,0:3|2:1,2:2:0:0:
160,192,18037,2,0,L|144:288,1,95.9999970703126,8|0,0:3|3:0,2:2:0:0:
352,96,18247,6,0,L|160:96,1,191.999994140625,14|4,2:2|2:3,2:2:0:0:
135,95,18483,1,0,3:0:0:0:
352,96,18562,2,0,L|388:96,1,23.9999992675781,12|0,0:3|2:1,2:2:0:0:
303,96,18667,2,0,L|267:96,1,23.9999992675781,4|0,3:0|2:1,2:2:0:0:
352,96,18772,2,0,L|388:96,1,23.9999992675781,4|0,3:0|2:1,2:2:0:0:
96,112,18877,5,2,0:0:0:0:
384,112,19086,1,10,0:0:0:0:
192,112,19296,1,12,0:0:0:0:
200,158,19349,1,0,3:1:0:0:
234,191,19401,1,0,3:1:0:0:
280,198,19453,1,0,3:1:0:0:
480,192,19506,5,6,0:0:0:0:
288,96,19716,2,0,L|272:160,2,63.9999980468751,8|4|2,0:0|0:0|0:0,2:2:0:0:
368,96,19925,2,0,L|448:96,2,63.9999980468751,2|8|4,0:0|0:2|0:2,2:2:0:0:
208,48,20135,6,0,L|96:48,1,95.9999970703126,6|2,0:2|3:1,2:2:0:0:
208,96,20345,2,0,L|304:96,1,95.9999970703126,6|0,0:3|2:1,2:2:0:0:
208,144,20555,2,0,L|112:144,1,95.9999970703126,6|0,0:0|2:1,2:2:0:0:
400,208,20765,5,12,0:0:0:0:
112,208,20974,1,12,0:3:0:0:
400,144,21184,1,12,0:2:0:0:
16,80,21394,6,0,L|112:80,1,95.9999970703126,10|10,0:0|0:0,2:2:0:0:
304,32,21604,2,0,L|96:32,1,191.999994140625,8|10,3:2|0:3,2:2:0:0:
416,64,22023,5,14,0:0:0:0:
335,42,22128,2,0,L|326:70,1,23.9999992675781,8|0,2:1|2:1,2:2:0:0:
409,41,22233,2,0,L|418:69,1,23.9999992675781,8|0,2:1|2:1,2:2:0:0:
223,70,22338,2,0,P|164:121|228:194,1,191.999994140625,8|0,0:3|2:1,2:2:0:0:
416,192,22653,6,0,L|432:288,1,95.9999970703126,2|0,0:1|2:1,2:2:0:0:
96,192,22863,2,0,L|80:288,1,95.9999970703126,8|0,0:3|2:1,2:2:0:0:
352,192,23072,2,0,L|368:288,1,95.9999970703126,8|0,0:3|3:0,2:2:0:0:
160,288,23282,6,0,L|192:288,1,23.9999992675781,14|0,2:2|0:0,2:2:0:0:
256,288,23387,2,0,L|288:288,1,23.9999992675781,4|0,2:3|2:0,0:0:0:0:
352,288,23492,2,0,L|384:288,1,23.9999992675781,4|0,2:3|3:0,0:0:0:0:
160,96,23597,2,0,L|124:96,1,23.9999992675781,12|0,0:3|2:1,2:2:0:0:
209,96,23702,2,0,L|245:96,1,23.9999992675781,4|0,3:0|2:1,2:2:0:0:
160,96,23807,2,0,L|124:96,1,23.9999992675781,4|0,3:0|2:1,2:2:0:0:
416,112,23912,5,2,0:0:0:0:
128,112,24121,1,10,0:0:0:0:
320,112,24331,1,12,0:0:0:0:
312,158,24384,1,0,3:0:0:0:
278,191,24436,1,0,3:2:0:0:
232,198,24488,1,0,3:1:0:0:
32,192,24541,5,6,0:0:0:0:
224,96,24751,2,0,L|240:160,2,63.9999980468751,8|4|2,0:0|0:0|0:0,2:2:0:0:
144,96,24960,2,0,L|64:96,2,63.9999980468751,2|8|4,0:0|0:2|0:2,2:2:0:0:
304,48,25170,6,0,L|416:48,1,95.9999970703126,6|2,0:2|3:1,2:2:0:0:
304,96,25380,2,0,L|208:96,1,95.9999970703126,6|0,0:3|2:1,2:2:0:0:
304,144,25590,2,0,L|400:144,1,95.9999970703126,6|0,0:0|2:1,2:2:0:0:
112,208,25800,5,12,0:0:0:0:
400,208,26009,1,12,0:3:0:0:
112,144,26219,1,12,0:2:0:0:
400,32,26428,5,6,0:2:0:0:
304,32,26533,2,0,L|288:128,1,95.9999970703126,2|8,0:1|0:3,2:2:0:0:
496,128,26743,2,0,L|384:128,2,95.9999970703126,6|2|8,0:1|0:0|0:3,2:2:0:0:
256,192,27058,6,0,L|448:192,1,191.999994140625,6|2,2:1|3:0,2:2:0:0:
256,128,27687,2,0,L|48:128,1,191.999994140625,8|2,2:1|3:0,2:2:0:0:
256,176,28317,6,0,P|304:160|234:73,1,191.999994140625,2|2,2:1|3:1,2:2:0:0:
192,64,28842,1,2,3:0:0:0:
96,96,28946,2,0,L|304:96,1,191.999994140625,8|8,2:1|3:0,2:2:0:0:
96,160,29576,5,4,2:1:0:0:
416,160,30835,6,0,L|432:208,1,47.9999985351563,2|2,2:1|2:0,2:2:0:0:
336,208,31044,2,0,L|320:256,1,47.9999985351563,8|8,2:3|2:3,2:2:0:0:
416,160,31254,2,0,L|432:208,1,47.9999985351563,10|8,2:1|2:1,2:2:0:0:
256,208,31464,6,0,L|192:208,1,53.3333333333333,8|2,3:1|2:0,2:2:0:0:
176,144,31604,1,2,2:0:0:0:
352,144,31674,2,0,L|416:144,1,53.3333333333333,0|2,3:0|2:0,2:2:0:0:
432,80,31814,1,8,2:3:0:0:
272,32,31884,1,8,2:0:0:0:
329,32,31953,1,2,2:0:0:0:
384,32,32023,1,2,2:0:0:0:
114,30,32093,6,0,P|58:43|131:223,1,320,6|0,0:1|3:1,2:2:0:0:
9,128,32619,1,0,3:1:0:0:
208,128,32723,2,0,L|320:128,1,80,12|0,0:3|2:1,2:2:0:0:
176,128,32932,2,0,L|176:208,1,80,0|0,3:1|2:1,2:2:0:0:
288,208,33142,2,0,L|208:208,1,80,0|0,3:1|3:1,2:2:0:0:
400,208,33352,6,0,P|465:188|400:128,1,160,2|4,0:1|2:3,2:2:0:0:
256,80,33666,1,2,0:1:0:0:
368,80,33771,2,0,L|368:160,1,80,0|0,3:1|2:1,2:2:0:0:
176,192,33981,2,0,L|352:192,1,160,12|0,0:3|3:1,2:2:0:0:
256,144,34296,1,0,3:1:0:0:
336,112,34401,1,8,2:3:0:0:
32,64,34610,6,0,L|32:224,1,160,2|4,0:1|3:2,2:2:0:0:
112,224,34924,1,0,3:1:0:0:
304,192,35030,2,0,L|368:192,1,40,2|8,3:2|2:1,2:2:0:0:
208,192,35135,2,0,L|160:192,1,40,2|8,3:2|2:1,2:2:0:0:
352,128,35240,6,0,L|432:128,3,80,2|0|4|0,0:1|2:1|3:2|3:1,2:2:0:0:
208,192,35659,2,0,L|144:192,1,40,2|8,3:2|2:1,2:2:0:0:
304,192,35764,2,0,L|352:192,1,40,2|8,3:2|2:1,2:2:0:0:
112,128,35869,6,0,L|16:128,1,80,6|0,0:1|3:1,2:2:0:0:
224,80,36079,2,0,L|48:80,1,160,10|8,0:1|2:1,2:2:0:0:
144,128,36393,1,0,2:1:0:0:
336,128,36498,1,10,0:3:0:0:
176,128,36708,1,10,2:2:0:0:
336,176,36918,1,14,3:2:0:0:
32,176,37127,5,6,0:1:0:0:
224,176,37337,1,0,3:1:0:0:
176,176,37407,1,0,3:1:0:0:
128,176,37477,1,0,2:1:0:0:
288,176,37547,2,0,L|400:176,1,80,8|0,0:3|3:1,2:2:0:0:
176,80,37757,2,0,L|64:80,1,80,2|0,0:3|2:1,2:2:0:0:
272,80,37967,2,0,L|272:176,1,80,8|0,0:3|2:1,2:2:0:0:
96,160,38177,2,0,L|176:160,1,80,8|0,0:3|3:1,2:2:0:0:
368,224,38387,6,0,L|208:224,1,160,2|0,0:1|3:1,2:2:0:0:
288,192,38701,1,2,0:1:0:0:
96,112,38806,2,0,L|256:112,1,160,8|2,0:3|0:3,2:2:0:0:
80,48,39120,1,2,2:1:0:0:
272,48,39225,1,8,0:3:0:0:
96,112,39331,2,0,L|176:112,2,80,2|8|2,2:1|0:3|2:1,2:2:0:0:
288,176,39645,6,0,L|128:176,1,160,6|0,0:1|3:1,2:2:0:0:
304,128,39959,1,2,0:1:0:0:
112,128,40065,2,0,L|16:128,1,80,8|0,0:3|3:1,2:2:0:0:
224,160,40275,6,0,L|240:224,2,53.3333333333333,2|0|0,0:3|3:1|3:1,2:2:0:0:
80,192,40485,2,0,L|16:192,2,53.3333333333333,8|0|0,0:3|3:1|3:1,2:2:0:0:
176,160,40694,1,8,0:3:0:0:
128,160,40764,1,0,3:1:0:0:
80,160,40834,1,0,3:1:0:0:
256,80,40904,6,0,P|311:103|250:145,1,160,2|4,0:1|2:3,2:2:0:0:
144,144,41218,1,2,0:1:0:0:
336,80,41324,2,0,L|432:80,1,80,12|4,0:3|3:0,2:2:0:0:
224,112,41533,1,2,0:3:0:0:
416,112,41638,1,2,2:1:0:0:
224,176,41743,2,0,L|144:176,1,80,8|10,0:3|2:1,2:2:0:0:
336,176,41953,2,0,L|448:176,1,80,12|10,0:3|2:1,2:2:0:0:
176,224,42163,6,0,L|176:320,1,80,6|8,0:1|2:1,2:2:0:0:
288,224,42373,2,0,L|288:320,1,80,4|10,3:0|0:0,2:2:0:0:
96,304,42582,2,0,L|192:304,1,80,8|4,0:3|3:0,2:2:0:0:
368,208,42792,2,0,L|208:208,1,160,2|8,0:1|0:3,2:2:0:0:
288,144,43106,1,8,3:1:0:0:
96,144,43212,2,0,L|96:224,1,80,0|8,3:1|3:1,2:2:0:0:
288,80,43421,6,0,L|464:80,1,160,6|0,0:1|3:1,2:2:0:0:
256,128,43736,2,0,L|432:128,1,160,6|0,0:1|3:1,2:2:0:0:
224,176,44051,6,0,L|304:176,1,80,2|10,0:1|3:1,2:2:0:0:
80,224,44260,1,10,0:2:0:0:
192,224,44365,1,10,3:1:0:0:
384,224,44470,1,10,0:2:0:0:
160,288,44575,1,8,0:3:0:0:
480,240,44680,5,6,3:2:0:0:
336,160,45356,1,8,3:2:0:0:
176,160,46033,5,2,3:3:0:0:
32,240,46710,2,0,L|176:240,2,123.840006764942,8|2|4,3:3|3:3|3:3,3:3:0:0:
368,32,47386,6,0,L|176:32,1,160,6|0,0:1|3:1,2:2:0:0:
288,80,47700,1,8,0:3:0:0:
176,80,47805,2,0,L|176:176,1,80,0|0,2:1|3:1,2:2:0:0:
368,160,48015,2,0,L|256:160,1,80,6|0,0:1|2:1,2:2:0:0:
480,160,48225,2,0,L|480:240,1,80,2|2,3:0|3:0,2:2:0:0:
288,224,48434,2,8,L|368:224,1,80,8|8,3:0|3:0,2:2:0:0:
128,96,48644,6,0,L|320:96,1,160,10|8,0:1|0:3,2:2:0:0:
208,48,48959,1,0,3:1:0:0:
320,48,49064,2,0,L|400:48,2,53.3333333333333,8|0|0,0:3|3:1|3:1,2:2:0:0:
128,48,49274,2,0,L|208:48,1,80,6|0,0:1|2:1,2:2:0:0:
16,48,49483,2,0,L|16:128,1,80,8|8,0:3|0:3,2:2:0:0:
208,128,49693,2,0,L|96:128,1,80,2|8,3:0|3:0,2:2:0:0:
320,176,49903,5,10,0:1:0:0:
128,176,50008,1,2,2:1:0:0:
320,128,50113,2,0,L|480:128,1,160,8|8,0:3|0:3,2:2:0:0:
400,128,50427,1,0,3:1:0:0:
192,176,50532,1,6,0:1:0:0:
384,176,50637,1,2,2:1:0:0:
192,128,50742,2,0,L|32:128,1,160,2|8,2:1|3:0,2:2:0:0:
112,128,51057,1,2,3:0:0:0:
368,32,51162,6,0,L|368:144,1,80,2|8,0:1|2:2,2:2:0:0:
256,32,51372,2,2,L|256:128,1,80,8|8,2:2|2:2,2:2:0:0:
144,32,51581,2,0,L|144:112,1,80,8|8,2:2|2:2,2:2:0:0:
400,176,51791,6,0,L|464:176,1,40,2|2,2:2|2:2,2:2:0:0:
288,176,51896,2,0,L|240:176,1,40,2|2,2:2|2:2,2:2:0:0:
112,176,52001,2,0,L|48:176,1,40,2|2,2:2|2:2,2:2:0:0:
224,128,52106,2,0,L|272:128,1,40,2|2,2:2|2:2,2:2:0:0:
408,112,52211,2,0,L|368:112,1,40,2|2,2:2|2:2,2:2:0:0:
144,112,52316,2,0,L|104:112,1,40,2|2,2:2|2:2,2:2:0:0:
256,192,52525,12,0,53469,2:1:0:0:
352,64,53679,6,0,L|128:64,1,191.999994140625,6|0,0:0|0:0,2:2:0:0:
352,128,53994,1,2,0:0:0:0:
160,128,54099,2,0,L|48:128,1,95.9999970703126,10|0,0:3|2:0,2:2:0:0:
288,176,54309,2,0,L|304:272,1,95.9999970703126,2|0,0:0|0:0,0:0:0:0:
48,176,54518,2,0,L|32:272,1,95.9999970703126,10|0,0:3|3:0,2:2:0:0:
240,256,54728,2,0,L|144:256,1,95.9999970703126,8|0,3:0|0:0,0:0:0:0:
400,224,54938,6,0,P|458:197|392:120,1,191.999994140625,6|0,0:0|0:0,2:2:0:0:
208,112,55253,1,2,0:0:0:0:
400,64,55358,2,0,L|288:64,1,95.9999970703126,10|0,0:3|3:1,2:2:0:0:
112,64,55567,1,2,0:0:0:0:
304,96,55672,1,2,0:0:0:0:
112,112,55777,2,0,L|0:112,1,95.9999970703126,10|2,0:3|3:1,2:2:0:0:
208,112,55987,2,0,L|320:112,1,95.9999970703126,8|2,3:0|3:1,2:2:0:0:
112,176,56197,6,0,L|304:176,1,191.999994140625,6|6,0:0|0:0,2:2:0:0:
208,144,56511,1,0,0:0:0:0:
16,80,56616,2,0,L|144:80,1,95.9999970703126,8|0,3:2|3:0,0:0:0:0:
400,208,56826,2,0,L|208:208,1,191.999994140625,6|6,0:0|0:0,2:2:0:0:
304,240,57140,1,0,0:0:0:0:
496,304,57245,2,0,L|448:304,1,47.9999985351563,0|0,3:2|3:0,0:0:0:0:
304,304,57351,2,0,L|256:304,1,47.9999985351563,0|0,3:0|3:0,0:0:0:0:
496,208,57455,6,0,L|496:112,1,95.9999970703126,2|0,0:2|3:1,2:2:0:0:
304,112,57665,2,0,L|288:16,1,95.9999970703126,8|0,0:3|3:1,2:2:0:0:
480,16,57875,2,0,L|352:16,1,95.9999970703126,8|0,0:3|3:1,0:0:0:0:
16,208,58085,2,0,L|16:112,1,95.9999970703126,2|8,0:2|3:3,2:2:0:0:
208,112,58295,2,0,L|224:16,1,95.9999970703126,2|8,0:0|3:0,2:2:0:0:
32,16,58505,2,0,L|160:16,1,95.9999970703126,8|8,0:3|3:0,0:0:0:0:
352,80,58714,6,0,L|144:80,1,191.999994140625,6|0,0:0|2:1,2:2:0:0:
352,144,59029,1,2,0:1:0:0:
160,144,59134,2,0,L|272:144,1,95.9999970703126,8|0,0:3|2:1,2:2:0:0:
64,144,59344,2,0,L|48:240,1,95.9999970703126,2|0,0:0|3:1,2:2:0:0:
256,144,59553,2,0,L|256:240,1,95.9999970703126,10|0,0:3|3:1,2:2:0:0:
448,144,59763,2,0,L|464:240,1,95.9999970703126,8|0,0:3|3:1,0:0:0:0:
256,64,59973,6,0,L|464:64,1,191.999994140625,2|2,0:1|0:1,2:2:0:0:
352,64,60288,1,2,0:0:0:0:
448,128,60392,2,0,L|240:128,1,191.999994140625,10|2,0:3|0:2,2:2:0:0:
448,192,60707,1,2,0:0:0:0:
256,192,60812,1,8,0:3:0:0:
64,192,60917,2,0,L|160:192,2,95.9999970703126,6|8|2,3:2|0:3|3:1,0:0:0:0:
256,48,61232,6,0,L|48:48,1,191.999994140625,6|8,0:1|0:3,2:2:0:0:
416,48,61651,2,0,L|432:144,1,95.9999970703126,10|0,0:3|3:2,2:2:0:0:
256,48,61861,2,0,L|464:48,1,191.999994140625,6|8,0:0|0:3,2:2:0:0:
96,48,62281,2,0,L|80:144,1,95.9999970703126,2|0,0:0|3:0,0:0:0:0:
304,128,62490,6,0,L|384:128,1,63.9999980468751,2|0,0:1|3:1,2:2:0:0:
208,128,62630,2,0,L|128:128,1,63.9999980468751,0|2,3:1|0:1,2:2:0:0:
304,128,62770,2,0,L|384:128,1,63.9999980468751,0|0,3:1|3:1,2:2:0:0:
145,206,62910,1,2,0:1:0:0:
100,198,62962,1,0,3:0:0:0:
90,154,63015,1,0,3:0:0:0:
128,129,63067,1,0,3:0:0:0:
304,48,63120,6,2,L|192:48,1,95.9999970703126,2|2,0:1|0:1,0:0:0:0:
416,48,63330,2,0,L|432:144,1,95.9999970703126,2|4,2:1|2:1,2:2:0:0:
256,144,63539,2,0,L|192:144,1,47.9999985351563,2|2,3:1|3:1,2:2:0:0:
256,112,63644,2,0,L|320:112,1,47.9999985351563,2|4,3:1|3:1,2:2:0:0:
96,48,63749,6,0,P|35:119|112:294,1,287.999991210938,6|0,0:0|3:0,2:2:0:0:
208,320,64169,2,0,L|208:208,1,95.9999970703126,2|0,3:0|2:0,2:2:0:0:
416,48,64379,2,0,L|416:144,1,95.9999970703126,6|0,0:0|2:0,0:0:0:0:
208,48,64588,2,0,L|208:160,1,95.9999970703126,2|0,0:3|3:0,2:2:0:0:
304,144,64798,2,0,L|304:48,1,95.9999970703126,0|0,3:0|3:0,0:0:0:0:
96,48,65008,6,0,P|35:119|112:294,1,287.999991210938,6|0,0:0|3:0,2:2:0:0:
208,320,65427,2,0,L|208:208,1,95.9999970703126,2|0,2:3|3:1,2:2:0:0:
416,48,65637,2,0,L|320:48,1,95.9999970703126,6|2,0:0|0:0,2:2:0:0:
96,48,65847,2,0,L|208:48,1,95.9999970703126,10|2,0:3|3:1,2:2:0:0:
416,48,66057,2,0,L|304:48,1,95.9999970703126,8|2,3:0|3:1,2:2:0:0:
96,112,66267,5,6,0:0:0:0:
288,112,66372,1,0,3:0:0:0:
192,112,66476,2,0,P|144:112|32:208,1,191.999994140625,6|8,0:0|3:2,2:2:0:0:
416,112,66896,1,6,0:0:0:0:
224,112,67001,1,2,2:1:0:0:
320,112,67106,2,0,P|368:112|480:208,1,191.999994140625,6|8,0:0|3:2,2:2:0:0:
450,157,67368,1,0,3:0:0:0:
412,127,67420,1,0,3:0:0:0:
367,111,67473,1,0,3:0:0:0:
160,48,67525,6,0,L|48:48,1,95.9999970703126,2|0,0:2|3:1,2:2:0:0:
256,48,67735,2,0,L|272:144,1,95.9999970703126,8|0,0:3|3:1,2:2:0:0:
160,144,67945,2,0,L|144:240,1,95.9999970703126,8|0,0:3|3:1,0:0:0:0:
352,48,68155,2,0,L|464:48,1,95.9999970703126,2|8,0:2|3:3,2:2:0:0:
256,48,68365,2,0,L|240:144,1,95.9999970703126,2|8,0:0|3:0,2:2:0:0:
352,144,68575,2,0,L|368:240,1,95.9999970703126,8|8,0:3|3:0,0:0:0:0:
96,272,68784,6,0,L|304:272,1,191.999994140625,6|0,0:0|3:1,2:2:0:0:
192,192,69099,1,2,0:1:0:0:
16,128,69204,2,0,L|112:128,1,95.9999970703126,8|0,0:3|2:1,2:2:0:0:
320,112,69413,6,0,L|400:112,2,63.9999980468751,2|0|0,0:1|3:1|3:1,2:2:0:0:
240,112,69623,2,0,L|240:48,1,63.9999980468751,8|0,0:3|3:1,2:2:0:0:
304,48,69763,1,0,3:1:0:0:
384,112,69833,2,0,L|384:48,1,63.9999980468751,8|0,0:3|3:1,2:2:0:0:
320,48,69973,1,0,3:1:0:0:
496,176,70043,6,0,L|400:176,1,95.9999970703126,2|0,0:1|2:1,2:2:0:0:
208,176,70253,2,0,L|304:176,1,95.9999970703126,0|2,3:1|0:1,2:2:0:0:
112,176,70462,2,0,L|16:176,1,95.9999970703126,8|0,0:3|3:1,2:2:0:0:
208,96,70672,1,2,0:1:0:0:
16,96,70777,2,0,L|16:208,1,95.9999970703126,2|8,0:1|0:3,2:2:0:0:
208,192,70987,1,2,0:1:0:0:
16,208,71092,2,0,L|128:208,1,95.9999970703126,8|8,3:3|3:3,2:2:0:0:
352,48,71302,6,0,L|144:48,1,191.999994140625,14|8,0:1|0:3,2:2:0:0:
352,96,71721,2,0,L|448:96,1,95.9999970703126,10|0,0:3|3:2,2:2:0:0:
224,96,71931,5,6,0:0:0:0:
177,102,71983,1,0,3:0:0:0:
140,132,72036,1,0,3:0:0:0:
127,177,72088,1,0,3:0:0:0:
288,96,72141,1,8,0:3:0:0:
334,102,72193,1,0,3:0:0:0:
371,132,72246,1,0,3:0:0:0:
384,177,72298,1,0,3:0:0:0:
192,208,72351,2,0,L|128:208,1,47.9999985351563,2|0,0:0|3:0,0:0:0:0:
320,208,72455,2,0,L|384:208,1,47.9999985351563,8|0,3:0|3:0,0:0:0:0:
144,384,72560,6,0,P|80:352|176:37,1,479.999985351563,12|0,0:3|3:0,2:2:0:0:
368,384,73190,2,0,P|432:352|352:191,1,287.999991210938,12|0,0:3|2:1,2:2:0:0:
160,96,73609,2,0,L|256:96,1,95.9999970703126,2|8,3:1|2:3,2:2:0:0:
32,96,73819,6,0,L|16:176,1,80,6|0,0:1|2:1,2:2:0:0:
128,160,74029,2,0,L|144:240,1,80,12|0,3:3|2:1,2:2:0:0:
32,240,74239,2,0,L|16:320,1,80,8|0,0:3|2:2,2:2:0:0:
192,304,74448,2,0,L|0:304,1,160,2|8,0:1|0:3,2:2:0:0:
112,272,74763,1,0,3:1:0:0:
224,272,74868,2,0,L|304:272,1,80,8|0,0:3|3:1,2:2:0:0:
112,256,75078,6,0,P|48:224|112:160,1,160,2|8,0:1|3:1,2:2:0:0:
160,160,75392,1,0,3:1:0:0:
272,112,75497,2,0,L|176:112,1,80,8|0,0:3|3:1,2:2:0:0:
368,112,75707,2,0,L|384:192,1,80,2|0,2:3|2:1,2:2:0:0:
272,224,75917,2,0,L|368:224,1,80,2|8,3:0|3:0,2:2:0:0:
240,224,76127,2,0,L|224:144,1,80,8|0,0:3|2:1,2:2:0:0:
400,80,76337,6,0,L|240:80,2,160,6|8|8,0:3|0:3|0:3,2:2:0:0:
320,112,76861,1,0,2:0:0:0:
496,112,76966,2,0,L|480:192,1,80,2|0,0:1|3:1,0:0:0:0:
368,192,77176,2,0,L|272:192,1,80,8|0,0:3|3:1,2:2:0:0:
400,224,77386,2,0,L|416:304,1,80,8|0,0:3|3:0,2:2:0:0:
240,256,77595,6,0,L|416:256,1,160,2|8,0:1|0:1,2:2:0:0:
320,208,77910,1,0,3:1:0:0:
208,144,78015,2,0,L|288:144,1,80,12|0,0:3|2:1,2:2:0:0:
112,144,78225,2,0,L|96:224,1,80,2|2,0:3|3:0,2:2:0:0:
208,224,78434,2,0,L|256:224,2,40,2|0|8,0:3|3:0|3:3,2:2:0:0:
96,256,78644,2,0,L|80:336,1,80,14|0,0:2|3:0,0:0:0:0:
256,288,78854,5,6,0:3:0:0:
80,304,79064,2,0,L|176:304,3,80,4|0|8|0,3:3|2:1|0:3|2:2,2:2:0:0:
336,208,79483,1,2,0:1:0:0:
160,192,79693,2,0,L|64:192,3,80,12|0|12|0,0:3|3:1|0:3|3:1,2:2:0:0:
256,80,80113,5,2,0:1:0:0:
80,80,80323,1,8,3:1:0:0:
256,128,80532,2,0,L|352:128,1,80,8|0,0:3|3:1,2:2:0:0:
160,128,80742,1,2,2:3:0:0:
336,176,80952,1,6,3:0:0:0:
160,176,81162,2,0,L|80:176,1,80,12|0,0:3|2:1,2:2:0:0:
256,96,81372,5,6,0:3:0:0:
80,96,81581,2,0,L|80:256,1,160,12|8,2:2|0:3,2:2:0:0:
352,144,82001,1,2,0:1:0:0:
176,144,82211,2,0,L|176:224,1,80,8|0,0:3|3:1,2:2:0:0:
288,208,82420,2,0,L|288:288,1,80,12|0,0:3|3:1,2:2:0:0:
80,288,82630,5,10,0:1:0:0:
256,128,82840,2,0,L|80:128,1,160,10|8,0:3|0:3,2:2:0:0:
368,128,83260,2,0,L|448:128,2,80,8|2|8,0:3|0:3|0:3,2:2:0:0:
256,128,83574,2,0,L|176:128,2,80,2|0|4,3:2|3:2|3:2,2:2:0:0:
448,192,83889,6,0,L|272:192,1,160,10|0,0:1|2:1,2:2:0:0:
112,192,84204,2,0,L|208:192,2,80,8|0|4,0:3|0:1|2:2,2:2:0:0:
288,224,84518,2,0,L|368:224,1,80,2|0,0:1|2:2,2:2:0:0:
256,224,84728,2,0,L|256:144,1,80,8|0,0:3|2:1,2:2:0:0:
368,144,84938,2,0,L|288:144,1,80,8|4,0:3|2:2,2:2:0:0:
64,192,85148,6,0,L|160:192,1,80,2|0,0:1|2:2,2:2:0:0:
256,192,85358,2,0,L|176:192,1,80,0|8,2:1|0:3,2:2:0:0:
288,192,85567,2,0,L|368:192,1,80,0|4,2:1|2:2,2:2:0:0:
192,112,85777,1,2,0:1:0:0:
368,112,85987,1,8,0:3:0:0:
272,112,86092,2,0,L|208:112,2,40,2|2|4,2:1|2:1|2:1,2:2:0:0:
368,112,86302,1,4,2:2:0:0:
64,48,86406,5,6,0:1:0:0:
256,96,86616,2,0,L|96:96,1,160,6|4,0:1|2:2,2:2:0:0:
448,48,87036,1,6,0:1:0:0:
256,96,87246,2,0,L|416:96,1,160,6|8,0:1|0:3,2:2:0:0:
224,144,87560,2,0,L|160:144,1,40,8|8,0:3|2:3,2:2:0:0:
352,144,87665,5,2,0:1:0:0:
192,192,87875,1,2,0:1:0:0:
32,144,88085,1,8,0:3:0:0:
336,240,88295,2,0,L|256:240,1,80,2|8,0:1|0:3,2:2:0:0:
368,192,88504,2,0,L|464:192,1,80,2|8,0:1|0:3,2:2:0:0:
336,96,88714,2,0,L|240:96,1,80,2|8,0:1|0:3,2:2:0:0:
480,32,88924,6,0,L|288:32,1,160,10|0,0:1|2:1,2:2:0:0:
400,80,89239,1,8,0:3:0:0:
288,80,89344,2,0,L|192:80,1,80,2|4,2:1|2:2,2:2:0:0:
384,128,89553,2,0,L|400:208,1,80,2|0,0:1|2:1,2:2:0:0:
224,256,89763,2,0,L|304:256,1,80,8|4,0:3|2:2,2:2:0:0:
128,224,89973,2,0,L|112:144,1,80,8|0,0:3|2:1,2:2:0:0:
288,112,90183,6,0,L|128:112,1,160,2|0,0:1|2:1,2:2:0:0:
208,80,90497,1,8,0:3:0:0:
320,48,90602,2,0,L|224:48,1,80,2|4,2:1|2:2,2:2:0:0:
64,48,90812,1,2,0:1:0:0:
240,128,91022,1,8,0:3:0:0:
128,128,91127,2,0,L|80:128,2,40,4|4|12,2:2|2:2|2:2,2:2:0:0:
240,128,91337,1,0,3:1:0:0:
448,160,91441,5,6,0:1:0:0:
256,48,91651,2,0,L|432:48,1,160,6|8,2:1|2:1,2:2:0:0:
96,48,92071,1,6,2:1:0:0:
256,272,92281,2,0,L|256:112,1,160,6|8,2:1|0:3,2:2:0:0:
216,48,92543,1,0,2:0:0:0:
368,48,92595,2,0,L|432:48,1,40,8|8,0:3|2:3,2:2:0:0:
144,144,92700,6,0,L|128:224,1,80,10|0,0:1|2:1,2:2:0:0:
240,224,92910,2,0,L|256:304,1,80,2|0,0:1|2:1,2:2:0:0:
368,304,93120,2,0,L|352:384,1,80,2|0,0:1|2:1,2:2:0:0:
176,160,93330,6,0,L|96:160,2,53.3333333333333,2|4|2,0:1|2:1|2:1,2:2:0:0:
336,160,93539,2,0,L|416:160,2,53.3333333333333,2|2|4,0:1|2:1|2:1,2:2:0:0:
176,80,93749,2,0,L|112:80,1,47.9999985351563,2|8,2:1|2:1,2:2:0:0:
336,80,93854,2,0,L|400:80,1,47.9999985351563,2|8,2:1|2:1,2:2:0:0:
160,208,93959,6,0,L|80:208,1,80,10|0,0:1|2:1,2:2:0:0:
192,128,94169,2,0,L|32:128,1,160,2|8,0:1|0:3,2:2:0:0:
32,144,94448,1,0,3:1:0:0:
96,144,94518,1,0,3:1:0:0:
256,208,94588,6,0,L|336:208,1,80,2|0,0:1|2:1,2:2:0:0:
224,128,94798,2,0,L|384:128,1,160,2|8,0:1|0:3,2:2:0:0:
384,144,95078,1,0,3:1:0:0:
320,144,95148,1,0,3:1:0:0:
96,64,95218,6,0,L|0:64,1,80,2|4,0:1|2:1,2:2:0:0:
256,32,95427,2,0,L|160:32,1,80,8|0,0:3|0:1,2:2:0:0:
416,64,95637,2,0,L|512:64,1,80,8|4,0:3|2:3,2:2:0:0:
256,128,95847,2,0,L|416:128,1,160,2|10,0:1|0:1,2:2:0:0:
336,128,96162,1,0,0:1:0:0:
96,128,96267,2,0,L|192:128,1,80,8|0,0:3|3:1,2:2:0:0:
384,64,96476,6,0,L|208:64,2,160,6|2|8,0:1|0:1|0:3,2:2:0:0:
304,64,97001,1,0,2:1:0:0:
480,64,97106,2,0,L|464:144,1,80,2|0,0:1|3:1,2:2:0:0:
352,192,97316,2,0,L|432:192,1,80,2|4,0:1|0:2,2:2:0:0:
320,192,97525,2,0,L|304:272,1,80,8|0,0:3|2:1,2:2:0:0:
480,288,97735,6,0,L|384:288,1,80,2|0,0:1|0:1,2:2:0:0:
304,288,97945,1,2,0:1:0:0:
128,224,98050,2,0,L|224:224,1,80,4|8,0:2|0:3,2:2:0:0:
304,224,98260,1,0,0:1:0:0:
32,192,98365,2,0,L|32:96,1,80,10|4,0:1|0:2,2:2:0:0:
224,64,98574,1,10,0:1:0:0:
32,64,98679,1,0,0:1:0:0:
304,64,98784,2,0,L|224:64,1,80,8|4,0:3|0:2,2:2:0:0:
32,64,98994,6,0,L|208:64,2,160,6|2|8,0:1|0:1|0:3,2:2:0:0:
367,61,99623,2,0,P|416:81|356:138,1,160,2|2,0:1|0:1,2:2:0:0:
289,143,99903,1,0,3:1:0:0:
364,142,99973,1,0,3:1:0:0:
208,144,100043,2,0,L|128:144,1,53.3333333333333,8|0,0:3|3:1,2:2:0:0:
128,80,100183,1,0,3:2:0:0:
304,48,100253,6,0,L|384:48,1,80,2|0,0:1|3:1,2:2:0:0:
208,48,100462,2,0,L|288:48,1,80,2|0,0:1|3:1,2:2:0:0:
112,48,100672,2,0,L|208:48,1,80,8|0,0:3|3:2,2:2:0:0:
384,128,100882,1,2,0:1:0:0:
192,128,100987,1,8,0:3:0:0:
384,256,101092,2,0,P|432:240|383:176,1,160,2|8,0:1|0:3,2:2:0:0:
304,176,101406,1,0,0:1:0:0:
96,64,101511,6,0,L|256:64,1,160,6|2,0:1|0:1,2:2:0:0:
176,112,101826,1,0,2:1:0:0:
288,112,101931,2,0,L|288:192,1,80,8|4,0:3|0:2,2:2:0:0:
112,224,102141,1,2,0:1:0:0:
288,224,102246,2,0,L|384:224,2,80,4|2|0,0:2|0:1|0:1,2:2:0:0:
112,224,102560,2,0,L|112:128,1,80,8|4,0:3|2:2,0:0:0:0:
304,48,102770,1,6,0:1:0:0:
192,48,102875,6,0,L|192:128,1,80,4|8,2:2|0:3,2:2:0:0:
368,128,103085,1,10,0:1:0:0:
256,128,103190,2,0,L|199:184,1,80,0|8,2:2|0:3,2:2:0:0:
432,208,103399,1,6,0:1:0:0:
320,208,103504,2,0,L|224:208,1,80,0|8,0:1|0:3,2:2:0:0:
496,288,103714,1,10,0:1:0:0:
320,288,103819,1,8,0:3:0:0:
496,288,103924,1,8,0:3:0:0:
176,64,104029,6,0,P|128:96|208:152,1,160,12|2,1:1|2:1,2:2:0:0:
256,160,104355,1,0,2:1:0:0:
144,160,104463,2,0,L|128:240,1,80,8|0,3:1|2:1,2:2:0:0:
336,64,104681,2,0,P|384:96|304:152,1,160,12|2,1:2|2:2,2:2:0:0:
256,160,105007,1,0,2:1:0:0:
368,160,105115,2,0,L|384:240,1,80,8|0,3:3|2:1,2:2:0:0:
176,96,105333,6,0,L|352:96,2,160,8|2|2,1:3|2:3|3:2,2:2:0:0:
480,96,105985,1,6,1:2:0:0:
112,96,106202,2,0,L|96:176,1,80,8|0,2:1|2:1,2:2:0:0:
208,176,106420,2,0,L|224:256,1,80,2|0,3:1|2:1,2:2:0:0:
32,272,106637,6,0,L|192:272,1,160,8|2,1:1|2:2,2:2:0:0:
112,208,106963,1,0,2:1:0:0:
224,144,107072,2,0,L|240:224,1,80,8|0,3:2|2:1,2:2:0:0:
32,80,107289,1,12,1:1:0:0:
224,32,107507,2,0,L|48:32,1,160,8|8,2:2|3:1,2:2:0:0:
480,272,107942,6,0,L|320:272,1,160,12|8,2:3|2:2,2:2:0:0:
400,208,108268,1,0,2:1:0:0:
288,144,108377,2,0,L|272:224,1,80,8|0,3:1|2:1,2:2:0:0:
480,80,108594,1,6,1:1:0:0:
288,32,108812,2,0,L|464:32,1,160,12|2,3:1|3:2,2:2:0:0:
128,96,109246,6,0,L|32:96,1,80,12|0,1:1|2:1,2:2:0:0:
256,160,109463,1,8,2:2:0:0:
96,160,109681,1,8,3:2:0:0:
384,96,109898,2,0,L|480:96,1,80,12|0,1:3|2:1,2:2:0:0:
256,160,110115,1,8,2:2:0:0:
416,160,110333,1,8,3:3:0:0:
96,160,110550,5,12,1:3:0:0:
416,160,110768,2,0,L|304:160,1,80,8|0,2:3|2:1,2:2:0:0:
96,160,110985,2,0,L|208:160,1,80,2|0,3:1|2:1,2:2:0:0:
432,80,111202,1,12,1:1:0:0:
256,80,111420,1,2,2:2:0:0:
80,80,111637,1,8,3:2:0:0:
480,160,111855,5,12,1:3:0:0:
288,160,112072,2,0,L|384:160,1,80,2|0,2:2|2:1,2:2:0:0:
256,112,112289,2,0,L|160:112,1,80,8|0,3:2|2:1,2:2:0:0:
352,32,112507,1,6,1:1:0:0:
160,32,112724,2,0,L|144:112,1,80,8|0,2:1|2:1,2:2:0:0:
256,112,112942,2,0,L|272:192,1,80,2|0,3:2|2:1,2:2:0:0:
32,32,113159,5,12,1:1:0:0:
51,79,113231,1,0,2:1:0:0:
100,97,113303,1,0,2:1:0:0:
192,96,113376,1,2,0:1:0:0:
172,143,113448,1,0,3:1:0:0:
123,161,113520,1,0,3:1:0:0:
288,160,113594,2,0,L|352:160,2,53.3333333333333,2|0|0,0:1|3:1|3:1,2:2:0:0:
32,224,113811,1,2,0:1:0:0:
224,224,114029,1,8,0:3:0:0:
32,160,114246,2,0,L|128:160,1,80,8|8,0:3|0:3,2:2:0:0:
352,96,114463,6,0,L|176:96,2,160,12|2|8,2:1|2:1|2:1,2:2:0:0:
160,160,115139,2,0,L|320:160,2,160,12|2|8,2:2|2:2|2:3,2:2:0:0:
352,64,115816,5,12,2:3:0:0:
160,64,116041,1,2,2:3:0:0:
352,64,116267,1,2,2:2:0:0:
160,80,116493,2,0,P|32:128|16:160,2,160,6|8|6,2:2|2:1|2:1,2:2:0:0:
352,80,117169,6,0,P|480:128|496:160,2,160,8|2|8,2:1|2:2|2:2,2:2:0:0:
160,144,117846,1,12,2:1:0:0:
352,144,118072,1,8,2:2:0:0:
496,80,118297,1,8,2:2:0:0:
352,240,118523,5,12,2:3:0:0:
160,240,118749,1,8,2:2:0:0:
16,304,118974,1,8,2:1:0:0:
176,272,119199,2,0,L|352:272,2,160,6|12|2,2:1|2:1|2:2,2:2:0:0:
352,224,119876,6,0,L|352:64,1,160,12|8,2:1|2:2,2:2:0:0:
160,64,120327,1,8,2:2:0:0:
352,80,120553,2,0,L|352:256,1,160,12|8,2:3|2:2,2:2:0:0:
160,240,121004,1,8,2:3:0:0:
352,128,121229,5,6,2:2:0:0:
160,128,121455,2,0,L|0:208,1,160,8|2,2:3|2:1,2:2:0:0:
160,128,121906,1,12,2:1:0:0:
352,128,122132,2,0,L|512:208,1,160,8|8,2:3|2:1,2:2:0:0:
336,176,122583,6,0,L|160:176,2,160,6|8|2,2:1|2:2|2:1,2:2:0:0:
176,176,123259,2,0,L|352:176,2,160,6|8|2,2:2|2:1|2:1,2:2:0:0:
480,64,123936,6,0,L|464:144,1,80,8|0,2:1|2:1,2:2:0:0:
400,144,124145,1,0,2:1:0:0:
288,144,124250,2,0,L|304:224,1,80,2|0,2:1|2:1,2:2:0:0:
368,224,124459,1,0,2:1:0:0:
160,224,124565,1,0,3:1:0:0:
352,128,124775,1,10,2:2:0:0:
144,128,124984,1,14,2:2:0:0:
496,96,125194,6,0,L|304:96,1,160,6|0,0:1|3:1,0:0:0:0:
388,96,125474,2,0,L|324:96,1,53.3333333333333,0|0,3:1|2:1,0:0:0:0:
176,96,125614,2,0,L|80:96,1,80,8|0,0:3|3:1,2:2:0:0:
272,144,125824,2,0,L|272:240,1,80,2|0,0:3|2:1,2:2:0:0:
96,224,126033,2,0,L|208:224,1,80,8|0,0:3|2:1,2:2:0:0:
352,224,126243,2,0,L|272:224,1,80,8|0,0:3|3:1,2:2:0:0:
96,128,126453,6,0,L|272:128,1,160,2|0,0:1|3:1,2:2:0:0:
176,96,126768,1,2,0:1:0:0:
352,96,126873,2,0,L|352:192,1,80,8|0,0:3|2:0,2:2:0:0:
176,176,127082,2,0,L|80:176,1,80,2|2,0:3|2:1,0:0:0:0:
272,224,127292,2,0,L|160:224,2,80,8|2|8,0:3|2:1|0:3,2:2:0:0:
96,224,127607,2,0,L|96:288,1,40,2|2,0:1|2:1,0:0:0:0:
336,64,127712,6,0,P|390:107|317:144,1,160,6|0,0:1|3:1,2:2:0:0:
256,144,128026,1,2,0:1:0:0:
432,144,128131,2,0,L|432:240,1,80,8|0,0:3|3:1,2:2:0:0:
256,224,128341,2,0,L|176:224,2,53.3333333333333,2|0|0,0:3|3:1|3:1,2:2:0:0:
432,224,128551,2,0,L|432:160,1,53.3333333333333,8|0,0:3|3:1,2:2:0:0:
368,176,128691,1,0,3:1:0:0:
192,176,128761,2,0,L|128:176,2,53.3333333333333,8|0|0,0:3|3:1|3:1,0:0:0:0:
368,80,128970,5,2,0:1:0:0:
192,80,129180,2,0,L|288:80,1,80,4|2,2:3|0:1,0:0:0:0:
96,128,129390,2,0,L|192:128,1,80,12|4,0:3|3:0,2:2:0:0:
352,160,129600,2,0,L|336:240,1,80,2|2,0:3|2:1,0:0:0:0:
224,240,129810,2,0,L|240:320,1,80,8|10,0:3|2:1,2:2:0:0:
416,320,130019,2,0,L|320:320,1,80,12|10,0:3|2:1,2:2:0:0:
128,272,130229,6,0,L|288:272,1,160,6|4,0:1|3:0,2:2:0:0:
208,208,130544,1,10,0:0:0:0:
32,208,130649,2,0,L|32:304,1,80,8|4,0:3|3:0,2:2:0:0:
208,208,130859,2,0,L|96:208,1,80,2|0,0:1|0:0,2:2:0:0:
304,208,131068,2,0,P|352:176|290:110,1,160,8|8,0:3|3:1,2:2:0:0:
262,108,131331,1,0,3:0:0:0:
222,109,131383,2,0,L|158:109,1,40,8|0,3:1|3:0,0:0:0:0:
16,32,131488,6,0,L|192:32,1,160,2|0,0:0|3:0,0:0:0:0:
96,32,131803,1,2,0:0:0:0:
272,32,131908,2,0,L|368:32,1,80,8|0,0:3|0:0,0:0:0:0:
176,64,132117,2,0,L|176:144,1,80,2|2,0:0|2:1,0:0:0:0:
352,144,132327,2,0,L|272:144,1,80,8|0,0:3|3:0,0:0:0:0:
448,144,132537,2,0,L|448:224,1,80,8|2,0:3|1:0,0:0:0:0:
176,208,132747,6,0,L|368:208,2,160,10|0|0,0:1|2:1|2:1,2:2:0:0:
496,64,133376,2,0,L|240:64,1,240,6|4,0:1|2:2,2:2:0:0:
368,112,133796,2,0,L|464:112,1,80,8|4,0:3|2:2,2:2:0:0:
256,112,134005,6,0,L|256:208,1,80,2|0,0:1|2:1,2:2:0:0:
352,192,134215,1,4,2:2:0:0:
256,224,134320,1,2,0:1:0:0:
448,224,134425,2,0,L|352:224,1,80,8|4,0:3|2:2,2:2:0:0:
272,272,134635,1,2,0:1:0:0:
368,272,134740,1,2,0:1:0:0:
160,128,134845,1,8,0:3:0:0:
352,128,135054,1,8,0:3:0:0:
32,48,135264,5,6,0:1:0:0:
224,48,135474,2,0,L|224:80,2,31.9999990234375,0|0|0,3:1|2:1|2:1,2:2:0:0:
160,48,135684,2,0,L|160:96,1,47.9999985351563,0|0,3:3|2:1,2:2:0:0:
352,128,135894,1,8,0:1:0:0:
160,192,136103,2,0,L|256:192,1,95.9999970703126,0|0,3:1|3:1,2:2:0:0:
64,320,136523,5,2,0:1:0:0:
256,160,136733,2,0,L|304:160,1,47.9999985351563,0|2,3:1|0:1,2:2:0:0:
224,112,136942,2,0,L|176:112,1,47.9999985351563,0|0,3:3|2:1,2:2:0:0:
368,64,137152,2,0,L|480:64,2,95.9999970703126,8|0|0,0:1|3:1|3:1,2:2:0:0:
176,64,137782,6,0,L|368:64,1,191.999994140625,6|0,0:1|3:1,2:2:0:0:
32,176,138411,1,8,0:1:0:0:
224,176,138621,2,0,L|128:176,1,95.9999970703126,0|0,3:1|3:1,2:2:0:0:
320,240,139040,6,0,L|208:240,2,95.9999970703126,2|2|0,0:1|0:1|3:1,2:2:0:0:
16,176,139670,1,8,0:1:0:0:
192,112,139880,2,0,L|96:112,1,95.9999970703126,0|0,3:1|3:1,2:2:0:0:
288,112,140299,6,0,L|400:112,1,95.9999970703126,6|0,0:1|3:1,2:2:0:0:
192,176,140719,1,0,3:1:0:0:
496,144,140929,1,8,0:3:0:0:
320,144,141138,2,0,L|432:144,1,95.9999970703126,0|0,3:1|3:1,2:2:0:0:
80,80,141558,6,0,L|176:80,2,95.9999970703126,14|0|0,2:2|3:1|3:1,2:2:0:0:
432,80,142187,1,2,0:0:0:0:
256,80,142396,1,10,0:0:0:0:
432,80,142606,1,10,0:0:0:0:
32,80,142816,5,6,3:2:0:0:
256,80,143492,1,0,3:2:0:0:
448,80,144169,1,0,3:3:0:0:
160,144,144846,5,8,3:3:0:0:
352,144,145071,1,2,3:3:0:0:
160,144,145297,1,4,3:3:0:0:
496,48,145522,6,0,L|336:48,1,160,6|0,0:1|3:1,2:2:0:0:
416,96,145836,1,8,0:3:0:0:
304,96,145941,2,0,L|288:176,1,80,0|0,2:1|3:1,2:2:0:0:
496,176,146151,2,0,L|416:176,1,80,6|0,0:1|2:1,2:2:0:0:
304,224,146361,2,0,L|400:224,1,80,2|2,3:0|3:0,2:2:0:0:
496,224,146570,2,8,L|400:224,1,80,8|8,3:0|3:0,2:2:0:0:
176,96,146780,6,0,L|336:96,1,160,10|8,0:1|0:3,2:2:0:0:
256,128,147095,1,0,3:1:0:0:
64,128,147200,2,0,L|-16:128,2,53.3333333333333,8|0|0,0:3|3:1|3:1,2:2:0:0:
224,128,147410,6,0,L|224:192,1,53.3333333333333,6|0,0:1|0:0,2:2:0:0:
176,176,147549,1,0,0:0:0:0:
96,176,147619,2,0,L|96:240,1,53.3333333333333,8|0,0:3|0:0,2:2:0:0:
144,224,147758,1,0,0:0:0:0:
224,240,147829,2,0,L|112:240,1,80,2|8,3:0|3:0,2:2:0:0:
336,48,148039,5,10,0:1:0:0:
256,48,148144,1,2,2:1:0:0:
448,112,148249,2,0,L|288:112,1,160,8|8,0:3|0:3,2:2:0:0:
368,96,148563,1,0,3:1:0:0:
144,48,148668,1,6,0:1:0:0:
256,48,148773,1,2,2:1:0:0:
64,112,148878,2,0,L|224:112,1,160,2|8,2:1|3:0,2:2:0:0:
144,96,149192,1,2,3:0:0:0:
400,192,149298,5,2,0:1:0:0:
304,192,149403,1,8,2:2:0:0:
208,192,149508,1,8,2:2:0:0:
112,192,149612,1,8,2:2:0:0:
304,112,149717,1,8,2:2:0:0:
208,112,149822,1,8,2:2:0:0:
456,112,149927,6,0,L|496:112,1,40,2|2,2:2|2:2,2:2:0:0:
344,112,150032,2,0,L|304:112,1,40,2|2,2:2|2:2,2:2:0:0:
456,112,150137,2,0,L|496:112,1,40,2|2,2:2|2:2,2:2:0:0:
344,112,150242,2,0,L|304:112,1,40,2|2,2:2|2:2,2:2:0:0:
192,160,150347,2,0,L|128:160,1,40,2|2,2:2|2:2,2:2:0:0:
456,112,150452,2,0,L|520:112,1,40,2|2,2:2|2:2,2:2:0:0:
256,192,150661,12,2,151815,2:2:0:0:
48,368,152445,6,0,P|29:333|55:-22,1,400,8|0,2:2|2:1,2:2:0:0:
352,16,153074,6,0,L|128:16,1,191.999994140625,6|0,0:0|0:0,2:2:0:0:
256,80,153389,1,2,0:0:0:0:
64,112,153494,2,0,L|176:112,1,95.9999970703126,10|0,0:3|2:0,2:2:0:0:
352,112,153703,2,0,L|256:112,1,95.9999970703126,2|0,0:0|0:0,0:0:0:0:
448,112,153913,2,0,L|464:208,1,95.9999970703126,10|0,0:3|3:0,2:2:0:0:
256,208,154123,2,0,L|352:208,1,95.9999970703126,8|0,3:0|0:0,0:0:0:0:
160,16,154333,6,0,L|384:16,1,191.999994140625,14|0,0:0|0:0,2:2:0:0:
256,80,154648,1,2,0:0:0:0:
448,112,154753,2,0,L|336:112,1,95.9999970703126,10|0,0:3|3:1,2:2:0:0:
160,112,154962,1,2,0:0:0:0:
352,112,155067,1,2,0:0:0:0:
160,112,155172,2,0,L|48:112,1,95.9999970703126,10|2,0:3|3:1,2:2:0:0:
256,208,155382,2,0,L|352:208,1,95.9999970703126,8|2,3:0|3:1,2:2:0:0:
112,192,155591,6,0,L|96:288,1,95.9999970703126,6|0,0:0|0:0,2:2:0:0:
288,256,155801,2,0,L|80:256,1,191.999994140625,6|8,0:0|3:2,0:0:0:0:
192,224,156116,1,0,3:0:0:0:
400,192,156221,2,0,L|416:288,1,95.9999970703126,6|0,0:0|0:0,2:2:0:0:
224,256,156431,2,0,L|432:256,1,191.999994140625,6|8,0:0|3:2,0:0:0:0:
397,211,156693,1,0,3:0:0:0:
361,179,156745,1,0,3:0:0:0:
318,155,156798,1,0,3:0:0:0:
128,80,156850,6,0,L|16:80,1,95.9999970703126,2|0,0:2|3:1,2:2:0:0:
256,80,157060,2,0,L|352:80,3,95.9999970703126,8|0|8|0,0:3|3:1|0:3|3:1,0:0:0:0:
160,32,157480,2,0,L|256:32,1,95.9999970703126,2|8,0:2|3:3,2:2:0:0:
480,32,157690,2,0,L|384:32,3,95.9999970703126,2|8|8|8,0:0|3:0|0:3|3:0,0:0:0:0:
160,96,158109,6,0,L|352:96,1,191.999994140625,6|0,0:0|2:1,2:2:0:0:
256,96,158424,1,2,0:1:0:0:
448,144,158528,2,0,L|336:144,1,95.9999970703126,8|0,0:3|2:1,2:2:0:0:
144,144,158738,2,0,L|128:240,1,95.9999970703126,2|0,0:0|3:1,2:2:0:0:
240,240,158948,2,0,L|256:336,1,95.9999970703126,10|0,0:3|3:1,2:2:0:0:
64,336,159158,2,0,L|176:336,1,95.9999970703126,8|0,0:3|3:1,0:0:0:0:
448,192,159368,5,2,0:1:0:0:
256,144,159577,2,0,L|256:256,1,95.9999970703126,2|2,0:1|0:0,0:0:0:0:
144,208,159787,2,0,L|144:304,1,95.9999970703126,10|0,0:3|0:0,2:2:0:0:
368,304,159997,2,0,P|432:288|353:247,1,191.999994140625,2|8,0:2|0:3,0:0:0:0:
256,224,160312,1,6,3:2:0:0:
480,64,160417,2,0,L|352:64,1,95.9999970703126,8|2,0:3|3:1,0:0:0:0:
64,64,160626,5,6,0:1:0:0:
256,64,160836,1,8,0:3:0:0:
96,112,161046,2,0,L|96:208,1,80,10|0,0:3|3:2,2:2:0:0:
368,112,161256,2,0,L|368:208,1,80,6|0,0:0|0:0,2:2:0:0:
256,112,161466,2,0,L|256:192,1,80,8|0,0:3|0:0,0:0:0:0:
448,64,161675,2,0,L|352:64,1,80,2|0,0:0|3:0,0:0:0:0:
160,64,161885,6,0,L|96:64,1,63.9999980468751,2|0,0:1|3:1,2:2:0:0:
256,64,162025,2,0,L|320:64,1,63.9999980468751,0|0,3:1|0:0,2:2:0:0:
160,64,162165,2,0,L|80:64,1,63.9999980468751,0|0,3:1|0:0,2:2:0:0:
320,128,162305,2,0,L|448:128,1,95.9999970703126,2|0,0:1|3:0,0:0:0:0:
208,128,162515,6,0,L|192:224,1,95.9999970703126,2|2,0:1|0:1,0:0:0:0:
304,208,162724,2,0,L|208:208,1,95.9999970703126,2|4,2:1|2:1,2:2:0:0:
416,208,162934,2,0,L|432:256,1,47.9999985351563,2|2,3:1|3:1,2:2:0:0:
304,256,163039,2,0,L|256:256,1,47.9999985351563,2|4,3:1|3:1,2:2:0:0:
32,96,163144,6,0,L|208:96,1,160,6|0,0:0|0:0,2:2:0:0:
112,80,163459,1,0,3:0:0:0:
32,48,163563,2,0,L|112:48,1,80,2|0,3:0|2:0,2:2:0:0:
448,144,163773,1,6,0:0:0:0:
256,144,163983,1,2,0:3:0:0:
64,144,164193,1,0,3:0:0:0:
480,96,164403,6,0,L|304:96,1,160,6|0,0:0|0:0,2:2:0:0:
400,96,164718,1,0,3:0:0:0:
480,48,164822,2,0,L|400:48,1,80,2|0,2:3|3:1,2:2:0:0:
128,48,165032,2,0,L|128:144,1,95.9999970703126,2|2,0:0|0:0,2:2:0:0:
304,144,165242,2,0,L|192:144,1,95.9999970703126,10|2,0:3|3:1,2:2:0:0:
384,48,165452,2,0,L|384:144,1,95.9999970703126,12|2,3:0|3:1,2:2:0:0:
64,96,165661,2,0,L|160:96,1,95.9999970703126,6|0,0:0|3:0,0:0:0:0:
256,48,165871,6,0,L|48:48,1,191.999994140625,6|8,0:0|3:2,2:2:0:0:
448,96,166291,2,0,L|352:96,1,95.9999970703126,6|2,0:0|2:1,0:0:0:0:
256,48,166501,2,0,L|464:48,1,191.999994140625,6|8,0:0|3:2,2:2:0:0:
428,92,166763,1,0,3:0:0:0:
393,124,166815,1,0,3:0:0:0:
347,140,166868,1,0,3:0:0:0:
96,128,166920,5,2,0:2:0:0:
288,176,167130,1,8,0:3:0:0:
128,176,167340,1,8,0:3:0:0:
416,128,167549,2,0,L|432:224,1,95.9999970703126,2|8,0:2|3:3,2:2:0:0:
320,224,167759,2,0,L|304:320,1,95.9999970703126,2|8,0:0|3:0,2:2:0:0:
496,320,167969,2,0,L|400:320,1,95.9999970703126,8|8,0:3|3:0,0:0:0:0:
128,160,168179,6,0,L|320:160,1,191.999994140625,6|0,0:0|3:1,2:2:0:0:
128,224,168494,2,0,L|32:224,2,95.9999970703126,2|8|0,0:1|0:3|2:1,2:2:0:0:
336,96,168808,2,0,L|400:96,2,63.9999980468751,2|0|0,0:1|3:1|3:1,2:2:0:0:
176,96,169018,2,0,L|112:96,2,63.9999980468751,8|0|0,0:3|3:1|3:1,2:2:0:0:
320,32,169228,1,8,0:3:0:0:
256,32,169298,1,0,3:1:0:0:
192,32,169368,1,0,3:1:0:0:
432,144,169438,5,2,0:1:0:0:
256,144,169647,2,0,L|256:240,1,95.9999970703126,0|2,3:1|0:1,2:2:0:0:
368,240,169857,1,8,0:3:0:0:
80,144,170067,2,0,L|80:256,1,95.9999970703126,2|2,0:1|0:1,2:2:0:0:
256,144,170277,2,0,L|256:256,1,95.9999970703126,8|2,0:3|0:1,0:0:0:0:
144,144,170487,2,0,L|144:256,1,95.9999970703126,8|8,3:3|3:3,2:2:0:0:
432,64,170696,5,14,0:1:0:0:
256,64,170906,1,8,0:3:0:0:
80,64,171116,2,0,L|16:144,2,95.9999970703126,10|0|6,0:3|3:2|0:0,2:2:0:0:
128,64,171378,5,0,3:0:0:0:
176,64,171431,1,0,3:0:0:0:
224,64,171483,1,0,3:0:0:0:
272,64,171535,1,8,0:3:0:0:
320,64,171588,1,0,3:0:0:0:
128,144,171640,2,0,L|64:144,1,47.9999985351563,0|0,3:0|3:0,0:0:0:0:
272,144,171745,2,0,L|336:144,1,47.9999985351563,2|0,0:0|3:0,0:0:0:0:
128,144,171850,2,0,L|64:144,1,47.9999985351563,0|0,3:0|3:0,0:0:0:0:
304,48,171955,6,0,L|416:48,3,95.9999970703126,6|8|8|8,0:1|0:3|0:3|0:3,2:2:0:0:
208,48,172375,2,0,L|96:48,1,95.9999970703126,8|8,0:3|3:0,0:0:0:0:
304,96,172584,6,0,L|384:96,1,47.9999985351563,4|0,0:1|0:0,2:2:0:0:
480,144,172689,2,0,L|432:144,1,47.9999985351563,4|0,0:0|0:0,0:0:0:0:
304,144,172794,2,0,L|224:144,1,47.9999985351563,4|0,0:0|0:0,0:0:0:0:
128,192,172899,2,0,L|176:192,1,47.9999985351563,4|0,0:1|0:0,0:0:0:0:
384,192,173004,2,0,L|448:192,1,47.9999985351563,4|0,0:1|0:0,2:2:0:0:
224,144,173109,2,0,L|160:144,1,47.9999985351563,4|0,0:0|0:0,0:0:0:0:
480,256,173214,6,0,L|464:192,1,63.9999980468751,12|0,2:1|2:1,2:2:0:0:
400,192,173354,1,0,2:1:0:0:
256,192,173424,2,0,L|272:128,1,63.9999980468751,0|0,3:1|2:1,2:2:0:0:
336,128,173563,1,0,2:1:0:0:
192,64,173633,6,0,L|112:64,2,63.9999980468751,0|0|0,3:1|2:1|2:1,2:2:0:0:
336,64,173843,2,0,L|416:64,2,63.9999980468751,2|0|0,3:1|3:1|3:1,3:3:0:0:
192,128,174053,5,0,3:1:0:0:
256,128,174123,1,0,2:1:0:0:
320,128,174193,1,0,2:1:0:0:
176,144,174263,1,0,3:1:0:0:
112,144,174333,1,0,2:1:0:0:
48,144,174403,1,0,2:1:0:0:
208,208,174473,6,0,L|256:208,1,47.9999985351563,8|0,3:3|3:1,2:2:0:0:
208,256,174577,2,0,L|144:256,1,47.9999985351563,0|0,3:1|3:1,2:2:0:0:
320,256,174682,2,0,L|336:208,1,47.9999985351563,0|0,3:1|3:1,2:2:0:0:
304,160,174787,2,0,L|256:160,1,47.9999985351563,0|0,3:1|3:1,2:2:0:0:
416,160,174892,2,0,L|400:112,1,47.9999985351563,0|0,3:1|3:1,2:2:0:0:
368,80,174997,2,0,L|304:80,1,47.9999985351563,0|0,3:1|3:1,2:2:0:0:
160,128,175102,6,0,L|96:128,1,47.9999985351563,2|0,3:3|2:1,2:2:0:0:
112,80,175207,2,0,L|176:80,1,47.9999985351563,0|0,3:1|2:1,2:2:0:0:
320,32,175312,2,0,L|368:32,1,47.9999985351563,0|0,3:1|2:1,2:2:0:0:
368,80,175417,2,0,L|320:80,1,47.9999985351563,0|0,3:1|2:1,2:2:0:0:
96,160,175522,2,0,L|48:160,1,47.9999985351563,0|0,3:1|2:1,2:2:0:0:
224,160,175626,2,0,L|288:160,1,47.9999985351563,0|0,3:1|2:1,2:2:0:0:
464,160,175731,6,0,L|464:272,1,95.9999970703126,14|0,0:0|3:0,0:0:0:0:
256,224,175941,2,0,L|448:224,1,191.999994140625,6|8,0:0|3:2,2:2:0:0:
352,176,176256,1,0,0:0:0:0:
48,160,176361,2,0,L|48:272,1,95.9999970703126,14|2,0:0|2:1,0:0:0:0:
256,224,176571,2,0,L|64:224,1,191.999994140625,6|8,0:0|3:2,2:2:0:0:
87,181,176833,1,0,3:0:0:0:
123,151,176885,1,0,3:0:0:0:
169,135,176938,1,0,3:0:0:0:
400,128,176990,6,0,L|512:128,1,95.9999970703126,10|0,0:2|0:0,0:0:0:0:
304,64,177200,2,0,L|416:64,1,95.9999970703126,8|0,0:3|0:0,0:0:0:0:
208,128,177410,2,0,L|320:128,1,95.9999970703126,8|0,0:3|0:0,0:0:0:0:
112,128,177619,2,0,L|0:128,1,95.9999970703126,10|0,0:2|3:3,2:2:0:0:
208,64,177829,2,0,L|96:64,1,95.9999970703126,10|0,0:3|3:0,2:2:0:0:
304,128,178039,2,0,L|240:128,1,47.9999985351563,8|0,0:3|3:0,0:0:0:0:
112,128,178144,2,0,L|192:128,1,47.9999985351563,8|8,3:0|3:0,0:0:0:0:
400,64,178249,6,0,P|448:80|400:176,1,191.999994140625,6|0,0:1|2:1,2:2:0:0:
336,176,178528,1,0,3:1:0:0:
400,224,178598,1,0,3:1:0:0:
256,224,178668,2,0,L|176:224,2,63.9999980468751,8|0|0,0:3|3:1|3:1,2:2:0:0:
392,288,178878,5,8,0:1:0:0:
328,288,178948,1,0,3:1:0:0:
264,288,179018,1,0,3:1:0:0:
112,320,179088,2,0,P|64:304|112:208,1,191.999994140625,8|8,0:3|0:3,2:2:0:0:
176,144,179368,1,0,3:1:0:0:
112,144,179438,1,0,3:1:0:0:
320,64,179508,6,0,L|432:64,1,95.9999970703126,2|0,0:3|2:0,2:2:0:0:
192,64,179717,2,0,L|80:64,1,95.9999970703126,0|2,3:1|0:1,2:2:0:0:
312,112,179927,1,8,0:3:0:0:
200,112,180032,1,0,3:1:0:0:
416,128,180137,2,0,L|432:224,1,95.9999970703126,8|2,0:3|0:1,2:2:0:0:
96,128,180347,2,0,L|80:224,1,95.9999970703126,8|0,0:3|3:1,2:2:0:0:
480,192,180556,2,0,L|496:288,1,95.9999970703126,8|2,0:3|0:1,2:2:0:0:
32,240,180766,5,6,0:1:0:0:
192,176,180976,2,0,L|240:176,1,47.9999985351563,0|0,3:1|2:1,2:2:0:0:
192,208,181081,2,0,L|128:208,1,47.9999985351563,0|0,3:1|2:1,2:2:0:0:
304,208,181186,2,0,L|304:160,1,47.9999985351563,0|0,3:1|2:1,2:2:0:0:
272,112,181291,2,0,L|224:112,1,47.9999985351563,0|0,3:1|2:1,2:2:0:0:
384,64,181396,6,0,L|448:64,1,47.9999985351563,0|0,3:1|3:1,2:2:0:0:
432,112,181501,2,0,L|368:112,1,47.9999985351563,0|0,3:1|3:1,2:2:0:0:
224,64,181605,1,0,3:1:0:0:
179,80,181658,1,0,3:1:0:0:
145,113,181710,1,0,3:1:0:0:
128,158,181763,1,0,3:1:0:0:
288,64,181815,1,0,3:1:0:0:
332,80,181868,1,0,3:1:0:0:
366,113,181920,1,0,3:1:0:0:
383,158,181973,1,0,3:1:0:0:
224,160,182025,6,0,L|112:160,2,95.9999970703126,6|8|8,0:1|0:3|0:3,2:2:0:0:
32,160,182340,2,0,L|160:160,2,95.9999970703126,2|8|8,0:1|0:3|0:3,2:2:0:0:
288,160,182654,6,0,L|400:160,2,95.9999970703126,2|8|8,0:1|0:3|0:3,2:2:0:0:
480,160,182969,1,2,0:1:0:0:
288,160,183074,1,8,0:3:0:0:
176,160,183178,1,8,0:3:0:0:
480,48,183284,6,0,L|96:48,1,383.99998828125,12|0,0:1|2:2,2:2:0:0:
192,48,183827,1,0,2:1:0:0:
480,48,183936,2,0,L|96:48,1,383.99998828125,6|0,0:1|2:1,2:2:0:0:
192,48,184479,1,0,2:1:0:0:
16,48,184588,6,0,L|16:144,1,95.9999970703126,12|0,0:3|2:1,2:2:0:0:
128,128,184805,2,0,L|128:224,1,95.9999970703126,2|0,2:2|2:1,2:2:0:0:
240,224,185023,2,0,L|128:224,1,95.9999970703126,2|0,2:2|2:1,2:2:0:0:
400,64,185240,2,0,L|496:64,1,95.9999970703126,6|0,0:3|2:1,2:2:0:0:
304,112,185457,2,0,L|400:112,1,95.9999970703126,8|0,0:3|2:1,2:2:0:0:
224,112,185675,2,0,L|224:208,1,95.9999970703126,8|2,0:3|2:1,2:2:0:0:
496,208,185892,6,0,L|368:208,1,95.9999970703126,14|0,0:1|2:1,2:2:0:0:
224,160,186117,1,8,0:3:0:0:
400,112,186343,2,0,L|288:112,1,95.9999970703126,8|0,3:2|2:1,2:2:0:0:
16,208,186568,2,0,L|144:208,1,95.9999970703126,10|0,0:1|2:1,2:2:0:0:
288,160,186793,1,8,0:3:0:0:
112,112,187019,2,0,L|224:112,1,95.9999970703126,8|0,3:2|3:1,2:2:0:0:
464,112,187245,6,0,L|448:176,1,53.3333333333333,10|0,0:2|2:1,2:2:0:0:
384,160,187401,1,0,2:1:0:0:
224,160,187479,2,0,L|240:224,1,53.3333333333333,2|0,0:1|2:1,2:2:0:0:
304,208,187635,1,0,2:1:0:0:
144,224,187713,1,8,0:3:0:0:
80,218,187791,2,0,L|64:272,1,53.3333333333333,0|0,2:0|2:1,2:2:0:0:
256,272,187948,2,0,L|352:272,1,80,10|0,0:2|2:1,2:2:0:0:
160,272,188182,2,0,L|160:368,1,80,10|0,0:3|2:1,2:2:0:0:
336,336,188416,2,0,L|240:336,1,80,8|0,0:3|2:1,2:2:0:0:
480,208,188651,5,14,0:1:0:0:
176,160,188894,2,0,L|112:160,7,40,2|0|2|0|2|0|2|0,3:1|2:1|3:1|2:1|3:1|2:1|3:1|2:1,2:2:0:0:
176,160,189382,5,2,3:1:0:0:
214,150,189445,1,0,3:1:0:0:
246,126,189509,1,0,3:1:0:0:
273,97,189572,1,0,3:1:0:0:
290,60,189636,1,0,3:1:0:0:
273,97,189699,1,0,3:1:0:0:
246,126,189762,1,0,3:1:0:0:
214,150,189826,1,0,3:1:0:0:
176,160,189890,2,0,L|241:158,1,40,0|0,3:1|3:1,3:2:0:0:
350,158,190017,2,0,L|415:156,1,40,0|0,3:1|3:1,3:2:0:0:
175,203,190144,6,0,P|148:239|147:359,1,160,0|8,3:1|3:3,2:2:0:0:
336,338,190756,1,2,2:3:0:0:
144,224,191117,6,0,L|80:224,1,53.3333333333333,2|0,3:1|2:1,2:2:0:0:
256,160,191270,2,0,L|288:160,1,26.6666666666667,2|0,3:1|2:1,2:2:0:0:
160,336,191578,1,0,2:1:0:0:
70,279,191732,5,0,3:1:0:0:
45,233,191808,1,0,3:1:0:0:
36,180,191886,1,0,3:1:0:0:
42,128,191963,1,0,3:1:0:0:
65,80,192039,1,0,3:1:0:0:
103,43,192117,1,0,3:1:0:0:
150,20,192193,1,0,3:1:0:0:
222,14,192299,1,0,3:1:0:0:
302,15,192386,1,0,3:1:0:0:
121,88,192501,5,4,3:1:0:0:
256,192,192665,12,4,194479,2:1:0:0:
262,107,196457,6,0,L|67:103,1,160,2|0,2:2|2:2,2:2:0:0:
384,106,197116,6,0,P|438:123|415:231,1,160,2|0,2:3|2:1,2:2:0:0:
289,214,197710,2,0,L|388:214,1,80,2|0,2:0|2:1,2:2:0:0:
291,118,198007,2,0,L|104:116,2,160,2|0|2,2:0|2:1|2:0,2:2:0:0:
96,298,198898,6,0,P|62:255|203:63,1,320,8|0,2:3|2:1,2:2:0:0:
331,138,199708,2,0,L|103:139,2,160,2|0|2,2:0|2:1|2:0,2:2:0:0:
174,61,200519,6,0,P|54:153|96:298,1,320,8|0,2:3|2:1,2:2:0:0:
285,185,201330,2,0,L|120:186,1,160,2|0,2:0|2:1,2:2:0:0:
320,287,201870,1,2,2:0:0:0:
86,100,202141,6,0,L|438:103,1,320,8|0,2:3|2:1,2:2:0:0:
227,115,202952,2,0,L|216:282,1,160,2|8,2:0|2:3,2:2:0:0:
406,274,203492,2,0,L|294:273,1,80,4|0,2:3|2:0,2:2:0:0:
186,193,203762,5,2,2:3:0:0:
357,172,204002,1,4,2:3:0:0:
188,103,204243,2,0,L|108:164,1,80,8|0,2:3|2:1,2:2:0:0:
249,150,204484,2,0,P|300:161|254:264,1,160,2|0,2:0|2:1,2:2:0:0:
124,252,204966,1,0,2:3:0:0:
300,166,205207,6,0,L|118:167,2,160,8|0|2,2:3|2:1|2:0,2:2:0:0:
104,52,205930,2,0,L|283:53,1,160,2|0,2:2|2:2,2:2:0:0:
486,92,206412,1,2,2:2:0:0:
291,141,206653,6,0,L|461:149,2,160,8|0|2,2:3|2:1|2:0,2:2:0:0:
488,66,207350,2,0,L|309:67,1,160,2|0,2:0|2:1,2:2:0:0:
126,118,207815,1,2,2:0:0:0:
321,157,208048,6,0,L|139:158,2,160,8|0|2,2:3|2:1|2:0,2:2:0:0:
133,202,208746,1,0,2:3:0:0:
312,237,208978,1,2,2:0:0:0:
138,274,209211,2,0,L|46:273,1,80,2|0,2:0|2:1,2:2:0:0:
257,261,209443,6,0,P|315:227|251:156,1,160,12|2,0:1|2:1,2:2:0:0:
116,112,209899,2,0,L|211:111,1,80,2|2,2:2|2:0,2:2:0:0:
80,50,210127,2,0,L|246:48,2,160,8|0|8,2:1|2:1|2:1,2:2:0:0:
289,111,210811,5,8,2:1:0:0:
85,118,211039,2,0,L|66:285,1,160,2|2,2:1|2:0,2:2:0:0:
262,269,211496,2,0,L|70:272,1,160,8|0,2:1|2:1,2:2:0:0:
311,172,211952,1,8,2:1:0:0:
107,165,212180,5,8,2:1:0:0:
311,172,212400,2,0,L|330:339,1,160,2|2,2:1|2:2,2:2:0:0:
127,319,212841,1,8,2:1:0:0:
319,248,213062,1,2,2:0:0:0:
116,198,213282,1,0,2:1:0:0:
308,99,213503,6,0,L|483:96,1,160,8|2,2:1|2:1,2:2:0:0:
258,141,213944,1,2,2:2:0:0:
458,183,214165,1,8,2:1:0:0:
245,225,214385,1,2,2:2:0:0:
449,266,214606,1,0,2:1:0:0:
47,165,214827,6,0,L|223:165,2,160,12|2|0,2:1|2:1|3:1,2:2:0:0:
127,140,215364,1,0,3:1:0:0:
209,67,215472,2,0,L|382:66,1,160,2|2,2:1|2:1,2:2:0:0:
169,110,215902,1,2,2:1:0:0:
464,159,216117,6,0,L|288:159,2,160,8|2|2,2:1|2:1|3:1,2:2:0:0:
273,162,216762,2,0,L|265:329,1,160,2|2,2:1|2:1,2:2:0:0:
467,318,217192,1,2,2:1:0:0:
48,159,217407,6,0,L|224:159,2,160,8|2|0,2:1|2:1|3:1,2:2:0:0:
239,162,218040,2,0,L|247:329,1,160,2|2,2:1|2:1,2:2:0:0:
43,318,218463,1,2,2:1:0:0:
464,159,218674,6,0,L|288:159,2,160,8|8|8,2:1|2:1|2:1,2:2:0:0:
256,272,219385,2,0,P|224:224|240:192,1,80,2|2,2:1|2:1,2:2:0:0:
448,144,219957,1,8,2:1:0:0:
16,32,220290,6,0,L|320:32,1,287.999991210938,6|0,0:1|2:1,2:2:0:0:
400,64,220741,1,0,2:1:0:0:
64,176,220966,1,2,0:1:0:0:
256,160,221192,1,0,2:1:0:0:
64,96,221418,1,0,2:0:0:0:
496,32,221645,6,0,L|192:32,1,287.999991210938,6|0,0:1|2:0,2:2:0:0:
112,64,222099,1,0,2:1:0:0:
448,176,222326,2,0,L|352:176,1,80,2|0,2:1|2:1,2:2:0:0:
256,160,222554,2,0,L|336:160,1,80,0|0,2:1|2:1,2:2:0:0:
448,96,222782,2,0,L|352:96,1,80,0|0,2:1|2:1,2:2:0:0:
96,96,223010,5,6,0:1:0:0:
288,96,223239,2,0,P|304:144|288:256,1,160,2|8,2:1|2:2,2:2:0:0:
192,256,223582,1,0,2:1:0:0:
416,96,223697,1,6,0:1:0:0:
224,96,223926,2,0,P|208:144|224:256,1,160,2|8,2:1|3:2,2:2:0:0:
262,251,224214,1,0,3:1:0:0:
300,251,224271,1,0,3:1:0:0:
341,251,224329,1,0,3:1:0:0:
128,160,224386,6,0,L|0:160,1,95.9999970703126,10|0,0:2|3:1,2:2:0:0:
224,160,224616,2,0,L|224:272,1,95.9999970703126,2|0,0:1|2:1,2:2:0:0:
32,240,224851,2,0,L|160:240,1,95.9999970703126,2|0,0:1|3:1,2:2:0:0:
384,160,225091,2,0,L|512:160,1,95.9999970703126,2|0,0:2|3:1,2:2:0:0:
288,160,225335,2,0,L|288:272,1,95.9999970703126,2|0,0:1|3:1,2:2:0:0:
480,240,225585,2,0,L|368:240,1,95.9999970703126,2|0,0:1|3:1,2:2:0:0:
64,48,225840,6,0,L|352:48,1,287.999991210938,6|0,0:2|2:1,2:2:0:0:
448,48,226308,1,6,0:2:0:0:
64,112,226543,2,0,L|192:112,1,95.9999970703126,2|0,0:1|3:1,2:2:0:0:
272,112,226779,2,0,L|176:112,1,95.9999970703126,2|2,0:1|0:1,2:2:0:0:
288,112,227015,2,0,L|384:112,1,95.9999970703126,2|0,0:1|3:1,2:2:0:0:
64,176,227251,5,2,0:1:0:0:
256,176,227489,2,0,L|96:176,1,160,0|0,3:1|3:1,2:2:0:0:
448,176,227965,1,0,0:2:0:0:
256,176,228205,1,0,0:3:0:0:
480,224,228445,1,4,0:2:0:0:
160,80,228685,5,6,2:1:0:0:
352,80,228928,1,0,3:1:0:0:
160,128,229172,2,0,L|64:128,1,80,0|0,2:1|2:1,2:2:0:0:
352,80,229416,1,4,2:1:0:0:
160,80,229674,1,0,3:1:0:0:
352,128,229933,1,0,2:1:0:0:
32,128,230191,6,0,L|16:176,11,40,6|0|0|0|0|0|0|0|0|0|0|0,0:1|3:1|3:1|3:1|3:1|3:1|3:1|3:1|3:1|3:1|3:1|3:1,2:2:0:0:
256,96,231109,5,6,0:1:0:0:
64,96,231493,2,0,L|48:256,1,151.999995941162,2|2,2:1|2:1,2:2:0:0:
416,112,232390,6,0,L|496:112,2,63.9999980468751,6|0|0,0:0|2:1|2:1,2:2:0:0:
320,112,232678,2,0,L|240:112,2,63.9999980468751,0|0|0,2:1|3:1|3:1,2:2:0:0:
160,160,232966,5,2,0:1:0:0:
224,160,233063,1,0,2:1:0:0:
288,160,233159,1,0,2:1:0:0:
384,224,233255,1,0,2:1:0:0:
320,224,233351,1,0,3:1:0:0:
256,224,233447,1,0,3:1:0:0:
96,112,233543,6,0,L|16:112,2,63.9999980468751,2|0|0,0:1|2:1|2:1,2:2:0:0:
192,112,233831,2,0,L|272:112,2,63.9999980468751,0|0|0,2:1|3:1|3:1,2:2:0:0:
352,160,234120,5,2,0:1:0:0:
288,160,234216,1,0,2:1:0:0:
224,160,234313,1,0,2:1:0:0:
128,224,234409,1,0,2:1:0:0:
192,224,234505,1,0,3:1:0:0:
256,224,234601,1,0,3:1:0:0:
416,224,234697,6,0,L|432:288,1,47.9999985351563,2|0,2:1|2:1,2:2:0:0:
352,272,234841,2,0,L|336:320,1,47.9999985351563,0|0,3:1|2:1,2:2:0:0:
416,336,234986,2,0,L|352:336,1,47.9999985351563,0|0,3:1|2:1,2:2:0:0:
288,336,235130,2,0,L|224:336,1,47.9999985351563,0|0,3:1|2:1,2:2:0:0:
96,224,235274,6,0,L|80:288,1,47.9999985351563,8|0,2:1|2:1,2:2:0:0:
160,272,235418,2,0,L|176:320,1,47.9999985351563,0|0,3:1|2:1,2:2:0:0:
96,336,235563,2,0,L|160:336,1,47.9999985351563,0|0,3:1|2:1,2:2:0:0:
224,336,235707,2,0,L|288:336,1,47.9999985351563,0|0,3:1|2:1,2:2:0:0:
96,160,235851,6,0,L|112:112,1,47.9999985351563,2|0,2:1|2:1,2:2:0:0:
192,112,235995,2,0,L|256:112,1,47.9999985351563,0|0,3:1|2:1,2:2:0:0:
320,112,236140,2,0,L|304:64,1,47.9999985351563,0|0,3:1|2:1,2:2:0:0:
224,64,236284,2,0,L|160:64,1,47.9999985351563,0|0,3:1|2:1,2:2:0:0:
416,160,236428,6,0,L|400:112,1,47.9999985351563,8|0,2:1|2:1,2:2:0:0:
320,112,236572,2,0,L|256:112,1,47.9999985351563,0|0,3:1|2:1,2:2:0:0:
192,112,236717,2,0,L|208:64,1,47.9999985351563,0|0,3:1|2:1,2:2:0:0:
288,64,236861,2,0,L|352:64,1,47.9999985351563,0|0,3:1|2:1,2:2:0:0:
128,160,237005,5,0,3:1:0:0:
64,112,237063,1,0,0:0:0:0:
32,160,237120,1,0,0:0:0:0:
64,112,237178,1,0,0:0:0:0:
112,112,237236,1,0,2:1:0:0:
240,160,237293,5,0,3:1:0:0:
176,112,237351,1,0,0:0:0:0:
144,160,237409,1,0,0:0:0:0:
176,112,237466,1,0,0:0:0:0:
224,112,237524,1,0,2:1:0:0:
384,160,237582,5,0,3:1:0:0:
448,112,237640,1,0,0:0:0:0:
480,160,237697,1,0,0:0:0:0:
448,112,237755,1,0,0:0:0:0:
400,112,237813,1,0,2:1:0:0:
272,160,237870,5,0,3:1:0:0:
336,112,237928,1,0,0:0:0:0:
368,160,237986,1,0,0:0:0:0:
336,112,238043,1,0,0:0:0:0:
288,112,238101,1,0,2:1:0:0:
128,64,238159,5,0,3:1:0:0:
64,64,238216,2,0,L|41:103,1,38.399998828125
44,97,238332,2,0,L|64:64,1,38.399998828125,0|0,0:0|2:1,0:0:0:0:
224,64,238447,5,0,3:1:0:0:
288,64,238505,1,0,0:0:0:0:
256,112,238563,1,0,0:0:0:0:
208,112,238620,1,0,0:0:0:0:
144,112,238678,1,0,2:1:0:0:
304,128,238736,5,0,3:1:0:0:
368,128,238793,1,0,0:0:0:0:
336,176,238851,1,0,0:0:0:0:
288,176,238909,1,0,0:0:0:0:
224,176,238966,1,0,2:1:0:0:
384,64,239024,5,0,3:1:0:0:
448,64,239082,2,0,L|472:107,1,38.399998828125
466,97,239197,2,0,L|448:65,1,38.399998828125,0|0,0:0|2:1,0:0:0:0:
144,48,239313,5,0,2:1:0:0:
352,48,239601,2,0,L|368:96,1,47.9999985351563,0|0,3:1|3:1,2:2:0:0:
280,96,239745,2,0,L|232:96,1,47.9999985351563,0|0,3:1|3:1,2:2:0:0:
144,93,239890,6,0,L|160:48,1,47.9999985351563,0|0,3:1|3:1,2:2:0:0:
352,48,240034,2,0,L|367:93,1,47.9999985351563,0|0,3:1|3:1,2:2:0:0:
144,144,240178,2,0,L|80:144,1,47.9999985351563,0|0,3:1|3:1,2:2:0:0:
368,144,240322,2,0,L|432:144,1,47.9999985351563,0|0,3:1|3:1,2:2:0:0:
96,256,240466,6,0,P|48:224|116:123,1,191.999994140625,8|0,0:3|3:1,2:2:0:0:
160,80,240827,1,0,3:1:0:0:
96,64,240899,1,0,3:1:0:0:
160,32,240971,1,0,3:1:0:0:
416,256,241043,6,0,P|464:224|396:123,1,191.999994140625,12|0,0:1|3:1,2:2:0:0:
256,96,241404,1,0,3:2:0:0:
96,128,241476,1,0,3:2:0:0:
256,96,241548,1,0,3:2:0:0:
416,128,241620,1,12,0:1:0:0:
