osu file format v14

[General]
AudioFilename: audio.mp3
AudioLeadIn: 0
PreviewTime: 196432
Countdown: 0
SampleSet: Normal
StackLeniency: 0.7
Mode: 2
LetterboxInBreaks: 0
WidescreenStoryboard: 1

[Editor]
Bookmarks: 182000,233422
DistanceSpacing: 1.5
BeatDivisor: 4
GridSize: 4
TimelineZoom: 4.799998

[Metadata]
Title:Fly Like You [Long Version]
TitleUnicode:Fly Like You [Long Version]
Artist:technoplanet
ArtistUnicode:technoplanet
Creator:[ TNTlealu ]
Version:AFB's MAXIMUM
Source:SOUND VOLTEX IV HEAVENLY HAVEN
Tags:electronic -Joakh Shinsekai- sdvx 4 旋律世界 ΩDimension -Phase.5+- full ver sv instrumental konami video game rhythm [_Chichinya_] Chi Vulkin uone Rocma _Asriel Yumeno Himiko examination Minato Yukina CLSW alienflybot AFB Loneight l1106188 L18 岡聡志 安部泉希 autofanboy
BeatmapID:2907770
BeatmapSetID:1079909

[Difficulty]
HPDrainRate:6
CircleSize:4
OverallDifficulty:9.5
ApproachRate:9.5
SliderMultiplier:1.28
SliderTickRate:1

[Events]
//Background and Video events
0,0,"fcb914da2343ca7cea85c6f8803cf27e4147f5c0.png",0,0
//Break Periods
2,194679,195932
//Storyboard Layer 0 (Background)
//Storyboard Layer 1 (Fail)
//Storyboard Layer 2 (Pass)
//Storyboard Layer 3 (Foreground)
//Storyboard Layer 4 (Overlay)
//Storyboard Sound Samples

[TimingPoints]
625,209.79020979021,3,1,1,75,1,0
625,-100,3,1,1,75,0,0
1883,-102.040816326531,3,1,1,75,0,0
2093,-102.040816326531,3,1,1,75,0,0
2303,-100,3,1,1,75,0,0
3142,-100,3,1,1,75,0,0
4401,-102.040816326531,3,1,1,75,0,0
4611,-102.040816326531,3,1,1,75,0,0
4820,-100,3,1,1,75,0,0
5030,-99.009900990099,3,1,1,75,0,0
5240,-99.009900990099,3,1,1,75,0,0
5450,-99.009900990099,3,1,1,75,0,0
5869,-100,3,1,1,75,0,0
5974,-100,3,1,10,30,0,0
6079,-100,3,1,1,30,0,0
6918,-100,3,1,10,85,0,1
7127,-100,3,1,10,85,0,1
7232,-100,3,1,10,85,0,1
8386,-100,3,1,10,85,0,1
8491,-100,3,1,10,85,0,1
9435,-100,3,1,13,85,0,1
9539,-100,3,1,10,85,0,1
9645,-100,3,1,13,85,0,1
9854,-100,3,1,10,85,0,1
10064,-100,3,1,13,85,0,1
10484,-100,3,1,10,85,0,1
11323,-100,3,1,11,85,0,1
11428,-100,3,1,10,85,0,1
11952,-100,3,1,11,85,0,1
12162,-100,3,1,10,85,0,1
12266,-100,3,1,10,85,0,1
12792,-100,3,1,11,85,0,1
12897,-100,3,1,10,85,0,1
13630,-100,3,1,11,85,0,1
13841,-100,3,1,10,85,0,1
14155,-100,3,1,11,85,0,1
14260,-100,3,1,10,85,0,1
15099,-100,3,1,12,85,0,1
15309,-100,3,1,10,85,0,1
15729,-100,3,1,11,85,0,1
16358,-100,3,1,12,85,0,1
16988,-100,3,1,20,80,0,0
17091,-100,3,1,19,80,0,0
17302,-100,3,1,20,80,0,0
19085,-100,3,1,21,80,0,0
19348,-100,3,1,20,80,0,0
19400,-100,3,1,20,80,0,0
19715,-100,3,1,22,80,0,0
20134,-100,3,1,23,80,0,0
20239,-100,3,1,20,80,0,0
20344,-100,3,1,23,80,0,0
20921,-100,3,1,23,80,0,0
20973,-100,3,1,23,80,0,0
21131,-100,3,1,23,80,0,0
21183,-100,3,1,23,80,0,0
21341,-100,3,1,23,80,0,0
21393,-100,3,1,24,80,0,0
22022,-100,3,1,20,80,0,0
22127,-100,3,1,19,80,0,0
22337,-100,3,1,20,80,0,0
24120,-100,3,1,21,80,0,0
24383,-100,3,1,20,80,0,0
24434,-100,3,1,20,80,0,0
24750,-100,3,1,22,80,0,0
25169,-100,3,1,23,80,0,0
25956,-100,3,1,23,80,0,0
26008,-100,3,1,23,80,0,0
26166,-100,3,1,23,80,0,0
26218,-100,3,1,23,80,0,0
26376,-100,3,1,23,80,0,0
26428,-100,3,1,24,80,0,0
26533,-100,3,1,23,80,0,0
26638,-100,3,1,23,80,0,0
26743,-100,3,1,24,80,0,0
26848,-100,3,1,23,80,0,0
26952,-100,3,1,23,80,0,0
27057,-100,3,1,30,80,0,0
27267,-100,3,1,30,80,0,0
29785,-100,3,1,30,80,0,0
30204,-100,3,1,30,80,0,0
30624,-100,3,1,30,80,0,0
30834,-100,3,1,30,80,0,0
30938,-100,3,1,31,80,0,0
31043,-100,3,1,31,80,0,0
31148,-100,3,1,31,80,0,0
31253,-100,3,1,31,80,0,0
31358,-100,3,1,31,80,0,0
31463,-100,3,1,30,80,0,0
32092,-100,3,1,37,80,0,0
32302,-100,3,1,32,80,0,0
32406,-100,3,1,32,80,0,0
32512,-100,3,1,32,80,0,0
34400,-100,3,1,30,80,0,0
34610,-100,3,1,32,80,0,0
34820,-100,3,1,32,80,0,0
34977,-100,3,1,32,80,0,0
35029,-100,3,1,29,80,0,0
35239,-100,3,1,32,80,0,0
35659,-100,3,1,29,80,0,0
35869,-100,3,1,33,80,0,0
35973,-100,3,1,32,80,0,0
36078,-100,3,1,33,80,0,0
36392,-100,3,1,32,80,0,0
36498,-100,3,1,33,80,0,0
37127,-100,3,1,37,80,0,0
37336,-100,3,1,32,80,0,0
37757,-100,3,1,36,80,0,0
37861,-100,3,1,32,80,0,0
39015,-100,3,1,36,80,0,0
39119,-100,3,1,32,80,0,0
39645,-100,3,1,37,80,0,0
39750,-100,3,1,32,80,0,0
40274,-100,3,1,36,80,0,0
40344,-100,3,1,32,80,0,0
41533,-100,3,1,36,80,0,0
41637,-100,3,1,32,80,0,0
41900,-100,3,1,32,80,0,0
41952,-100,3,1,32,80,0,0
42110,-100,3,1,32,80,0,0
42162,-100,3,1,37,80,0,0
42266,-100,3,1,32,80,0,0
42371,-100,3,1,32,80,0,0
42792,-100,3,1,36,80,0,0
42897,-100,3,1,32,80,0,0
43001,-100,3,1,32,80,0,0
43421,-100,3,1,37,80,0,0
43526,-100,3,1,32,80,0,0
43736,-100,3,1,37,80,0,0
43841,-100,3,1,32,80,0,0
44155,-100,3,1,29,80,0,0
44575,-100,3,1,32,80,0,0
44680,225.563909774436,3,1,34,80,1,0
44680,-100,3,1,34,80,0,0
44905,-100,3,1,34,80,0,0
45356,-100,3,1,34,80,0,0
45582,-100,3,1,34,80,0,0
46033,-100,3,1,34,80,0,0
46710,-100,3,1,34,80,0,0
47386,209.79020979021,3,1,37,80,1,0
47386,-100,3,1,37,80,0,0
47490,-100,3,1,32,80,0,0
48015,-100,3,1,37,80,0,0
48119,-100,3,1,32,80,0,0
48224,-100,3,1,35,80,0,0
48644,-100,3,1,32,80,0,0
49274,-100,3,1,37,80,0,0
49378,-100,3,1,32,80,0,0
49693,-100,3,1,35,80,0,0
49903,-100,3,1,32,80,0,0
50532,-100,3,1,37,80,0,0
50636,-100,3,1,32,80,0,0
50952,-100,3,1,35,80,0,0
51004,-100,3,1,0,80,0,0
51057,-100,3,1,35,80,0,0
51162,-100,3,1,35,80,0,0
51267,-100,3,1,35,50,0,0
51372,-100,3,1,35,55,0,0
51476,-100,3,1,35,60,0,0
51581,-100,3,1,35,65,0,0
51686,-100,3,1,35,70,0,0
51790,-100,3,1,35,80,0,0
52630,-100,3,1,35,30,0,0
53679,-100,3,1,10,85,0,1
53889,-100,3,1,10,85,0,1
53994,-100,3,1,10,85,0,1
55148,-100,3,1,10,85,0,1
55253,-100,3,1,10,85,0,1
56197,-100,3,1,13,85,0,1
56301,-100,3,1,10,85,0,1
56406,-100,3,1,13,85,0,1
56616,-100,3,1,10,85,0,1
56826,-100,3,1,13,85,0,1
57246,-100,3,1,10,85,0,1
58085,-100,3,1,11,85,0,1
58189,-100,3,1,10,85,0,1
58714,-100,3,1,11,85,0,1
58924,-100,3,1,10,85,0,1
59028,-100,3,1,10,85,0,1
59553,-100,3,1,11,85,0,1
59658,-100,3,1,10,85,0,1
60392,-100,3,1,11,85,0,1
60602,-100,3,1,10,85,0,1
60917,-100,3,1,11,85,0,1
61022,-100,3,1,10,85,0,1
61232,-100,3,1,10,75,0,0
61861,-100,3,1,12,85,0,0
62071,-100,3,1,10,85,0,0
62350,-100,3,1,10,85,0,0
62490,-100,3,1,14,75,0,0
62560,-100,3,1,10,75,0,0
62700,-100,3,1,14,75,0,0
62770,-100,3,1,10,75,0,0
62910,-100,3,1,14,75,0,0
62962,-100,3,1,10,75,0,0
63015,-100,3,1,10,75,0,0
63120,-100,3,1,10,75,0,0
63225,-100,3,1,10,75,0,0
63330,-100,3,1,21,75,0,0
63434,-100,3,1,21,75,0,0
63539,-100,3,1,10,75,0,0
63592,-100,3,1,21,75,0,0
63644,-100,3,1,10,75,0,0
63697,-100,3,1,21,75,0,0
63749,-100,3,1,10,85,0,1
63959,-100,3,1,10,85,0,1
64064,-100,3,1,10,85,0,1
64169,-100,3,1,10,85,0,1
65218,-100,3,1,10,85,0,1
65427,-100,3,1,10,85,0,1
65742,-100,3,1,10,85,0,1
65847,-100,3,1,10,85,0,1
65952,-100,3,1,10,85,0,1
66057,-100,3,1,10,85,0,1
66162,-100,3,1,10,85,0,1
66267,-100,3,1,13,85,0,1
66372,-100,3,1,10,85,0,1
66476,-100,3,1,13,85,0,1
66686,-100,3,1,10,85,0,1
66896,-100,3,1,13,85,0,1
67316,-100,3,1,10,85,0,1
67525,-100,3,1,10,85,0,1
68155,-100,3,1,11,85,0,1
68260,-100,3,1,10,85,0,1
68574,-100,3,1,10,85,0,1
68627,-100,3,1,10,85,0,1
68679,-100,3,1,10,85,0,1
68732,-100,3,1,10,85,0,1
68784,-100,3,1,10,85,0,1
71931,-100,3,1,12,85,0,1
71984,-100,3,1,10,85,0,1
72560,-100,3,1,14,85,0,1
72770,-100,3,1,14,85,0,1
73084,-100,3,1,10,85,0,1
73190,-100,3,1,14,85,0,1
73399,-100,3,1,14,85,0,1
73504,-100,3,1,10,85,0,1
73819,-100,3,1,35,75,0,0
73923,-100,3,1,32,75,0,0
74029,-100,3,1,32,75,0,0
75288,-100,3,1,36,75,0,0
75392,-100,3,1,32,75,0,0
75497,-100,3,1,32,75,0,0
75707,-100,3,1,36,75,0,0
75811,-100,3,1,32,75,0,0
75916,-100,3,1,35,75,0,0
76127,-100,3,1,32,75,0,0
77805,-100,3,1,36,75,0,0
77910,-100,3,1,32,75,0,0
78014,-100,3,1,32,75,0,0
78225,-100,3,1,36,75,0,0
78329,-100,3,1,32,75,0,0
78434,-100,3,1,35,75,0,0
78644,-100,3,1,32,75,0,0
80322,-100,3,1,36,75,0,0
80532,-100,3,1,32,75,0,0
80742,-100,3,1,36,75,0,0
80952,-100,3,1,35,75,0,0
81266,-100,3,1,32,75,0,0
81372,-100,3,1,32,75,0,0
82420,-100,3,1,35,75,0,0
82630,-100,3,1,32,75,0,0
83364,-100,3,1,35,75,0,0
83573,-100,3,1,32,75,0,0
83889,-100,3,1,37,75,0,0
83994,-100,3,1,32,75,0,0
86092,-100,3,1,21,75,0,0
86302,-100,3,1,32,75,0,0
86406,-100,3,1,37,75,0,0
86825,-100,3,1,32,75,0,0
87036,-100,3,1,37,75,0,0
87455,-100,3,1,32,75,0,0
88924,-100,3,1,37,75,0,0
89133,-100,3,1,32,75,0,0
91441,-100,3,1,37,75,0,0
91860,-100,3,1,32,75,0,0
92071,-100,3,1,37,75,0,0
92490,-100,3,1,32,75,0,0
92700,-100,3,1,37,75,0,0
92804,-100,3,1,32,75,0,0
93399,-100,3,1,21,75,0,0
93487,-100,3,1,0,75,0,0
93539,-100,3,1,32,75,0,0
93609,-100,3,1,21,75,0,0
93697,-100,3,1,0,75,0,0
93749,-100,3,1,32,75,0,0
93959,-100,3,1,37,75,0,0
94063,-100,3,1,32,75,0,0
94169,-100,3,1,32,75,0,0
96057,-100,3,1,37,75,0,0
96162,-100,3,1,32,75,0,0
96267,-100,3,1,32,75,0,0
96476,-100,3,1,37,75,0,0
96685,-100,3,1,32,75,0,0
98365,-100,3,1,37,75,0,0
98469,-100,3,1,32,75,0,0
98574,-100,3,1,37,75,0,0
98679,-100,3,1,32,75,0,0
98994,-100,3,1,37,75,0,0
99203,-100,3,1,32,75,0,0
101511,-100,3,1,37,75,0,0
101616,-100,3,1,32,75,0,0
101721,-100,3,1,32,75,0,0
102770,-100,3,1,37,75,0,0
102875,-100,3,1,32,75,0,0
103085,-100,3,1,37,75,0,0
103189,-100,3,1,32,75,0,0
103399,-100,3,1,37,75,0,0
103503,-100,3,1,32,75,0,0
103714,-100,3,1,37,75,0,0
103819,-100,3,1,32,75,0,0
104029,217.391304347826,3,1,40,80,1,0
104029,-100,3,1,40,80,0,0
104246,-100,3,1,40,80,0,0
105659,-100,3,1,40,80,0,0
105768,-100,3,1,40,80,0,0
106202,-100,3,1,41,80,0,0
106275,-100,3,1,41,80,0,0
106420,-100,3,1,41,80,0,0
106855,-100,3,1,40,80,0,0
107506,-100,3,1,41,80,0,0
107615,-100,3,1,41,80,0,0
107724,-100,3,1,40,80,0,0
109029,-100,3,1,41,80,0,0
109246,-100,3,1,40,80,0,0
109463,-100,3,1,41,80,0,0
109572,-100,3,1,41,80,0,0
109681,-100,3,1,40,80,0,0
110224,-100,3,1,40,80,0,0
110333,-100,3,1,40,80,0,0
110768,-100,3,1,41,80,0,0
111419,-100,3,1,40,80,0,0
111474,-100,3,1,40,80,0,0
111637,-100,3,1,40,80,0,0
112942,-100,3,1,41,80,0,0
113159,-100,3,1,40,80,0,0
113231,-100,3,1,32,80,0,0
113376,-100,3,1,32,80,0,0
113702,-100,3,1,32,80,0,0
113739,-100,3,1,32,80,0,0
113811,-100,3,1,32,80,0,0
113920,-100,3,1,32,80,0,0
114029,-100,3,1,32,80,0,0
114137,-100,3,1,0,75,0,0
114246,-100,3,1,32,80,0,0
114355,-100,3,1,32,80,0,0
114463,225.563909774436,3,1,40,70,1,0
114463,-100,3,1,40,70,0,0
116719,-100,3,1,41,70,0,0
117394,-100,3,1,40,70,0,0
118072,-100,3,1,41,70,0,0
118297,-100,3,1,40,70,0,0
119650,-100,3,1,41,70,0,0
119876,-100,3,1,40,70,0,0
120101,-100,3,1,41,70,0,0
120327,-100,3,1,40,70,0,0
121455,-100,3,1,41,70,0,0
122357,-100,3,1,42,70,0,0
123259,-100,3,1,40,70,0,0
123484,-100,3,1,41,70,0,0
123936,209.79020979021,3,1,41,70,1,0
123936,-100,3,1,41,70,0,0
124040,-100,3,1,40,30,0,0
124145,-100,3,1,40,30,0,0
124249,-100,3,1,40,70,0,0
124775,-100,3,1,33,75,0,0
125142,-100,3,1,33,75,0,0
125194,209.79020979021,3,1,37,80,1,1
125194,-100,3,1,37,80,0,0
125403,-100,3,1,32,80,0,0
125509,-100,3,1,32,80,0,0
125614,-100,3,1,32,80,0,0
125824,-100,3,1,36,80,0,0
125928,-100,3,1,32,80,0,0
127082,-100,3,1,36,80,0,0
127187,-100,3,1,32,80,0,0
127712,-100,3,1,37,80,0,0
127817,-100,3,1,32,80,0,0
128341,-100,3,1,36,80,0,0
128411,-100,3,1,32,80,0,0
129600,-100,3,1,36,80,0,0
129705,-100,3,1,32,80,0,0
130229,-100,3,1,37,80,0,0
130334,-100,3,1,32,80,0,0
130859,-100,3,1,36,80,0,0
130963,-100,3,1,32,80,0,0
131172,-100,3,1,32,80,0,0
131278,-100,3,1,32,80,0,0
132117,-100,3,1,36,80,0,0
132221,-100,3,1,32,80,0,0
132747,-100,3,1,37,80,0,0
132956,-100,3,1,32,80,0,0
133376,-100,3,1,37,80,0,0
133481,-100,3,1,32,80,0,0
133585,-100,3,1,32,5,0,0
133795,-100,3,1,32,80,0,0
134215,-100,3,1,32,80,0,0
134320,-100,3,1,32,80,0,0
134740,-100,3,1,32,80,0,0
134845,-100,3,1,32,80,0,0
134949,-100,3,1,32,80,0,0
135054,-100,3,1,32,80,0,0
135159,-100,3,1,32,80,0,0
135264,-100,3,1,38,75,0,0
135474,-100,3,1,38,75,0,0
135683,-100,3,1,36,75,0,0
135788,-100,3,1,38,75,0,0
135894,-100,3,1,38,75,0,0
136942,-100,3,1,36,75,0,0
137046,-100,3,1,38,75,0,0
137152,-100,3,1,38,75,0,0
138201,-100,3,1,36,75,0,0
138411,-100,3,1,38,75,0,0
139459,-100,3,1,36,75,0,0
139670,-100,3,1,38,75,0,0
140299,-100,3,1,38,75,0,0
140509,-100,3,1,38,75,0,0
140719,-100,3,1,38,75,0,0
140929,-100,3,1,36,75,0,0
141138,-100,3,1,38,75,0,0
141348,-100,3,1,38,75,0,0
141558,-100,3,1,36,75,0,0
141663,-100,3,1,38,75,0,0
141768,-100,3,1,38,75,0,0
141977,-100,3,1,38,75,0,0
142187,-100,3,1,32,75,0,0
142292,-100,3,1,29,80,0,0
142397,-100,3,1,29,80,0,0
142607,-100,3,1,29,80,0,0
142816,225.563909774436,3,1,34,75,1,0
142816,-100,3,1,34,75,0,0
142873,-100,3,1,34,75,0,0
143492,-100,3,1,34,75,0,0
144734,-100,3,1,34,75,0,0
144846,-100,3,1,34,75,0,0
145522,209.79020979021,3,1,37,75,1,0
145522,-100,3,1,37,75,0,0
145626,-100,3,1,32,80,0,0
146151,-100,3,1,37,80,0,0
146255,-100,3,1,32,80,0,0
146360,-100,3,1,35,80,0,0
146780,-100,3,1,32,80,0,0
146884,-100,3,1,32,80,0,0
146990,-100,3,1,32,80,0,0
147304,-100,3,1,32,80,0,0
147410,-100,3,1,37,80,0,0
147515,-100,3,1,37,80,0,0
147549,-100,3,1,32,80,0,0
147619,-100,3,1,32,80,0,0
147724,-100,3,1,32,80,0,0
147829,-100,3,1,35,80,0,0
148039,-100,3,1,32,80,0,0
148354,-100,3,1,32,80,0,0
148459,-100,3,1,32,80,0,0
148668,-100,3,1,37,80,0,0
148773,-100,3,1,32,80,0,0
148982,-100,3,1,32,80,0,0
149088,-100,3,1,35,80,0,0
149298,-100,3,1,35,80,0,0
150661,-100,3,1,35,80,0,0
151815,-100,3,1,38,80,0,0
151868,-100,3,1,38,80,0,0
152235,-100,3,1,38,80,0,0
152287,-100,3,1,38,80,0,0
152969,-100,3,1,38,80,0,0
153022,-100,3,1,38,80,0,0
153074,-100,3,1,10,85,0,1
153284,-100,3,1,10,85,0,1
153389,-100,3,1,10,85,0,1
154542,-100,3,1,10,85,0,1
154647,-100,3,1,10,85,0,1
155591,-100,3,1,13,85,0,1
155695,-100,3,1,10,85,0,1
155801,-100,3,1,13,85,0,1
156010,-100,3,1,10,85,0,1
156221,-100,3,1,13,85,0,1
156640,-100,3,1,10,85,0,1
157480,-100,3,1,11,85,0,1
157584,-100,3,1,10,85,0,1
158109,-100,3,1,11,85,0,1
158319,-100,3,1,10,85,0,1
158423,-100,3,1,10,85,0,1
158948,-100,3,1,11,85,0,1
159053,-100,3,1,10,85,0,1
159787,-100,3,1,11,85,0,1
159997,-100,3,1,10,85,0,1
160312,-100,3,1,11,85,0,1
160417,-100,3,1,10,85,0,1
160626,-100,3,1,10,75,0,0
161256,-100,3,1,12,85,0,0
161466,-100,3,1,10,85,0,0
161745,-100,3,1,10,85,0,0
161885,-100,3,1,14,75,0,0
161955,-100,3,1,10,75,0,0
162095,-100,3,1,10,75,0,0
162200,-100,3,1,10,75,0,0
162235,-100,3,1,10,75,0,0
162305,-100,3,1,14,75,0,0
162357,-100,3,1,10,75,0,0
162410,-100,3,1,10,75,0,0
162515,-100,3,1,10,75,0,0
162619,-100,3,1,10,75,0,0
162724,-100,3,1,21,75,0,0
162829,-100,3,1,21,75,0,0
162934,-100,3,1,10,75,0,0
162987,-100,3,1,21,75,0,0
163039,-100,3,1,10,75,0,0
163091,-100,3,1,21,75,0,0
163144,-100,3,1,10,85,0,1
163354,-100,3,1,10,85,0,1
163459,-100,3,1,10,85,0,1
163563,-100,3,1,10,85,0,1
164612,-100,3,1,10,85,0,1
164822,-100,3,1,10,85,0,1
165137,-100,3,1,10,85,0,1
165242,-100,3,1,10,85,0,1
165347,-100,3,1,10,85,0,1
165452,-100,3,1,10,85,0,1
165556,-100,3,1,10,85,0,1
165661,-100,3,1,13,85,0,1
165765,-100,3,1,10,85,0,1
165871,-100,3,1,13,85,0,1
166081,-100,3,1,10,85,0,1
166291,-100,3,1,13,85,0,1
166710,-100,3,1,10,85,0,1
166920,-100,3,1,10,85,0,1
167549,-100,3,1,11,85,0,1
167654,-100,3,1,10,85,0,1
167969,-100,3,1,10,85,0,1
168022,-100,3,1,10,85,0,1
168074,-100,3,1,10,85,0,1
168126,-100,3,1,10,85,0,1
168179,-100,3,1,10,85,0,1
171325,-100,3,1,12,85,0,1
171378,-100,3,1,10,85,0,1
172584,-100,3,1,12,85,0,1
173214,-100,3,1,15,80,0,0
173319,-100,3,1,15,80,0,0
173354,-100,3,1,15,80,0,0
175731,-100,3,1,13,85,0,1
175835,-100,3,1,10,85,0,1
175941,-100,3,1,13,85,0,1
176150,-100,3,1,10,85,0,1
176361,-100,3,1,13,85,0,1
176780,-100,3,1,10,85,0,1
177619,-100,3,1,11,85,0,1
177724,-100,3,1,10,85,0,1
178039,-100,3,1,10,85,0,1
178091,-100,3,1,10,85,0,1
178144,-100,3,1,10,85,0,1
178196,-100,3,1,10,85,0,1
178249,-100,3,1,18,80,0,0
178354,-100,3,1,10,80,0,0
178878,-100,3,1,18,80,0,0
178948,-100,3,1,10,80,0,0
179508,-100,3,1,18,80,0,0
179612,-100,3,1,10,80,0,0
179717,-100,3,1,10,80,0,0
180137,-100,3,1,18,80,0,0
180241,-100,3,1,10,80,0,0
180976,-100,3,1,10,80,0,0
183126,-100,3,1,0,80,0,0
183179,-100,3,1,10,80,0,0
183229,-100,3,1,0,80,0,0
183284,217.391304347826,3,1,15,80,1,0
183284,-100,3,1,15,80,0,0
183501,-100,3,1,15,80,0,0
183827,-100,3,1,15,80,0,0
184153,-100,3,1,15,80,0,0
184370,-100,3,1,15,80,0,0
184443,-100,3,1,15,80,0,0
184588,-100,3,1,15,80,0,0
185349,-100,3,1,10,80,0,0
185838,-100,3,1,0,80,0,0
185892,225.563909774436,3,1,10,80,1,0
185892,-100,3,1,10,80,0,0
187170,-100,3,1,0,80,0,0
187245,234.375,3,1,10,80,1,0
187245,-100,3,1,10,80,0,0
187948,-100,3,1,11,80,0,0
188065,-100,3,1,10,80,0,0
188416,-100,3,1,10,80,0,0
188475,-100,3,1,10,80,0,0
188534,-100,3,1,10,80,0,0
188590,-100,3,1,0,80,0,0
188651,243.90243902439,3,1,11,80,1,0
188651,-100,3,1,11,80,0,0
188894,-100,3,1,16,80,0,0
189016,-100,3,1,16,80,0,0
189138,-100,3,1,16,80,0,0
189382,254.237288135593,3,1,16,80,1,0
189445,-100,3,1,16,80,0,0
189509,-100,3,1,16,80,0,0
189572,-100,3,1,16,80,0,0
189636,-100,3,1,16,80,0,0
189699,-100,3,1,16,80,0,0
189763,-100,3,1,16,80,0,0
189826,-100,3,1,16,80,0,0
189890,-100,3,1,16,80,0,0
189954,-100,3,1,16,80,0,0
190017,-100,3,1,16,80,0,0
190081,-100,3,1,16,80,0,0
190144,306.122448979592,3,1,16,80,1,0
190144,-100,3,1,16,80,0,0
190450,-100,3,1,16,80,0,0
190756,361.44578313253,3,1,16,80,1,0
190756,-100,3,1,16,80,0,0
191117,461.538461538462,3,1,16,80,1,1
191193,-100,3,1,16,80,0,0
191270,-100,3,1,16,80,0,0
191578,-100,3,1,16,80,0,0
191732,-100,3,1,16,80,0,0
191809,-100,3,1,16,80,0,0
191886,-100,3,1,16,80,0,0
191963,-100,3,1,16,80,0,0
192040,-100,3,1,16,80,0,0
192117,-100,3,1,16,80,0,0
192193,-100,3,1,16,80,0,0
192299,-100,3,1,16,80,0,0
192386,-100,3,1,16,80,0,0
192501,659.340659340659,3,1,16,80,1,0
192501,-100,3,1,16,80,0,0
194479,-100,3,1,38,80,0,0
196457,659.340659340659,3,1,16,50,1,0
196457,-100,3,1,16,50,0,0
197116,594.059405940594,3,1,17,50,1,0
197116,-100,3,1,17,50,0,0
198898,540.540540540541,3,1,17,50,1,0
198898,-100,3,1,17,50,0,0
203357,-100,3,1,17,50,0,0
203492,-100,3,1,17,50,0,0
203762,481.927710843374,3,1,17,60,1,0
203762,-100,3,1,17,60,0,0
205930,-100,3,1,17,60,0,0
206653,465.116279069767,3,1,17,60,1,0
206653,-100,3,1,17,60,0,0
209443,456.273764258555,3,1,1,60,1,0
209443,-100,3,1,1,60,0,0
209899,-100,3,1,17,60,0,0
210127,-100,3,1,32,60,0,0
210811,-100,3,1,1,60,0,0
211268,-100,3,1,17,60,0,0
211496,-100,3,1,32,60,0,0
212180,441.176470588235,3,1,1,70,1,0
212180,-100,3,1,1,70,0,0
212621,-100,3,1,17,70,0,0
212841,-100,3,1,32,70,0,0
213062,-100,3,1,17,70,0,0
213282,-100,3,1,32,70,0,0
213503,-100,3,1,1,70,0,0
213944,-100,3,1,17,70,0,0
214165,-100,3,1,32,70,0,0
214385,-100,3,1,17,70,0,0
214605,-100,3,1,10,70,0,0
214827,430.10752688172,3,1,1,75,1,0
214827,-100,3,1,1,75,0,0
215257,-100,3,1,10,75,0,0
215687,-100,3,1,1,75,0,0
215902,-100,3,1,10,75,0,0
216117,-100,3,1,1,75,0,0
216547,-100,3,1,10,75,0,0
216977,-100,3,1,1,75,0,0
217192,-100,3,1,10,75,0,0
217407,422.535211267606,3,1,1,75,1,0
217407,-100,3,1,1,75,0,0
217829,-100,3,1,10,75,0,0
218252,-100,3,1,1,75,0,0
218463,-100,3,1,10,75,0,0
218674,461.538461538462,3,1,1,80,1,1
218674,-100,3,1,1,80,0,0
219135,500,3,1,1,82,1,0
219135,-100,3,1,1,82,0,0
219385,545.454545454546,3,1,1,84,1,1
219385,-100,3,1,1,84,0,0
219657,600,3,1,1,86,1,1
219657,-100,3,1,1,86,0,0
219957,666.666666666667,3,1,1,88,1,1
219957,-100,3,1,1,88,0,0
220290,225.563909774436,3,1,10,90,1,1
220515,-100,3,1,10,90,0,1
220628,-100,3,1,10,90,0,1
220966,226.415094339623,3,1,10,90,1,1
221645,227.272727272727,3,1,10,90,1,1
221872,-100,3,1,10,90,0,1
221985,-100,3,1,10,90,0,1
222326,228.136882129278,3,1,10,90,1,1
223010,229.007633587786,3,1,10,90,1,1
223697,229.885057471264,3,1,10,90,1,1
224386,230.769230769231,3,1,10,90,1,1
224616,235.294117647059,3,1,10,90,1,1
224851,240,3,1,10,90,1,1
225091,244.897959183673,3,1,11,90,1,1
225213,-100,3,1,10,90,0,1
225335,250,3,1,10,90,1,1
225585,255.31914893617,3,1,10,90,1,1
225840,234.375,3,1,10,90,1,1
226074,-100,3,1,10,90,0,1
226191,-100,3,1,10,90,0,1
226543,236.220472440945,3,1,10,90,1,1
227251,238.095238095238,3,1,10,90,1,1
227965,240,3,1,10,90,1,1
228445,-100,3,1,11,90,0,1
228685,243.90243902439,3,1,10,90,1,1
229172,-100,3,1,40,90,0,1
229416,258.620689655172,3,1,12,90,1,1
229674,-100,3,1,10,90,0,1
229932,-100,3,1,40,90,0,1
230191,306.122448979592,3,1,10,90,1,1
231109,384.615384615385,3,1,10,90,1,1
231493,410.958904109589,3,1,10,90,1,1
231903,487.80487804878,3,1,1,90,1,1
232390,288.461538461538,4,1,10,80,1,0
232486,-100,4,1,40,80,0,0
232774,-100,4,1,10,80,0,0
233062,-100,4,1,40,80,0,0
233351,-100,4,1,10,80,0,0
233639,-100,4,1,40,80,0,0
233928,-100,4,1,10,80,0,0
234216,-100,4,1,40,80,0,0
234505,-100,4,1,10,80,0,0
234697,-100,4,1,1,80,0,0
237005,-100,4,1,10,80,0,0
237063,-100,4,1,10,80,0,0
237236,-100,4,1,40,80,0,0
237293,-100,4,1,10,80,0,0
237351,-100,4,1,10,80,0,0
237524,-100,4,1,40,80,0,0
237582,-100,4,1,10,80,0,0
237640,-100,4,1,10,80,0,0
237813,-100,4,1,40,80,0,0
237870,-100,4,1,10,80,0,0
237928,-100,4,1,10,80,0,0
238101,-100,4,1,40,80,0,0
238159,-100,4,1,10,80,0,0
238216,-100,4,1,10,80,0,0
238390,-100,4,1,40,80,0,0
238447,-100,4,1,10,80,0,0
238505,-100,4,1,10,80,0,0
238678,-100,4,1,40,80,0,0
238736,-100,4,1,10,80,0,0
238793,-100,4,1,10,80,0,0
238966,-100,4,1,40,80,0,0
239024,-100,4,1,10,80,0,0
239082,-100,4,1,10,80,0,0
239255,-100,4,1,40,80,0,0
239313,-100,4,1,1,80,0,0
239601,-100,4,1,10,80,0,0
240755,-100,4,1,1,80,0,0

[Colours]
Combo1 : 10,192,37
Combo2 : 0,221,221

[HitObjects]
192,336,625,6,0,L|320:336,1,128,12|0,0:0|2:1,2:2:0:0:
192,304,1044,1,0,3:1:0:0:
140,304,1149,1,0,3:0:0:0:
192,304,1254,1,0,3:0:0:0:
320,304,1464,1,0,2:1:0:0:
88,304,1673,1,0,3:0:0:0:
320,304,1883,6,0,P|369:191|320:80,1,250.879997703125,8|8,2:1|2:1,2:2:0:0:
191,80,2513,1,8,0:3:0:0:
320,80,2722,1,0,3:1:0:0:
191,80,2932,1,0,3:1:0:0:
460,48,3142,6,0,L|332:48,1,128,14|0,0:0|2:1,2:2:0:0:
460,80,3562,1,0,3:1:0:0:
512,80,3666,1,0,3:0:0:0:
460,80,3771,1,2,3:1:0:0:
228,80,3981,1,0,3:0:0:0:
460,80,4191,1,0,3:0:0:0:
96,80,4401,6,0,P|47:191|96:303,1,250.879997703125,14|8,0:0|3:1,0:0:0:0:
371,304,5030,2,0,P|256:120|139:302,1,517.119989742188,14|0,0:0|0:0,0:0:0:0:
256,192,6079,12,0,6708,0:0:0:0:
88,304,6919,6,0,P|35:234|100:176,1,192,6|2,0:0|0:0,2:2:0:0:
296,208,7338,2,0,L|304:144,1,64,10|0,0:3|2:0,2:2:0:0:
208,112,7548,2,0,L|200:48,1,64,2|0,0:0|0:0,0:0:0:0:
396,80,7758,2,0,L|404:144,1,64,10|0,0:3|3:0,2:2:0:0:
324,176,7967,1,8,3:0:0:0:
404,176,8072,1,0,0:0:0:0:
160,80,8177,6,0,L|352:80,1,192,6|2,0:0|0:0,2:2:0:0:
160,80,8597,2,0,L|152:144,1,64,10|0,0:3|3:1,2:2:0:0:
232,176,8807,1,2,0:0:0:0:
152,176,8912,1,2,0:0:0:0:
340,144,9016,2,0,L|348:208,1,64,10|2,0:3|3:1,2:2:0:0:
248,240,9226,2,0,L|240:304,1,64,8|2,3:0|3:1,2:2:0:0:
452,336,9436,6,0,L|324:336,2,128,6|6|8,0:0|0:0|3:2,2:2:0:0:
176,304,10065,1,6,0:0:0:0:
256,304,10170,1,2,2:1:0:0:
336,304,10275,1,6,0:0:0:0:
60,336,10485,1,8,3:2:0:0:
48,292,10537,1,0,3:0:0:0:
60,248,10590,1,0,3:0:0:0:
92,220,10642,1,0,3:0:0:0:
344,188,10695,6,0,L|352:124,1,64,2|0,0:2|3:1,2:2:0:0:
256,124,10905,2,0,L|256:60,1,64,8|0,0:3|3:1,2:2:0:0:
160,188,11114,2,0,L|152:124,1,64,8|0,0:3|3:1,0:0:0:0:
388,220,11324,5,2,0:2:0:0:
480,220,11429,1,8,3:3:0:0:
388,252,11534,1,2,0:0:0:0:
296,252,11639,1,8,3:0:0:0:
388,288,11744,1,8,0:3:0:0:
480,288,11849,1,8,3:0:0:0:
128,316,11953,6,0,P|75:246|140:188,1,192,6|2,0:0|0:1,2:2:0:0:
336,156,12373,1,8,0:3:0:0:
256,156,12478,1,0,2:1:0:0:
176,124,12583,1,2,0:0:0:0:
256,124,12688,1,0,3:1:0:0:
452,124,12793,1,10,0:3:0:0:
372,124,12898,1,0,3:1:0:0:
452,124,13002,2,0,L|460:60,1,64,8|0,0:3|3:1,0:0:0:0:
232,28,13212,6,0,L|216:156,1,128,2|2,0:1|0:1,2:2:0:0:
296,188,13527,2,0,L|304:252,1,64,2|10,0:0|0:3,2:2:0:0:
88,284,13842,2,0,L|80:220,1,64,2|2,0:2|0:0,0:0:0:0:
160,188,14051,1,8,0:3:0:0:
80,156,14156,1,2,3:2:0:0:
0,156,14261,1,8,0:3:0:0:
80,156,14366,1,2,3:1:0:0:
256,316,14471,6,0,L|128:316,1,128,6|8,0:1|0:3,2:2:0:0:
256,284,14891,1,10,0:3:0:0:
336,284,14995,1,0,3:2:0:0:
256,284,15100,1,6,0:0:0:0:
456,252,15310,2,0,P|475:193|456:133,1,128,8|2,0:3|0:0,0:0:0:0:
164,100,15730,5,14,2:3:0:0:
256,100,15835,1,0,0:0:0:0:
344,132,15939,1,2,0:0:0:0:
256,132,16044,1,0,0:0:0:0:
164,164,16149,2,0,L|156:228,1,64,14|0,2:3|0:0,0:0:0:0:
348,164,16359,5,4,0:1:0:0:
384,176,16412,1,0,2:0:0:0:
416,200,16464,1,4,0:1:0:0:
432,232,16516,1,0,2:0:0:0:
440,268,16569,1,4,2:1:0:0:
432,304,16622,1,0,2:0:0:0:
416,336,16674,1,4,0:1:0:0:
384,360,16726,1,0,2:0:0:0:
348,372,16779,1,4,0:1:0:0:
308,372,16831,1,0,2:0:0:0:
348,340,16884,1,4,0:1:0:0:
308,340,16936,1,0,2:0:0:0:
184,340,16988,6,0,L|176:276,1,64,14|8,0:0|2:1,2:2:0:0:
256,244,17198,1,8,2:1:0:0:
80,244,17303,1,8,0:3:0:0:
328,244,17618,6,0,L|336:180,1,64,2|0,0:1|2:1,2:2:0:0:
256,148,17828,1,8,0:3:0:0:
176,148,17932,1,0,2:1:0:0:
256,116,18037,1,8,0:3:0:0:
176,116,18142,1,0,3:0:0:0:
460,116,18247,6,0,P|479:175|460:235,1,128,14|4,2:2|2:3,2:2:0:0:
296,268,18562,1,12,0:3:0:0:
216,268,18667,1,4,3:0:0:0:
296,268,18772,1,4,3:0:0:0:
52,300,18877,6,0,L|44:236,1,64,2|0,0:0|0:0,0:0:0:0:
124,204,19086,1,10,0:0:0:0:
204,204,19191,1,0,0:0:0:0:
124,172,19296,1,12,0:0:0:0:
44,172,19401,1,0,3:1:0:0:
84,172,19453,1,0,3:1:0:0:
344,204,19506,5,6,0:0:0:0:
216,204,19716,1,8,0:0:0:0:
168,188,19786,1,4,0:0:0:0:
132,152,19856,1,2,0:0:0:0:
120,104,19925,1,2,0:0:0:0:
132,56,19995,1,8,0:2:0:0:
168,20,20065,1,4,0:2:0:0:
216,4,20135,5,6,0:2:0:0:
296,4,20240,1,2,3:1:0:0:
216,36,20345,1,6,0:3:0:0:
296,36,20450,1,0,2:1:0:0:
376,68,20555,2,0,L|384:132,1,64,6|0,0:0|2:1,2:2:0:0:
156,164,20765,5,12,0:0:0:0:
356,164,20974,1,12,0:3:0:0:
156,164,21184,1,12,0:2:0:0:
464,168,21394,6,0,L|472:232,1,64,10|10,0:0|0:0,2:2:0:0:
392,264,21604,1,8,3:2:0:0:
312,264,21709,1,0,0:0:0:0:
392,296,21814,1,10,0:3:0:0:
472,296,21919,1,0,0:0:0:0:
216,328,22023,5,14,0:0:0:0:
136,328,22128,1,8,2:1:0:0:
216,328,22233,1,8,2:1:0:0:
392,328,22338,1,8,0:3:0:0:
144,296,22653,6,0,L|136:232,1,64,2|0,0:1|2:1,2:2:0:0:
216,200,22863,1,8,0:3:0:0:
136,200,22967,1,0,2:1:0:0:
56,168,23072,1,8,0:3:0:0:
136,168,23177,1,0,3:0:0:0:
392,136,23282,6,0,L|400:104,2,32,14|0|4,2:2|0:0|2:3,0:0:0:0:
312,168,23492,1,4,2:3:0:0:
488,200,23597,2,0,L|496:264,1,64,12|4,0:3|3:0,2:2:0:0:
416,296,23807,1,4,3:0:0:0:
216,328,23912,6,0,L|208:264,1,64,2|0,0:0|0:0,0:0:0:0:
304,232,24121,1,10,0:0:0:0:
208,232,24226,1,0,0:0:0:0:
304,200,24331,2,0,L|312:136,1,64,12|0,0:0|3:2,0:0:0:0:
128,104,24541,5,6,0:0:0:0:
256,104,24751,1,8,0:0:0:0:
304,120,24821,1,4,0:0:0:0:
340,156,24891,1,2,0:0:0:0:
352,204,24960,1,2,0:0:0:0:
340,252,25030,1,8,0:2:0:0:
304,288,25100,1,4,0:2:0:0:
256,304,25170,5,6,0:2:0:0:
128,304,25380,2,0,P|109:245|128:185,1,128,6|6,0:3|0:0,2:2:0:0:
416,152,25800,5,12,0:0:0:0:
256,152,26009,1,12,0:3:0:0:
96,152,26219,1,12,0:2:0:0:
384,120,26429,5,6,0:2:0:0:
464,120,26534,1,2,0:1:0:0:
384,120,26639,1,8,0:3:0:0:
176,84,26744,1,6,0:1:0:0:
256,84,26849,1,2,0:0:0:0:
336,84,26953,1,8,0:3:0:0:
128,120,27058,6,0,L|0:120,2,128,6|0|2,2:1|0:0|3:0,2:2:0:0:
320,120,27688,1,8,2:1:0:0:
192,120,27898,2,0,L|184:248,1,128,0|2,0:0|3:0,0:0:0:0:
376,248,28317,6,0,L|504:248,1,128,2|0,2:1|0:0,2:2:0:0:
512,312,28632,1,0,0:0:0:0:
432,344,28737,1,2,3:1:0:0:
352,344,28842,1,2,3:0:0:0:
432,344,28946,1,8,2:1:0:0:
216,344,29156,2,0,L|208:280,1,64,0|0,0:0|0:0,0:0:0:0:
304,248,29366,1,8,3:0:0:0:
80,248,29576,5,4,2:1:0:0:
256,192,29681,12,0,30625,0:0:0:0:
344,372,30835,6,0,L|352:308,1,64,2|2,2:1|2:0,2:2:0:0:
256,276,31044,2,0,L|256:212,1,64,8|8,2:3|2:3,2:2:0:0:
160,372,31254,2,0,L|152:308,1,64,10|8,2:1|2:1,2:2:0:0:
412,276,31464,5,8,3:1:0:0:
400,228,31533,1,2,2:0:0:0:
364,192,31603,1,2,2:0:0:0:
272,192,31674,1,0,3:0:0:0:
224,192,31744,1,2,2:0:0:0:
272,192,31814,1,8,2:3:0:0:
364,192,31884,1,8,2:0:0:0:
412,192,31953,1,2,2:0:0:0:
364,192,32023,1,2,2:0:0:0:
136,276,32093,6,0,P|83:206|148:148,1,192,6|0,0:1|0:0,2:2:0:0:
328,148,32513,6,0,L|336:84,1,64,0|0,3:1|3:1,0:0:0:0:
96,52,32723,1,12,0:3:0:0:
176,52,32828,1,0,2:1:0:0:
256,20,32932,1,0,3:1:0:0:
176,20,33037,1,0,2:1:0:0:
96,84,33142,2,0,L|88:148,1,64,0|0,3:1|3:1,2:2:0:0:
256,180,33352,6,0,P|275:239|256:299,1,128,2|4,0:1|2:3,2:2:0:0:
80,332,33667,2,0,L|72:268,1,64,2|0,0:1|3:1,2:2:0:0:
152,236,33877,1,0,2:1:0:0:
344,204,33981,6,0,L|216:204,1,128,12|0,0:3|3:1,2:2:0:0:
296,204,34296,1,0,3:1:0:0:
472,172,34401,2,0,L|480:108,1,64,8|0,2:3|0:0,0:0:0:0:
304,76,34611,6,0,L|432:76,1,128,2|4,0:1|3:2,2:2:0:0:
352,76,34925,1,0,3:1:0:0:
96,76,35030,1,2,3:2:0:0:
64,104,35083,1,8,2:1:0:0:
52,148,35136,1,2,3:2:0:0:
64,192,35188,1,8,2:1:0:0:
96,220,35240,5,2,0:1:0:0:
296,252,35450,1,4,3:2:0:0:
216,252,35555,1,0,3:1:0:0:
416,220,35659,1,2,3:2:0:0:
448,248,35712,1,8,2:1:0:0:
460,292,35764,1,2,3:2:0:0:
448,336,35817,1,8,2:1:0:0:
416,364,35869,5,6,0:1:0:0:
336,364,35974,1,0,3:1:0:0:
256,332,36079,1,10,0:1:0:0:
336,332,36184,1,0,0:0:0:0:
416,332,36289,2,0,L|424:268,1,64,8|0,2:1|2:1,0:0:0:0:
216,236,36499,5,10,0:3:0:0:
296,236,36604,1,0,0:0:0:0:
88,204,36709,1,10,2:2:0:0:
48,204,36761,1,0,0:0:0:0:
88,204,36814,1,0,0:0:0:0:
296,172,36919,1,14,3:2:0:0:
336,172,36971,1,0,0:0:0:0:
296,172,37023,1,0,0:0:0:0:
88,204,37128,6,0,P|69:145|88:85,1,128,6|0,0:1|3:1,0:0:0:0:
312,116,37443,1,0,0:0:0:0:
392,116,37548,1,8,0:3:0:0:
312,116,37653,1,0,3:1:0:0:
144,116,37758,2,0,L|136:180,1,64,2|0,0:3|2:1,2:2:0:0:
216,244,37967,5,8,0:3:0:0:
136,244,38072,1,0,2:1:0:0:
332,244,38177,1,8,0:3:0:0:
412,244,38282,1,0,3:1:0:0:
216,244,38387,6,0,P|197:303|216:363,1,128,2|0,0:1|3:1,2:2:0:0:
296,364,38702,1,2,0:1:0:0:
104,364,38807,5,8,0:3:0:0:
24,364,38912,1,0,0:0:0:0:
296,364,39016,2,0,L|304:300,1,64,2|2,0:3|2:1,0:0:0:0:
208,268,39226,2,0,L|200:204,1,64,8|2,0:3|2:1,2:2:0:0:
408,204,39436,1,8,0:3:0:0:
488,204,39541,1,2,2:1:0:0:
232,236,39646,6,0,L|216:108,1,128,6|0,0:1|3:1,2:2:0:0:
296,76,39960,1,2,0:1:0:0:
376,76,40065,1,8,0:3:0:0:
72,44,40275,5,2,0:3:0:0:
24,44,40345,1,0,3:1:0:0:
72,44,40415,1,0,3:1:0:0:
168,44,40485,1,8,0:3:0:0:
168,76,40555,1,0,3:1:0:0:
168,108,40625,1,0,3:1:0:0:
264,108,40695,1,8,0:3:0:0:
312,108,40765,1,0,3:1:0:0:
264,108,40835,1,0,3:1:0:0:
72,108,40905,6,0,P|19:178|84:236,1,192,2|2,0:1|0:1,2:2:0:0:
256,236,41324,1,12,0:3:0:0:
128,268,41534,6,0,L|120:332,1,64,2|2,0:3|2:1,0:0:0:0:
336,364,41744,1,8,0:3:0:0:
256,364,41849,1,10,2:1:0:0:
176,332,41953,1,12,0:3:0:0:
256,332,42058,1,10,2:1:0:0:
448,364,42163,6,0,P|467:305|448:245,1,128,6|4,0:1|3:0,2:2:0:0:
368,212,42478,1,10,0:0:0:0:
448,212,42583,1,8,0:3:0:0:
216,212,42793,6,0,L|208:148,1,64,2|0,0:1|0:0,2:2:0:0:
304,116,43002,2,0,L|312:52,1,64,8|8,0:3|3:1,0:0:0:0:
216,20,43212,1,0,3:1:0:0:
228,68,43265,1,0,0:0:0:0:
260,100,43317,1,8,3:1:0:0:
304,116,43370,1,0,0:0:0:0:
112,116,43422,6,0,L|96:244,1,128,6|0,0:1|3:1,2:2:0:0:
280,212,43737,2,0,L|296:340,1,128,6|0,0:1|3:1,2:2:0:0:
216,372,44051,1,2,0:1:0:0:
296,372,44156,1,10,3:1:0:0:
72,372,44261,6,0,L|64:308,1,64,10|10,0:2|3:1,0:0:0:0:
296,272,44471,1,10,0:2:0:0:
216,272,44576,1,8,0:3:0:0:
448,240,44681,5,6,3:2:0:0:
256,240,45356,1,8,3:2:0:0:
64,240,46033,1,2,3:3:0:0:
320,208,46710,5,8,3:3:0:0:
192,208,46935,2,0,P|173:149|192:89,1,128,2|4,3:3|3:3,0:0:0:0:
480,56,47386,6,0,L|352:56,1,128,6|0,0:1|3:1,2:2:0:0:
272,56,47700,2,0,L|400:56,1,128,8|0,0:3|3:1,0:0:0:0:
176,56,48015,6,0,P|157:115|176:175,1,128,6|2,0:1|3:0,2:2:0:0:
256,176,48330,1,2,3:0:0:0:
336,208,48434,1,8,3:0:0:0:
256,208,48539,1,8,3:0:0:0:
80,208,48644,5,10,0:1:0:0:
0,208,48749,1,0,0:0:0:0:
96,240,48854,2,0,L|104:304,1,64,8|0,0:3|3:1,0:0:0:0:
8,336,49064,1,8,0:3:0:0:
88,336,49169,1,0,0:0:0:0:
296,368,49274,6,0,L|304:304,1,64,6|0,0:1|2:1,2:2:0:0:
208,272,49483,1,8,0:3:0:0:
304,272,49588,1,8,0:3:0:0:
208,240,49693,2,0,L|200:176,1,64,2|8,3:0|3:0,2:2:0:0:
432,208,49903,5,10,0:1:0:0:
352,208,50008,1,2,2:1:0:0:
256,176,50113,1,8,0:3:0:0:
336,176,50218,1,0,0:0:0:0:
432,176,50323,2,0,L|440:112,1,64,8|0,0:3|3:1,0:0:0:0:
168,176,50532,6,0,L|160:112,1,64,6|2,0:1|2:1,0:0:0:0:
256,80,50742,2,0,L|256:16,1,64,2|0,2:1|0:0,2:2:0:0:
352,176,50952,2,0,L|360:112,1,64,8|2,3:0|3:0,0:0:0:0:
80,112,51162,5,2,0:1:0:0:
256,112,51372,1,8,2:2:0:0:
160,112,51476,1,8,2:2:0:0:
256,144,51581,1,8,2:2:0:0:
160,144,51686,1,8,2:2:0:0:
352,112,51790,5,2,2:2:0:0:
396,124,51844,1,2,2:2:0:0:
432,148,51896,1,2,2:2:0:0:
456,184,51947,1,2,2:2:0:0:
464,228,52000,1,2,2:2:0:0:
456,272,52053,1,2,2:2:0:0:
432,308,52106,1,2,2:2:0:0:
396,332,52158,1,2,2:2:0:0:
352,344,52210,1,2,2:2:0:0:
312,344,52263,1,2,2:2:0:0:
352,312,52316,1,2,2:2:0:0:
312,312,52368,1,2,2:2:0:0:
272,312,52420,5,0,0:0:0:0:
256,192,52525,12,0,53469,2:1:0:0:
292,344,53679,6,0,P|345:274|280:216,1,192,6|2,0:0|0:0,2:2:0:0:
84,248,54099,2,0,L|76:184,1,64,10|0,0:3|2:0,2:2:0:0:
156,152,54309,1,2,0:0:0:0:
76,152,54413,1,0,0:0:0:0:
272,120,54518,2,0,L|280:56,1,64,10|0,0:3|3:0,2:2:0:0:
200,24,54728,1,8,3:0:0:0:
280,24,54833,1,0,0:0:0:0:
472,88,54938,6,0,L|280:88,1,192,6|2,0:0|0:0,2:2:0:0:
84,88,55358,2,0,L|76:152,1,64,10|0,0:3|3:1,2:2:0:0:
156,184,55567,1,2,0:0:0:0:
236,184,55672,1,2,0:0:0:0:
44,216,55777,2,0,L|52:280,1,64,10|2,0:3|3:1,2:2:0:0:
132,312,55987,1,8,3:0:0:0:
52,312,56092,1,2,3:1:0:0:
320,344,56197,6,0,L|192:344,2,128,6|6|8,0:0|0:0|3:2,0:0:0:0:
44,344,56826,2,0,L|36:280,1,64,6|0,0:0|0:0,2:2:0:0:
116,248,57036,1,6,0:0:0:0:
396,248,57246,1,0,3:2:0:0:
428,220,57298,1,0,3:0:0:0:
440,176,57351,1,0,3:0:0:0:
428,132,57403,1,0,3:0:0:0:
256,100,57455,5,2,0:2:0:0:
160,100,57560,1,0,3:1:0:0:
256,100,57665,2,0,L|264:36,1,64,8|0,0:3|3:1,2:2:0:0:
168,36,57875,1,8,0:3:0:0:
71,36,57980,1,0,3:1:0:0:
344,36,58085,6,0,L|352:100,1,64,2|8,0:2|3:3,2:2:0:0:
256,132,58295,1,2,0:0:0:0:
160,132,58399,1,8,3:0:0:0:
256,164,58504,1,8,0:3:0:0:
160,164,58609,1,8,3:0:0:0:
388,164,58714,6,0,P|441:234|376:292,1,192,6|2,0:0|0:1,2:2:0:0:
176,324,59134,1,8,0:3:0:0:
256,324,59239,1,0,2:1:0:0:
336,356,59344,1,2,0:0:0:0:
256,356,59448,1,0,3:1:0:0:
60,356,59553,1,10,0:3:0:0:
140,356,59658,1,0,3:1:0:0:
60,356,59763,2,0,L|52:292,1,64,8|0,0:3|3:1,0:0:0:0:
280,260,59973,6,0,L|296:132,1,128,2|2,0:1|0:1,2:2:0:0:
216,100,60288,2,0,L|208:36,1,64,2|10,0:0|0:3,2:2:0:0:
424,4,60602,1,2,0:2:0:0:
344,4,60707,2,0,L|336:68,1,64,2|8,0:0|0:3,0:0:0:0:
416,100,60917,1,6,3:2:0:0:
496,100,61022,1,8,0:3:0:0:
416,100,61127,1,2,3:1:0:0:
192,132,61232,6,0,L|320:132,1,128,6|8,0:1|0:3,2:2:0:0:
192,132,61651,2,0,L|184:196,1,64,10|0,0:3|3:2,2:2:0:0:
264,228,61861,1,6,0:0:0:0:
64,228,62071,2,0,P|45:287|64:347,1,128,8|2,0:3|0:0,0:0:0:0:
100,312,62350,1,0,0:0:0:0:
148,296,62420,1,0,0:0:0:0:
304,264,62490,5,2,0:1:0:0:
352,264,62560,1,0,3:1:0:0:
304,264,62630,1,0,3:1:0:0:
208,264,62700,1,2,0:1:0:0:
160,264,62770,1,0,3:1:0:0:
208,264,62840,1,0,3:1:0:0:
360,232,62910,5,2,0:1:0:0:
440,232,63015,1,0,3:0:0:0:
400,232,63067,1,0,3:0:0:0:
248,232,63120,2,2,L|240:168,1,64,2|2,0:1|0:1,0:0:0:0:
432,136,63330,2,0,L|440:72,1,64,2|4,2:1|2:1,2:2:0:0:
256,40,63539,1,2,3:1:0:0:
336,40,63644,1,2,3:1:0:0:
296,40,63697,1,4,3:1:0:0:
140,40,63749,6,0,P|53:71|28:160,1,192,6|0,0:0|3:0,2:2:0:0:
108,192,64169,1,2,3:0:0:0:
28,192,64274,1,0,2:0:0:0:
224,192,64379,6,0,L|232:256,1,64,6|0,0:0|2:0,0:0:0:0:
136,288,64588,2,0,L|128:352,1,64,2|0,0:3|3:0,2:2:0:0:
224,384,64798,1,0,3:0:0:0:
144,384,64903,1,0,3:0:0:0:
372,384,65008,6,0,P|459:353|484:264,1,192,6|0,0:0|3:0,2:2:0:0:
404,232,65427,1,2,2:3:0:0:
484,232,65532,1,0,3:1:0:0:
208,232,65637,5,6,0:0:0:0:
304,232,65742,1,2,0:0:0:0:
208,200,65847,2,0,L|200:136,1,64,10|2,0:3|3:1,2:2:0:0:
296,104,66057,2,0,L|304:40,1,64,8|2,3:0|3:1,2:2:0:0:
60,8,66267,6,0,L|188:8,2,128,6|6|8,0:0|0:0|3:2,2:2:0:0:
336,40,66896,1,6,0:0:0:0:
256,40,67001,1,2,2:1:0:0:
176,40,67106,1,6,0:0:0:0:
452,8,67316,1,8,3:2:0:0:
464,52,67368,1,0,3:0:0:0:
452,96,67421,1,0,3:0:0:0:
420,124,67473,1,0,3:0:0:0:
208,156,67525,6,0,L|200:220,1,64,2|0,0:2|3:1,2:2:0:0:
296,252,67735,2,0,L|304:316,1,64,8|0,0:3|3:1,2:2:0:0:
208,348,67945,1,8,0:3:0:0:
304,348,68050,1,0,3:1:0:0:
64,348,68155,5,2,0:2:0:0:
160,348,68260,1,8,3:3:0:0:
256,316,68365,1,2,0:0:0:0:
160,316,68469,1,8,3:0:0:0:
256,284,68574,2,0,L|264:252,3,32,8|0|8|0,0:3|0:0|3:0|0:0,0:0:0:0:
64,220,68784,6,0,L|256:220,1,192,6|2,0:0|0:1,2:2:0:0:
64,220,69204,2,0,L|56:156,1,64,8|0,0:3|2:1,2:2:0:0:
152,124,69413,1,2,0:1:0:0:
188,88,69484,1,0,3:1:0:0:
200,40,69553,1,0,3:1:0:0:
104,8,69623,1,8,0:3:0:0:
56,8,69693,1,0,3:1:0:0:
104,8,69763,1,0,3:1:0:0:
304,8,69833,5,8,0:3:0:0:
352,8,69903,1,0,3:1:0:0:
304,8,69973,1,0,3:1:0:0:
208,8,70043,1,2,0:1:0:0:
424,40,70253,2,0,L|432:104,1,64,0|2,3:1|0:1,2:2:0:0:
352,136,70462,1,8,0:3:0:0:
160,168,70672,6,0,L|152:232,1,64,2|2,0:1|0:1,2:2:0:0:
232,264,70882,1,8,0:3:0:0:
312,296,70987,1,2,0:1:0:0:
232,296,71092,1,8,3:3:0:0:
152,296,71197,1,8,3:3:0:0:
192,296,71249,1,0,0:0:0:0:
440,296,71302,5,14,0:1:0:0:
312,296,71511,1,8,0:3:0:0:
440,296,71721,2,0,L|448:232,1,64,10|0,0:3|3:2,2:2:0:0:
236,200,71931,5,6,0:0:0:0:
204,172,71984,1,0,3:0:0:0:
192,128,72037,1,0,3:0:0:0:
204,84,72089,1,0,3:0:0:0:
236,56,72141,1,8,0:3:0:0:
276,56,72193,1,0,3:0:0:0:
236,24,72246,1,0,3:0:0:0:
276,24,72298,1,0,3:0:0:0:
308,84,72351,1,2,0:0:0:0:
320,128,72404,1,0,3:0:0:0:
308,172,72456,1,8,3:0:0:0:
276,200,72508,1,0,3:0:0:0:
64,232,72560,6,0,B|60:104|60:104|56:232|56:232|52:168,1,320,12|0,0:3|3:0,2:2:0:0:
252,200,73190,2,0,B|256:72|256:72|260:136,1,192,12|0,0:3|2:1,2:2:0:0:
456,104,73609,2,0,L|452:40,1,64,2|8,3:1|2:3,2:2:0:0:
192,8,73819,6,0,L|64:8,2,128,6|12|8,0:1|3:3|0:3,2:2:0:0:
384,40,74448,1,2,0:1:0:0:
256,40,74658,1,8,0:3:0:0:
128,40,74868,1,8,0:3:0:0:
320,8,75078,5,2,0:1:0:0:
192,8,75288,2,0,P|173:67|192:127,1,128,8|8,3:1|0:3,2:2:0:0:
408,160,75707,2,0,P|427:219|408:279,1,128,2|2,2:3|3:0,2:2:0:0:
344,312,76022,1,8,3:0:0:0:
408,312,76127,1,8,0:3:0:0:
100,344,76337,6,0,L|92:216,1,128,6|8,0:3|0:3,2:2:0:0:
220,184,76756,1,8,0:3:0:0:
412,216,76966,2,0,L|420:88,1,128,2|8,0:1|0:3,2:2:0:0:
292,56,77385,1,8,0:3:0:0:
100,24,77595,5,2,0:1:0:0:
228,24,77805,2,0,P|247:83|228:143,1,128,8|12,0:1|0:3,2:2:0:0:
36,176,78225,2,0,P|17:235|36:295,1,128,2|2,0:3|0:3,2:2:0:0:
84,296,78504,1,0,0:0:0:0:
36,328,78574,1,0,0:0:0:0:
84,328,78644,1,14,0:2:0:0:
384,328,78854,5,6,0:3:0:0:
256,328,79064,1,4,3:3:0:0:
128,328,79274,1,8,0:3:0:0:
320,296,79483,1,2,0:1:0:0:
192,296,79693,2,0,P|173:237|192:177,1,128,12|12,0:3|0:3,2:2:0:0:
384,144,80113,6,0,L|512:144,2,128,2|8|8,0:1|3:1|0:3,2:2:0:0:
192,176,80742,1,2,2:3:0:0:
320,176,80952,2,0,P|339:117|320:57,1,128,6|12,3:0|0:3,2:2:0:0:
36,24,81372,6,0,L|164:24,2,128,6|12|8,0:3|2:2|0:3,2:2:0:0:
228,56,82001,1,2,0:1:0:0:
100,56,82211,2,0,L|92:184,1,128,8|12,0:3|0:3,2:2:0:0:
376,216,82630,6,0,L|384:344,1,128,10|10,0:1|0:3,2:2:0:0:
256,344,83050,1,8,0:3:0:0:
448,376,83260,2,0,L|456:312,1,64,8|2,0:3|0:3,2:2:0:0:
360,280,83469,2,0,L|352:216,1,64,8|2,0:3|3:2,2:2:0:0:
448,184,83679,1,0,3:2:0:0:
368,184,83784,1,4,3:2:0:0:
124,184,83889,6,0,P|105:125|124:65,1,128,10|0,0:1|2:1,2:2:0:0:
320,32,84204,2,0,L|192:32,1,128,8|4,0:3|2:2,2:2:0:0:
388,64,84518,6,0,L|396:128,1,64,2|0,0:1|2:2,2:2:0:0:
300,160,84728,2,0,L|292:224,1,64,8|0,0:3|2:1,2:2:0:0:
488,256,84938,2,0,L|496:320,1,64,8|4,0:3|2:2,2:2:0:0:
224,352,85148,6,0,L|96:352,1,128,2|0,0:1|2:1,2:2:0:0:
288,320,85462,1,8,0:3:0:0:
352,320,85567,1,0,2:1:0:0:
416,320,85672,1,4,2:2:0:0:
216,288,85777,6,0,L|208:224,1,64,2|0,0:1|0:0,0:0:0:0:
304,192,85987,1,8,0:3:0:0:
208,160,86092,1,2,2:1:0:0:
168,160,86144,1,2,2:1:0:0:
128,160,86197,1,4,2:1:0:0:
224,128,86302,1,4,2:2:0:0:
32,96,86406,6,0,L|96:96,1,64,6|0,0:1|0:0,0:0:0:0:
304,64,86616,2,0,L|176:64,1,128,6|4,0:1|2:2,2:2:0:0:
256,32,86931,1,0,0:0:0:0:
480,96,87036,6,0,L|416:96,1,64,6|0,0:1|0:0,0:0:0:0:
192,128,87246,1,6,0:1:0:0:
320,128,87455,2,0,L|324:160,2,32,8|0|8,0:3|0:0|0:3,2:2:0:0:
88,192,87665,5,2,0:1:0:0:
280,192,87875,2,0,L|152:192,1,128,2|8,0:1|0:3,0:0:0:0:
344,192,88295,6,0,L|352:256,1,64,2|8,0:1|0:3,2:2:0:0:
256,288,88504,2,0,L|256:352,1,64,2|8,0:1|0:3,2:2:0:0:
160,192,88714,2,0,L|152:256,1,64,2|8,0:1|0:3,2:2:0:0:
192,256,88872,1,0,0:0:0:0:
388,256,88924,6,0,P|407:197|388:137,1,128,10|0,0:1|2:1,2:2:0:0:
192,104,89239,2,0,L|320:104,1,128,8|4,0:3|2:2,0:0:0:0:
124,136,89553,6,0,L|116:72,1,64,2|0,0:1|2:1,2:2:0:0:
196,40,89763,1,8,0:3:0:0:
116,40,89868,1,4,2:2:0:0:
316,40,89973,1,8,0:3:0:0:
396,40,90078,1,0,2:1:0:0:
196,40,90183,6,0,L|68:40,1,128,2|0,0:1|2:1,2:2:0:0:
256,72,90497,2,0,L|264:136,1,64,8|2,0:3|2:1,2:2:0:0:
184,168,90707,1,4,2:2:0:0:
376,168,90812,6,0,L|440:168,1,64,2|0,0:1|0:0,0:0:0:0:
344,200,91022,1,8,0:3:0:0:
440,200,91127,2,0,L|448:232,2,32,4|4|12,2:2|2:2|2:2,2:2:0:0:
344,200,91337,1,0,3:1:0:0:
120,200,91441,6,0,L|56:200,1,64,6|0,0:1|0:0,0:0:0:0:
256,232,91651,2,0,P|275:291|256:351,1,128,6|8,2:1|2:1,2:2:0:0:
176,352,91966,1,0,0:0:0:0:
392,320,92071,6,0,L|456:320,1,64,6|0,2:1|0:0,0:0:0:0:
256,288,92281,1,6,2:1:0:0:
384,288,92490,2,0,L|392:256,2,32,8|0|8,0:3|2:0|0:3,2:2:0:0:
168,256,92700,6,0,L|160:192,1,64,10|0,0:1|2:1,2:2:0:0:
256,160,92910,2,0,L|256:96,1,64,2|0,0:1|2:1,2:2:0:0:
352,256,93120,2,0,L|360:192,1,64,2|0,0:1|2:1,2:2:0:0:
128,192,93330,5,2,0:1:0:0:
80,192,93399,1,4,2:1:0:0:
128,192,93469,1,2,2:1:0:0:
224,192,93539,1,2,0:1:0:0:
224,160,93609,1,2,2:1:0:0:
224,128,93679,1,4,2:1:0:0:
320,128,93749,1,2,2:1:0:0:
332,84,93801,1,8,2:1:0:0:
320,40,93854,1,2,2:1:0:0:
288,12,93906,1,8,2:1:0:0:
128,44,93959,6,0,L|0:44,2,128,10|2|8,0:1|0:1|0:3,2:2:0:0:
48,76,94483,1,0,0:0:0:0:
296,108,94588,6,0,L|312:236,1,128,2|2,0:1|0:1,2:2:0:0:
184,236,95008,2,0,L|176:300,1,64,8|0,0:3|0:0,0:0:0:0:
368,332,95218,6,0,L|376:268,1,64,2|4,0:1|2:1,2:2:0:0:
296,236,95427,1,8,0:3:0:0:
216,236,95532,1,0,0:1:0:0:
296,204,95637,1,8,0:3:0:0:
216,204,95742,1,4,2:3:0:0:
136,172,95847,2,0,L|128:108,1,64,2|0,0:1|0:0,2:2:0:0:
320,76,96057,5,10,0:1:0:0:
192,76,96267,1,8,0:3:0:0:
272,76,96372,1,0,3:1:0:0:
460,44,96476,6,0,P|479:103|460:163,1,128,6|2,0:1|0:1,2:2:0:0:
256,196,96896,2,0,L|248:260,1,64,8|0,0:3|2:1,0:0:0:0:
328,292,97106,1,2,0:1:0:0:
248,292,97211,1,0,3:1:0:0:
328,324,97316,1,2,0:1:0:0:
408,324,97420,2,0,L|416:260,1,64,4|8,0:2|0:3,2:2:0:0:
336,232,97630,1,0,2:1:0:0:
120,232,97735,5,2,0:1:0:0:
248,232,97945,2,0,L|256:168,1,64,2|4,0:1|0:2,2:2:0:0:
160,136,98155,1,8,0:3:0:0:
352,104,98260,1,0,0:1:0:0:
160,136,98365,5,10,0:1:0:0:
80,136,98469,1,4,0:2:0:0:
160,136,98574,1,10,0:1:0:0:
352,104,98679,1,0,0:1:0:0:
256,104,98784,2,0,L|248:72,2,32,8|0|4,0:3|0:0|0:2,2:2:0:0:
460,40,98994,6,0,L|332:40,2,128,6|2|8,0:1|0:1|0:3,2:2:0:0:
180,72,99623,1,2,0:1:0:0:
332,72,99833,1,2,0:1:0:0:
380,72,99903,1,0,3:1:0:0:
332,72,99973,1,0,3:1:0:0:
236,72,100043,1,8,0:3:0:0:
204,100,100095,1,0,0:0:0:0:
192,144,100148,1,0,0:0:0:0:
204,188,100200,1,0,0:0:0:0:
236,216,100253,5,2,0:1:0:0:
316,216,100358,1,0,3:1:0:0:
236,248,100462,1,2,0:1:0:0:
156,248,100567,1,0,3:1:0:0:
348,284,100672,1,8,0:3:0:0:
268,284,100777,1,0,3:2:0:0:
76,316,100882,6,0,L|68:252,1,64,2|8,0:1|0:3,0:0:0:0:
148,220,101092,1,2,0:1:0:0:
340,188,101197,1,0,0:0:0:0:
260,156,101302,2,0,L|252:92,1,64,8|0,0:3|0:1,0:0:0:0:
444,124,101511,6,0,L|452:60,1,64,6|0,0:1|0:0,2:2:0:0:
356,28,101721,1,2,0:1:0:0:
316,28,101774,1,0,0:0:0:0:
276,28,101826,1,0,2:1:0:0:
356,60,101931,1,8,0:3:0:0:
436,60,102036,1,4,0:2:0:0:
224,60,102141,6,0,L|216:124,1,64,2|4,0:1|0:2,2:2:0:0:
296,156,102351,1,2,0:1:0:0:
216,156,102455,1,0,0:1:0:0:
24,188,102560,2,0,L|16:220,2,32,8|0|4,0:3|0:0|2:2,0:0:0:0:
208,220,102770,5,6,0:1:0:0:
304,220,102875,1,4,2:2:0:0:
208,220,102980,1,8,0:3:0:0:
428,220,103085,2,0,L|436:284,1,64,10|0,0:1|2:2,2:2:0:0:
340,316,103295,1,8,0:3:0:0:
84,348,103399,6,0,L|76:284,1,64,6|0,0:1|0:1,2:2:0:0:
172,252,103609,1,8,0:3:0:0:
352,220,103714,1,10,0:1:0:0:
256,220,103819,1,8,0:3:0:0:
208,220,103872,1,0,0:0:0:0:
160,220,103924,1,8,0:3:0:0:
344,188,104029,5,12,1:1:0:0:
472,188,104246,1,2,2:1:0:0:
492,156,104355,1,0,2:1:0:0:
472,124,104463,1,8,3:1:0:0:
256,92,104681,2,0,L|384:92,1,128,12|2,1:2|2:2,2:2:0:0:
320,92,105007,1,0,2:1:0:0:
256,92,105115,1,8,3:3:0:0:
40,60,105333,5,8,1:3:0:0:
168,60,105550,1,2,2:3:0:0:
188,92,105659,1,0,0:0:0:0:
168,124,105768,1,2,3:2:0:0:
384,156,105985,2,0,L|256:156,1,128,6|8,1:2|2:1,2:2:0:0:
216,156,106275,1,0,0:0:0:0:
176,156,106347,1,0,0:0:0:0:
136,156,106420,1,2,3:1:0:0:
352,188,106637,5,8,1:1:0:0:
224,192,106855,1,2,2:2:0:0:
204,224,106963,1,0,2:1:0:0:
224,256,107072,1,8,3:2:0:0:
440,256,107289,2,0,P|459:315|440:375,1,128,12|8,1:1|2:2,2:2:0:0:
376,376,107615,1,0,0:0:0:0:
440,376,107724,1,8,3:1:0:0:
224,344,107942,5,12,2:3:0:0:
352,344,108159,1,8,2:2:0:0:
372,312,108268,1,0,2:1:0:0:
352,280,108376,1,8,3:1:0:0:
136,248,108594,2,0,L|264:248,1,128,6|12,1:1|3:1,2:2:0:0:
48,248,109029,1,2,3:2:0:0:
352,216,109246,5,12,1:1:0:0:
224,216,109463,1,8,2:2:0:0:
216,184,109572,1,0,0:0:0:0:
208,152,109681,1,8,3:2:0:0:
424,120,109898,2,0,L|296:120,1,128,12|8,1:3|2:2,2:2:0:0:
360,120,110224,1,0,0:0:0:0:
296,120,110333,1,8,3:3:0:0:
80,88,110550,5,12,1:3:0:0:
208,88,110768,1,8,2:3:0:0:
144,88,110876,1,0,2:1:0:0:
136,56,110985,1,2,3:1:0:0:
352,24,111202,2,0,L|480:24,1,128,12|2,1:1|2:2,0:0:0:0:
488,56,111474,1,0,0:0:0:0:
480,88,111529,1,0,0:0:0:0:
416,88,111637,1,8,3:2:0:0:
200,120,111855,5,12,1:3:0:0:
328,120,112072,1,2,2:2:0:0:
336,152,112181,1,0,2:1:0:0:
344,184,112289,1,8,3:2:0:0:
128,216,112507,2,0,L|256:216,1,128,6|8,1:1|2:1,2:2:0:0:
320,216,112833,1,0,2:1:0:0:
384,216,112942,1,2,3:2:0:0:
96,248,113159,5,12,1:1:0:0:
224,248,113376,1,2,0:1:0:0:
260,212,113449,1,0,3:1:0:0:
272,164,113521,1,0,3:1:0:0:
260,116,113594,1,2,0:1:0:0:
224,80,113666,1,0,3:1:0:0:
176,64,113739,1,0,3:1:0:0:
24,32,113811,6,0,L|16:96,1,64,2|0,0:1|0:0,0:0:0:0:
112,128,114029,1,8,0:3:0:0:
208,128,114137,1,0,0:0:0:0:
112,160,114246,1,8,0:3:0:0:
208,160,114355,1,8,0:3:0:0:
384,192,114463,5,12,2:1:0:0:
256,192,114688,2,0,P|237:251|256:311,1,128,2|8,2:1|2:1,0:0:0:0:
472,344,115139,1,12,2:2:0:0:
344,344,115365,2,0,P|325:285|344:225,1,128,2|8,2:2|2:3,0:0:0:0:
128,192,115816,5,12,2:3:0:0:
256,192,116041,2,0,P|275:133|256:73,1,128,2|2,2:3|2:2,0:0:0:0:
40,40,116493,1,6,2:2:0:0:
168,40,116719,2,0,P|187:99|168:159,1,128,8|6,2:1|2:1,0:0:0:0:
384,192,117169,6,0,L|512:192,2,128,8|2|8,2:1|2:2|2:2,2:2:0:0:
188,192,117846,1,12,2:1:0:0:
316,192,118072,2,0,L|324:64,1,128,8|8,2:2|2:2,0:0:0:0:
128,32,118523,6,0,L|0:32,2,128,12|8|8,2:3|2:2|2:1,0:0:0:0:
344,64,119199,1,6,2:1:0:0:
128,64,119425,1,12,2:1:0:0:
344,64,119650,1,2,2:2:0:0:
128,64,119876,6,0,P|109:123|128:183,1,128,12|8,2:1|2:2,2:2:0:0:
256,216,120327,1,8,2:2:0:0:
40,248,120553,2,0,L|168:248,2,128,12|8|8,2:3|2:2|2:3,2:2:0:0:
256,216,121229,5,6,2:2:0:0:
384,184,121455,2,0,P|403:243|384:303,1,128,8|2,2:3|2:1,2:2:0:0:
168,336,121906,2,0,L|40:336,2,128,12|8|8,2:1|2:3|2:1,2:2:0:0:
384,336,122583,5,6,2:1:0:0:
256,304,122808,2,0,P|236:244|255:184,1,128,8|2,2:2|2:1,0:0:0:0:
472,152,123259,2,0,L|344:152,2,128,6|8|2,2:2|2:1|2:1,2:2:0:0:
160,120,123936,5,8,2:1:0:0:
288,120,124145,2,0,L|296:56,1,64,0|2,2:1|2:1,2:2:0:0:
216,24,124355,2,0,L|208:88,1,64,0|0,2:1|2:1,0:0:0:0:
384,120,124565,5,0,3:1:0:0:
256,120,124775,1,10,2:2:0:0:
128,120,124984,1,14,2:2:0:0:
416,204,125194,6,0,P|435:263|416:323,1,128,6|0,0:1|3:1,0:0:0:0:
176,352,125509,1,0,0:0:0:0:
256,352,125614,1,8,0:3:0:0:
336,352,125719,1,0,3:1:0:0:
144,324,125824,2,0,L|136:260,1,64,2|0,0:3|2:1,2:2:0:0:
216,228,126033,5,8,0:3:0:0:
136,228,126138,1,0,2:1:0:0:
328,228,126243,1,8,0:3:0:0:
408,228,126348,1,0,3:1:0:0:
216,228,126453,6,0,P|197:169|216:109,1,128,2|0,0:1|3:1,2:2:0:0:
296,108,126768,1,2,0:1:0:0:
104,108,126873,2,0,L|96:44,1,64,8|0,0:3|2:0,2:2:0:0:
336,12,127082,5,2,0:3:0:0:
256,12,127187,1,2,2:1:0:0:
176,12,127292,1,8,0:3:0:0:
256,12,127397,1,2,2:1:0:0:
448,44,127502,2,0,L|456:108,1,64,8|2,0:3|0:1,0:0:0:0:
256,140,127712,6,0,L|384:140,1,128,6|0,0:1|3:1,2:2:0:0:
304,172,128026,1,2,0:1:0:0:
384,172,128131,1,8,0:3:0:0:
160,172,128341,5,2,0:3:0:0:
112,172,128411,1,0,3:1:0:0:
160,172,128481,1,0,3:1:0:0:
256,172,128551,1,8,0:3:0:0:
256,204,128621,1,0,3:1:0:0:
256,236,128691,1,0,3:1:0:0:
352,236,128761,1,8,0:3:0:0:
400,236,128831,1,0,3:1:0:0:
352,236,128901,1,0,3:1:0:0:
164,236,128970,6,0,P|111:306|176:364,1,192,2|2,0:1|0:1,0:0:0:0:
344,364,129389,1,12,0:3:0:0:
216,332,129600,1,2,0:3:0:0:
136,332,129705,1,2,2:1:0:0:
336,332,129810,2,0,L|344:268,1,64,8|10,0:3|2:1,2:2:0:0:
264,236,130019,2,0,L|256:172,1,64,12|10,0:3|2:1,2:2:0:0:
456,140,130229,6,0,L|328:140,1,128,6|4,0:1|3:0,2:2:0:0:
408,108,130544,1,10,0:0:0:0:
328,108,130649,1,8,0:3:0:0:
104,76,130859,2,0,L|96:140,1,64,2|0,0:1|0:0,2:2:0:0:
176,172,131068,2,0,L|184:236,1,64,8|0,0:3|0:0,2:2:0:0:
104,268,131278,1,8,3:1:0:0:
60,284,131331,1,0,3:0:0:0:
28,316,131383,1,8,3:1:0:0:
16,364,131436,1,0,3:0:0:0:
208,364,131488,6,0,L|336:364,1,128,2|0,0:0|3:0,0:0:0:0:
256,332,131803,1,2,0:0:0:0:
176,332,131908,1,8,0:3:0:0:
448,332,132117,6,0,L|456:268,1,64,2|2,0:0|2:1,0:0:0:0:
376,236,132327,1,8,0:3:0:0:
296,236,132432,1,0,3:0:0:0:
376,204,132537,1,8,0:3:0:0:
456,204,132642,1,2,1:0:0:0:
264,172,132747,6,0,P|245:113|264:53,1,128,10|0,0:1|2:1,2:2:0:0:
392,20,133166,1,0,2:1:0:0:
120,20,133376,2,0,L|248:20,2,128,6|0|8,0:1|0:0|0:3,2:2:0:0:
392,20,134005,6,0,P|411:79|392:139,1,128,2|4,0:1|2:2,2:2:0:0:
312,172,134320,1,2,0:1:0:0:
392,172,134425,1,8,0:3:0:0:
184,172,134635,2,0,L|176:236,1,64,2|2,0:1|0:1,0:0:0:0:
256,268,134845,1,8,0:3:0:0:
176,268,134949,1,0,0:0:0:0:
368,300,135054,1,8,0:3:0:0:
448,300,135159,1,0,0:0:0:0:
256,332,135264,6,0,P|237:273|256:213,1,128,6|0,0:1|3:1,2:2:0:0:
384,180,135683,1,0,3:3:0:0:
168,180,135894,2,0,L|40:180,2,128,8|0|0,0:1|3:1|3:1,2:2:0:0:
384,180,136523,6,0,P|403:121|384:61,1,128,2|0,0:1|3:1,2:2:0:0:
304,28,136838,1,2,0:1:0:0:
384,28,136942,1,0,3:3:0:0:
168,28,137152,1,8,0:1:0:0:
296,60,137362,1,0,3:1:0:0:
424,92,137572,1,0,3:1:0:0:
148,124,137782,6,0,P|72:216|148:304,1,256,6|0,0:1|3:1,2:2:0:0:
364,336,138411,2,0,P|383:277|364:217,1,128,8|0,0:1|3:1,2:2:0:0:
236,184,138830,1,0,3:1:0:0:
20,152,139040,5,2,0:1:0:0:
236,184,139250,2,0,L|108:184,1,128,2|0,0:1|3:1,0:0:0:0:
324,216,139670,1,8,0:1:0:0:
188,216,139880,2,0,P|169:157|188:97,1,128,0|0,3:1|3:1,2:2:0:0:
456,64,140299,6,0,P|475:123|456:183,1,128,6|0,0:1|3:1,2:2:0:0:
332,216,140719,1,0,3:1:0:0:
116,248,140929,2,0,L|244:248,2,128,8|0|0,0:3|3:1|3:1,2:2:0:0:
392,280,141558,5,14,2:2:0:0:
264,280,141768,1,0,3:1:0:0:
136,280,141977,1,0,3:1:0:0:
352,312,142187,1,2,0:1:0:0:
224,312,142397,1,10,0:1:0:0:
440,344,142607,1,10,0:2:0:0:
160,344,142816,5,6,3:2:0:0:
352,344,143492,1,0,3:2:0:0:
160,344,144169,1,0,3:3:0:0:
416,312,144846,6,0,L|288:312,2,128,8|2|4,3:3|3:3|3:3,0:0:0:0:
96,312,145522,6,0,P|77:253|96:193,1,128,6|0,0:1|3:1,2:2:0:0:
176,160,145836,2,0,L|48:160,1,128,8|0,0:3|3:1,0:0:0:0:
296,192,146151,6,0,P|315:133|296:73,1,128,6|2,0:1|3:0,2:2:0:0:
216,40,146466,1,2,3:0:0:0:
136,40,146570,1,8,3:0:0:0:
216,40,146675,1,8,3:0:0:0:
464,40,146780,6,0,L|472:104,1,64,10|0,0:1|0:0,2:2:0:0:
376,136,146990,1,8,0:3:0:0:
296,136,147095,1,0,3:1:0:0:
200,168,147200,2,0,L|192:232,1,64,8|0,0:3|0:0,2:2:0:0:
400,200,147410,5,6,0:1:0:0:
320,200,147515,1,0,0:0:0:0:
224,232,147619,1,8,0:3:0:0:
304,232,147724,1,0,0:0:0:0:
400,264,147829,2,0,L|408:328,1,64,2|8,3:0|3:0,2:2:0:0:
200,360,148039,5,10,0:1:0:0:
120,360,148144,1,2,2:1:0:0:
216,328,148249,1,8,0:3:0:0:
136,328,148354,1,0,0:0:0:0:
40,328,148459,2,0,L|32:264,1,64,8|0,0:3|3:1,0:0:0:0:
276,232,148668,5,6,0:1:0:0:
356,232,148773,1,2,2:1:0:0:
260,200,148878,2,0,L|252:136,1,64,2|0,2:1|0:0,2:2:0:0:
156,104,149088,1,8,3:0:0:0:
236,104,149193,1,2,3:0:0:0:
432,72,149298,5,2,0:1:0:0:
256,72,149508,1,8,2:2:0:0:
352,72,149612,1,8,2:2:0:0:
256,40,149717,1,8,2:2:0:0:
352,40,149822,1,8,2:2:0:0:
160,40,149927,5,2,2:2:0:0:
128,68,149979,1,2,2:2:0:0:
116,112,150032,1,2,2:2:0:0:
128,156,150084,1,2,2:2:0:0:
160,184,150137,1,2,2:2:0:0:
192,212,150190,1,2,2:2:0:0:
204,256,150242,1,2,2:2:0:0:
192,300,150295,1,2,2:2:0:0:
160,328,150347,1,2,2:2:0:0:
120,328,150399,1,2,2:2:0:0:
160,296,150452,1,2,2:2:0:0:
120,296,150504,1,2,2:2:0:0:
80,296,150556,5,0,0:0:0:0:
256,192,150661,12,2,151815,2:2:0:0:
256,192,152235,12,0,152864,0:0:0:0:
220,360,153074,6,0,L|412:360,1,192,6|2,0:0|0:0,2:2:0:0:
216,328,153494,2,0,L|208:264,1,64,10|0,0:3|2:0,2:2:0:0:
304,232,153703,2,0,L|312:168,1,64,2|0,0:0|0:0,0:0:0:0:
116,136,153913,2,0,L|108:72,1,64,10|0,0:3|3:0,2:2:0:0:
188,40,154123,1,8,3:0:0:0:
108,40,154228,1,0,0:0:0:0:
300,72,154333,6,0,P|353:142|288:200,1,192,14|2,0:0|0:0,2:2:0:0:
96,232,154752,2,0,L|88:296,1,64,10|0,0:3|3:1,2:2:0:0:
168,328,154962,1,2,0:0:0:0:
88,328,155067,1,2,0:0:0:0:
280,296,155172,1,10,0:3:0:0:
360,296,155277,1,2,3:1:0:0:
280,296,155382,1,8,3:0:0:0:
200,296,155487,1,2,3:1:0:0:
392,328,155591,6,0,L|264:328,2,128,6|6|8,0:0|0:0|3:2,0:0:0:0:
116,328,156221,1,6,0:0:0:0:
36,328,156326,1,0,0:0:0:0:
116,328,156431,1,6,0:0:0:0:
392,328,156640,1,8,3:2:0:0:
380,280,156693,1,0,3:0:0:0:
348,248,156745,1,0,3:0:0:0:
304,232,156798,1,0,3:0:0:0:
72,200,156850,6,0,L|64:136,1,64,2|0,0:2|3:1,2:2:0:0:
160,104,157060,1,8,0:3:0:0:
256,104,157165,1,0,3:1:0:0:
160,104,157270,2,0,L|152:40,1,64,8|0,0:3|3:1,0:0:0:0:
440,8,157480,6,0,L|448:72,1,64,2|8,0:2|3:3,2:2:0:0:
352,104,157689,1,2,0:0:0:0:
256,104,157794,1,8,3:0:0:0:
352,136,157899,1,8,0:3:0:0:
256,136,158004,1,8,3:0:0:0:
448,168,158109,6,0,P|501:238|436:296,1,192,6|2,0:0|0:1,2:2:0:0:
216,328,158528,2,0,L|208:264,1,64,8|0,0:3|2:1,2:2:0:0:
304,232,158738,2,0,L|312:168,1,64,2|0,0:0|3:1,2:2:0:0:
76,136,158948,1,10,0:3:0:0:
156,136,159053,1,0,3:1:0:0:
76,136,159158,2,0,L|68:72,1,64,8|0,0:3|3:1,0:0:0:0:
304,40,159368,6,0,L|176:40,1,128,2|2,0:1|0:1,0:0:0:0:
256,72,159682,1,2,0:0:0:0:
336,72,159787,1,10,0:3:0:0:
120,104,159997,2,0,L|112:168,1,64,2|0,0:2|0:0,0:0:0:0:
192,200,160207,1,8,0:3:0:0:
112,232,160312,1,6,3:2:0:0:
32,232,160417,1,8,0:3:0:0:
112,232,160522,1,2,3:1:0:0:
344,264,160626,6,0,P|363:205|344:145,1,128,6|8,0:1|0:3,0:0:0:0:
216,112,161046,1,10,0:3:0:0:
296,112,161151,1,0,3:2:0:0:
376,112,161256,1,6,0:0:0:0:
160,80,161466,6,0,L|32:80,1,128,8|2,0:3|0:0,0:0:0:0:
68,116,161745,1,0,0:0:0:0:
116,132,161815,1,0,0:0:0:0:
296,164,161885,5,2,0:1:0:0:
344,164,161955,1,0,3:1:0:0:
296,164,162025,1,0,3:1:0:0:
200,164,162095,1,0,0:0:0:0:
152,164,162165,1,0,3:1:0:0:
200,164,162235,1,0,0:0:0:0:
336,196,162305,5,2,0:1:0:0:
256,196,162410,1,0,3:0:0:0:
216,196,162462,1,0,0:0:0:0:
412,164,162515,2,0,L|420:228,1,64,2|2,0:1|0:1,0:0:0:0:
256,260,162724,2,0,L|256:324,1,64,2|4,2:1|2:1,2:2:0:0:
92,356,162934,1,2,3:1:0:0:
12,328,163039,1,2,3:1:0:0:
52,328,163091,1,4,3:1:0:0:
224,328,163144,6,0,P|311:297|336:208,1,192,6|0,0:0|3:0,2:2:0:0:
256,176,163563,2,0,L|248:112,1,64,2|0,3:0|2:0,2:2:0:0:
456,144,163773,6,0,L|464:80,1,64,6|0,0:0|0:0,0:0:0:0:
368,48,163983,1,2,0:3:0:0:
288,48,164088,1,0,0:0:0:0:
384,16,164193,1,0,3:0:0:0:
464,12,164298,1,0,0:0:0:0:
288,12,164403,6,0,P|201:43|176:132,1,192,6|0,0:0|3:0,2:2:0:0:
256,164,164822,2,0,L|264:228,1,64,2|0,2:3|3:1,2:2:0:0:
56,260,165032,5,2,0:0:0:0:
136,260,165137,1,2,0:0:0:0:
232,292,165242,1,10,0:3:0:0:
152,292,165347,1,2,3:1:0:0:
56,260,165452,2,0,L|48:324,1,64,12|2,3:0|3:1,2:2:0:0:
320,352,165661,6,0,P|339:293|320:233,1,128,6|6,0:0|0:0,2:2:0:0:
192,200,166081,1,8,3:2:0:0:
480,168,166291,1,6,0:0:0:0:
400,168,166396,1,2,2:1:0:0:
320,168,166501,1,6,0:0:0:0:
32,136,166710,1,8,3:2:0:0:
44,88,166763,1,0,3:0:0:0:
76,56,166815,1,0,3:0:0:0:
120,40,166868,1,0,3:0:0:0:
304,8,166920,6,0,L|312:72,1,64,2|0,0:2|0:0,0:0:0:0:
216,104,167130,2,0,L|208:168,1,64,8|0,0:3|0:0,0:0:0:0:
304,200,167340,1,8,0:3:0:0:
208,200,167445,1,0,0:0:0:0:
448,168,167549,5,2,0:2:0:0:
352,168,167654,1,8,3:3:0:0:
256,200,167759,1,2,0:0:0:0:
352,200,167863,1,8,3:0:0:0:
448,200,167968,1,8,0:3:0:0:
460,244,168022,1,0,0:0:0:0:
448,288,168074,1,8,3:0:0:0:
416,316,168126,1,0,0:0:0:0:
212,348,168179,6,0,L|84:348,1,128,6|0,0:0|3:1,2:2:0:0:
304,316,168494,1,2,0:1:0:0:
208,316,168598,2,0,L|200:252,1,64,8|0,0:3|2:1,0:0:0:0:
400,220,168808,1,2,0:1:0:0:
436,184,168879,1,0,3:1:0:0:
448,136,168948,1,0,3:1:0:0:
352,104,169018,1,8,0:3:0:0:
304,104,169088,1,0,3:1:0:0:
352,104,169158,1,0,3:1:0:0:
208,136,169228,5,8,0:3:0:0:
172,100,169297,1,0,3:1:0:0:
160,52,169368,1,0,3:1:0:0:
256,20,169438,1,2,0:1:0:0:
64,20,169647,2,0,L|56:84,1,64,0|2,3:1|0:1,2:2:0:0:
136,116,169856,1,8,0:3:0:0:
328,152,170067,6,0,L|336:216,1,64,2|2,0:1|0:1,2:2:0:0:
256,248,170277,1,8,0:3:0:0:
176,248,170382,1,2,0:1:0:0:
256,280,170487,1,8,3:3:0:0:
336,280,170591,1,8,3:3:0:0:
296,280,170644,1,0,0:0:0:0:
72,280,170696,5,14,0:1:0:0:
200,280,170905,1,8,0:3:0:0:
72,280,171116,2,0,L|64:216,1,64,10|0,0:3|3:2,2:2:0:0:
276,184,171325,5,6,0:0:0:0:
308,156,171378,1,0,3:0:0:0:
320,112,171431,1,0,3:0:0:0:
308,68,171483,1,0,3:0:0:0:
276,40,171535,1,8,0:3:0:0:
236,40,171588,1,0,3:0:0:0:
276,8,171640,1,0,3:0:0:0:
236,8,171693,1,0,3:0:0:0:
204,68,171746,1,2,0:0:0:0:
192,112,171799,1,0,3:0:0:0:
204,156,171851,1,0,3:0:0:0:
236,184,171903,1,0,3:0:0:0:
440,184,171955,6,0,L|448:248,1,64,6|8,0:1|0:3,2:2:0:0:
352,280,172165,1,8,0:3:0:0:
256,280,172270,1,8,0:3:0:0:
352,280,172375,1,8,0:3:0:0:
448,280,172480,1,8,3:0:0:0:
212,376,172584,5,4,0:1:0:0:
180,348,172637,1,0,0:0:0:0:
168,304,172690,1,4,0:0:0:0:
180,260,172742,1,0,0:0:0:0:
252,232,172794,2,0,L|260:200,3,32,4|0|4|0,0:0|0:0|0:1|0:0,0:0:0:0:
332,168,173004,1,4,0:1:0:0:
344,124,173056,1,0,0:0:0:0:
332,80,173109,1,4,0:0:0:0:
300,52,173161,1,0,0:0:0:0:
92,20,173214,5,12,2:1:0:0:
56,56,173284,1,0,2:1:0:0:
44,104,173354,1,0,2:1:0:0:
56,152,173423,1,0,3:1:0:0:
92,188,173493,1,0,2:1:0:0:
140,204,173563,1,0,2:1:0:0:
328,172,173633,5,0,3:1:0:0:
376,172,173703,1,0,2:1:0:0:
328,172,173773,1,0,2:1:0:0:
232,172,173843,1,2,3:1:0:0:
184,172,173913,1,0,3:1:0:0:
232,172,173983,1,0,3:1:0:0:
420,140,174053,5,0,3:1:0:0:
456,176,174123,1,0,2:1:0:0:
468,224,174193,1,0,2:1:0:0:
456,272,174262,1,0,3:1:0:0:
420,308,174332,1,0,2:1:0:0:
372,324,174402,1,0,2:1:0:0:
184,356,174473,5,8,3:3:0:0:
152,328,174526,1,0,3:1:0:0:
140,284,174577,1,0,3:1:0:0:
152,240,174631,1,0,3:1:0:0:
220,208,174682,2,0,L|228:176,3,32,0|0|0|0,3:1|3:1|3:1|3:1,2:2:0:0:
300,144,174892,2,0,L|308:112,3,32,0|0|0|0,3:1|3:1|3:1|3:1,2:2:0:0:
104,272,175101,5,2,3:3:0:0:
92,228,175153,1,0,2:1:0:0:
104,184,175206,1,0,3:1:0:0:
136,156,175259,1,0,2:1:0:0:
208,124,175312,2,0,L|216:92,3,32,0|0|0|0,3:1|2:1|3:1|2:1,2:2:0:0:
288,124,175522,1,0,3:1:0:0:
300,80,175574,1,0,2:1:0:0:
288,36,175627,1,0,3:1:0:0:
256,8,175680,1,0,2:1:0:0:
60,40,175731,6,0,L|188:40,2,128,14|6|8,0:0|0:0|3:2,2:2:0:0:
336,72,176361,1,14,0:0:0:0:
256,72,176466,1,2,2:1:0:0:
176,72,176570,1,6,0:0:0:0:
452,40,176780,1,8,3:2:0:0:
440,88,176833,1,0,3:0:0:0:
408,120,176885,1,0,3:0:0:0:
364,136,176938,1,0,3:0:0:0:
168,168,176991,6,0,L|160:232,1,64,10|0,0:2|0:0,0:0:0:0:
256,232,177201,2,0,L|256:296,1,64,8|0,0:3|0:0,0:0:0:0:
352,168,177410,2,0,L|360:232,1,64,8|0,0:3|0:0,0:0:0:0:
124,264,177619,5,10,0:2:0:0:
28,264,177724,1,0,3:3:0:0:
124,232,177829,1,10,0:3:0:0:
220,232,177934,1,0,3:0:0:0:
316,200,178039,1,8,0:3:0:0:
220,200,178144,1,8,3:0:0:0:
28,168,178249,6,0,P|9:109|28:49,1,128,6|0,0:1|2:1,2:2:0:0:
76,16,178528,1,0,3:1:0:0:
28,16,178598,1,0,3:1:0:0:
208,48,178668,5,8,0:3:0:0:
256,48,178738,1,0,3:1:0:0:
208,48,178808,1,0,3:1:0:0:
116,48,178878,1,8,0:1:0:0:
68,48,178948,1,0,3:1:0:0:
116,48,179018,1,0,3:1:0:0:
296,80,179088,6,0,P|315:139|296:199,1,128,8|8,0:3|0:3,2:2:0:0:
248,232,179368,1,0,3:1:0:0:
296,232,179438,1,0,3:1:0:0:
476,264,179508,6,0,L|348:264,1,128,2|0,0:3|3:1,2:2:0:0:
428,296,179822,1,2,0:1:0:0:
216,328,179927,2,0,L|208:264,1,64,8|0,0:3|3:1,0:0:0:0:
304,232,180137,2,0,L|312:168,1,64,8|2,0:3|0:1,2:2:0:0:
216,136,180347,5,8,0:3:0:0:
136,136,180452,1,0,3:1:0:0:
376,104,180556,1,8,0:3:0:0:
296,104,180661,1,2,0:1:0:0:
56,72,180766,5,6,0:1:0:0:
184,72,180976,2,0,L|192:104,3,32,0|0|0|0,3:1|2:1|3:1|2:1,2:2:0:0:
120,136,181186,2,0,L|112:168,3,32,0|0|0|0,3:1|2:1|3:1|2:1,2:2:0:0:
268,136,181396,5,0,3:1:0:0:
304,160,181448,1,0,3:1:0:0:
328,196,181501,1,0,3:1:0:0:
336,240,181552,1,0,3:1:0:0:
328,284,181605,1,0,3:1:0:0:
304,320,181658,1,0,3:1:0:0:
268,344,181710,1,0,3:1:0:0:
224,356,181762,1,0,3:1:0:0:
184,356,181815,1,0,3:1:0:0:
224,356,181868,1,0,3:1:0:0:
384,356,181920,1,0,3:1:0:0:
424,356,181973,1,0,3:1:0:0:
224,356,182025,6,0,L|216:292,1,64,6|8,0:1|0:3,2:2:0:0:
296,260,182235,1,8,0:3:0:0:
104,232,182340,1,2,0:1:0:0:
24,232,182445,1,8,0:3:0:0:
104,232,182549,1,8,0:3:0:0:
296,260,182654,6,0,L|304:196,1,64,2|8,0:1|0:3,2:2:0:0:
224,164,182864,1,8,0:3:0:0:
416,132,182969,1,2,0:1:0:0:
496,132,183074,1,8,0:3:0:0:
416,132,183179,1,8,0:3:0:0:
224,164,183284,6,0,P|136:96|224:28,1,256,12|0,0:1|2:2,2:2:0:0:
448,60,183936,1,6,0:1:0:0:
320,60,184153,5,0,0:0:0:0:
356,96,184226,1,0,0:0:0:0:
368,144,184298,1,0,0:0:0:0:
356,192,184370,1,0,2:1:0:0:
320,228,184443,1,0,0:0:0:0:
272,244,184515,1,0,0:0:0:0:
80,276,184588,6,0,L|208:276,2,128,12|2|2,0:3|2:2|2:2,2:2:0:0:
304,308,185240,1,6,0:3:0:0:
208,308,185349,1,0,2:1:0:0:
304,340,185457,1,8,0:3:0:0:
208,340,185566,1,0,2:1:0:0:
304,340,185675,1,8,0:3:0:0:
400,340,185784,1,2,2:1:0:0:
192,372,185892,6,0,P|173:313|192:252,1,128,14|8,0:1|0:3,2:2:0:0:
320,220,186343,1,8,3:2:0:0:
32,188,186568,1,10,0:1:0:0:
112,188,186681,1,0,2:1:0:0:
192,188,186794,1,8,0:3:0:0:
480,156,187019,5,8,3:2:0:0:
468,108,187076,1,0,0:0:0:0:
436,76,187132,1,0,3:1:0:0:
392,60,187188,1,0,0:0:0:0:
216,28,187245,6,0,L|208:92,1,64,10|0,0:2|0:0,2:2:0:0:
304,124,187479,1,2,0:1:0:0:
208,124,187596,1,0,0:0:0:0:
304,156,187713,2,0,L|312:220,1,64,8|0,0:3|0:0,0:0:0:0:
120,188,187948,6,0,L|112:252,1,64,10|0,0:2|2:1,2:2:0:0:
208,284,188182,1,10,0:3:0:0:
304,284,188299,1,0,2:1:0:0:
208,316,188416,1,8,0:3:0:0:
112,316,188534,1,0,2:1:0:0:
320,348,188651,5,14,0:1:0:0:
192,348,188894,1,2,3:1:0:0:
96,348,189016,1,2,3:1:0:0:
192,316,189138,1,2,3:1:0:0:
96,316,189260,1,2,3:1:0:0:
320,316,189382,5,2,3:1:0:0:
364,304,189445,1,0,3:1:0:0:
400,280,189509,1,0,3:1:0:0:
424,244,189572,1,0,3:1:0:0:
432,200,189636,1,0,3:1:0:0:
424,156,189699,1,0,3:1:0:0:
400,120,189763,1,0,3:1:0:0:
364,96,189826,1,0,3:1:0:0:
320,84,189890,1,0,3:1:0:0:
280,84,189954,1,0,3:1:0:0:
440,56,190017,1,0,3:1:0:0:
480,56,190081,1,0,3:1:0:0:
280,84,190144,6,0,L|152:84,2,128,0|8|2,3:1|3:3|2:3,2:2:0:0:
32,120,191117,2,0,L|24:140,2,21.3333333333333,2|0|2,3:1|2:1|3:1,2:2:0:0:
280,116,191578,5,0,2:1:0:0:
376,116,191732,1,0,3:1:0:0:
424,132,191809,1,0,3:1:0:0:
460,168,191886,1,0,3:1:0:0:
472,216,191963,1,0,3:1:0:0:
460,264,192040,1,0,3:1:0:0:
424,300,192117,1,0,3:1:0:0:
376,316,192193,1,0,3:1:0:0:
256,316,192299,1,0,3:1:0:0:
188,316,192386,1,0,3:1:0:0:
376,316,192501,5,4,3:1:0:0:
256,192,192665,12,4,194479,2:1:0:0:
72,316,196457,6,0,L|64:252,1,64,2|0,2:2|2:2,2:2:0:0:
320,220,197116,5,2,2:3:0:0:
192,220,197413,1,0,2:1:0:0:
320,220,197710,2,0,L|324:188,2,32,2|0|2,2:0|2:1|2:0,2:2:0:0:
448,220,198304,1,0,2:1:0:0:
320,220,198601,1,2,2:0:0:0:
64,220,198898,6,0,L|48:92,1,128,8|0,2:3|2:1,2:2:0:0:
172,60,199708,1,2,2:0:0:0:
48,60,199979,1,0,2:1:0:0:
172,60,200249,1,2,2:0:0:0:
404,60,200519,6,0,L|420:188,1,128,8|0,2:3|2:1,2:2:0:0:
296,220,201330,1,2,2:0:0:0:
420,220,201600,1,0,2:1:0:0:
296,220,201870,1,2,2:0:0:0:
64,252,202141,6,0,L|48:124,1,128,8|0,2:3|2:1,2:2:0:0:
172,92,202952,1,2,2:0:0:0:
296,92,203222,2,0,L|300:124,1,32,8|0,2:3|0:0,0:0:0:0:
212,156,203492,2,0,L|208:188,1,32,4|0,2:3|2:0,2:2:0:0:
360,220,203762,5,2,2:3:0:0:
480,224,204002,1,4,2:3:0:0:
360,220,204243,2,0,L|356:252,2,32,8|0|2,2:3|2:1|2:0,2:2:0:0:
240,284,204725,1,0,2:1:0:0:
360,284,204966,1,0,2:3:0:0:
140,252,205207,6,0,L|132:188,1,64,8|0,2:3|2:1,2:2:0:0:
252,156,205689,1,2,2:0:0:0:
132,156,205930,1,2,2:2:0:0:
252,128,206171,2,0,L|260:64,1,64,0|2,2:2|2:2,0:0:0:0:
32,32,206653,6,0,L|16:160,1,128,8|2,2:3|2:0,2:2:0:0:
136,192,207350,1,2,2:0:0:0:
256,192,207583,1,0,2:1:0:0:
136,192,207815,1,2,2:0:0:0:
356,160,208048,5,8,2:3:0:0:
428,192,208280,1,0,2:1:0:0:
456,264,208513,1,2,2:0:0:0:
428,336,208746,1,0,2:3:0:0:
356,368,208978,1,2,2:0:0:0:
128,336,209211,1,2,2:0:0:0:
356,368,209443,5,12,0:1:0:0:
240,368,209671,1,2,2:1:0:0:
356,368,209899,2,0,L|360:336,2,32,2|2|8,2:2|2:0|2:1,2:2:0:0:
240,368,210355,1,0,2:1:0:0:
124,368,210583,1,8,2:1:0:0:
344,336,210811,6,0,L|352:272,1,64,8|2,2:1|2:1,2:2:0:0:
236,240,211268,1,2,2:0:0:0:
352,240,211496,1,8,2:1:0:0:
468,240,211724,2,0,L|476:176,1,64,0|8,2:1|2:1,0:0:0:0:
248,144,212180,6,0,L|240:80,1,64,8|2,2:1|2:1,2:2:0:0:
356,48,212621,1,2,2:2:0:0:
240,48,212841,1,8,2:1:0:0:
124,48,213062,1,2,2:0:0:0:
240,48,213282,1,0,2:1:0:0:
20,80,213503,5,8,2:1:0:0:
136,80,213724,1,2,2:1:0:0:
20,80,213944,1,2,2:2:0:0:
136,80,214165,1,8,2:1:0:0:
20,80,214385,2,0,L|12:144,1,64,2|0,2:2|2:1,0:0:0:0:
236,176,214827,6,0,L|244:240,1,64,12|2,2:1|2:1,2:2:0:0:
132,272,215257,2,0,L|128:304,2,32,0|0|2,3:1|3:1|2:1,2:2:0:0:
20,336,215687,1,2,2:1:0:0:
132,336,215902,1,2,2:1:0:0:
348,368,216117,6,0,L|364:240,1,128,8|2,2:1|3:1,2:2:0:0:
252,208,216762,1,2,2:1:0:0:
364,208,216977,1,2,2:1:0:0:
476,208,217192,1,2,2:1:0:0:
256,176,217407,6,0,L|240:48,1,128,8|0,2:1|3:1,2:2:0:0:
352,16,218040,1,2,2:1:0:0:
240,16,218252,1,2,2:1:0:0:
352,16,218463,1,2,2:1:0:0:
152,48,218674,6,0,L|136:176,1,128,8|8,2:1|2:1,2:2:0:0:
256,208,219385,1,2,2:1:0:0:
136,208,219657,1,2,2:1:0:0:
16,208,219957,1,8,2:1:0:0:
408,208,220290,6,0,P|452:128|384:76,1,192,6|0,0:1|2:1,2:2:0:0:
304,44,220741,1,0,2:1:0:0:
80,108,220966,2,0,L|208:108,2,128,2|0|0,0:1|2:1|2:0,0:0:0:0:
392,172,221645,6,0,L|200:172,1,192,6|0,0:1|2:0,2:2:0:0:
120,172,222099,1,0,2:1:0:0:
344,204,222326,2,0,L|352:268,1,64,2|0,2:1|2:1,2:2:0:0:
256,236,222554,2,0,L|256:300,1,64,0|0,2:1|2:1,2:2:0:0:
160,204,222782,2,0,L|152:268,1,64,0|0,2:1|2:1,2:2:0:0:
464,332,223010,6,0,L|336:332,2,128,6|2|8,0:1|2:1|2:2,2:2:0:0:
176,300,223697,1,6,0:1:0:0:
256,300,223811,1,0,0:0:0:0:
336,300,223926,1,2,2:1:0:0:
48,332,224156,1,8,3:2:0:0:
36,288,224214,1,0,3:1:0:0:
48,244,224271,1,0,3:1:0:0:
80,216,224329,1,0,3:1:0:0:
296,184,224386,6,0,L|304:120,1,64,10|0,0:2|3:1,2:2:0:0:
208,88,224616,1,2,0:1:0:0:
304,88,224733,1,0,2:1:0:0:
208,88,224851,2,0,L|200:24,1,64,2|0,0:1|3:1,2:2:0:0:
432,152,225091,5,2,0:2:0:0:
336,152,225213,1,0,3:1:0:0:
240,184,225335,1,2,0:1:0:0:
336,184,225460,1,0,3:1:0:0:
432,184,225585,2,0,L|440:248,1,64,2|0,0:1|3:1,2:2:0:0:
104,312,225840,6,0,P|60:232|128:180,1,192,6|0,0:2|2:1,2:2:0:0:
216,148,226308,1,6,0:2:0:0:
440,84,226543,2,0,L|448:148,1,64,2|0,0:1|3:1,2:2:0:0:
360,180,226779,1,2,0:1:0:0:
272,180,226897,1,2,0:1:0:0:
360,180,227015,2,0,L|368:244,1,64,2|0,0:1|3:1,2:2:0:0:
128,276,227251,5,2,0:1:0:0:
256,276,227489,1,0,3:1:0:0:
384,276,227727,1,0,3:1:0:0:
160,308,227965,2,0,L|32:308,1,128,0|0,0:2|0:3,0:0:0:0:
120,340,228325,1,0,0:0:0:0:
32,340,228445,1,4,0:2:0:0:
384,340,228685,6,0,P|403:281|384:220,1,128,6|0,2:1|3:1,0:0:0:0:
256,188,229172,1,0,2:1:0:0:
168,188,229294,1,0,2:1:0:0:
480,156,229416,1,4,2:1:0:0:
352,124,229674,2,0,L|480:124,1,128,0|0,3:1|2:1,0:0:0:0:
160,92,230191,6,0,L|152:156,1,64,6|0,0:1|3:1,2:2:0:0:
256,188,230497,2,0,L|256:252,1,64,0|0,3:1|3:1,0:0:0:0:
360,92,230803,2,0,L|368:156,1,64,0|0,3:1|3:1,0:0:0:0:
124,284,231109,5,6,0:1:0:0:
388,284,231493,1,2,2:1:0:0:
124,284,231903,1,2,2:1:0:0:
496,284,232390,5,6,0:0:0:0:
484,224,232486,1,0,2:1:0:0:
448,176,232582,1,0,2:1:0:0:
396,144,232678,1,0,2:1:0:0:
320,144,232774,1,0,3:1:0:0:
396,144,232870,1,0,3:1:0:0:
180,212,232966,6,0,L|176:169,1,42.6666666666667,2|0,0:1|2:1,0:0:0:0:
336,364,233159,1,0,2:1:0:0:
352,304,233255,1,0,2:1:0:0:
336,244,233351,1,0,3:1:0:0:
288,200,233447,1,0,3:1:0:0:
44,284,233543,6,0,L|40:241,1,42.6666666666667,2|0,0:1|2:1,2:2:0:0:
200,84,233736,1,0,2:1:0:0:
276,84,233832,1,0,2:1:0:0:
200,52,233928,1,0,3:1:0:0:
124,52,234024,1,0,3:1:0:0:
396,180,234120,6,0,L|399:137,1,42.6666666666667,2|0,0:1|2:1,0:0:0:0:
240,276,234313,1,0,2:1:0:0:
164,276,234409,1,0,2:1:0:0:
240,308,234505,1,0,3:1:0:0:
164,308,234601,1,0,3:1:0:0:
436,340,234697,5,2,2:1:0:0:
443,276,234841,1,0,3:1:0:0:
332,244,234986,1,0,3:1:0:0:
444,244,235130,1,0,3:1:0:0:
208,212,235274,1,8,2:1:0:0:
200,148,235418,1,0,3:1:0:0:
312,116,235563,1,0,3:1:0:0:
320,52,235707,1,0,3:1:0:0:
76,340,235851,5,2,2:1:0:0:
68,276,235995,1,0,3:1:0:0:
180,244,236140,1,0,3:1:0:0:
68,244,236284,1,0,3:1:0:0:
312,212,236428,1,8,2:1:0:0:
200,212,236572,1,0,3:1:0:0:
312,180,236716,1,0,3:1:0:0:
200,180,236860,1,0,3:1:0:0:
444,148,237005,5,0,3:1:0:0:
476,176,237063,1,0,0:0:0:0:
488,220,237120,1,0,0:0:0:0:
476,264,237178,1,0,0:0:0:0:
444,292,237236,1,0,2:1:0:0:
272,324,237293,1,0,3:1:0:0:
240,324,237351,1,0,0:0:0:0:
272,324,237409,1,0,0:0:0:0:
240,324,237466,1,0,0:0:0:0:
272,324,237524,1,0,2:1:0:0:
68,292,237582,5,0,3:1:0:0:
36,264,237640,1,0,0:0:0:0:
24,220,237697,1,0,0:0:0:0:
36,176,237755,1,0,0:0:0:0:
68,148,237813,1,0,2:1:0:0:
240,116,237870,1,0,3:1:0:0:
272,116,237928,1,0,0:0:0:0:
240,116,237986,1,0,0:0:0:0:
272,116,238043,1,0,0:0:0:0:
240,116,238101,1,0,2:1:0:0:
68,148,238159,5,0,3:1:0:0:
76,192,238216,1,0,0:0:0:0:
100,232,238274,1,0,0:0:0:0:
136,256,238332,1,0,0:0:0:0:
180,268,238390,1,0,2:1:0:0:
348,300,238447,1,0,3:1:0:0:
380,300,238505,1,0,0:0:0:0:
348,300,238563,1,0,0:0:0:0:
380,300,238620,1,0,0:0:0:0:
348,300,238678,1,0,2:1:0:0:
164,300,238736,5,0,3:1:0:0:
132,300,238793,1,0,0:0:0:0:
164,300,238851,1,0,0:0:0:0:
132,300,238909,1,0,0:0:0:0:
164,300,238966,1,0,2:1:0:0:
332,268,239024,1,0,3:1:0:0:
376,256,239082,1,0,0:0:0:0:
412,232,239140,1,0,0:0:0:0:
436,192,239197,1,0,0:0:0:0:
444,148,239255,1,0,2:1:0:0:
160,116,239313,1,0,2:1:0:0:
352,116,239600,5,0,3:1:0:0:
384,144,239672,1,0,3:1:0:0:
396,188,239744,1,0,3:1:0:0:
384,232,239816,1,0,3:1:0:0:
188,264,239890,1,0,3:1:0:0:
240,264,239962,1,0,3:1:0:0:
320,296,240034,1,0,3:1:0:0:
268,296,240106,1,0,3:1:0:0:
96,332,240178,1,0,3:1:0:0:
84,288,240250,1,0,3:1:0:0:
96,244,240322,1,0,3:1:0:0:
128,216,240394,1,0,3:1:0:0:
332,184,240466,1,8,0:3:0:0:
180,152,240755,5,0,3:1:0:0:
128,152,240827,1,0,3:1:0:0:
208,120,240899,1,0,3:1:0:0:
260,120,240971,1,0,3:1:0:0:
100,88,241043,1,12,0:1:0:0:
340,152,241332,5,0,3:1:0:0:
392,152,241404,1,0,3:2:0:0:
208,120,241476,1,0,3:2:0:0:
156,120,241548,1,0,3:2:0:0:
420,88,241620,1,12,0:1:0:0:
