osu file format v14

[General]
AudioFilename: audio.mp3
AudioLeadIn: 0
PreviewTime: 196432
Countdown: 0
SampleSet: Normal
StackLeniency: 0.7
Mode: 1
LetterboxInBreaks: 0
WidescreenStoryboard: 1

[Editor]
Bookmarks: 30808,124539,210267,212715,88938,125204
DistanceSpacing: 0.8
BeatDivisor: 2
GridSize: 32
TimelineZoom: 2.4

[Metadata]
Title:Fly Like You [Long Version]
TitleUnicode:Fly Like You [Long Version]
Artist:technoplanet
ArtistUnicode:technoplanet
Creator:[ TNTlealu ]
Version:ADVANCED
Source:SOUND VOLTEX IV HEAVENLY HAVEN
Tags:electronic -Joakh Shinsekai- sdvx 4 旋律世界 ΩDimension -Phase.5+- full ver sv instrumental konami video game rhythm [_Chichinya_] Chi Vulkin uone Rocma _Asriel Yumeno Himiko examination Minato Yukina CLSW alienflybot AFB Loneight l1106188 L18 岡聡志 安部泉希 autofanboy
BeatmapID:2273429
BeatmapSetID:1079909

[Difficulty]
HPDrainRate:6
CircleSize:2
OverallDifficulty:5
ApproachRate:10
SliderMultiplier:1.4
SliderTickRate:1

[Events]
//Background and Video events
0,0,"fcb914da2343ca7cea85c6f8803cf27e4147f5c0.png",0,0
//Break Periods
//Storyboard Layer 0 (Background)
//Storyboard Layer 1 (Fail)
//Storyboard Layer 2 (Pass)
//Storyboard Layer 3 (Foreground)
//Storyboard Layer 4 (Overlay)
//Storyboard Sound Samples

[TimingPoints]
625,209.79020979021,3,1,0,75,1,0
625,-125,3,1,0,75,0,0
5555,-125,3,1,0,30,0,0
6811,-100,3,1,0,85,0,8
6918,-125,3,1,0,85,0,1
16988,-125,3,1,0,85,0,0
30204,-125,3,1,0,40,0,0
31463,-125,3,1,0,60,0,0
37127,-125,3,1,0,80,0,0
44680,225.563909774436,3,1,0,80,1,0
44680,-116.279069767442,3,1,0,80,0,0
47386,209.79020979021,3,1,0,80,1,0
47386,-125,3,1,0,80,0,8
52525,-125,3,1,0,30,0,0
53574,-125,3,1,0,85,0,0
53679,-125,3,1,0,85,0,1
61232,-125,3,1,0,85,0,0
63749,-125,3,1,0,85,0,1
73819,-125,3,1,0,80,0,0
104029,217.391304347826,3,1,0,75,1,0
104029,-120.481927710843,3,1,0,75,0,0
114463,225.563909774436,3,1,0,60,1,0
114463,-116.279069767442,3,1,0,60,0,0
123936,209.79020979021,3,1,0,60,1,0
123936,-125,3,1,0,60,0,8
125194,209.79020979021,3,1,0,75,1,0
125194,-125,3,1,0,75,0,0
142816,225.563909774436,3,1,0,75,1,0
142816,-116.279069767442,3,1,0,75,0,0
145522,209.79020979021,3,1,0,75,1,0
145522,-125,3,1,0,75,0,0
150661,-125,3,1,0,30,0,0
152969,-125,3,1,0,85,0,0
153074,-125,3,1,0,85,0,1
160626,-125,3,1,0,85,0,0
163144,-125,3,1,0,85,0,1
173214,-125,3,1,0,85,0,0
175731,-125,3,1,0,85,0,1
178249,-125,3,1,0,85,0,0
183284,217.391304347826,3,1,0,80,1,0
183284,-120.481927710843,3,1,0,80,0,0
185892,225.563909774436,3,1,0,80,1,0
185892,-116.279069767442,3,1,0,80,0,0
187245,234.375,3,1,0,80,1,0
187245,-112.359550561798,3,1,0,80,0,0
188651,243.90243902439,3,1,0,80,1,0
188651,-107.52688172043,3,1,0,80,0,8
189382,254.237288135593,3,1,0,80,1,0
189382,-103.092783505155,3,1,0,80,0,8
190144,306.122448979592,3,1,0,80,1,0
190144,-85.4700854700855,3,1,0,80,0,8
190756,361.44578313253,3,1,0,80,1,8
190756,-72.463768115942,3,1,0,80,0,8
191117,461.538461538462,3,1,0,80,1,0
191117,-56.8181818181818,3,1,0,80,0,8
192501,659.340659340659,3,1,0,80,1,0
192501,-39.8406374501992,3,1,0,80,0,8
196457,659.340659340659,3,1,0,75,1,8
196457,-39.8406374501992,3,1,0,75,0,8
197116,594.059405940594,3,1,0,50,1,0
197116,-44.0528634361233,3,1,0,50,0,0
198898,540.540540540541,3,1,0,50,1,0
198898,-48.5436893203883,3,1,0,50,0,0
203762,481.927710843374,3,1,0,60,1,0
203762,-54.3478260869565,3,1,0,60,0,0
206653,465.116279069767,3,1,0,60,1,0
206653,-56.4971751412429,3,1,0,60,0,0
209443,456.273764258555,3,1,0,60,1,0
209443,-57.4712643678161,3,1,0,60,0,0
212180,441.176470588235,3,1,0,70,1,0
212180,-59.5238095238095,3,1,0,70,0,0
214827,430.10752688172,3,1,0,75,1,0
214827,-60.9756097560976,3,1,0,75,0,0
217407,422.535211267606,3,1,0,75,1,0
217407,-62.111801242236,3,1,0,75,0,0
218674,461.538461538462,3,1,0,80,1,0
218674,-56.8181818181818,3,1,0,80,0,0
219135,500,3,1,0,82,1,8
219135,-52.3560209424084,3,1,0,82,0,0
219385,545.454545454546,3,1,0,84,1,8
219385,-48.0769230769231,3,1,0,84,0,0
219657,600,3,1,0,86,1,8
219657,-43.6681222707424,3,1,0,86,0,0
219957,666.666666666667,3,1,0,88,1,8
219957,-39.5256916996047,3,1,0,88,0,0
220290,225.563909774436,3,1,0,90,1,1
220290,-116.279069767442,3,1,0,90,0,1
220966,226.415094339623,3,1,0,90,1,1
220966,-115.821172110262,3,1,0,90,0,1
221645,227.272727272727,3,1,0,90,1,1
221645,-114.942528735632,3,1,0,90,0,1
222326,228.136882129278,3,1,0,90,1,1
222326,-114.942528735632,3,1,0,90,0,1
223010,229.007633587786,3,1,0,90,1,1
223010,-114.942528735632,3,1,0,90,0,1
223697,229.885057471264,3,1,0,90,1,1
223697,-114.942528735632,3,1,0,90,0,1
224386,230.769230769231,3,1,0,90,1,1
224386,-114.942528735632,3,1,0,90,0,1
224616,235.294117647059,3,1,0,90,1,9
224616,-111.111111111111,3,1,0,90,0,1
224851,240,3,1,0,90,1,9
224851,-108.695652173913,3,1,0,90,0,1
225091,244.897959183673,3,1,0,90,1,1
225091,-107.52688172043,3,1,0,90,0,1
225335,250,3,1,0,90,1,9
225335,-105.263157894737,3,1,0,90,0,1
225585,255.31914893617,3,1,0,90,1,9
225585,-103.092783505155,3,1,0,90,0,1
225840,234.375,3,1,0,90,1,1
225840,-112.359550561798,3,1,0,90,0,1
226543,236.220472440945,3,1,0,90,1,1
226543,-111.111111111111,3,1,0,90,0,1
227251,238.095238095238,3,1,0,90,1,1
227251,-111.111111111111,3,1,0,90,0,1
227965,240,3,1,0,90,1,1
227965,-111.111111111111,3,1,0,90,0,1
228685,243.90243902439,3,1,0,90,1,1
228685,-107.52688172043,3,1,0,90,0,1
229416,258.620689655172,3,1,0,90,1,1
229416,-101.010101010101,3,1,0,90,0,1
230191,306.122448979592,3,1,0,90,1,1
230191,-85.4700854700855,3,1,0,90,0,1
231109,384.615384615385,3,1,0,90,1,1
231109,-68.0272108843537,3,1,0,90,0,1
231493,410.958904109589,3,1,0,90,1,9
231493,-63.6942675159236,3,1,0,90,0,1
231903,487.80487804878,3,1,0,90,1,9
231903,-53.763440860215,3,1,0,90,0,1
232390,288.461538461538,4,1,0,80,1,0
232390,-90.9090909090909,4,1,0,80,0,0
240755,-90.9090909090909,4,1,0,90,0,0

[HitObjects]
256,192,625,5,4,0:0:0:0:
256,192,834,1,8,0:0:0:0:
256,192,1044,1,8,0:0:0:0:
256,192,1254,1,0,0:0:0:0:
256,192,1673,1,8,0:0:0:0:
256,192,1883,1,0,0:0:0:0:
256,192,2303,1,0,0:0:0:0:
256,192,2513,1,8,0:0:0:0:
256,192,3142,1,12,0:0:0:0:
256,192,3352,1,0,0:0:0:0:
256,192,3562,1,8,0:0:0:0:
256,192,3771,1,8,0:0:0:0:
256,192,4191,1,0,0:0:0:0:
256,192,4401,1,8,0:0:0:0:
256,192,5030,1,8,0:0:0:0:
256,192,5659,12,0,6708,0:0:0:0:
256,192,6918,5,4,0:0:0:0:
256,192,7232,1,8,0:0:0:0:
256,192,7337,1,8,0:0:0:0:
256,192,7547,1,0,0:0:0:0:
256,192,7757,1,8,0:0:0:0:
256,192,7967,1,8,0:0:0:0:
256,192,8177,1,4,0:0:0:0:
256,192,8491,1,0,0:0:0:0:
256,192,8596,1,0,0:0:0:0:
256,192,8806,1,8,0:0:0:0:
256,192,9015,1,8,0:0:0:0:
256,192,9225,1,0,0:0:0:0:
256,192,9435,1,8,0:0:0:0:
256,192,9645,1,0,0:0:0:0:
256,192,10064,1,8,0:0:0:0:
256,192,10274,1,0,0:0:0:0:
256,192,10694,1,0,0:0:0:0:
256,192,10904,1,8,0:0:0:0:
256,192,11113,1,8,0:0:0:0:
256,192,11323,1,0,0:0:0:0:
256,192,11533,1,0,0:0:0:0:
256,192,11743,1,0,0:0:0:0:
256,192,11952,1,12,0:0:0:0:
256,192,12372,1,0,0:0:0:0:
256,192,12582,1,0,0:0:0:0:
256,192,12792,1,8,0:0:0:0:
256,192,13001,1,8,0:0:0:0:
256,192,13211,1,0,0:0:0:0:
256,192,13421,1,0,0:0:0:0:
256,192,13526,1,0,0:0:0:0:
256,192,13631,1,0,0:0:0:0:
256,192,13841,1,8,0:0:0:0:
256,192,14155,1,8,0:0:0:0:
256,192,14471,1,4,0:0:0:0:
256,192,14680,1,8,0:0:0:0:
256,192,14890,1,0,0:0:0:0:
256,192,14994,1,0,0:0:0:0:
256,192,15099,1,0,0:0:0:0:
256,192,15309,1,8,0:0:0:0:
256,192,15519,1,0,0:0:0:0:
256,192,15729,1,8,0:0:0:0:
256,192,16148,1,0,0:0:0:0:
256,192,16358,1,8,0:0:0:0:
256,192,16463,1,8,0:0:0:0:
256,192,16568,1,8,0:0:0:0:
256,192,16778,1,8,0:0:0:0:
256,192,16987,1,4,0:0:0:0:
256,192,17617,1,8,0:0:0:0:
256,192,17827,1,8,0:0:0:0:
256,192,18036,1,8,0:0:0:0:
256,192,18246,1,4,0:0:0:0:
256,192,18876,1,8,0:0:0:0:
256,192,19085,1,0,0:0:0:0:
256,192,19295,1,0,0:0:0:0:
256,192,19505,1,12,0:0:0:0:
256,192,19924,1,0,0:0:0:0:
256,192,20134,1,8,0:0:0:0:
256,192,20239,1,8,0:0:0:0:
256,192,20344,1,8,0:0:0:0:
256,192,20554,1,0,0:0:0:0:
256,192,20764,1,8,0:0:0:0:
256,192,20974,1,0,0:0:0:0:
256,192,21183,1,8,0:0:0:0:
256,192,21393,1,0,0:0:0:0:
256,192,21603,1,0,0:0:0:0:
256,192,21813,1,8,0:0:0:0:
256,192,22022,1,4,0:0:0:0:
256,192,22652,1,8,0:0:0:0:
256,192,22862,1,8,0:0:0:0:
256,192,23071,1,8,0:0:0:0:
256,192,23281,1,4,0:0:0:0:
256,192,23911,1,0,0:0:0:0:
256,192,24120,1,8,0:0:0:0:
256,192,24225,1,8,0:0:0:0:
256,192,24330,1,8,0:0:0:0:
256,192,24540,1,4,0:0:0:0:
256,192,25169,1,8,0:0:0:0:
256,192,25379,1,0,0:0:0:0:
256,192,25589,1,8,0:0:0:0:
256,192,25799,1,8,0:0:0:0:
256,192,26009,1,0,0:0:0:0:
256,192,26218,1,0,0:0:0:0:
256,192,26428,1,0,0:0:0:0:
256,192,26533,1,0,0:0:0:0:
256,192,26743,1,8,0:0:0:0:
256,192,27057,1,4,0:0:0:0:
256,192,27687,1,0,0:0:0:0:
256,192,28316,1,8,0:0:0:0:
256,192,28736,1,0,0:0:0:0:
256,192,28945,1,8,0:0:0:0:
256,192,29365,1,8,0:0:0:0:
256,192,29575,1,0,0:0:0:0:
256,192,30834,1,8,0:0:0:0:
256,192,31463,1,0,0:0:0:0:
256,192,31673,1,0,0:0:0:0:
256,192,31778,1,0,0:0:0:0:
256,192,31883,1,0,0:0:0:0:
256,192,32092,1,12,0:0:0:0:
256,192,32512,1,0,0:0:0:0:
256,192,32722,1,8,0:0:0:0:
256,192,32827,1,8,0:0:0:0:
256,192,32931,1,8,0:0:0:0:
256,192,33141,1,0,0:0:0:0:
256,192,33351,1,8,0:0:0:0:
256,192,33666,1,8,0:0:0:0:
256,192,33980,1,0,0:0:0:0:
256,192,34400,1,8,0:0:0:0:
256,192,34610,1,0,0:0:0:0:
256,192,34820,1,8,0:0:0:0:
256,192,35029,1,0,0:0:0:0:
256,192,35134,1,0,0:0:0:0:
256,192,35239,1,0,0:0:0:0:
256,192,35659,1,0,0:0:0:0:
256,192,35764,1,0,0:0:0:0:
256,192,35869,1,0,0:0:0:0:
256,192,36078,1,0,0:0:0:0:
256,192,36498,1,8,0:0:0:0:
256,192,36708,1,0,0:0:0:0:
256,192,36918,1,0,0:0:0:0:
256,192,37127,1,4,0:0:0:0:
256,192,37547,1,8,0:0:0:0:
256,192,37757,1,0,0:0:0:0:
256,192,37966,1,8,0:0:0:0:
256,192,38071,1,8,0:0:0:0:
256,192,38176,1,8,0:0:0:0:
256,192,38386,1,0,0:0:0:0:
256,192,38806,1,0,0:0:0:0:
256,192,38911,1,0,0:0:0:0:
256,192,39015,1,0,0:0:0:0:
256,192,39225,1,8,0:0:0:0:
256,192,39435,1,8,0:0:0:0:
256,192,39645,1,0,0:0:0:0:
256,192,40064,1,8,0:0:0:0:
256,192,40274,1,8,0:0:0:0:
256,192,40484,1,0,0:0:0:0:
256,192,40694,1,8,0:0:0:0:
256,192,40799,1,8,0:0:0:0:
256,192,40904,1,8,0:0:0:0:
256,192,41323,1,0,0:0:0:0:
256,192,41533,1,8,0:0:0:0:
256,192,41743,1,0,0:0:0:0:
256,192,41952,1,0,0:0:0:0:
256,192,42057,1,0,0:0:0:0:
256,192,42162,1,0,0:0:0:0:
256,192,42582,1,8,0:0:0:0:
256,192,42792,1,0,0:0:0:0:
256,192,43001,1,8,0:0:0:0:
256,192,43211,1,0,0:0:0:0:
256,192,43421,1,8,0:0:0:0:
256,192,43736,1,0,0:0:0:0:
256,192,44050,1,8,0:0:0:0:
256,192,44260,1,0,0:0:0:0:
256,192,44470,1,8,0:0:0:0:
256,192,44575,1,8,0:0:0:0:
256,192,44680,1,8,0:0:0:0:
256,192,45356,1,0,0:0:0:0:
256,192,46033,1,0,0:0:0:0:
256,192,46710,1,8,0:0:0:0:
256,192,46935,1,0,0:0:0:0:
256,192,47161,1,0,0:0:0:0:
256,192,47386,1,4,0:0:0:0:
256,192,47700,1,8,0:0:0:0:
256,192,48015,1,0,0:0:0:0:
256,192,48225,1,8,0:0:0:0:
256,192,48434,1,0,0:0:0:0:
256,192,48539,1,0,0:0:0:0:
256,192,48644,1,0,0:0:0:0:
256,192,48854,1,8,0:0:0:0:
256,192,49064,1,8,0:0:0:0:
256,192,49274,1,0,0:0:0:0:
256,192,49483,1,8,0:0:0:0:
256,192,49903,1,0,0:0:0:0:
256,192,50008,1,0,0:0:0:0:
256,192,50113,1,0,0:0:0:0:
256,192,50323,1,0,0:0:0:0:
256,192,50532,1,8,0:0:0:0:
256,192,50637,1,8,0:0:0:0:
256,192,50742,1,8,0:0:0:0:
256,192,50952,1,0,0:0:0:0:
256,192,51162,1,8,0:0:0:0:
256,192,51581,1,0,0:0:0:0:
256,192,51791,1,8,0:0:0:0:
256,192,51896,1,8,0:0:0:0:
256,192,52001,1,8,0:0:0:0:
256,192,52211,1,8,0:0:0:0:
256,192,52420,1,0,0:0:0:0:
256,192,52630,12,0,53469,0:0:0:0:
256,192,53679,5,4,0:0:0:0:
256,192,53994,1,0,0:0:0:0:
256,192,54099,1,0,0:0:0:0:
256,192,54309,1,8,0:0:0:0:
256,192,54518,1,8,0:0:0:0:
256,192,54728,1,0,0:0:0:0:
256,192,54938,1,4,0:0:0:0:
256,192,55253,1,0,0:0:0:0:
256,192,55358,1,0,0:0:0:0:
256,192,55567,1,8,0:0:0:0:
256,192,55777,1,8,0:0:0:0:
256,192,55987,1,8,0:0:0:0:
256,192,56197,1,0,0:0:0:0:
256,192,56406,1,8,0:0:0:0:
256,192,56826,1,0,0:0:0:0:
256,192,57036,1,8,0:0:0:0:
256,192,57246,1,0,0:0:0:0:
256,192,57351,1,0,0:0:0:0:
256,192,57455,1,0,0:0:0:0:
256,192,57665,1,8,0:0:0:0:
256,192,57875,1,8,0:0:0:0:
256,192,58085,1,0,0:0:0:0:
256,192,58295,1,0,0:0:0:0:
256,192,58504,1,0,0:0:0:0:
256,192,58714,1,12,0:0:0:0:
256,192,59134,1,0,0:0:0:0:
256,192,59344,1,0,0:0:0:0:
256,192,59553,1,8,0:0:0:0:
256,192,59763,1,0,0:0:0:0:
256,192,59868,1,0,0:0:0:0:
256,192,59973,1,8,0:0:0:0:
256,192,60183,1,0,0:0:0:0:
256,192,60392,1,0,0:0:0:0:
256,192,60602,1,8,0:0:0:0:
256,192,60917,1,8,0:0:0:0:
256,192,61232,1,4,0:0:0:0:
256,192,61441,1,8,0:0:0:0:
256,192,61651,1,0,0:0:0:0:
256,192,61756,1,0,0:0:0:0:
256,192,61861,1,8,0:0:0:0:
256,192,62071,1,0,0:0:0:0:
256,192,62281,1,0,0:0:0:0:
256,192,62490,1,8,0:0:0:0:
256,192,62910,1,0,0:0:0:0:
256,192,63120,1,0,0:0:0:0:
256,192,63225,1,0,0:0:0:0:
256,192,63330,1,0,0:0:0:0:
256,192,63539,1,8,0:0:0:0:
256,192,63749,1,4,0:0:0:0:
256,192,64379,5,8,0:0:0:0:
256,192,65008,1,4,0:0:0:0:
256,192,65637,1,8,0:0:0:0:
256,192,65847,1,0,0:0:0:0:
256,192,65952,1,0,0:0:0:0:
256,192,66057,1,0,0:0:0:0:
256,192,66267,1,8,0:0:0:0:
256,192,66476,1,0,0:0:0:0:
256,192,66896,1,8,0:0:0:0:
256,192,67106,1,0,0:0:0:0:
256,192,67316,1,8,0:0:0:0:
256,192,67420,1,8,0:0:0:0:
256,192,67525,1,8,0:0:0:0:
256,192,67735,1,0,0:0:0:0:
256,192,67945,1,0,0:0:0:0:
256,192,68155,1,8,0:0:0:0:
256,192,68365,1,0,0:0:0:0:
256,192,68469,1,0,0:0:0:0:
256,192,68574,1,8,0:0:0:0:
256,192,68784,1,8,0:0:0:0:
256,192,69204,1,0,0:0:0:0:
256,192,69413,1,0,0:0:0:0:
256,192,69518,1,0,0:0:0:0:
256,192,69623,1,0,0:0:0:0:
256,192,69833,1,8,0:0:0:0:
256,192,70043,1,0,0:0:0:0:
256,192,70253,1,0,0:0:0:0:
256,192,70462,1,8,0:0:0:0:
256,192,70672,1,8,0:0:0:0:
256,192,70987,1,0,0:0:0:0:
256,192,71302,1,8,0:0:0:0:
256,192,71511,1,8,0:0:0:0:
256,192,71721,1,0,0:0:0:0:
256,192,71826,1,0,0:0:0:0:
256,192,71931,1,0,0:0:0:0:
256,192,72141,1,8,0:0:0:0:
256,192,72246,1,8,0:0:0:0:
256,192,72351,1,8,0:0:0:0:
256,192,72560,1,8,0:0:0:0:
256,192,73190,1,8,0:0:0:0:
256,192,73609,1,8,0:0:0:0:
256,192,73819,1,0,0:0:0:0:
256,192,74029,1,8,0:0:0:0:
256,192,74239,1,8,0:0:0:0:
256,192,74448,1,0,0:0:0:0:
256,192,74868,1,0,0:0:0:0:
256,192,75078,1,0,0:0:0:0:
256,192,75288,1,8,0:0:0:0:
256,192,75497,1,0,0:0:0:0:
256,192,75707,1,8,0:0:0:0:
256,192,76127,1,8,0:0:0:0:
256,192,76337,1,0,0:0:0:0:
256,192,76546,1,8,0:0:0:0:
256,192,76756,1,0,0:0:0:0:
256,192,76966,1,8,0:0:0:0:
256,192,77386,1,8,0:0:0:0:
256,192,77595,1,8,0:0:0:0:
256,192,77805,1,0,0:0:0:0:
256,192,78015,1,0,0:0:0:0:
256,192,78225,1,8,0:0:0:0:
256,192,78434,1,0,0:0:0:0:
256,192,78539,1,0,0:0:0:0:
256,192,78644,1,0,0:0:0:0:
256,192,78854,1,8,0:0:0:0:
256,192,79274,1,0,0:0:0:0:
256,192,79483,1,8,0:0:0:0:
256,192,79903,1,8,0:0:0:0:
256,192,80113,1,0,0:0:0:0:
256,192,80532,1,8,0:0:0:0:
256,192,80742,1,0,0:0:0:0:
256,192,80952,1,0,0:0:0:0:
256,192,81162,1,8,0:0:0:0:
256,192,81372,1,0,0:0:0:0:
256,192,81581,1,8,0:0:0:0:
256,192,81791,1,8,0:0:0:0:
256,192,82001,1,0,0:0:0:0:
256,192,82420,1,0,0:0:0:0:
256,192,82630,1,8,0:0:0:0:
256,192,82840,1,0,0:0:0:0:
256,192,82945,1,0,0:0:0:0:
256,192,83050,1,0,0:0:0:0:
256,192,83260,1,0,0:0:0:0:
256,192,83469,1,8,0:0:0:0:
256,192,83574,1,8,0:0:0:0:
256,192,83679,1,8,0:0:0:0:
256,192,83889,1,12,0:0:0:0:
256,192,84204,1,0,0:0:0:0:
256,192,84518,1,8,0:0:0:0:
256,192,84728,1,0,0:0:0:0:
256,192,84938,1,0,0:0:0:0:
256,192,85148,1,8,0:0:0:0:
256,192,85462,1,0,0:0:0:0:
256,192,85777,1,8,0:0:0:0:
256,192,85987,1,8,0:0:0:0:
256,192,86092,1,8,0:0:0:0:
256,192,86197,1,8,0:0:0:0:
256,192,86406,1,0,0:0:0:0:
256,192,86616,1,0,0:0:0:0:
256,192,87036,1,8,0:0:0:0:
256,192,87246,1,8,0:0:0:0:
256,192,87455,1,8,0:0:0:0:
256,192,87560,1,8,0:0:0:0:
256,192,87665,1,8,0:0:0:0:
256,192,87875,1,0,0:0:0:0:
256,192,88085,1,0,0:0:0:0:
256,192,88295,1,8,0:0:0:0:
256,192,88504,1,8,0:0:0:0:
256,192,88714,1,0,0:0:0:0:
256,192,88924,1,4,0:0:0:0:
256,192,89239,1,0,0:0:0:0:
256,192,89553,1,0,0:0:0:0:
256,192,89763,1,8,0:0:0:0:
256,192,89973,1,8,0:0:0:0:
256,192,90183,1,0,0:0:0:0:
256,192,90497,1,8,0:0:0:0:
256,192,90812,1,8,0:0:0:0:
256,192,91022,1,0,0:0:0:0:
256,192,91127,1,0,0:0:0:0:
256,192,91232,1,0,0:0:0:0:
256,192,91441,1,0,0:0:0:0:
256,192,91651,1,8,0:0:0:0:
256,192,92071,1,0,0:0:0:0:
256,192,92281,1,8,0:0:0:0:
256,192,92490,1,8,0:0:0:0:
256,192,92595,1,8,0:0:0:0:
256,192,92700,1,8,0:0:0:0:
256,192,92910,1,0,0:0:0:0:
256,192,93120,1,0,0:0:0:0:
256,192,93330,1,0,0:0:0:0:
256,192,93539,1,8,0:0:0:0:
256,192,93749,1,0,0:0:0:0:
256,192,93854,1,0,0:0:0:0:
256,192,93959,1,8,0:0:0:0:
256,192,94588,1,0,0:0:0:0:
256,192,95218,1,8,0:0:0:0:
256,192,95427,1,0,0:0:0:0:
256,192,95847,1,8,0:0:0:0:
256,192,96057,1,0,0:0:0:0:
256,192,96267,1,8,0:0:0:0:
256,192,96476,1,0,0:0:0:0:
256,192,96896,1,0,0:0:0:0:
256,192,97106,1,8,0:0:0:0:
256,192,97316,1,8,0:0:0:0:
256,192,97525,1,0,0:0:0:0:
256,192,97735,1,8,0:0:0:0:
256,192,98050,1,0,0:0:0:0:
256,192,98365,1,0,0:0:0:0:
256,192,98574,1,8,0:0:0:0:
256,192,98679,1,8,0:0:0:0:
256,192,98784,1,8,0:0:0:0:
256,192,98994,1,0,0:0:0:0:
256,192,99204,1,0,0:0:0:0:
256,192,99413,1,0,0:0:0:0:
256,192,99623,1,0,0:0:0:0:
256,192,100043,1,8,0:0:0:0:
256,192,100253,1,0,0:0:0:0:
256,192,100358,1,0,0:0:0:0:
256,192,100462,1,0,0:0:0:0:
256,192,100672,1,8,0:0:0:0:
256,192,100777,1,8,0:0:0:0:
256,192,100882,1,8,0:0:0:0:
256,192,101302,1,0,0:0:0:0:
256,192,101511,1,8,0:0:0:0:
256,192,101721,1,0,0:0:0:0:
256,192,101931,1,8,0:0:0:0:
256,192,102036,1,8,0:0:0:0:
256,192,102141,1,8,0:0:0:0:
256,192,102351,1,0,0:0:0:0:
256,192,102560,1,0,0:0:0:0:
256,192,102665,1,0,0:0:0:0:
256,192,102770,1,0,0:0:0:0:
256,192,103085,1,0,0:0:0:0:
256,192,103399,1,8,0:0:0:0:
256,192,103714,1,8,0:0:0:0:
256,192,104029,1,4,0:0:0:0:
256,192,104246,1,0,0:0:0:0:
256,192,104355,1,0,0:0:0:0:
256,192,104463,1,0,0:0:0:0:
256,192,104681,1,8,0:0:0:0:
256,192,104898,1,8,0:0:0:0:
256,192,105115,1,0,0:0:0:0:
256,192,105333,1,8,0:0:0:0:
256,192,105768,1,0,0:0:0:0:
256,192,105985,1,8,0:0:0:0:
256,192,106202,1,8,0:0:0:0:
256,192,106311,1,8,0:0:0:0:
256,192,106420,1,8,0:0:0:0:
256,192,106637,1,0,0:0:0:0:
256,192,106855,1,0,0:0:0:0:
256,192,107072,1,8,0:0:0:0:
256,192,107289,1,0,0:0:0:0:
256,192,107724,1,8,0:0:0:0:
256,192,107942,1,0,0:0:0:0:
256,192,108159,1,8,0:0:0:0:
256,192,108268,1,8,0:0:0:0:
256,192,108376,1,8,0:0:0:0:
256,192,108594,1,0,0:0:0:0:
256,192,108811,1,0,0:0:0:0:
256,192,109029,1,0,0:0:0:0:
256,192,109246,1,12,0:0:0:0:
256,192,109681,1,0,0:0:0:0:
256,192,109898,1,8,0:0:0:0:
256,192,110115,1,0,0:0:0:0:
256,192,110224,1,0,0:0:0:0:
256,192,110333,1,0,0:0:0:0:
256,192,110550,1,8,0:0:0:0:
256,192,110768,1,8,0:0:0:0:
256,192,110985,1,0,0:0:0:0:
256,192,111202,1,8,0:0:0:0:
256,192,111637,1,8,0:0:0:0:
256,192,111855,1,0,0:0:0:0:
256,192,112072,1,0,0:0:0:0:
256,192,112289,1,8,0:0:0:0:
256,192,112507,1,0,0:0:0:0:
256,192,112942,1,0,0:0:0:0:
256,192,113159,1,8,0:0:0:0:
256,192,113376,1,0,0:0:0:0:
256,192,113485,1,0,0:0:0:0:
256,192,113594,1,0,0:0:0:0:
256,192,113811,1,8,0:0:0:0:
256,192,114029,1,0,0:0:0:0:
256,192,114246,1,0,0:0:0:0:
256,192,114355,1,0,0:0:0:0:
256,192,114463,1,12,0:0:0:0:
256,192,115139,1,0,0:0:0:0:
256,192,115816,1,8,0:0:0:0:
256,192,116493,1,8,0:0:0:0:
256,192,116944,1,8,0:0:0:0:
256,192,117169,1,0,0:0:0:0:
256,192,117846,1,0,0:0:0:0:
256,192,118523,1,8,0:0:0:0:
256,192,119199,1,0,0:0:0:0:
256,192,119650,1,0,0:0:0:0:
256,192,119876,1,8,0:0:0:0:
256,192,120553,1,8,0:0:0:0:
256,192,121229,1,0,0:0:0:0:
256,192,121455,1,8,0:0:0:0:
256,192,121906,1,8,0:0:0:0:
256,192,122583,1,8,0:0:0:0:
256,192,122808,1,8,0:0:0:0:
256,192,123034,1,0,0:0:0:0:
256,192,123259,1,8,0:0:0:0:
256,192,123711,1,8,0:0:0:0:
256,192,123936,1,0,0:0:0:0:
256,192,124565,1,8,0:0:0:0:
256,192,124775,1,0,0:0:0:0:
256,192,124984,1,0,0:0:0:0:
256,192,125194,1,12,0:0:0:0:
256,192,125404,1,0,0:0:0:0:
256,192,125509,1,0,0:0:0:0:
256,192,125614,1,0,0:0:0:0:
256,192,125824,1,8,0:0:0:0:
256,192,126033,1,0,0:0:0:0:
256,192,126243,1,0,0:0:0:0:
256,192,126453,1,8,0:0:0:0:
256,192,126873,1,8,0:0:0:0:
256,192,127082,1,0,0:0:0:0:
256,192,127292,1,8,0:0:0:0:
256,192,127502,1,8,0:0:0:0:
256,192,127712,1,0,0:0:0:0:
256,192,128131,1,8,0:0:0:0:
256,192,128341,1,0,0:0:0:0:
256,192,128446,1,0,0:0:0:0:
256,192,128551,1,0,0:0:0:0:
256,192,128761,1,8,0:0:0:0:
256,192,128970,1,8,0:0:0:0:
256,192,129390,1,0,0:0:0:0:
256,192,129600,1,8,0:0:0:0:
256,192,129810,1,0,0:0:0:0:
256,192,129915,1,0,0:0:0:0:
256,192,130019,1,0,0:0:0:0:
256,192,130229,1,8,0:0:0:0:
256,192,130649,1,8,0:0:0:0:
256,192,130859,1,8,0:0:0:0:
256,192,130963,1,8,0:0:0:0:
256,192,131068,1,0,0:0:0:0:
256,192,131278,1,0,0:0:0:0:
256,192,131488,1,8,0:0:0:0:
256,192,131908,1,0,0:0:0:0:
256,192,132117,1,0,0:0:0:0:
256,192,132327,1,8,0:0:0:0:
256,192,132432,1,8,0:0:0:0:
256,192,132537,1,8,0:0:0:0:
256,192,132747,1,0,0:0:0:0:
256,192,132956,1,8,0:0:0:0:
256,192,133166,1,8,0:0:0:0:
256,192,133376,1,0,0:0:0:0:
256,192,133796,1,0,0:0:0:0:
256,192,134005,1,8,0:0:0:0:
256,192,134320,1,0,0:0:0:0:
256,192,134425,1,0,0:0:0:0:
256,192,134635,1,8,0:0:0:0:
256,192,134845,1,0,0:0:0:0:
256,192,135054,1,0,0:0:0:0:
256,192,135264,1,8,0:0:0:0:
256,192,135579,1,8,0:0:0:0:
256,192,135894,1,8,0:0:0:0:
256,192,136103,1,0,0:0:0:0:
256,192,136313,1,8,0:0:0:0:
256,192,136523,1,0,0:0:0:0:
256,192,136838,1,0,0:0:0:0:
256,192,137152,1,8,0:0:0:0:
256,192,137572,1,0,0:0:0:0:
256,192,137782,1,8,0:0:0:0:
256,192,138201,1,0,0:0:0:0:
256,192,138411,1,8,0:0:0:0:
256,192,138621,1,0,0:0:0:0:
256,192,138831,1,8,0:0:0:0:
256,192,139040,1,0,0:0:0:0:
256,192,139250,1,0,0:0:0:0:
256,192,139460,1,8,0:0:0:0:
256,192,139670,1,8,0:0:0:0:
256,192,139880,1,0,0:0:0:0:
256,192,140089,1,8,0:0:0:0:
256,192,140299,1,0,0:0:0:0:
256,192,140719,1,0,0:0:0:0:
256,192,140929,1,8,0:0:0:0:
256,192,141138,1,0,0:0:0:0:
256,192,141348,1,0,0:0:0:0:
256,192,141558,1,8,0:0:0:0:
256,192,141977,1,0,0:0:0:0:
256,192,142187,1,0,0:0:0:0:
256,192,142397,1,8,0:0:0:0:
256,192,142607,1,8,0:0:0:0:
256,192,142816,1,0,0:0:0:0:
256,192,143492,1,0,0:0:0:0:
256,192,144169,1,8,0:0:0:0:
256,192,144846,1,8,0:0:0:0:
256,192,145071,1,0,0:0:0:0:
256,192,145522,1,4,0:0:0:0:
256,192,145836,1,8,0:0:0:0:
256,192,146151,1,0,0:0:0:0:
256,192,146361,1,8,0:0:0:0:
256,192,146570,1,0,0:0:0:0:
256,192,146675,1,0,0:0:0:0:
256,192,146780,1,0,0:0:0:0:
256,192,146990,1,8,0:0:0:0:
256,192,147200,1,8,0:0:0:0:
256,192,147410,1,0,0:0:0:0:
256,192,147619,1,8,0:0:0:0:
256,192,148039,1,0,0:0:0:0:
256,192,148144,1,0,0:0:0:0:
256,192,148249,1,8,0:0:0:0:
256,192,148459,1,0,0:0:0:0:
256,192,148668,1,8,0:0:0:0:
256,192,148773,1,8,0:0:0:0:
256,192,148878,1,8,0:0:0:0:
256,192,149088,1,0,0:0:0:0:
256,192,149298,1,8,0:0:0:0:
256,192,149508,1,0,0:0:0:0:
256,192,149717,1,0,0:0:0:0:
256,192,149927,1,8,0:0:0:0:
256,192,150032,1,8,0:0:0:0:
256,192,150137,1,8,0:0:0:0:
256,192,150242,1,8,0:0:0:0:
256,192,150347,5,8,0:0:0:0:
256,192,150556,1,0,0:0:0:0:
256,192,150766,12,0,151815,0:0:0:0:
256,192,153074,5,4,0:0:0:0:
256,192,153389,1,8,0:0:0:0:
256,192,153494,1,8,0:0:0:0:
256,192,153703,1,0,0:0:0:0:
266,196,153913,1,8,0:0:0:0:
256,192,154123,1,8,0:0:0:0:
256,192,154333,1,4,0:0:0:0:
256,192,154647,1,0,0:0:0:0:
256,192,154752,1,0,0:0:0:0:
256,192,154962,1,8,0:0:0:0:
256,192,155172,1,0,0:0:0:0:
256,192,155382,1,8,0:0:0:0:
256,192,155591,1,0,0:0:0:0:
256,192,155801,1,8,0:0:0:0:
256,192,156221,1,0,0:0:0:0:
256,192,156431,1,8,0:0:0:0:
256,192,156640,1,0,0:0:0:0:
256,192,156850,1,8,0:0:0:0:
256,192,157060,1,0,0:0:0:0:
256,192,157165,1,0,0:0:0:0:
256,192,157270,1,8,0:0:0:0:
256,192,157480,1,0,0:0:0:0:
256,192,157689,1,8,0:0:0:0:
256,192,157899,1,0,0:0:0:0:
256,192,158109,1,12,0:0:0:0:
256,192,158528,1,0,0:0:0:0:
256,192,158738,1,0,0:0:0:0:
256,192,158948,1,8,0:0:0:0:
256,192,159158,1,0,0:0:0:0:
256,192,159263,1,0,0:0:0:0:
256,192,159368,1,8,0:0:0:0:
256,192,159577,1,0,0:0:0:0:
256,192,159787,1,0,0:0:0:0:
256,192,159997,1,8,0:0:0:0:
256,192,160312,1,8,0:0:0:0:
256,192,160626,1,4,0:0:0:0:
256,192,160836,1,8,0:0:0:0:
256,192,161046,1,0,0:0:0:0:
256,192,161151,1,0,0:0:0:0:
256,192,161256,1,8,0:0:0:0:
256,192,161466,1,0,0:0:0:0:
256,192,161675,1,0,0:0:0:0:
256,192,161885,1,8,0:0:0:0:
256,192,162095,1,0,0:0:0:0:
256,192,162305,1,0,0:0:0:0:
256,192,162515,1,0,0:0:0:0:
256,192,162724,1,8,0:0:0:0:
256,192,162829,1,0,0:0:0:0:
256,192,162934,1,8,0:0:0:0:
256,192,163144,1,4,0:0:0:0:
256,192,163773,5,8,0:0:0:0:
256,192,164403,1,4,0:0:0:0:
256,192,165032,1,8,0:0:0:0:
256,192,165242,1,0,0:0:0:0:
256,192,165347,1,0,0:0:0:0:
256,192,165452,1,8,0:0:0:0:
256,192,165661,1,8,0:0:0:0:
256,192,165871,1,0,0:0:0:0:
256,192,166291,1,8,0:0:0:0:
256,192,166501,1,0,0:0:0:0:
256,192,166710,1,0,0:0:0:0:
256,192,166815,1,0,0:0:0:0:
256,192,166920,1,8,0:0:0:0:
256,192,167130,1,0,0:0:0:0:
256,192,167340,1,0,0:0:0:0:
256,192,167549,1,8,0:0:0:0:
256,192,167759,1,0,0:0:0:0:
256,192,167864,1,0,0:0:0:0:
256,192,167969,1,0,0:0:0:0:
256,192,168179,1,12,0:0:0:0:
256,192,168598,1,0,0:0:0:0:
256,192,168808,1,0,0:0:0:0:
256,192,168913,1,0,0:0:0:0:
256,192,169018,1,8,0:0:0:0:
256,192,169228,1,0,0:0:0:0:
256,192,169333,1,0,0:0:0:0:
256,192,169438,1,8,0:0:0:0:
256,192,169647,1,0,0:0:0:0:
256,192,169857,1,8,0:0:0:0:
256,192,170067,1,8,0:0:0:0:
256,192,170382,1,0,0:0:0:0:
256,192,170696,1,8,0:0:0:0:
256,192,170906,1,8,0:0:0:0:
256,192,171116,1,0,0:0:0:0:
256,192,171221,1,0,0:0:0:0:
256,192,171326,1,8,0:0:0:0:
256,192,171535,1,8,0:0:0:0:
256,192,171745,1,0,0:0:0:0:
256,192,171955,1,8,0:0:0:0:
256,192,172165,5,0,0:0:0:0:
256,192,172375,1,8,0:0:0:0:
256,192,172584,1,0,0:0:0:0:
256,192,172689,1,0,0:0:0:0:
256,192,172794,1,0,0:0:0:0:
256,192,172899,1,0,0:0:0:0:
256,192,173004,1,8,0:0:0:0:
256,192,173214,1,0,0:0:0:0:
256,192,173843,1,8,0:0:0:0:
256,192,174473,1,8,0:0:0:0:
244,193,174892,1,0,0:0:0:0:
256,192,175102,1,8,0:0:0:0:
256,192,175312,1,0,0:0:0:0:
256,192,175417,1,0,0:0:0:0:
256,192,175522,1,0,0:0:0:0:
256,192,175731,1,8,0:0:0:0:
256,192,175941,1,0,0:0:0:0:
256,192,176361,1,8,0:0:0:0:
256,192,176570,1,0,0:0:0:0:
256,192,176780,1,0,0:0:0:0:
256,192,176990,1,8,0:0:0:0:
256,192,177200,1,8,0:0:0:0:
256,192,177410,1,8,0:0:0:0:
256,192,177619,1,0,0:0:0:0:
256,192,177829,1,0,0:0:0:0:
256,192,178039,1,0,0:0:0:0:
256,192,178144,1,0,0:0:0:0:
256,192,178249,1,0,0:0:0:0:
256,192,178563,1,0,0:0:0:0:
256,192,178668,1,8,0:0:0:0:
256,192,178878,1,0,0:0:0:0:
256,192,178983,1,0,0:0:0:0:
256,192,179088,1,8,0:0:0:0:
256,192,179508,1,8,0:0:0:0:
256,192,179717,1,8,0:0:0:0:
256,192,179927,1,0,0:0:0:0:
256,192,180032,1,0,0:0:0:0:
256,192,180137,1,0,0:0:0:0:
256,192,180347,1,8,0:0:0:0:
256,192,180556,1,0,0:0:0:0:
256,192,180766,1,8,0:0:0:0:
256,192,181396,1,0,0:0:0:0:
256,192,181501,1,0,0:0:0:0:
256,192,181605,1,8,0:0:0:0:
256,192,181815,1,0,0:0:0:0:
256,192,181920,1,0,0:0:0:0:
256,192,182025,1,8,0:0:0:0:
256,192,182340,1,0,0:0:0:0:
256,192,182654,1,8,0:0:0:0:
256,192,182864,1,0,0:0:0:0:
256,192,182969,1,0,0:0:0:0:
256,192,183074,1,0,0:0:0:0:
256,192,183179,1,0,0:0:0:0:
256,192,183284,1,8,0:0:0:0:
256,192,183936,1,0,0:0:0:0:
256,192,184588,1,8,0:0:0:0:
256,192,185240,1,0,0:0:0:0:
256,192,185457,1,0,0:0:0:0:
256,192,185566,1,0,0:0:0:0:
256,192,185675,1,8,0:0:0:0:
256,192,185892,1,8,0:0:0:0:
256,192,186117,1,0,0:0:0:0:
256,192,186568,1,8,0:0:0:0:
256,192,186794,1,0,0:0:0:0:
256,192,187019,1,0,0:0:0:0:
256,192,187132,1,0,0:0:0:0:
256,192,187245,1,8,0:0:0:0:
256,192,187479,1,8,0:0:0:0:
256,192,187713,1,0,0:0:0:0:
256,192,187830,1,0,0:0:0:0:
256,192,187948,1,8,0:0:0:0:
256,192,188182,1,0,0:0:0:0:
256,192,188416,1,8,0:0:0:0:
256,192,188651,1,0,0:0:0:0:
256,192,189382,1,8,0:0:0:0:
256,192,190144,1,0,0:0:0:0:
256,192,190450,1,8,0:0:0:0:
256,192,190756,1,8,0:0:0:0:
256,192,191117,1,0,0:0:0:0:
256,192,194479,1,8,0:0:0:0:
256,192,196457,1,0,0:0:0:0:
256,192,197116,1,8,0:0:0:0:
256,192,198898,1,8,0:0:0:0:
256,192,200519,1,0,0:0:0:0:
256,192,202141,1,0,0:0:0:0:
256,192,203762,1,8,0:0:0:0:
256,192,204725,1,8,0:0:0:0:
256,192,205207,1,0,0:0:0:0:
256,192,206653,1,8,0:0:0:0:
256,192,207583,1,8,0:0:0:0:
256,192,208048,1,0,0:0:0:0:
256,192,209443,1,8,0:0:0:0:
256,192,210355,1,8,0:0:0:0:
256,192,210811,1,0,0:0:0:0:
256,192,212180,1,8,0:0:0:0:
256,192,213062,1,0,0:0:0:0:
256,192,213503,1,8,0:0:0:0:
256,192,214385,1,0,0:0:0:0:
256,192,214827,1,8,0:0:0:0:
256,192,215042,1,0,0:0:0:0:
256,192,215257,1,8,0:0:0:0:
256,192,215472,1,0,0:0:0:0:
256,192,215687,1,0,0:0:0:0:
256,192,215902,1,8,0:0:0:0:
256,192,216117,1,0,0:0:0:0:
256,192,216547,1,8,0:0:0:0:
256,192,216762,1,0,0:0:0:0:
256,192,216977,1,8,0:0:0:0:
256,192,217192,1,0,0:0:0:0:
256,192,217407,1,8,0:0:0:0:
256,192,217829,1,0,0:0:0:0:
256,192,218040,1,0,0:0:0:0:
256,192,218252,1,8,0:0:0:0:
256,192,218463,1,0,0:0:0:0:
256,192,218674,1,8,0:0:0:0:
256,192,219135,1,8,0:0:0:0:
256,192,219385,1,0,0:0:0:0:
256,192,219657,1,0,0:0:0:0:
256,192,219957,1,8,0:0:0:0:
256,192,220290,1,4,0:0:0:0:
256,192,220741,1,8,0:0:0:0:
256,192,220966,1,0,0:0:0:0:
256,192,221192,1,8,0:0:0:0:
256,192,221418,1,8,0:0:0:0:
256,192,221645,1,4,0:0:0:0:
256,192,222099,1,8,0:0:0:0:
256,192,222326,1,0,0:0:0:0:
256,192,222440,1,0,0:0:0:0:
256,192,222554,1,8,0:0:0:0:
256,192,222668,1,0,0:0:0:0:
256,192,222782,1,8,0:0:0:0:
256,192,223010,1,8,0:0:0:0:
256,192,223239,1,0,0:0:0:0:
256,192,223697,1,8,0:0:0:0:
256,192,223926,1,0,0:0:0:0:
256,192,224156,1,0,0:0:0:0:
256,192,224271,1,0,0:0:0:0:
256,192,224386,1,8,0:0:0:0:
256,192,224616,1,8,0:0:0:0:
256,192,224851,1,8,0:0:0:0:
256,192,225091,1,0,0:0:0:0:
256,192,225335,1,0,0:0:0:0:
256,192,225585,1,0,0:0:0:0:
256,192,225840,1,12,0:0:0:0:
256,192,226308,1,8,0:0:0:0:
256,192,226543,1,0,0:0:0:0:
256,192,226661,1,0,0:0:0:0:
256,192,226779,1,8,0:0:0:0:
256,192,227015,1,0,0:0:0:0:
256,192,227133,1,0,0:0:0:0:
256,192,227251,1,8,0:0:0:0:
256,192,227489,1,0,0:0:0:0:
256,192,227727,1,0,0:0:0:0:
256,192,227965,1,8,0:0:0:0:
256,192,228205,1,0,0:0:0:0:
256,192,228325,1,0,0:0:0:0:
256,192,228445,1,8,0:0:0:0:
256,192,228685,1,8,0:0:0:0:
256,192,228928,1,0,0:0:0:0:
256,192,229172,1,0,0:0:0:0:
256,192,229294,1,0,0:0:0:0:
256,192,229416,1,8,0:0:0:0:
256,192,229674,1,0,0:0:0:0:
256,192,229933,1,0,0:0:0:0:
64,192,230191,2,0,L|419:192,1,327.600001249695
256,192,231109,1,0,0:0:0:0:
256,192,231493,1,8,0:0:0:0:
256,192,231903,1,8,0:0:0:0:
256,192,232390,1,0,0:0:0:0:
256,192,232582,1,0,0:0:0:0:
256,192,232774,1,8,0:0:0:0:
256,192,232966,1,0,0:0:0:0:
256,192,233159,1,0,0:0:0:0:
256,192,233351,1,8,0:0:0:0:
256,192,233543,1,8,0:0:0:0:
256,192,233928,1,8,0:0:0:0:
256,192,234120,1,0,0:0:0:0:
256,192,234313,1,0,0:0:0:0:
256,192,234505,1,0,0:0:0:0:
256,192,234697,1,8,0:0:0:0:
256,192,234841,1,0,0:0:0:0:
256,192,235130,1,0,0:0:0:0:
256,192,235274,1,8,0:0:0:0:
256,192,235418,1,0,0:0:0:0:
256,192,235563,1,8,0:0:0:0:
256,192,235851,1,8,0:0:0:0:
256,192,235995,1,8,0:0:0:0:
256,192,236284,1,8,0:0:0:0:
256,192,236428,1,0,0:0:0:0:
256,192,236572,1,8,0:0:0:0:
256,192,236716,1,0,0:0:0:0:
256,192,237005,1,0,0:0:0:0:
256,192,237077,1,0,0:0:0:0:
256,192,237293,1,8,0:0:0:0:
256,192,237365,1,8,0:0:0:0:
256,192,237582,1,0,0:0:0:0:
256,192,237870,1,0,0:0:0:0:
256,192,238159,1,8,0:0:0:0:
256,192,238231,1,8,0:0:0:0:
256,192,238447,1,0,0:0:0:0:
256,192,238519,1,0,0:0:0:0:
256,192,238736,1,8,0:0:0:0:
256,192,239024,1,0,0:0:0:0:
256,192,239313,1,8,0:0:0:0:
256,192,239601,1,8,0:0:0:0:
256,192,239745,1,8,0:0:0:0:
256,192,239890,1,0,0:0:0:0:
256,192,240034,1,0,0:0:0:0:
256,192,240178,1,8,0:0:0:0:
256,192,240322,1,0,0:0:0:0:
256,192,240466,1,8,0:0:0:0:
256,192,240755,1,0,0:0:0:0:
256,192,240899,1,0,0:0:0:0:
256,192,241043,1,4,0:0:0:0:
256,192,241332,1,8,0:0:0:0:
256,192,241476,1,8,0:0:0:0:
256,192,241620,1,12,0:0:0:0:
