osu file format v14

[General]
AudioFilename: audio.mp3
AudioLeadIn: 0
PreviewTime: 154664
Countdown: 0
SampleSet: Soft
StackLeniency: 0.7
Mode: 0
LetterboxInBreaks: 0
WidescreenStoryboard: 0

[Editor]
Bookmarks: 697,841,914,1058,1202,1346,1418,1563,1635,1779,1851,1995,2067,2212,2284,2428,2572,2644,2789,2933,3077,3293,3438,3510,3654,3798,3942,4014,4159,4303,4375,4519,4664,4808,4952,5024,5240,5385,5457,5601,5745,5889,5962,6106,6250,6322,6466,6611,6755,6899,7043,7115,7332,7404,7620,7692,7837,7909,8053,8197,8269,8414,8558,8702,8774,8918,9063,9207,9351,9423,9567,9712,9784,10361,10505,10649,10793,10938,11082,11226,11298,11370,11442,11514,11587,11659,11803,11875,11947,12019,12091,12236,12308,12452,12596,12813,12885,13101,13245,13389,13534,13678,13822,13966,14111,14255,14471,14615,14760,14904,15048,15192,15409,15553,15697,15841,16058,16202,16346,16490,16563,16707,16851,16995,17139,17212,17356,17500,17644,17933,18005,18149,18293,18438,18582,18726,18942,19087,19231,19375,19519,19736,19880,20024,20168,20313,20457,20601,20745,20889,21034,21178,21322,21466,21611,21827,21971,22115,22260,22404,22548,22764,22909,23053,23197,23341,23558,23702,23846,23990,24207,24423,24639,24712,24928,25072,25216,25361,25505,25577,25721,25865,25938,26082,26154,26298,26370,26514,26587,26731,26875,27019,27164,27308,27452,27596,27813,27957,28101,28245,28389,28534,28678,28750,28894,28966,29111,29255,29399,29543,29904,29976,30120,30264,30409,30553,30697,30769,30914,31058,31202,31346,31490,31635,31779,31923,32067,32212,32356,32500,32644,32789,32933,33077,33221,33365,33582,33654,33798,34014,34159,34303,34447,34591,34736,34880,35024,35168,35313,35457,35601,35745,35889,36034,36250,36322,36539,36683,36827,36971,37115,37260,37404,37548,37764,37909,38053,38197,38341,38486,38630,38846,38990,39135,39279,39423,39567,39784,39928,40072,40216,40361,40505,40721,40865,41010,41154,41298,41442,41587,41803,41947,42091,42236,42380,42524,42668,42813,43029,43173,43317,43462,43606,43750,43966,44111,44255,44399,44543,44688,44904,45048,45192,45337,45481,45697,45841,45986,46130,46274,46490,46635,46779,46995,47139,47284,47500,47644,47789,48005,48149,48365,48510,48726,48870,49014,49231,49375,49519,49736,49880,50096,50240,50385,50601,50817,50962,51106,51250,51466,51611,51755,51899,52043,52188,52332,52548,52692,52837,52981,53125,53341,53486,53630,53774,54135,54279,54423,54567,54784,54928,55072,55216,55433,55577,55721,55865,56082,56226,56370,56587,56731,56875,57019,57164,57308,57380,57596,57668,57813,57957,58101,58173,58317,58462,58606,58678,58822,58966,59111,59255,59327,59471,59615,59688,59832,59976,60048,60192,60337,60481,60625,60769,60914,61058,61202,61346,61490,61635,61779,61923,62067,62212,62356,62500,62644,62789,62933,63077,63221,63365,63510,63654,63798,63942,64087,64231,64303,64447,64591,64808,64880,65024,65168,65313,65529,65601,65817,65889,66034,66178,66322,66466,66611,66755,66899,67043,67260,67332,67476,67620,67764,67909,68053,68269,68414,68558,68702,68846,68990,69135,69279,69423,69567,69712,69856,70000,70144,70289,70505,70649,70793,70938,71082,71298,71442,71587,71731,71947,72091,72236,72380,72524,72740,72885,73029,73173,73389,73462,73606,73750,73894,74039,74183,74327,74471,74615,74760,75914,76490,76635,76779,76923,76995,77139,77284,77428,77572,77644,77933,78077,78221,78365,78438,78582,78726,78870,79014,79159,79303,79447,79591,79736,79952,80096,80240,80385,80529,80745,80889,81034,81178,81322,81539,81683,81827,81971,82115,82332,82476,82620,82764,82909,83053,83197,83341,83558,83630,83846,83990,84135,84279,84495,84639,84784,84928,85072,85289,85433,85577,85721,85865,86010,86226,86370,86514,86659,86875,87019,87164,87308,87524,87668,87813,88029,88173,88317,88462,88606,88750,88966,89111,89255,89399,89615,89760,90048,90192,90337,90481,90625,90769,90914,91130,91274,91418,91563,91707,91851,91995,92212,92356,92500,92644,92789,93005,93149,93293,93438,93654,93798,93942,94087,94303,94447,94591,94736,94880,95024,95240,95313,95529,95673,95817,95962,96106,96250,96394,96539,96683,96827,96971,97115,97260,97404,97548,97692,97837,98053,98197,98341,98486,98630,98774,98918,99063,99279,99423,99567,99712,99856,100000,100144,100289,100433,100649,100793,100938,101082,101226,101442,101587,101731,101875,102019,102236,102380,102524,102668,102813,102957,103101,103245,103389,103606,103750,103894,104039,104183,104327,104543,104688,104832,104904,104976,105120,105264,105409,105769,105914,106058,106202,106346,106490,106635,106779,106923,107067,107212,107356,107500,107572,107716,107789,107861,107933,108005,108077,108149,108221,108293,108438,108582,108726,108870,109014,109231,109375,109519,109664,109808,109952,110168,110313,110457,110673,110817,110962,111106,111250,111394,111539,111683,111899,112043,112188,112332,112476,112692,112837,112981,113125,113269,113414,113630,113702,113918,114063,114207,114351,114567,114712,114928,115072,115216,115361,115505,115793,115938,116154,116298,116370,116587,116731,116875,117019,117164,117308,117452,117596,117740,117885,118029,118245,118389,118462,118750,118894,119111,119183,119327,119471,119688,119760,119976,120120,120264,120409,120625,120769,120914,121130,121274,121418,121563,121707,121851,121995,122212,122356,122500,122644,122789,122933,123077,123221,123365,123510,123726,123870,124014,124159,124303,124447,124591,124736,124952,125024,125168,125313,125457,125601,125817,125889,126106,126250,126394,126611,126755,126899,127043,127260,127404,127548,127692,127837,128053,128197,128414,128558,128702,128846,128990,129207,129351,129567,129712,129856,130000,130144,130361,130433,130577,130793,130865,131082,131226,131370,131659,131803,131947,132091,132236,132380,132524,132885,133029,133173,133317,133389,133534,133678,133822,133966,134039,134183,134327,134471,134615,134760,134904,135048,135120,135264,135409,135553,135697,135841,135914,136058,136202,136274,136490,136563,136707,136923,136995,137212,137284,137500,137644,137789,137861,138077,138221,138365,138510,138654,138726,138870,139014,139159,139447,139591,139736,139880,140024,140168,140313,140457,140601,140745,140817,140962,141106,141250,141394,141539,141683,141827,141971,142115,142260,142332,142476,142620,142764,142909,143053,143197,143341,143486,143630,143774,143846,143990,144135,144279,144495,144639,144784,144928,145072,145216,145361,145505,145649,145793,145938,146082,146154,146370,146587,146731,146875,147019,147164,147308,147452,147524,147740,147885,148029,148173,148389,148534,148678,148822,148894,149183,149327,149471,149615,149760,149904,150048,150192,150337,150481,150625,150769,150914,151058,151202,151346,151490,151635,151851,151923,152139,152284,152428,152572,152716,152861,153005,153149,153293,153438,153654,153798,153942,154087,154231,154375,154519,154808,154952,155096,155240,155385,155529,155673,155817,155962,156106,156250,156394,156539,156683,156827,156971,157115,157260,157404,157548,157692,157837,157981,158125,158269,158486,158558,158702,158846,158990,159063,159279,159423,159567,159712,159856,160000,160144,160289,160433,160577,160721,160865,161010,161154,161442,161587,161731,161947,162091,162236,162380,162524,162668,162740,162957,163029,163173,163389,163534,163678,163822,163966,164111,164255,164471,164615,164760,164976,165120,165264,165409,165553,165697,165841,165986,166130,166274,166418,166635,166779,166923,167139,167284,167500,167644,167861,168005,168149,168293,168438,168582,168726,168870,169159,169375,169519,169664,169736,169880,170024,170168,170240,170385,170529,170601,170745,170889,171034,171106,171250,171394,171539,171683,171827,171899,172043,172188,172332,172476,172548,172692,172837,172981,173053,173197,173341,173414,173558,173702,173774,173918,174063,174135,174279,174423,174567,174712,174856,175000,175072,175216,175361,175577,175649,175793,175938,176082,176226,176370,176514,176659,176803,176947,177091,177164,177308,177452,177596,177740,177885,178029,178173,178317,178462,178534,178678,178822,178966,179111,179255,179399,179471,179615,179760,179904,179976,180120,180264,180409,180481,180625,180769,180914,181058,181202,181346,181418,181563,181707,181851,181923,182067,182212,182356,182500,182572,182789,182933,183077,183221
DistanceSpacing: 0.2
BeatDivisor: 4
GridSize: 4
TimelineZoom: 1.6

[Metadata]
Title:Fairy-tale Planetarium
TitleUnicode:Fairy-tale Planetarium
Artist:technoplanet
ArtistUnicode:technoplanet
Creator:_Epreus
Version:Fantasista
Source:
Tags:dnb drum and bass ハセガワシュン hasegawashun molang pomit -unlimit- unlimit fairytale japanese electronic osu! featured artist fa artcore piano EXPRESS
BeatmapID:3191900
BeatmapSetID:1563083

[Difficulty]
HPDrainRate:5
CircleSize:4.2
OverallDifficulty:9.3
ApproachRate:9.4
SliderMultiplier:1.7
SliderTickRate:1

[Events]
//Background and Video events
0,0,"watching-the-galaxy-anime-girl-4k-sv-1920x1080.jpg",0,0
//Break Periods
//Storyboard Layer 0 (Background)
//Storyboard Layer 1 (Fail)
//Storyboard Layer 2 (Pass)
//Storyboard Layer 3 (Foreground)
//Storyboard Layer 4 (Overlay)
//Storyboard Sound Samples

[TimingPoints]
265,288.461538461538,4,2,1,20,1,0
6034,-100,4,2,1,40,0,0
7188,-100,4,2,99,60,0,0
7260,-100,4,2,1,60,0,0
9063,-181.818181818181,4,2,1,60,0,0
9495,-100,4,2,1,60,0,0
10938,-133.333333333333,4,2,1,60,0,0
11803,-100,4,2,1,60,0,0
12236,-133.333333333333,4,2,1,60,0,0
12813,-100,4,2,1,60,0,0
13822,-133.333333333333,4,2,1,60,0,0
14111,-100,4,2,1,60,0,0
25649,-71.4285714285714,4,2,99,80,0,1
25721,-71.4285714285714,4,2,1,80,0,1
26370,-100,4,2,1,80,0,1
26514,-66.6666666666667,4,2,1,80,0,1
26803,-58.8235294117647,4,2,1,80,0,1
27091,-83.3333333333333,4,2,1,80,0,1
27380,-83.3333333333333,4,2,1,80,0,1
27452,-83.3333333333333,4,2,1,80,0,1
27524,-100,4,2,1,80,0,1
27668,-55.5555555555556,4,2,1,80,0,1
27957,-66.6666666666667,4,2,1,80,0,1
28029,-66.6666666666667,4,2,1,80,0,1
28678,-100,4,2,1,80,0,1
28822,-71.4285714285714,4,2,1,80,0,1
29111,-66.6666666666667,4,2,1,80,0,1
29183,-66.6666666666667,4,2,1,80,0,1
29832,-100,4,2,1,80,0,1
29976,-62.5,4,2,1,80,0,1
30264,-71.4285714285714,4,2,1,80,0,1
31418,-100,4,2,1,80,0,1
31563,-66.6666666666667,4,2,1,80,0,1
32284,-100,4,2,1,80,0,1
32572,-66.6666666666667,4,2,1,80,0,1
33005,-76.9230769230769,4,2,1,80,0,1
33726,-62.5,4,2,1,80,0,1
36899,-71.4285714285714,4,2,1,80,0,1
37476,-100,4,2,1,80,0,1
38053,-66.6666666666667,4,2,1,80,0,1
38774,-100,4,2,1,80,0,1
39207,-71.4285714285714,4,2,1,80,0,1
39495,-66.6666666666667,4,2,1,80,0,1
40216,-100,4,2,1,80,0,1
40361,-66.6666666666667,4,2,1,80,0,1
41514,-71.4285714285714,4,2,1,80,0,1
41803,-62.5,4,2,1,80,0,1
42236,-76.9230769230769,4,2,1,80,0,1
42668,-58.8235294117647,4,2,1,80,0,1
43678,-100,4,2,1,80,0,1
43822,-62.5,4,2,1,80,0,1
44111,-62.5,4,2,99,80,0,1
44183,-62.5,4,2,1,80,0,1
45841,-100,4,2,1,80,0,1
46418,-83.3333333333333,4,2,1,80,0,1
48438,-62.5,4,2,1,80,0,1
48726,-100,4,2,99,80,0,0
48798,-100,4,2,1,80,0,0
62861,-117.647058823529,4,2,1,80,0,0
67764,-105.263157894737,4,2,1,80,0,0
71803,-1000,4,2,1,80,0,0
72957,-111.111111111111,4,2,1,80,0,0
74615,-111.111111111111,4,2,1,30,0,0
74760,-111.111111111111,4,2,1,45,0,0
74904,-111.111111111111,4,2,1,55,0,0
75048,-111.111111111111,4,2,1,65,0,0
75191,-111.111111111111,4,2,1,75,0,0
75264,-142.857142857143,4,2,1,80,0,0
75409,-142.857142857143,4,2,1,75,0,0
75553,-142.857142857143,4,2,1,55,0,0
75697,-142.857142857143,4,2,1,40,0,0
75841,-142.857142857143,4,2,1,30,0,0
75985,-142.857142857143,4,2,1,45,0,0
76130,-142.857142857143,4,2,1,55,0,0
76274,-142.857142857143,4,2,1,65,0,0
76418,-142.857142857143,4,2,99,70,0,0
76707,-111.111111111111,4,2,1,70,0,0
92572,-99.9999999999999,4,2,1,70,0,0
94880,-71.4285714285714,4,2,99,70,0,1
94952,-71.4285714285714,4,2,1,70,0,1
95313,-66.6666666666667,4,2,1,70,0,1
95745,-76.9230769230769,4,2,1,70,0,1
96034,-66.6666666666667,4,2,1,70,0,1
96755,-100,4,2,1,70,0,1
96899,-71.4285714285714,4,2,1,70,0,1
97188,-66.6666666666667,4,2,1,70,0,1
97909,-100,4,2,1,70,0,1
98053,-66.6666666666667,4,2,1,70,0,1
98341,-62.5,4,2,1,70,0,1
99063,-62.5,4,2,1,70,0,1
99495,-76.9230769230769,4,2,1,70,0,1
99784,-58.8235294117647,4,2,1,70,0,1
100216,-100,4,2,1,70,0,1
100361,-83.3333333333333,4,2,1,70,0,1
100649,-66.6666666666667,4,2,1,70,0,1
101370,-100,4,2,1,70,0,1
101514,-76.9230769230769,4,2,1,70,0,1
102957,-66.6666666666667,4,2,1,70,0,1
103389,-100,4,2,1,70,0,1
104976,-62.5,4,2,1,70,0,1
105264,-66.6666666666667,4,2,1,70,0,1
105553,-100,4,2,1,70,0,1
106130,-66.6666666666667,4,2,1,70,0,1
106418,-71.4285714285714,4,2,1,70,0,1
106851,-100,4,2,1,70,0,1
107284,-66.6666666666667,4,2,1,70,0,1
107572,-62.5,4,2,1,70,0,1
108293,-83.3333333333333,4,2,1,70,0,1
108438,-66.6666666666667,4,2,1,70,0,1
109159,-100,4,2,1,70,0,1
109591,-71.4285714285714,4,2,1,70,0,1
110457,-83.3333333333333,4,2,1,70,0,1
111034,-66.6666666666667,4,2,99,70,0,1
111106,-66.6666666666667,4,2,1,70,0,1
111466,-100,4,2,1,70,0,1
111611,-100,4,2,99,70,0,1
111683,-100,4,2,1,70,0,1
111899,-71.4285714285714,4,2,1,70,0,1
112188,-71.4285714285714,4,2,99,70,0,1
112260,-71.4285714285714,4,2,1,70,0,1
112764,-71.4285714285714,4,2,99,70,0,1
112837,-71.4285714285714,4,2,1,70,0,1
112909,-90.9090909090909,4,2,1,70,0,1
113053,-66.6666666666667,4,2,1,70,0,1
113341,-133.333333333333,4,2,99,50,0,0
113414,-133.333333333333,4,2,1,50,0,0
122571,-66.6666666666667,4,2,1,50,0,0
122644,-66.6666666666667,4,2,1,5,0,0
122716,-66.6666666666667,4,2,1,50,0,0
123221,-66.6666666666667,4,2,1,5,0,0
123293,-66.6666666666667,4,2,1,50,0,0
123365,-66.6666666666667,4,2,1,5,0,0
123582,-66.6666666666667,4,2,1,50,0,0
123654,-66.6666666666667,4,2,1,5,0,0
123870,-66.6666666666667,4,2,1,50,0,0
123942,-66.6666666666667,4,2,1,5,0,0
124014,-66.6666666666667,4,2,1,50,0,0
124087,-66.6666666666667,4,2,1,5,0,0
124159,-66.6666666666667,4,2,1,50,0,0
124375,-66.6666666666667,4,2,1,5,0,0
124591,-66.6666666666667,4,2,1,50,0,0
124664,-66.6666666666667,4,2,1,5,0,0
124736,-100,4,2,1,50,0,0
129784,-100,4,2,1,25,0,0
129928,-100,4,2,1,35,0,0
130072,-100,4,2,1,45,0,0
130216,-100,4,2,1,60,0,0
130361,-100,4,2,1,60,0,0
130505,-100,4,2,1,65,0,0
130649,-100,4,2,1,75,0,0
131803,-100,4,2,67,75,0,1
131875,-100,4,2,77,75,0,1
131947,-100,4,2,17,75,0,1
132019,-100,4,2,38,75,0,1
132091,-100,4,2,57,75,0,1
132164,-100,4,2,67,75,0,1
132236,-100,4,2,77,75,0,1
132308,-100,4,2,38,75,0,1
132380,-100,4,2,47,75,0,1
132452,-100,4,2,67,75,0,1
132524,-100,4,2,77,75,0,1
132596,-100,4,2,38,75,0,1
132668,-100,4,2,77,75,0,1
132740,-100,4,2,67,75,0,1
132813,-100,4,2,77,75,0,1
132885,-100,4,2,17,75,0,1
132957,-100,4,2,38,75,0,1
133029,-100,4,2,12,75,0,1
133101,-100,4,2,17,75,0,1
133173,-100,4,2,77,75,0,1
133245,-100,4,2,67,75,0,1
133317,-100,4,2,37,75,0,1
133389,-100,4,2,6,75,0,1
133462,-100,4,2,16,75,0,1
133534,-100,4,2,66,75,0,1
133606,-100,4,2,56,75,0,1
133678,-100,4,2,36,75,0,1
133750,-100,4,2,5,75,0,1
133822,-100,4,2,15,75,0,1
133894,-100,4,2,75,75,0,1
133966,-100,4,2,65,75,0,1
134039,-100,4,2,55,75,0,1
134111,-66.6666666666667,4,2,96,75,0,1
134183,-66.6666666666667,4,2,1,75,0,1
134543,-76.9230769230769,4,2,56,75,0,1
134615,-76.9230769230769,4,2,1,75,0,1
134832,-76.9230769230769,4,2,66,75,0,1
134904,-76.9230769230769,4,2,1,75,0,1
135120,-100,4,2,97,75,0,1
135192,-100,4,2,1,75,0,1
135264,-66.6666666666667,4,2,1,75,0,1
135337,-66.6666666666667,4,2,1,75,0,1
135409,-66.6666666666667,4,2,17,75,0,1
135553,-66.6666666666667,4,2,77,75,0,1
135841,-76.9230769230769,4,2,67,75,0,1
135914,-76.9230769230769,4,2,1,75,0,1
136130,-76.9230769230769,4,2,77,75,0,1
136202,-76.9230769230769,4,2,67,75,0,1
136418,-62.5,4,2,16,75,0,1
136490,-62.5,4,2,1,75,0,1
136563,-71.4285714285714,4,2,6,75,0,1
136635,-71.4285714285714,4,2,1,75,0,1
136707,-71.4285714285714,4,2,16,75,0,1
136779,-71.4285714285714,4,2,1,75,0,1
136851,-58.8235294117647,4,2,66,75,0,1
136923,-58.8235294117647,4,2,1,75,0,1
137139,-100,4,2,36,75,0,1
137284,-66.6666666666667,4,2,1,75,0,1
137572,-100,4,2,1,75,0,1
137644,-100,4,2,1,75,0,1
137716,-66.6666666666667,4,2,17,75,0,1
137861,-66.6666666666667,4,2,7,75,0,1
138005,-66.6666666666667,4,2,38,75,0,1
138149,-66.6666666666667,4,2,77,75,0,1
138221,-66.6666666666667,4,2,1,75,0,1
138438,-76.9230769230769,4,2,67,75,0,1
138510,-76.9230769230769,4,2,1,75,0,1
138726,-76.9230769230769,4,2,38,75,0,1
138798,-76.9230769230769,4,2,7,75,0,1
138870,-76.9230769230769,4,2,17,75,0,1
138942,-76.9230769230769,4,2,77,75,0,1
139014,-76.9230769230769,4,2,67,75,0,1
139087,-76.9230769230769,4,2,57,75,0,1
139159,-76.9230769230769,4,2,37,75,0,1
139231,-76.9230769230769,4,2,6,75,0,1
139303,-76.9230769230769,4,2,16,75,0,1
139375,-76.9230769230769,4,2,76,75,0,1
139447,-76.9230769230769,4,2,66,75,0,1
139519,-76.9230769230769,4,2,56,75,0,1
139591,-76.9230769230769,4,2,36,75,0,1
139664,-66.6666666666667,4,2,5,75,0,1
139736,-66.6666666666667,4,2,95,75,0,1
139808,-66.6666666666667,4,2,1,75,0,1
140024,-66.6666666666667,4,2,75,75,0,1
140096,-66.6666666666667,4,2,56,75,0,1
140168,-66.6666666666667,4,2,66,75,0,1
140240,-66.6666666666667,4,2,76,75,0,1
140313,-66.6666666666667,4,2,37,75,0,1
140385,-66.6666666666667,4,2,57,75,0,1
140457,-66.6666666666667,4,2,67,75,0,1
140529,-66.6666666666667,4,2,1,75,0,1
140601,-100,4,2,57,75,0,1
140673,-100,4,2,1,75,0,1
140745,-100,4,2,37,75,0,1
140817,-100,4,2,1,75,0,1
140889,-100,4,2,76,75,0,1
140962,-100,4,2,1,75,0,1
141034,-100,4,2,45,75,0,0
141130,-100,4,2,55,75,0,1
141226,-100,4,2,14,75,0,1
141322,-100,4,2,45,75,0,1
141418,-90.9090909090909,4,2,55,75,0,1
141514,-90.9090909090909,4,2,15,75,0,1
141611,-90.9090909090909,4,2,75,75,0,1
141707,-83.3333333333333,4,2,89,75,0,1
141803,-83.3333333333333,4,2,46,75,0,1
141899,-83.3333333333333,4,2,15,75,0,1
141995,-83.3333333333333,4,2,46,75,0,1
142091,-83.3333333333333,4,2,56,75,0,1
142188,-83.3333333333333,4,2,46,75,0,1
142284,-83.3333333333333,4,2,15,75,0,1
142380,-83.3333333333333,4,2,56,75,0,1
142476,-83.3333333333333,4,2,46,75,0,1
142572,-83.3333333333333,4,2,56,75,0,1
142668,-83.3333333333333,4,2,16,75,0,1
142764,-83.3333333333333,4,2,76,75,0,1
142861,-83.3333333333333,4,2,60,75,0,1
142957,-83.3333333333333,4,2,47,75,0,1
143053,-83.3333333333333,4,2,16,75,0,1
143149,-83.3333333333333,4,2,47,75,0,1
143245,-83.3333333333333,4,2,57,75,0,1
143341,-83.3333333333333,4,2,47,75,0,1
143438,-83.3333333333333,4,2,16,75,0,1
143534,-83.3333333333333,4,2,57,75,0,1
143630,-83.3333333333333,4,2,47,75,0,1
143726,-83.3333333333333,4,2,57,75,0,1
143822,-83.3333333333333,4,2,17,75,0,1
143918,-83.3333333333333,4,2,77,75,0,1
144014,-83.3333333333333,4,2,61,75,0,1
144111,-83.3333333333333,4,2,48,75,0,1
144207,-83.3333333333333,4,2,17,75,0,1
144303,-83.3333333333333,4,2,48,75,0,1
144399,-83.3333333333333,4,2,58,75,0,1
144495,-83.3333333333333,4,2,48,75,0,1
144591,-83.3333333333333,4,2,17,75,0,1
144688,-83.3333333333333,4,2,58,75,0,1
144784,-83.3333333333333,4,2,48,75,0,1
144880,-83.3333333333333,4,2,58,75,0,1
144976,-83.3333333333333,4,2,18,75,0,1
145072,-100,4,2,61,75,0,1
145144,-100,4,2,78,75,0,1
145216,-100,4,2,70,75,0,1
145289,-100,4,2,18,75,0,1
145361,-100,4,2,11,75,0,1
145433,-100,4,2,28,75,0,1
145505,-100,4,2,39,75,0,1
145577,-100,4,2,40,75,0,1
145649,-76.9230769230769,4,2,49,75,0,1
145938,-76.9230769230769,4,2,1,75,0,1
146370,-90.9090909090909,4,2,1,75,0,1
146514,-90.9090909090909,4,2,17,75,0,1
146659,-90.9090909090909,4,2,47,75,0,1
146731,-90.9090909090909,4,2,1,75,0,1
147524,-62.5,4,2,41,75,0,1
147596,-62.5,4,2,1,75,0,1
147668,-76.9230769230769,4,2,47,75,0,1
147740,-76.9230769230769,4,2,1,75,0,1
147813,-100,4,2,41,75,0,1
147885,-100,4,2,1,75,0,1
147957,-71.4285714285714,4,2,16,75,0,1
148029,-71.4285714285714,4,2,1,75,0,1
148389,-71.4285714285714,4,2,76,75,0,1
148462,-71.4285714285714,4,2,1,75,0,1
148822,-71.4285714285714,4,2,60,75,0,1
148894,-71.4285714285714,4,2,1,75,0,1
149255,-71.4285714285714,4,2,76,75,0,1
149327,-71.4285714285714,4,2,1,75,0,1
150841,-71.4285714285714,4,2,66,75,0,1
150914,-71.4285714285714,4,2,76,75,0,1
150986,-71.4285714285714,4,2,37,75,0,1
151058,-71.4285714285714,4,2,57,75,0,1
151130,-71.4285714285714,4,2,37,75,0,1
151202,-71.4285714285714,4,2,67,75,0,1
151274,-71.4285714285714,4,2,77,75,0,1
151346,-71.4285714285714,4,2,38,75,0,1
151418,-71.4285714285714,4,2,68,75,0,1
151491,-71.4285714285714,4,2,58,75,0,1
151563,-71.4285714285714,4,2,38,75,0,1
151635,-71.4285714285714,4,2,17,75,0,1
151707,-71.4285714285714,4,2,77,75,0,1
151779,-71.4285714285714,4,2,67,75,0,1
151851,-71.4285714285714,4,2,57,75,0,1
151923,-71.4285714285714,4,2,37,75,0,1
151995,-71.4285714285714,4,2,16,75,0,1
152067,-71.4285714285714,4,2,76,75,0,1
152140,-71.4285714285714,4,2,66,75,0,1
152212,-71.4285714285714,4,2,36,75,0,1
152284,-71.4285714285714,4,2,15,75,0,1
152356,-71.4285714285714,4,2,75,75,0,1
152428,-71.4285714285714,4,2,65,75,0,1
152500,-71.4285714285714,4,2,35,75,0,1
152572,-71.4285714285714,4,2,74,75,0,1
152861,-90.9090909090909,4,2,1,75,0,1
153726,-66.6666666666667,4,2,1,75,0,1
154880,-133.333333333333,4,2,1,50,0,0
174063,-100,4,2,1,50,0,0
177957,-1000,4,2,1,50,0,0
179111,-222.222222222221,4,2,1,50,0,0
180264,-133.333333333333,4,2,1,50,0,0
180769,-133.333333333333,4,2,1,25,0,0
180914,-133.333333333333,4,2,1,35,0,0
181058,-133.333333333333,4,2,1,45,0,0
181202,-133.333333333333,4,2,1,55,0,0
181346,-133.333333333333,4,2,1,65,0,0
181418,-133.333333333333,4,2,1,75,0,0
181563,-133.333333333333,4,2,1,60,0,0
181707,-133.333333333333,4,2,1,50,0,0
181851,-83.3333333333333,4,2,1,35,0,0
181995,-83.3333333333333,4,2,1,25,0,0
182139,-83.3333333333333,4,2,1,40,0,0
182284,-83.3333333333333,4,2,1,50,0,0
182428,-83.3333333333333,4,2,1,65,0,0
182572,-100,4,2,99,70,0,0
182644,-100,4,2,1,70,0,0
192380,-76.9230769230769,4,2,1,70,0,0
192668,-90.9090909090909,4,2,1,70,0,0
198149,-111.111111111111,4,2,1,70,0,0
198726,-99.9999999999999,4,2,1,70,0,0
199880,-100,4,2,1,70,0,0
201034,-71.4285714285714,4,2,99,70,0,1
201106,-71.4285714285714,4,2,1,70,0,1
201466,-100,4,2,1,70,0,1
201899,-66.6666666666667,4,2,1,70,0,1
202188,-66.6666666666667,4,2,1,70,0,1
204063,-41.6666666666667,4,2,1,70,0,1
204207,-62.5,4,2,1,70,0,1
204495,-76.9230769230769,4,2,1,70,0,1
205361,-66.6666666666667,4,2,1,70,0,1
205649,-71.4285714285714,4,2,1,70,0,1
206370,-100,4,2,1,70,0,1
206803,-66.6666666666667,4,2,1,70,0,1
207236,-100,4,2,1,70,0,1
207380,-66.6666666666667,4,2,1,70,0,1
207668,-76.9230769230769,4,2,1,70,0,1
208822,-90.9090909090909,4,2,1,70,0,1
210409,-76.9230769230769,4,2,1,70,0,1
211418,-66.6666666666667,4,2,1,70,0,1
211707,-83.3333333333333,4,2,1,70,0,1
212284,-71.4285714285714,4,2,1,70,0,1
213293,-90.9090909090909,4,2,1,70,0,1
213438,-76.9230769230769,4,2,1,70,0,1
213726,-66.6666666666667,4,2,1,70,0,1
214159,-83.3333333333333,4,2,1,70,0,1
214591,-76.9230769230769,4,2,1,70,0,1
214880,-71.4285714285714,4,2,1,70,0,1
215745,-83.3333333333333,4,2,1,70,0,1
216034,-66.6666666666667,4,2,1,70,0,1
217188,-66.6666666666667,4,2,99,70,0,1
217260,-66.6666666666667,4,2,1,70,0,1
217620,-52.6315789473684,4,2,1,70,0,1
217764,-71.4285714285714,4,2,99,70,0,1
217837,-71.4285714285714,4,2,1,70,0,1
218197,-90.9090909090909,4,2,1,70,0,1
218341,-90.9090909090909,4,2,99,70,0,1
218414,-90.9090909090909,4,2,1,70,0,1
218918,-90.9090909090909,4,2,99,70,0,1
219063,-90.9090909090909,4,2,1,70,0,1
219207,-62.5,4,2,1,70,0,1
219639,-76.9230769230769,4,2,1,70,0,1
220649,-90.9090909090909,4,2,1,70,0,1
221370,-71.4285714285714,4,2,1,70,0,1
223245,-83.3333333333333,4,2,1,70,0,1
224399,-90.9090909090909,4,2,1,70,0,1
225697,-71.4285714285714,4,2,1,70,0,1
226130,-83.3333333333333,4,2,1,70,0,1
227284,-83.3333333333333,4,2,1,70,0,1
227716,-71.4285714285714,4,2,1,70,0,1
228293,-100,4,2,1,70,0,1
228582,-66.6666666666667,4,2,1,70,0,1
229736,-100,4,2,1,70,0,1
230168,-76.9230769230769,4,2,1,70,0,1
230457,-76.9230769230769,4,2,1,70,0,1
230745,-71.4285714285714,4,2,1,70,0,1
231034,-71.4285714285714,4,2,1,70,0,1
231899,-83.3333333333333,4,2,1,70,0,1
235649,-71.4285714285714,4,2,1,70,0,1
236082,-90.9090909090909,4,2,1,70,0,1
238389,-71.4285714285714,4,2,1,70,0,1
238678,-58.8235294117647,4,2,1,70,0,1
238822,-90.9090909090909,4,2,1,70,0,1
239039,-66.6666666666667,4,2,1,70,0,1
239399,-71.4285714285714,4,2,1,70,0,1
239832,-100,4,2,1,70,0,1
239976,-71.4285714285714,4,2,1,70,0,1
240264,-62.5,4,2,1,70,0,1
241058,-76.9230769230769,4,2,1,70,0,1
241418,-71.4285714285714,4,2,1,70,0,1
242572,-62.5,4,2,1,70,0,1
243293,-76.9230769230769,4,2,1,70,0,1
243438,-62.5,4,2,1,70,0,1
243726,-71.4285714285714,4,2,1,70,0,1
244591,-90.9090909090909,4,2,1,70,0,1
244880,-66.6666666666667,4,2,1,70,0,1
245601,-90.9090909090909,4,2,1,70,0,1
245745,-71.4285714285714,4,2,1,70,0,1
246322,-83.3333333333333,4,2,1,70,0,1
247188,-100,4,2,1,70,0,0
248197,-100,4,2,1,55,0,0
248486,-111.111111111111,4,2,1,55,0,0
254399,-111.111111111111,4,2,1,25,0,0
254543,-111.111111111111,4,2,1,35,0,0
254832,-111.111111111111,4,2,1,45,0,0
255120,-111.111111111111,4,2,1,55,0,0
255841,-142.857142857142,4,2,1,55,0,0
256418,-285.714285714284,4,2,1,45,0,0
258005,-181.818181818181,4,2,1,45,0,0
289159,333.333333333333,4,2,1,45,1,0
289159,-181.818181818182,4,2,1,45,0,0
289825,337.078651685393,4,2,1,45,1,0
290162,340.909090909091,4,2,1,45,1,0
290502,352.941176470588,4,2,1,45,1,0
291207,480,4,2,1,45,1,0
291207,-181.818181818181,4,2,1,45,0,0
291687,521.739130434783,4,2,1,45,1,0
291687,-181.818181818181,4,2,1,45,0,0
292208,571.428571428572,4,2,1,45,1,0
293350,375,4,2,1,45,1,0
293350,-181.818181818181,4,2,1,45,0,0
293912,487.80487804878,4,2,1,45,1,0
294063,-666.666666666658,4,2,1,45,0,0
294155,487.80487804878,4,2,1,45,1,0
294155,-399.999999999997,4,2,1,35,0,0
295072,-666.666666666658,4,2,1,30,0,0
295649,-666.666666666658,4,2,1,25,0,0
296226,-666.666666666658,4,2,1,20,0,0
296803,-666.666666666658,4,2,1,15,0,0
297091,-666.666666666658,4,2,1,10,0,0
300553,-666.666666666658,4,2,1,5,0,0

[Colours]
Combo1 : 192,192,192
Combo2 : 255,74,255
Combo3 : 255,128,192
Combo4 : 255,145,91
Combo5 : 255,255,17
Combo6 : 128,255,128
Combo7 : 1,254,134
Combo8 : 173,91,255

[HitObjects]
256,192,265,12,2,4880,0:0:0:0:
377,111,6034,102,0,B|407:58|443:95|476:28,2,127.5,2|2|2,0:0|0:0|0:0,0:0:0:0:
314,58,6611,2,0,P|334:119|344:182,2,127.5,2|2|2,0:0|0:0|0:0,0:0:0:0:
48,241,7188,6,0,P|97:256|150:370,1,170,6|2,1:2|0:0,0:0:0:0:
181,198,7620,2,0,P|186:239|166:276,1,85,2|0,0:0|0:0,0:0:0:0:
291,282,7909,2,0,P|265:315|225:327,1,85,2|0,0:0|0:0,0:0:0:0:
144,360,8197,102,0,P|115:282|40:246,1,170,2|0,0:0|0:0,0:0:0:0:
109,110,8630,1,2,0:1:0:0:
121,120,8774,2,0,L|138:20,1,85
36,225,9063,2,0,L|25:161,2,46.7500014266968,0|0|2,0:0|0:0|0:1,0:0:0:0:
119,278,9495,6,0,P|169:268|193:155,1,170,2|2,0:0|0:0,0:0:0:0:
300,221,9928,2,0,P|254:224|210:256,1,85,2|0,0:0|0:0,0:0:0:0:
328,146,10216,2,0,P|297:118|257:107,1,85,2|0,0:0|0:0,0:0:0:0:
120,144,10505,102,0,P|125:63|200:31,1,170,2|0,0:0|0:0,0:0:0:0:
93,69,10938,2,0,L|1:48,2,63.7500024318696,2|0|0,0:1|0:0|0:0,0:0:0:0:
240,168,11370,6,0,P|247:136|256:106,1,63.7500024318696,2|2,0:1|0:0,0:0:0:0:
200,31,11659,1,2,0:0:0:0:
351,95,11803,102,0,P|433:75|477:-11,1,170,2|2,0:0|0:0,0:0:0:0:
453,162,12236,2,0,P|455:131|461:99,1,63.7500024318696,2|0,0:0|0:0,0:0:0:0:
361,8,12524,2,0,P|329:5|297:0,1,63.7500024318696,2|0,0:0|0:0,0:0:0:0:
480,9,12813,6,0,P|436:80|356:98,1,170,2|0,0:0|0:0,0:0:0:0:
186,157,13245,1,2,0:1:0:0:
241,99,13389,2,0,P|321:116|365:187,1,170
469,98,13822,2,0,P|463:129|460:161,1,63.7500024318696,0|2,0:0|0:1,0:0:0:0:
334,349,14111,102,0,P|350:262|359:172,1,170,2|2,0:0|0:0,0:0:0:0:
221,47,14543,2,0,P|201:97|207:144,1,85,2|0,0:0|0:0,0:0:0:0:
315,32,14832,2,0,P|336:81|373:110,1,85,2|0,0:0|0:0,0:0:0:0:
249,218,15120,1,2,0:0:0:0:
249,218,15264,2,0,P|218:170|99:178,1,170,2|0,0:0|0:0,0:0:0:0:
36,335,15841,53,2,0:0:0:0:
45,316,15913,1,2,0:0:0:0:
62,303,15985,1,2,0:0:0:0:
82,297,16057,1,2,0:0:0:0:
103,301,16130,5,2,0:0:0:0:
132,311,16202,1,2,0:0:0:0:
160,299,16274,1,2,0:0:0:0:
172,270,16346,1,2,0:0:0:0:
161,241,16418,38,0,L|116:224,3,42.5,6|2|2|2,1:2|0:0|0:0|0:0,0:0:0:0:
242,314,16707,2,0,L|281:298,3,42.5,2|2|2|2,0:0|0:0|0:0|0:0,0:0:0:0:
201,146,16995,6,0,L|156:129,3,42.5,2|0|0|0,0:0|0:0|0:0|0:0,0:0:0:0:
282,219,17284,2,0,L|387:175,1,85,2|0,0:0|1:0,0:0:0:0:
417,69,17572,1,2,0:0:0:0:
417,69,17716,2,0,P|344:53|275:135,1,170,0|0,1:0|0:0,0:0:0:0:
171,53,18149,2,0,P|181:137|190:222,1,170,2|0,0:0|0:0,0:0:0:0:
194,219,18726,102,0,B|93:197|151:289|36:257,1,170,0|0,1:0|0:0,0:0:0:0:
99,205,19159,2,0,P|124:234|117:292,1,85
288,159,19591,2,0,P|278:211|274:258,1,85,2|0,0:0|1:0,0:0:0:0:
231,308,19880,2,0,P|255:276|380:289,1,170,2|0,0:0|0:0,0:0:0:0:
206,195,20313,2,0,P|181:188|149:181,2,42.5,0|0|2,0:0|0:0|0:0,0:0:0:0:
288,159,20601,2,0,P|292:116|301:75,1,85
140,286,21034,6,0,P|130:201|115:117,1,170,2|0,1:2|0:0,0:0:0:0:
73,49,21466,2,0,P|84:23|79:53,1,85
38,262,21899,2,0,P|50:228|98:227,1,85,2|0,0:2|1:0,0:0:0:0:
271,220,22188,2,0,P|209:218|164:176,1,127.5,2|0,0:0|0:0,0:0:0:0:
163,175,22476,1,0,0:0:0:0:
319,141,22620,2,0,P|323:116|339:73,2,42.5,0|0|2,0:0|0:0|0:0,0:0:0:0:
115,18,23053,101,2,0:0:0:0:
319,141,23341,6,0,P|401:122|485:108,1,170,0|8,1:0|0:0,0:0:0:0:
385,86,23774,1,8,0:0:0:0:
450,283,23918,5,8,0:0:0:0:
503,215,24063,1,8,0:0:0:0:
305,57,24207,5,8,0:0:0:0:
257,293,24351,1,8,0:0:0:0:
163,66,24495,6,0,L|152:11,3,42.5,2|2|2|2,1:2|0:0|0:0|0:0,0:0:0:0:
115,136,24784,2,0,L|73:144,3,42.5,2|2|2|2,0:0|0:0|0:0|0:0,0:0:0:0:
172,212,25072,5,2,0:0:0:0:
189,194,25144,1,2,0:0:0:0:
209,181,25216,1,2,0:0:0:0:
232,174,25288,1,2,0:0:0:0:
256,171,25360,1,2,0:0:0:0:
280,175,25432,1,2,0:0:0:0:
303,184,25504,1,2,0:0:0:0:
323,197,25576,1,2,0:0:0:0:
347,264,25649,70,0,B|361:171|430:223|442:118,1,178.499994552612,6|0,1:2|0:0,0:0:0:0:
417,47,25938,2,0,B|402:22|402:22|406:51,1,59.4999981842042,10|0,0:0|0:0,0:0:0:0:
281,167,26082,1,2,0:0:0:0:
256,171,26154,1,0,0:0:0:0:
242,157,26226,1,0,0:0:0:0:
136,264,26370,6,0,L|76:280,1,42.5,0|0,1:2|0:0,0:0:0:0:
43,348,26514,2,0,B|84:307|84:307|160:359|160:359|213:348,1,191.250007295609,10|0,0:0|0:0,0:0:0:0:
424,338,26803,102,0,B|391:338|369:360|369:360|308:330|305:263|348:224,1,216.750004134178,0|0,1:0|0:0,0:0:0:0:
242,157,27091,2,0,L|261:22,1,101.999996887207,8|0,0:0|0:0,0:0:0:0:
245,45,27308,1,0,0:0:0:0:
290,54,27380,1,4,0:0:0:0:
332,39,27452,1,0,0:0:0:0:
357,0,27524,1,0,1:0:0:0:
52,95,27668,6,0,B|75:76|135:51|176:119|146:178|119:204|61:220,1,229.499992996216,10|0,0:0|0:0,0:0:0:0:
128,273,27957,2,0,P|144:178|162:84,1,191.250007295609,6|0,1:2|0:0,0:0:0:0:
110,0,28245,2,0,B|83:13|83:13|141:2,1,63.7500024318696,10|0,0:0|0:0,0:0:0:0:
270,117,28389,101,0,0:0:0:0:
299,123,28461,1,0,0:0:0:0:
316,99,28533,1,0,0:0:0:0:
455,184,28678,6,0,P|475:178|496:173,1,42.5,2|0,1:2|0:0,0:0:0:0:
432,270,28822,2,0,P|441:220|328:226,1,178.499994552612,8|0,0:0|0:0,0:0:0:0:
274,322,29111,102,8,B|289:269|335:260|335:260|314:90,1,255.000009727478,4|8,1:2|0:0,0:0:0:0:
92,19,29543,1,0,0:0:0:0:
82,47,29615,1,0,0:0:0:0:
105,66,29687,1,2,0:0:0:0:
243,144,29832,6,0,L|202:152,1,42.5,0|0,1:0|0:0,0:0:0:0:
106,334,29976,2,0,B|148:321|148:321|170:223|170:223|140:212|127:179,1,204,10|0,0:0|0:0,0:0:0:0:
67,142,30264,102,0,P|166:164|334:206,1,237.999992736817,6|10,1:2|0:0,0:0:0:0:
370,242,30625,1,0,0:0:0:0:
383,209,30697,1,2,0:0:0:0:
409,185,30769,1,0,0:0:0:0:
443,174,30841,1,0,0:0:0:0:
478,178,30913,1,0,0:0:0:0:
508,196,30985,5,2,1:2:0:0:
350,109,31130,2,0,B|394:87|394:87|372:-12,1,118.999996368408,8|0,0:0|0:0,0:0:0:0:
146,137,31418,102,0,L|88:126,1,42.5,6|0,1:2|0:0,0:0:0:0:
46,72,31563,2,0,P|46:25|115:26,1,127.500004863739,0|8,0:0|0:0,0:0:0:0:
241,221,31851,1,0,0:0:0:0:
217,238,31923,1,0,0:0:0:0:
227,264,31995,2,0,B|115:256|166:337|44:326,1,191.250007295609,2|0,0:0|0:0,0:0:0:0:
129,351,32284,2,0,P|132:313|143:243,1,85,10|0,0:0|0:0,0:0:0:0:
317,29,32572,6,0,B|281:147|281:147|352:196,1,191.250007295609,6|0,1:2|0:0,0:0:0:0:
415,195,32861,2,0,B|442:175|442:175|403:182,1,63.7500024318696,10|0,0:0|0:0,0:0:0:0:
264,104,33005,2,0,B|202:120|202:120|187:157|187:157|110:178,1,165.749992412568,2|0,0:0|0:0,0:0:0:0:
1,144,33293,102,0,P|11:124|14:91,1,55.2499974708558,2|0,1:2|0:0,0:0:0:0:
110,13,33438,2,0,P|100:95|127:173,1,165.749992412568,8|0,0:0|0:0,0:0:0:0:
46,249,33726,6,0,B|92:181|163:181|210:224|185:275|140:330,1,204,6|0,1:2|0:0,0:0:0:0:
217,342,34014,2,0,P|227:358|222:335,1,68,8|0,0:0|0:0,0:0:0:0:
355,114,34159,102,0,P|332:103|348:123,1,68
452,195,34303,21,2,0:2:0:0:
458,204,34375,5,2,0:2:0:0:
470,222,34447,101,2,1:2:0:0:
473,249,34519,5,2,0:2:0:0:
470,278,34591,101,10,0:2:0:0:
451,307,34664,5,2,0:2:0:0:
424,332,34736,101,2,0:2:0:0:
375,339,34808,5,2,0:2:0:0:
326,315,34880,101,6,1:2:0:0:
332,312,34952,1,2,0:0:0:0:
338,309,35024,2,0,L|350:217,1,68,2|2,0:0|0:0,0:0:0:0:
168,43,35168,5,10,0:0:0:0:
191,54,35240,1,2,0:0:0:0:
217,66,35313,2,0,L|208:133,1,68,2|2,0:0|0:0,0:0:0:0:
69,339,35457,101,2,0:0:0:0:
103,322,35529,1,2,0:0:0:0:
142,304,35601,2,0,L|151:237,1,68,2|2,1:2|0:0,0:0:0:0:
32,112,35745,102,0,B|70:154|70:154|108:119|172:111|228:143,1,204,10|0,0:0|0:0,0:0:0:0:
432,200,36034,102,0,B|361:212|361:212|320:56,1,204,2|0,1:2|0:0,0:0:0:0:
358,8,36322,2,0,B|382:-15|382:-15|371:26,1,68,8|0,0:0|0:0,0:0:0:0:
260,208,36466,5,0,0:0:0:0:
310,201,36538,1,0,0:0:0:0:
352,228,36610,1,2,0:0:0:0:
366,276,36682,1,0,0:0:0:0:
345,321,36754,1,0,1:0:0:0:
486,373,36899,2,0,P|498:284|512:196,1,178.499994552612,10|0,0:0|0:0,0:0:0:0:
468,118,37188,102,0,P|456:38|444:-40,1,118.999996368408,2|0,1:2|0:0,0:0:0:0:
183,78,37476,2,0,L|174:138,1,42.5,8|0,0:0|0:0,0:0:0:0:
107,184,37620,1,0,0:0:0:0:
77,188,37692,1,0,0:0:0:0:
60,163,37764,1,0,0:0:0:0:
192,274,37909,6,0,L|252:265,1,42.5,0|0,1:0|0:0,0:0:0:0:
294,174,38053,2,0,B|260:289|260:289|293:303|309:339,1,191.250007295609,10|0,0:0|0:0,0:0:0:0:
397,317,38341,102,0,B|444:275|444:275|368:297,1,127.500004863739,2|0,1:2|0:0,0:0:0:0:
217,112,38630,1,8,0:0:0:0:
116,225,38774,2,0,L|107:184,2,42.5,0|0|2,0:0|0:0|0:0,0:0:0:0:
234,42,39063,6,0,L|225:83,1,42.5,0|0,1:0|0:0,0:0:0:0:
301,142,39207,2,0,P|387:118|474:100,1,178.499994552612,10|0,0:0|0:0,0:0:0:0:
420,151,39495,102,0,B|403:202|324:207|287:148|319:67|390:41,1,255.000009727478,2|8,1:2|0:0,0:0:0:0:
179,176,39928,5,0,0:0:0:0:
203,193,40000,1,0,0:0:0:0:
196,222,40072,1,0,0:0:0:0:
314,319,40216,102,0,L|363:310,1,42.5,0|0,1:0|0:0,0:0:0:0:
442,224,40361,2,0,B|463:238|470:267|470:267|416:222|337:229,1,191.250007295609,10|0,0:0|0:0,0:0:0:0:
255,73,40649,6,0,B|211:77|168:112|183:171|249:186|301:140,1,191.250007295609,2|0,1:2|0:0,0:0:0:0:
280,154,40938,1,8,0:0:0:0:
80,79,41082,1,0,0:0:0:0:
65,42,41154,1,0,0:0:0:0:
97,16,41226,2,0,P|106:86|119:210,1,191.250007295609,2|0,0:0|0:0,0:0:0:0:
141,282,41514,2,0,B|112:285|101:322|101:322|97:284|74:272,1,118.999996368408,10|0,0:0|0:0,0:0:0:0:
298,360,41803,102,0,B|311:301|380:254|461:279|461:279|429:315|437:358,1,272,2|8,1:2|0:0,0:0:0:0:
243,279,42236,1,0,0:0:0:0:
237,276,42308,1,0,0:0:0:0:
231,273,42380,2,0,B|266:241|266:241|249:146,1,110.499994941712,2|0,0:0|1:0,0:0:0:0:
476,178,42668,6,0,B|514:189|554:151|531:120|476:124|417:159|405:253,1,216.750004134178,8|0,0:0|0:0,0:0:0:0:
369,135,42957,5,2,1:2:0:0:
326,167,43029,5,2,0:0:0:0:
280,167,43101,101,2,0:0:0:0:
247,143,43173,5,2,0:0:0:0:
232,115,43245,101,10,0:0:0:0:
229,91,43317,5,2,0:0:0:0:
234,71,43389,101,2,0:0:0:0:
240,60,43462,5,2,0:0:0:0:
249,52,43534,101,2,0:0:0:0:
55,109,43678,86,0,P|59:88|63:67,1,42.5,0|0,1:0|0:0,0:0:0:0:
141,27,43822,2,0,B|120:70|82:81|82:81|112:234,1,204,8|0,0:0|0:0,0:0:0:0:
60,277,44111,21,6,1:2:0:0:
106,298,44183,1,2,0:0:0:0:
152,319,44255,1,2,0:0:0:0:
199,340,44327,1,2,0:0:0:0:
245,361,44399,5,10,0:0:0:0:
238,320,44471,1,2,0:0:0:0:
232,280,44543,1,2,0:0:0:0:
226,239,44615,1,2,0:0:0:0:
220,199,44688,101,2,0:0:0:0:
217,209,44760,1,2,0:0:0:0:
214,219,44832,1,2,1:2:0:0:
212,228,44904,1,2,0:0:0:0:
143,178,44976,6,0,P|142:145|129:99,1,68,10|2,0:0|0:0,0:0:0:0:
293,6,45120,2,0,P|284:38|283:72,1,68,2|2,0:0|0:0,0:0:0:0:
326,181,45264,101,2,1:2:0:0:
375,213,45336,5,2,0:0:0:0:
423,213,45408,101,2,0:0:0:0:
465,191,45480,5,2,0:0:0:0:
487,161,45553,101,10,0:0:0:0:
492,129,45624,5,2,0:0:0:0:
490,104,45696,101,2,0:0:0:0:
484,86,45768,5,2,0:0:0:0:
478,78,45841,102,0,P|451:81|437:89,3,42.5,2|2|2|2,0:0|0:0|1:2|0:0,0:0:0:0:
380,17,46130,2,0,P|353:13|339:5,3,42.5,10|2|0|0,0:0|0:0|0:0|0:0,0:0:0:0:
271,89,46418,86,0,P|191:106|44:145,1,203.999993774414,0|8,1:0|0:0,0:0:0:0:
212,0,46851,1,0,0:0:0:0:
212,0,46923,1,0,0:0:0:0:
212,0,46995,2,0,P|174:44|181:94,1,101.999996887207,0|0,0:0|1:0,0:0:0:0:
38,219,47284,2,0,P|30:143|14:69,1,152.999995330811,8|0,0:0|0:0,0:0:0:0:
117,157,47572,6,0,P|92:151|66:148,3,50.9999984436036,0|0|0|0,1:0|0:0|0:0|0:0,0:0:0:0:
172,90,47861,102,0,P|197:87|222:81,1,50.9999984436036,8|0,0:0|0:0,0:0:0:0:
270,206,48005,2,0,P|277:182|288:159,1,50.9999984436036
217,75,48149,6,0,P|192:81|167:84,1,50.9999984436036
292,164,48293,2,0,P|282:188|275:212,1,50.9999984436036,0|0,1:0|0:0,0:0:0:0:
193,378,48438,5,10,0:0:0:0:
206,329,48510,5,2,0:0:0:0:
242,294,48582,101,2,0:0:0:0:
292,284,48654,5,2,0:0:0:0:
339,300,48726,101,6,1:2:0:0:
95,87,49014,22,0,L|115:4,1,85,8|0,0:0|0:0,0:0:0:0:
27,156,49303,2,0,L|37:197,2,42.5,0|8|0,0:0|0:3|1:0,0:0:0:0:
87,82,49591,2,0,P|138:82|163:171,1,127.5,8|0,0:0|0:0,0:0:0:0:
191,159,49880,6,0,P|266:146|360:133,1,170,0|8,1:0|0:0,0:0:0:0:
431,49,50313,1,0,0:0:0:0:
429,56,50385,1,8,0:3:0:0:
428,63,50457,1,0,0:0:0:0:
426,70,50529,1,8,0:3:0:0:
425,77,50601,1,0,1:0:0:0:
223,48,50745,2,0,P|259:90|256:143,1,85,8|0,0:0|0:0,0:0:0:0:
337,301,51034,102,0,P|346:217|358:133,1,170,0|8,1:0|0:0,0:0:0:0:
273,237,51466,2,0,P|293:234|315:227,2,42.5,0|8|0,0:0|0:3|0:0,0:0:0:0:
426,280,51755,2,0,P|401:246|395:205,1,85,0|8,1:0|0:0,0:0:0:0:
238,66,52043,5,0,0:0:0:0:
239,60,52115,1,0,0:0:0:0:
241,54,52188,101,0,1:0:0:0:
162,25,52332,1,0,0:0:0:0:
81,48,52476,1,8,0:0:0:0:
29,114,52620,2,0,P|36:136|39:162,2,42.5,0|8|0,0:0|0:3|0:0,0:0:0:0:
167,21,52909,5,0,1:0:0:0:
274,142,53053,2,0,P|331:124|310:45,1,127.5,8|0,0:0|0:3,0:0:0:0:
396,24,53341,102,0,P|384:97|361:227,1,170,0|8,1:0|0:0,0:0:0:0:
433,257,53774,1,0,0:0:0:0:
441,254,53846,1,8,0:3:0:0:
449,251,53918,1,0,0:0:0:0:
357,363,54063,2,0,P|349:321|342:279,1,85,0|8,1:0|0:0,0:0:0:0:
225,129,54351,6,0,P|228:108|232:87,2,42.5,0|0|0,0:0|0:0|1:0,0:0:0:0:
158,187,54639,2,0,P|112:173|97:132,1,85,0|8,0:0|0:0,0:0:0:0:
251,235,54928,1,0,0:0:0:0:
261,232,55000,1,8,0:3:0:0:
271,230,55072,1,0,0:0:0:0:
282,227,55144,1,8,0:3:0:0:
292,225,55216,1,0,1:0:0:0:
458,299,55361,2,0,B|414:272|414:272|431:198,1,127.5,8|0,0:0|0:0,0:0:0:0:
482,135,55649,102,0,L|458:29,1,85,0|0,1:0|0:0,0:0:0:0:
293,150,55938,1,8,0:0:0:0:
225,85,56082,2,0,L|238:31,1,42.5,0|8,0:0|0:3,0:0:0:0:
208,8,56226,2,0,P|159:25|117:37,1,85,0|0,0:0|1:0,0:0:0:0:
14,103,56514,2,0,P|54:115|94:129,1,85,8|0,0:0|0:0,0:0:0:0:
255,244,56803,5,0,1:0:0:0:
228,331,56948,1,0,0:0:0:0:
140,304,57092,1,8,0:0:0:0:
167,217,57236,1,0,0:0:0:0:
165,208,57308,1,8,0:3:0:0:
163,199,57380,1,0,0:0:0:0:
161,190,57452,1,8,0:3:0:0:
159,181,57524,1,0,0:0:0:0:
358,14,57668,85,10,0:0:0:0:
350,46,57740,101,2,0:0:0:0:
343,79,57812,5,2,0:0:0:0:
336,112,57885,101,2,0:0:0:0:
328,145,57956,5,6,1:2:0:0:
38,59,58245,6,0,P|79:50|120:40,1,85,8|0,0:0|0:0,0:0:0:0:
130,48,58462,1,8,0:3:0:0:
169,61,58534,1,0,0:0:0:0:
206,43,58606,1,8,0:3:0:0:
221,5,58678,1,0,1:0:0:0:
336,138,58822,2,0,P|325:179|317:220,1,85,8|0,0:0|0:0,0:0:0:0:
91,220,59111,6,0,P|141:156|223:162,1,170,0|8,1:0|0:0,0:0:0:0:
325,226,59543,2,0,P|345:220|366:215,2,42.5,0|8|0,0:0|0:3|0:0,0:0:0:0:
223,356,59832,1,0,1:0:0:0:
206,329,59904,1,0,0:3:0:0:
229,308,59976,2,0,P|284:323|363:350,1,127.5,8|0,0:0|0:0,0:0:0:0:
428,312,60264,102,0,P|443:264|456:221,1,85,0|0,1:0|0:0,0:0:0:0:
324,141,60553,1,8,0:0:0:0:
387,24,60697,1,0,0:0:0:0:
415,45,60769,1,8,0:3:0:0:
411,81,60841,2,0,P|350:62|289:43,1,127.5
225,0,61130,2,0,P|170:16|115:33,1,85,8|0,0:0|0:0,0:0:0:0:
7,148,61418,6,0,B|29:117|62:115|62:115|44:2,1,170,0|8,1:0|0:0,0:0:0:0:
70,193,61851,2,0,P|61:220|53:247,2,42.5,0|8|0,0:0|0:3|0:0,0:0:0:0:
16,75,62139,1,0,1:0:0:0:
175,158,62284,69,10,0:0:0:0:
227,156,62356,5,2,0:0:0:0:
268,188,62428,101,2,0:0:0:0:
279,239,62500,5,2,0:0:0:0:
255,285,62572,101,6,0:0:0:0:
264,292,62861,38,0,P|303:280|348:274,1,72.2500013780594,2|0,0:0|0:0,0:0:0:0:
379,201,63149,2,0,P|356:121|343:33,1,144.500002756119,2|0,0:0|0:0,0:0:0:0:
409,16,63582,2,0,P|438:40|440:94,1,72.2500013780594,2|4,0:0|0:0,0:0:0:0:
150,148,64014,102,0,P|135:128|158:144,1,72.2500013780594
221,187,64303,2,0,P|255:177|290:168,2,72.2500013780594,2|2|0,0:0|0:0|0:0,0:0:0:0:
128,44,64736,1,2,0:0:0:0:
128,44,64880,6,0,P|159:94|241:84,1,144.500002756119,4|2,0:0|0:0,0:0:0:0:
0,183,65457,1,2,0:0:0:0:
64,139,65601,2,0,P|101:163|146:260,1,144.500002756119,2|2,0:0|0:0,0:0:0:0:
97,314,66034,102,0,P|57:322|26:335,1,72.2500013780594,6|0,0:0|0:0,0:0:0:0:
150,247,66322,2,0,P|142:207|129:176,1,72.2500013780594,2|0,0:0|0:0,0:0:0:0:
285,280,66611,6,0,P|249:286|216:299,1,72.2500013780594,2|0,0:0|0:0,0:0:0:0:
161,109,66899,1,2,0:0:0:0:
179,113,66971,1,4,0:3:0:0:
198,117,67043,1,4,0:3:0:0:
216,121,67115,1,4,0:3:0:0:
235,125,67188,101,6,1:2:0:0:
469,89,67764,1,2,0:0:0:0:
417,30,67908,2,0,P|366:48|343:171,1,161.499995687485,10|0,0:3|0:0,0:0:0:0:
386,199,68341,6,0,P|430:188|470:179,1,80.7499978437424,6|0,0:3|0:0,0:0:0:0:
294,300,68630,2,0,P|372:316|451:336,2,161.499995687485,2|2|2,0:0|0:0|0:0,0:0:0:0:
108,93,69495,102,0,B|76:186|161:163|130:264,1,161.499995687485,2|0,1:2|0:0,0:0:0:0:
113,323,69928,2,0,P|112:354|122:325,1,80.7499978437424,0|2,0:0|0:0,0:0:0:0:
202,269,70216,2,0,P|121:279|42:291,1,161.499995687485,8|0,0:3|0:0,0:0:0:0:
151,167,70649,6,0,P|231:157|311:145,1,161.499995687485,6|0,0:3|0:0,0:0:0:0:
44,33,71226,2,0,P|78:69|123:75,1,80.7499978437424,2|0,0:0|0:0,0:0:0:0:
141,160,71514,2,0,P|181:154|211:128,1,80.7499978437424,4|0,0:3|0:0,0:0:0:0:
57,30,71803,6,0,P|73:54|99:66,1,59.5,2|0,0:0|0:0,0:0:0:0:
168,119,72885,1,0,0:0:0:0:
162,124,72957,6,0,L|216:108,3,38.2499988327027
105,183,73245,2,0,L|51:167,3,38.2499988327027
162,242,73534,2,0,L|216:226,3,38.2499988327027
105,301,73822,2,0,P|96:343|89:379,1,76.4999976654053
343,279,74111,102,0,P|329:150|319:41,1,229.499992996216,2|0,0:0|0:0,0:0:0:0:
328,43,74615,69,2,0:0:0:0:
337,55,74687,101,2,0:0:0:0:
347,76,74759,5,2,0:0:0:0:
351,107,74831,101,2,0:0:0:0:
340,143,74903,5,2,0:0:0:0:
308,176,74976,101,2,0:0:0:0:
255,186,75047,5,2,0:0:0:0:
203,157,75119,101,2,0:0:0:0:
179,91,75191,5,2,0:0:0:0:
220,28,75264,102,0,L|263:36,3,29.7499990921021,2|2|2|2,0:0|0:0|0:0|0:0,0:0:0:0:
58,88,75553,5,2,0:0:0:0:
34,124,75625,1,2,0:0:0:0:
39,168,75697,1,2,0:0:0:0:
69,199,75769,1,2,0:0:0:0:
113,205,75841,101,2,0:0:0:0:
142,205,75913,1,2,0:0:0:0:
168,218,75985,1,2,0:0:0:0:
187,241,76057,1,2,0:0:0:0:
193,270,76129,5,2,0:0:0:0:
186,299,76201,1,2,0:0:0:0:
168,322,76273,1,2,0:0:0:0:
122,337,76346,1,2,0:0:0:0:
78,317,76418,37,6,1:2:0:0:
302,83,76707,2,0,P|329:119|336:171,1,76.4999976654053,2|2,0:0|0:0,0:0:0:0:
359,239,76995,2,0,P|373:172|395:73,1,152.999995330811
305,74,77428,2,0,P|298:40|287:-9,1,76.4999976654053,2|0,0:0|0:0,0:0:0:0:
7,10,77861,5,2,0:1:0:0:
150,78,78150,101,2,0:1:0:0:
70,62,78438,5,2,0:1:0:0:
188,203,78726,102,0,P|208:129|230:56,1,152.999995330811,2|2,0:0|0:0,0:0:0:0:
313,126,79159,2,0,P|275:133|237:139,1,76.4999976654053,2|0,0:0|0:0,0:0:0:0:
118,224,79447,2,0,P|156:217|194:211,1,76.4999976654053,2|0,0:0|0:0,0:0:0:0:
273,251,79736,1,2,0:0:0:0:
273,251,79880,6,0,B|356:252|329:297|424:296,1,152.999995330811,0|2,0:0|0:1,0:0:0:0:
145,114,80457,2,0,B|62:115|89:160|-6:159,1,152.999995330811,2|2,0:1|0:1,0:0:0:0:
118,343,81034,102,0,B|162:321|162:321|141:220,1,152.999995330811,2|0,0:0|0:0,0:0:0:0:
223,177,81466,2,0,P|237:139|269:113,1,76.4999976654053,2|0,0:0|0:0,0:0:0:0:
87,18,81755,2,0,P|97:61|99:111,1,76.4999976654053,2|0,0:0|0:0,0:0:0:0:
41,185,82043,1,2,0:0:0:0:
41,185,82188,6,0,P|60:144|171:154,1,152.999995330811,2|2,0:0|0:1,0:0:0:0:
278,24,82764,101,2,0:1:0:0:
346,113,83053,5,2,0:1:0:0:
414,67,83341,102,0,P|434:107|442:233,1,152.999995330811,2|2,0:0|0:0,0:0:0:0:
512,277,83774,2,0,P|490:320|492:354,1,76.4999976654053,2|0,0:0|0:0,0:0:0:0:
361,313,84063,2,0,P|388:353|418:368,1,76.4999976654053,2|0,0:0|0:0,0:0:0:0:
292,252,84351,1,2,0:0:0:0:
292,252,84495,6,0,P|303:219|308:164,1,76.4999976654053,2|0,0:0|0:0,0:0:0:0:
186,18,84784,2,0,P|174:55|170:93,1,76.4999976654053,2|0,0:1|0:0,0:0:0:0:
42,217,85072,37,2,0:0:0:0:
75,199,85144,1,2,0:0:0:0:
112,203,85216,1,2,0:0:0:0:
140,228,85288,1,2,0:0:0:0:
149,264,85361,5,2,0:0:0:0:
163,308,85433,1,2,0:0:0:0:
204,330,85505,1,2,0:0:0:0:
249,319,85577,1,2,0:0:0:0:
274,279,85649,101,4,1:2:0:0:
268,275,85721,1,2,0:0:0:0:
261,270,85793,2,0,L|270:224,1,38.2499988327027,2|2,0:0|0:0,0:0:0:0:
360,174,85938,5,2,0:0:0:0:
373,163,86010,1,2,0:0:0:0:
388,152,86082,2,0,L|379:106,4,38.2499988327027,2|2|2|0|0,0:0|0:0|0:0|0:0|0:0,0:0:0:0:
458,215,86514,2,0,P|449:252|442:289,1,76.4999976654053,2|0,0:0|1:0,0:0:0:0:
276,138,86803,38,0,P|268:100|260:63,1,76.4999976654053,2|0,0:0|1:0,0:0:0:0:
333,36,87091,2,0,P|257:21|183:4,2,152.999995330811,0|2|0,0:0|0:0|0:0,0:0:0:0:
21,211,87957,6,0,P|43:165|149:167,1,152.999995330811,2|0,1:2|0:0,0:0:0:0:
197,216,88389,2,0,B|171:188|150:183|150:183|182:68,1,152.999995330811
121,20,88822,2,0,B|80:25|80:25|129:44,1,76.4999976654053,2|0,0:0|1:0,0:0:0:0:
254,59,89111,101,2,0:0:0:0:
183,96,89255,2,0,P|259:84|340:73,1,152.999995330811,0|0,1:0|0:0,0:0:0:0:
437,145,89688,2,0,P|383:149|354:52,1,152.999995330811,2|0,0:0|0:0,0:0:0:0:
199,232,90264,6,0,P|208:290|220:395,1,152.999995330811,2|0,1:2|0:0,0:0:0:0:
302,330,90697,2,0,P|280:302|227:309,1,76.4999976654053
114,214,90986,2,0,P|188:214|235:158,1,152.999995330811,0|0,0:0|1:0,0:0:0:0:
174,105,91418,102,0,P|135:94|96:89,1,76.4999976654053,2|0,0:0|1:0,0:0:0:0:
266,2,91707,2,0,P|256:39|251:77,1,76.4999976654053
95,95,91995,6,0,P|132:100|169:110,1,76.4999976654053,2|0,0:0|0:0,0:0:0:0:
271,6,92284,2,0,P|261:43|256:81,1,76.4999976654053,2|0,0:0|0:0,0:0:0:0:
512,112,92572,102,0,P|428:123|344:135,1,170,0|8,1:0|0:0,0:0:0:0:
168,119,93005,21,8,0:0:0:0:
135,208,93149,1,8,0:0:0:0:
285,296,93293,5,8,0:0:0:0:
344,135,93437,1,8,0:0:0:0:
52,238,93582,1,8,0:0:0:0:
189,343,93726,6,0,P|192:322|200:303,3,42.5,2|2|2|2,1:2|0:0|0:0|0:0,0:0:0:0:
145,248,94014,2,0,P|141:227|134:207,3,42.5,2|2|2|2,0:0|0:0|0:0|0:0,0:0:0:0:
216,160,94303,5,2,0:0:0:0:
224,162,94375,1,2,0:0:0:0:
232,164,94447,1,2,0:0:0:0:
240,166,94519,1,2,0:0:0:0:
248,168,94591,1,2,0:0:0:0:
256,170,94664,1,2,0:0:0:0:
263,172,94736,1,2,0:0:0:0:
272,174,94808,1,2,0:0:0:0:
333,128,94880,70,0,P|247:142|176:92,1,178.499994552612,6|0,1:2|0:0,0:0:0:0:
155,22,95168,2,0,B|133:3|133:3|136:44,1,59.4999981842042,10|0,0:0|0:0,0:0:0:0:
109,154,95313,6,0,B|75:268|75:268|109:284|124:320,1,191.250007295609,2|0,0:0|0:0,0:0:0:0:
51,351,95601,2,0,P|30:361|45:343,1,63.7500024318696,2|0,1:2|0:0,0:0:0:0:
121,245,95745,2,0,P|209:268|306:300,1,165.749992412568,8|0,0:0|0:0,0:0:0:0:
370,243,96034,102,0,B|327:237|298:271|298:271|223:239|228:163|263:125,1,255.000009727478,0|8,1:0|0:0,0:0:0:0:
364,35,96466,1,0,0:0:0:0:
375,62,96538,1,0,0:0:0:0:
352,80,96610,1,6,0:0:0:0:
214,4,96755,6,0,L|145:19,1,42.5,0|0,1:2|0:0,0:0:0:0:
77,89,96899,2,0,B|56:109|47:138|47:138|78:101|114:84|154:88,1,178.499994552612,10|0,0:0|0:0,0:0:0:0:
259,128,97188,102,0,B|280:177|280:177|137:250|137:250|129:328,1,255.000009727478,6|10,1:2|0:0,0:0:0:0:
207,370,97548,1,0,0:0:0:0:
219,334,97620,1,2,0:0:0:0:
246,306,97692,1,0,0:0:0:0:
281,292,97764,1,0,0:0:0:0:
319,292,97836,1,0,0:0:0:0:
353,308,97908,1,2,1:2:0:0:
297,56,98053,2,0,B|329:58|363:38|363:38|333:196,1,191.250007295609,10|0,0:0|0:0,0:0:0:0:
147,212,98341,6,0,B|139:257|179:314|266:274|283:172|165:112,1,272,6|8,1:2|0:0,0:0:0:0:
51,13,98774,1,0,0:0:0:0:
25,32,98846,1,0,0:0:0:0:
34,63,98918,1,2,0:0:0:0:
117,132,99063,102,0,P|149:124|191:116,1,68,0|0,1:2|0:0,0:0:0:0:
238,248,99207,2,0,B|196:258|180:300|180:300|59:277,1,204,10|0,0:0|0:0,0:0:0:0:
96,373,99495,6,0,P|175:348|254:325,1,165.749992412568,6|0,1:2|0:0,0:0:0:0:
331,348,99784,2,0,P|357:340|332:335,1,72.2500013780594,10|0,0:0|0:0,0:0:0:0:
331,126,99928,2,0,B|372:212|342:276|233:246,1,216.750004134178
192,177,100216,102,0,L|201:135,1,42.5,0|0,1:0|0:0,0:0:0:0:
55,95,100361,2,0,P|105:82|155:72,1,101.999996887207,8|0,0:0|0:0,0:0:0:0:
467,107,100649,6,0,P|375:99|326:20,1,191.250007295609,6|0,1:2|0:0,0:0:0:0:
333,15,100938,1,10,0:0:0:0:
402,142,101082,1,0,0:0:0:0:
414,168,101154,1,0,0:0:0:0:
392,187,101226,1,2,0:0:0:0:
225,217,101370,102,0,L|293:201,1,42.5,0|0,1:0|0:0,0:0:0:0:
314,142,101514,2,0,P|299:213|282:327,1,165.749992412568,10|0,0:0|0:0,0:0:0:0:
233,360,101803,6,0,P|289:385|394:275,1,220.999989883423,6|10,1:2|0:0,0:0:0:0:
176,142,102236,2,0,L|94:163,2,55.2499974708558,2|0|0,0:0|0:0|0:0,0:0:0:0:
293,18,102524,1,2,1:2:0:0:
274,36,102596,1,0,0:0:0:0:
283,61,102668,2,0,B|380:44|339:118|443:107,1,165.749992412568,8|0,0:0|0:0,0:0:0:0:
446,100,102957,101,2,1:2:0:0:
290,178,103101,1,2,0:0:0:0:
310,201,103173,1,0,0:0:0:0:
303,231,103245,1,8,0:0:0:0:
176,134,103389,6,0,L|197:58,1,42.5,2|0,0:0|0:0,0:0:0:0:
124,24,103534,5,2,0:0:0:0:
104,20,103606,5,2,0:0:0:0:
78,21,103678,101,2,1:2:0:0:
47,33,103750,5,2,0:0:0:0:
22,69,103822,101,10,0:0:0:0:
19,117,103894,5,2,0:0:0:0:
51,166,103967,101,2,0:0:0:0:
117,181,104039,5,2,0:0:0:0:
176,134,104111,101,6,1:2:0:0:
183,137,104183,1,2,0:0:0:0:
190,140,104255,2,0,L|230:128,1,42.5,2|2,0:0|0:0,0:0:0:0:
387,135,104399,5,10,0:0:0:0:
368,142,104471,1,2,0:0:0:0:
350,150,104543,2,0,L|361:109,1,42.5,2|2,0:0|0:0,0:0:0:0:
258,252,104688,101,2,0:0:0:0:
266,285,104760,1,2,0:0:0:0:
274,321,104832,2,0,L|233:309,1,42.5,2|2,1:2|0:0,0:0:0:0:
17,270,104976,86,0,B|-2:239|-2:239|96:272|96:272|108:319|149:332,1,204,10|0,0:0|0:0,0:0:0:0:
174,258,105264,6,0,B|112:269|112:269|78:83,1,191.250007295609,2|0,1:2|0:0,0:0:0:0:
135,79,105553,2,0,L|142:37,1,42.5,8|0,0:0|0:0,0:0:0:0:
284,15,105697,1,0,0:0:0:0:
294,41,105769,1,0,0:0:0:0:
277,64,105841,1,2,0:0:0:0:
175,181,105986,102,0,P|196:180|217:177,1,42.5,0|0,1:0|0:0,0:0:0:0:
343,219,106130,2,0,B|396:234|382:279|281:272|276:163|326:117,1,191.250007295609,8|0,0:0|0:0,0:0:0:0:
358,85,106418,6,0,P|334:201|314:319,1,237.999992736817,2|8,1:2|0:0,0:0:0:0:
170,176,106851,2,0,P|191:175|213:173,2,42.5
75,344,107139,102,0,P|74:322|71:301,1,42.5,0|0,1:0|0:0,0:0:0:0:
112,104,107284,2,0,B|74:222|74:222|108:220|134:251,1,191.250007295609,10|0,0:0|0:0,0:0:0:0:
0,244,107572,6,0,P|98:270|195:302,1,204,2|0,1:2|0:0,0:0:0:0:
267,340,107861,2,0,P|290:345|269:333,1,68,8|0,0:0|0:0,0:0:0:0:
222,200,108005,1,0,0:0:0:0:
213,173,108077,1,0,0:0:0:0:
232,156,108149,1,2,0:0:0:0:
358,60,108293,102,0,P|370:84|368:118,1,50.9999984436036,0|0,1:0|0:0,0:0:0:0:
440,197,108438,2,0,B|472:153|412:107|326:126|294:222,1,191.250007295609,8|0,0:0|0:0,0:0:0:0:
136,76,108726,6,0,B|153:140|238:169|316:109|280:29|208:46,1,255.000009727478,2|8,1:2|0:0,0:0:0:0:
54,173,109159,2,0,P|62:203|65:248,2,42.5,2|0|0,0:0|0:0|0:0,0:0:0:0:
179,251,109447,102,0,P|158:254|137:260,1,42.5,0|0,1:0|0:0,0:0:0:0:
63,316,109591,2,0,P|172:308|222:376,1,178.499994552612,10|0,0:0|0:0,0:0:0:0:
291,299,109880,6,0,B|264:155|264:155|322:138|336:73,1,237.999992736817,0|8,1:0|0:0,0:0:0:0:
93,59,110313,1,0,0:0:0:0:
112,79,110385,1,0,0:0:0:0:
107,108,110457,2,0,P|177:122|286:153,1,152.999995330811,2|0,0:0|0:0,0:0:0:0:
351,198,110745,2,0,P|410:181|470:169,1,101.999996887207,10|0,0:0|0:0,0:0:0:0:
308,330,111034,102,0,B|187:344|280:147|129:174,1,255.000009727478,6|8,1:2|0:0,0:0:0:0:
52,351,111466,2,0,B|48:332|38:312,2,42.5,0|8|4,0:0|0:3|0:0,0:0:0:0:
144,166,111755,6,0,B|133:186|129:205,1,42.5,0|0,1:0|0:0,0:0:0:0:
25,197,111899,2,0,P|92:219|212:267,1,178.499994552612,8|0,0:0|0:0,0:0:0:0:
262,197,112188,5,6,1:2:0:0:
326,228,112260,5,2,0:2:0:0:
391,219,112332,101,2,0:2:0:0:
428,186,112404,5,2,0:2:0:0:
453,147,112476,101,10,0:2:0:0:
456,109,112549,5,2,0:2:0:0:
453,72,112621,101,2,1:2:0:0:
436,48,112693,5,2,0:2:0:0:
425,39,112765,101,6,0:2:0:0:
222,67,112909,2,0,L|282:82,1,46.7500014266968,0|0,1:0|0:0,0:0:0:0:
325,147,113053,2,0,B|310:112|310:112|194:122|194:122|185:159,1,191.250007295609,8|0,0:0|0:0,0:0:0:0:
262,197,113341,54,0,P|301:186|368:265,1,127.500004863739,6|0,1:2|0:0,0:0:0:0:
169,294,113774,1,2,0:0:0:0:
301,327,114063,1,2,0:0:0:0:
433,360,114351,2,0,P|444:303|461:233,1,127.500004863739,2|0,0:0|0:0,0:0:0:0:
381,108,114784,2,0,P|388:138|394:170,1,63.7500024318696,2|0,0:0|0:0,0:0:0:0:
482,88,115072,6,0,P|488:119|495:150,1,63.7500024318696,2|2,0:0|0:0,0:0:0:0:
317,39,115361,2,0,L|326:-9,4,31.8750012159348,2|2|2|2|2,0:0|0:0|0:0|0:0|0:0,0:0:0:0:
247,79,115793,102,0,P|204:68|181:34,1,63.7500024318696,2|2,0:0|0:0,0:0:0:0:
275,238,116082,2,0,P|296:178|320:119,1,127.500004863739,2|2,0:0|0:0,0:0:0:0:
93,155,116659,6,0,B|112:185|136:196|136:196|116:273,2,127.500004863739,2|2|2,0:0|0:0|0:0,0:0:0:0:
56,61,117380,2,0,L|66:17,7,31.8750012159348,2|2|2|2|2|2|2|2,0:0|0:0|0:0|0:0|0:0|0:0|0:0|0:0,0:0:0:0:
76,83,117957,102,0,P|131:70|202:58,1,127.500004863739,2|0,0:0|0:0,0:0:0:0:
260,5,118389,1,2,0:0:0:0:
338,189,118678,1,2,0:0:0:0:
383,106,118966,5,2,0:0:0:0:
383,106,119111,2,0,P|388:66|397:27,1,63.7500024318696
450,145,119399,2,0,P|406:144|325:213,1,127.500004863739,2|2,0:0|0:0,0:0:0:0:
89,101,119976,1,2,0:0:0:0:
141,44,120264,102,0,P|173:67|171:169,1,127.500004863739,2|0,0:0|0:0,0:0:0:0:
124,202,120697,2,0,P|68:182|2:162,1,127.500004863739,2|2,0:0|0:0,0:0:0:0:
188,303,121274,1,2,0:0:0:0:
188,303,121418,2,0,P|206:278|256:278,2,63.7500024318696,2|2|2,0:0|0:0|0:0,0:0:0:0:
291,50,121995,69,2,0:0:0:0:
292,57,122067,1,2,0:0:0:0:
294,65,122139,1,2,0:0:0:0:
295,73,122211,1,2,0:0:0:0:
297,81,122283,101,2,0:0:0:0:
298,89,122355,1,2,0:0:0:0:
300,96,122427,1,2,0:0:0:0:
301,104,122500,1,2,0:0:0:0:
303,112,122572,54,0,P|337:140|368:140,1,63.7500024318696,6|0,0:1|0:0,0:0:0:0:
360,149,123149,2,0,P|403:144|425:122,1,63.7500024318696,2|0,0:1|0:0,0:0:0:0:
432,135,123293,2,0,P|460:101|460:70,1,63.7500024318696,2|0,0:1|0:0,0:0:0:0:
235,83,123582,6,0,B|209:109|209:109|216:150,1,63.7500024318696,2|0,0:1|0:0,0:0:0:0:
144,153,123870,2,0,B|133:117|133:117|94:103,1,63.7500024318696,2|0,0:1|0:0,0:0:0:0:
128,39,124014,2,0,B|163:47|163:47|195:20,1,63.7500024318696,2|0,0:1|0:0,0:0:0:0:
311,158,124303,102,0,P|301:195|294:229,1,63.7500024318696,2|0,0:1|0:0,0:0:0:0:
236,271,124591,2,0,P|242:302|251:332,1,63.7500024318696,2|0,0:1|0:0,0:0:0:0:
262,335,124736,5,2,0:0:0:0:
171,382,124880,2,0,P|241:366|368:346,1,170,6|0,1:2|0:0,0:0:0:0:
449,330,125313,2,0,P|398:339|373:244,1,170,0|2,0:0|0:0,0:0:0:0:
363,237,125673,37,2,0:0:0:0:
377,233,125745,5,2,0:0:0:0:
395,226,125817,101,2,0:0:0:0:
415,213,125890,5,2,1:2:0:0:
436,187,125962,101,2,0:0:0:0:
448,151,126034,5,2,0:2:0:0:
445,101,126106,101,2,0:0:0:0:
420,51,126178,6,0,P|391:38|369:37,2,42.5,2|2|2,1:2|0:0|1:2,0:0:0:0:
306,116,126466,37,0,0:0:0:0:
306,116,126611,2,0,P|255:128|193:147,1,85,2|0,0:0|0:0,0:0:0:0:
125,49,126899,5,4,0:3:0:0:
116,73,126995,101,4,0:3:0:0:
92,63,127091,5,4,0:3:0:0:
101,39,127188,101,6,1:2:0:0:
201,218,127332,2,0,P|209:182|220:147,2,42.5,2|2|2,0:0|0:0|0:0,0:0:0:0:
49,263,127620,2,0,B|135:267|115:319|211:327,1,170,4|4,0:3|0:3,0:0:0:0:
413,172,128197,2,0,P|355:185|296:298,1,170,4|4,0:3|0:3,0:0:0:0:
379,340,128630,5,8,0:3:0:0:
406,334,128726,101,8,0:3:0:0:
434,329,128822,5,8,0:3:0:0:
462,324,128918,101,8,0:3:0:0:
297,165,129207,5,8,0:3:0:0:
269,159,129303,101,8,0:3:0:0:
241,154,129399,5,8,0:3:0:0:
213,149,129495,101,2,0:0:0:0:
4,7,129784,5,8,0:0:0:0:
27,23,129928,1,8,0:0:0:0:
56,49,130072,1,8,0:0:0:0:
84,89,130216,1,8,0:0:0:0:
113,151,130361,1,8,0:0:0:0:
124,225,130505,1,8,0:0:0:0:
114,307,130649,101,4,0:3:0:0:
72,384,130793,2,0,L|19:369,2,42.5
408,115,131226,69,2,0:0:0:0:
390,113,131298,101,2,0:0:0:0:
367,116,131371,5,2,0:0:0:0:
340,127,131443,101,2,0:0:0:0:
304,148,131515,5,2,0:0:0:0:
274,181,131587,101,2,0:0:0:0:
252,226,131659,5,2,0:0:0:0:
247,278,131731,101,2,0:0:0:0:
256,326,131803,5,6,3:2:0:0:
266,324,131875,1,2,0:0:0:0:
276,322,131947,2,0,L|335:311,1,42.5,2|2,0:0|0:0,0:0:0:0:
171,104,132091,101,10,0:0:0:0:
151,101,132163,1,2,0:0:0:0:
130,98,132235,2,0,L|50:83,1,42.5,2|2,0:0|0:0,0:0:0:0:
6,295,132380,5,2,0:0:0:0:
47,326,132452,1,2,0:0:0:0:
100,329,132524,1,2,3:2:0:0:
145,304,132596,1,2,0:0:0:0:
169,257,132668,2,0,L|158:198,1,42.5,10|2,0:0|0:0,0:0:0:0:
262,48,132813,2,0,L|254:89,1,42.5,2|2,0:0|0:0,0:0:0:0:
317,314,132957,69,2,3:2:0:0:
307,258,133029,5,2,0:0:0:0:
330,222,133101,101,2,0:0:0:0:
370,208,133173,5,2,0:0:0:0:
415,214,133245,101,10,0:0:0:0:
452,207,133318,5,2,0:0:0:0:
475,184,133390,101,2,0:0:0:0:
484,162,133462,5,2,0:0:0:0:
484,146,133534,101,2,0:0:0:0:
468,128,133606,5,2,0:0:0:0:
447,114,133678,101,2,3:2:0:0:
411,109,133751,5,2,0:0:0:0:
364,119,133823,101,10,0:0:0:0:
330,160,133895,5,2,0:0:0:0:
319,218,133967,101,2,0:0:0:0:
356,276,134039,5,2,0:0:0:0:
426,295,134111,22,0,P|442:185|466:32,1,255.000009727478,2|8,3:2|0:0,0:0:0:0:
145,59,134543,2,0,P|186:95|189:149,1,110.499994941712,2|0,0:0|0:0,0:0:0:0:
223,323,134832,2,0,B|204:228|204:228|239:219|256:187,1,165.749992412568,2|0,3:2|0:0,0:0:0:0:
325,124,135120,2,0,P|309:110|302:90,1,42.5,2|0,0:0|0:0,0:0:0:0:
372,13,135264,102,0,P|422:56|443:119,1,127.500004863739,0|2,3:2|0:0,0:0:0:0:
220,319,135553,2,0,P|232:253|369:260,1,191.250007295609,10|0,0:0|0:0,0:0:0:0:
393,291,135841,2,0,P|421:283|441:243,1,55.2499974708558,2|0,0:2|0:0,0:0:0:0:
213,198,135986,1,0,3:2:0:0:
206,223,136058,1,0,0:0:0:0:
225,241,136130,2,0,P|240:159|257:78,1,165.749992412568,10|0,0:0|0:0,0:0:0:0:
210,13,136418,6,0,P|199:-7|222:7,1,68,6|0,3:2|0:0,0:0:0:0:
82,99,136563,2,0,P|95:163|107:229,1,118.999996368408,2|10,0:0|0:0,0:0:0:0:
171,341,136851,2,0,B|195:334|211:304|204:258|156:215|78:254|39:311,1,216.750004134178,2|0,0:0|0:0,0:0:0:0:
34,355,137139,2,0,P|10:344|-6:318,1,42.5,2|0,3:2|0:0,0:0:0:0:
82,99,137284,2,0,P|167:138|231:227,1,191.250007295609,8|0,0:0|0:0,0:0:0:0:
284,266,137572,102,0,L|331:257,1,42.5,0|0,3:2|0:0,0:0:0:0:
381,200,137716,85,2,0:0:0:0:
232,71,137861,1,10,0:0:0:0:
493,15,138005,1,2,0:0:0:0:
439,273,138149,6,0,P|353:233|290:145,1,191.250007295609,2|0,0:2|0:0,0:0:0:0:
206,177,138438,2,0,P|226:125|231:71,1,110.499994941712,10|0,0:0|0:0,0:0:0:0:
29,72,138726,101,2,3:2:0:0:
41,142,138798,5,2,0:0:0:0:
81,180,138870,101,2,0:0:0:0:
128,189,138943,5,2,0:0:0:0:
175,178,139015,5,10,0:0:0:0:
206,177,139087,5,2,0:0:0:0:
233,186,139159,101,2,0:0:0:0:
246,194,139231,5,2,0:0:0:0:
258,205,139303,101,2,0:0:0:0:
265,220,139375,5,2,0:0:0:0:
280,239,139447,101,2,3:2:0:0:
287,265,139519,5,2,0:0:0:0:
282,300,139592,101,10,0:0:0:0:
259,341,139664,5,2,0:0:0:0:
209,359,139736,102,0,P|209:288|389:265,1,255.000009727478,0|2,0:0|0:0,0:0:0:0:
445,322,140096,5,2,0:0:0:0:
446,313,140168,101,10,0:0:0:0:
448,296,140240,5,2,0:0:0:0:
451,269,140313,101,2,0:0:0:0:
455,235,140385,5,2,0:0:0:0:
460,196,140457,101,2,0:0:0:0:
465,152,140529,5,0,0:0:0:0:
471,102,140601,102,0,L|476:59,1,42.5,2|0,3:2|0:0,0:0:0:0:
359,110,140745,2,0,L|392:135,1,42.5,10|0,0:0|0:0,0:0:0:0:
408,8,140889,2,0,L|368:24,1,42.5,2|0,0:0|0:0,0:0:0:0:
111,62,141034,5,6,3:2:0:0:
123,55,141130,2,0,P|143:84|149:123,1,56.6666666666667,2|2,0:0|0:0,0:0:0:0:
276,142,141322,101,10,0:0:0:0:
252,128,141418,2,0,P|232:157|226:196,1,62.3333352355958,2|2,0:0|0:0,0:0:0:0:
92,252,141611,5,2,0:0:0:0:
135,226,141707,2,0,P|155:255|161:308,1,67.9999979248048,2|2,0:0|0:0,0:0:0:0:
298,368,141899,101,10,0:0:0:0:
230,327,141995,2,0,P|237:294|257:266,1,67.9999979248048,2|2,0:0|0:0,0:0:0:0:
428,189,142188,5,2,3:2:0:0:
346,248,142284,2,0,P|329:218|325:184,1,67.9999979248048,2|2,0:0|0:0,0:0:0:0:
331,10,142476,101,10,0:0:0:0:
422,49,142572,2,0,P|404:77|377:98,1,67.9999979248048,2|2,0:0|0:0,0:0:0:0:
225,183,142764,5,2,0:0:0:0:
212,82,142860,2,0,P|245:82|277:95,1,67.9999979248048,2|2,0:0|0:0,0:0:0:0:
129,274,143053,101,10,0:0:0:0:
48,211,143149,2,0,P|54:182|59:121,1,67.9999979248048,2|2,0:0|0:0,0:0:0:0:
197,347,143341,5,2,3:2:0:0:
223,327,143437,1,2,0:0:0:0:
256,333,143533,1,2,0:0:0:0:
306,266,143630,101,10,0:0:0:0:
343,294,143726,1,2,0:0:0:0:
390,285,143822,1,2,0:0:0:0:
263,118,143918,6,0,P|277:149|285:183,2,67.9999979248048,2|2|2,0:0|0:0|0:0,0:0:0:0:
489,168,144207,2,0,P|464:191|444:219,2,67.9999979248048,8|2|2,0:0|0:0|0:0,0:0:0:0:
369,5,144495,69,2,3:2:0:0:
344,129,144591,1,2,0:0:0:0:
464,89,144688,1,2,0:0:0:0:
365,11,144784,5,10,0:0:0:0:
349,136,144880,1,2,0:0:0:0:
468,83,144976,1,2,0:0:0:0:
281,30,145072,102,0,L|213:15,3,42.5,2|2|2|2,0:0|0:0|3:2|0:0,0:0:0:0:
371,228,145361,1,10,0:0:0:0:
391,223,145433,1,2,0:0:0:0:
412,218,145505,1,2,0:0:0:0:
433,214,145577,1,2,0:0:0:0:
454,209,145649,22,0,P|374:186|231:155,1,220.999989883423,2|8,3:2|0:0,0:0:0:0:
28,257,146082,2,0,P|42:279|44:310,2,55.2499974708558
92,99,146370,1,0,1:0:0:0:
189,169,146514,2,0,P|209:158|232:151,1,46.7500014266968,10|0,0:0|0:0,0:0:0:0:
332,27,146659,1,2,0:0:0:0:
344,57,146731,1,0,0:0:0:0:
323,82,146803,5,0,1:0:0:0:
280,258,146947,1,0,0:0:0:0:
456,301,147092,1,8,0:0:0:0:
499,125,147236,1,0,0:0:0:0:
476,129,147308,1,0,0:0:0:0:
453,133,147380,1,0,0:0:0:0:
131,37,147524,102,0,P|161:82|160:123,1,68,2|0,3:2|0:0,0:0:0:0:
244,165,147668,2,0,P|214:210|215:251,1,55.2499974708558,10|0,2:2|0:0,0:0:0:0:
156,308,147813,6,0,P|153:287|143:269,1,42.5,2|0,3:2|0:0,0:0:0:0:
47,208,147957,102,0,P|163:232|280:258,1,237.999992736817,6|0,3:2|0:0,0:0:0:0:
426,234,148389,2,0,B|395:221|379:183|379:183|313:209|293:276|329:334,1,237.999992736817,6|0,3:2|0:0,0:0:0:0:
467,151,148822,2,0,B|445:197|445:197|310:183|310:183|299:134,1,237.999992736817,6|0,3:2|0:0,0:0:0:0:
193,67,149255,2,0,B|220:36|261:40|261:40|287:68|300:161|208:198,1,237.999992736817,6|0,3:2|0:0,0:0:0:0:
51,165,149688,6,0,P|82:155|127:151,1,59.4999981842042,2|2,1:2|0:0,0:0:0:0:
62,250,149832,1,2,0:0:0:0:
67,252,149904,1,2,0:0:0:0:
72,254,149976,2,0,P|103:244|148:240,1,59.4999981842042,2|2,0:0|0:0,0:0:0:0:
293,168,150120,2,0,P|265:178|236:182,1,59.4999981842042,2|2,0:0|0:0,0:0:0:0:
221,305,150264,101,6,1:2:0:0:
276,358,150336,5,2,0:0:0:0:
347,365,150408,101,2,0:0:0:0:
394,343,150480,5,2,0:0:0:0:
423,306,150552,101,10,0:0:0:0:
432,268,150624,5,2,0:0:0:0:
431,234,150696,101,2,0:0:0:0:
422,207,150769,5,2,0:0:0:0:
412,186,150841,101,2,0:0:0:0:
395,169,150913,5,2,0:0:0:0:
378,160,150986,101,2,3:2:0:0:
358,144,151058,5,2,0:0:0:0:
341,118,151130,101,10,0:0:0:0:
335,77,151202,5,2,0:0:0:0:
357,30,151274,101,2,0:0:0:0:
421,8,151346,5,2,0:0:0:0:
484,42,151418,102,0,L|472:111,1,59.4999981842042,2|2,3:2|0:0,0:0:0:0:
234,182,151563,2,0,L|223:123,1,59.4999981842042,2|2,0:0|0:0,0:0:0:0:
412,186,151707,6,0,L|400:255,1,59.4999981842042,10|2,0:0|0:0,0:0:0:0:
170,61,151851,2,0,L|159:2,1,59.4999981842042,2|2,0:0|0:0,0:0:0:0:
299,237,151995,69,2,0:0:0:0:
229,266,152067,5,2,0:0:0:0:
165,265,152139,101,2,3:2:0:0:
113,242,152212,5,2,0:0:0:0:
76,216,152284,101,10,0:0:0:0:
56,187,152356,5,2,0:0:0:0:
45,162,152428,101,2,0:0:0:0:
38,141,152500,5,2,0:0:0:0:
34,122,152572,101,2,3:2:0:0:
316,321,152861,22,0,P|362:315|375:195,1,187.000005706787,8|0,0:0|0:0,0:0:0:0:
241,57,153293,2,0,P|237:25|222:-9,2,46.7500014266968,0|0|8,1:0|0:0|0:0,0:0:0:0:
388,118,153582,2,0,P|364:119|342:126,1,46.7500014266968
260,249,153726,6,0,B|258:217|233:195|233:195|307:175|369:199|390:285,1,255.000009727478,0|8,1:0|0:0,0:0:0:0:
160,355,154159,1,0,0:0:0:0:
165,330,154231,1,8,0:3:0:0:
170,305,154303,1,0,0:0:0:0:
176,280,154375,1,8,0:3:0:0:
181,255,154447,1,0,1:0:0:0:
70,8,154591,101,8,0:0:0:0:
78,46,154663,1,8,0:0:0:0:
87,84,154735,1,8,0:0:0:0:
95,122,154807,1,8,0:0:0:0:
104,161,154880,54,0,P|127:133|216:118,1,127.500004863739,6|0,1:2|0:0,0:0:0:0:
390,115,155313,2,0,P|327:113|281:71,1,127.500004863739,2|0,0:0|0:0,0:0:0:0:
232,4,155745,2,0,P|246:98|254:194,1,191.250007295609,2|0,0:0|0:0,0:0:0:0:
258,197,156611,1,2,0:0:0:0:
265,202,157188,1,2,0:0:0:0:
65,102,158341,6,0,P|36:74|74:97,2,127.500004863739
182,270,159495,102,0,P|196:208|219:149,1,127.500004863739,2|0,0:0|0:0,0:0:0:0:
64,101,159928,2,0,P|111:144|152:194,1,127.500004863739,2|0,0:0|0:0,0:0:0:0:
270,84,160361,2,0,P|209:102|147:113,1,127.500004863739,2|0,0:0|0:0,0:0:0:0:
143,100,161226,1,2,0:0:0:0:
155,107,161803,1,2,0:0:0:0:
158,113,162957,6,0,P|267:91|377:74,1,223.125008511544
303,26,163534,2,0,P|301:42|299:58,3,31.8750012159348,2|2|2|2,0:0|0:0|0:0|0:0,0:0:0:0:
440,124,163822,2,0,P|427:135|415:145,3,31.8750012159348,2|2|2|2,0:0|0:0|0:0|0:0,0:0:0:0:
326,129,164111,102,0,P|382:177|372:243,1,127.500004863739,6|0,0:0|0:0,0:0:0:0:
461,241,164543,2,0,P|409:259|324:304,1,127.500004863739,2|0,0:0|0:0,0:0:0:0:
244,291,164976,2,0,P|330:315|440:351,1,191.250007295609,2|0,0:0|0:0,0:0:0:0:
238,294,165841,1,2,0:0:0:0:
330,319,166129,1,2,0:0:0:0:
421,349,166418,6,0,P|465:320|458:188,1,191.250007295609,6|0,0:0|0:0,0:0:0:0:
421,83,166995,2,0,P|435:177|446:272,1,191.250007295609,2|0,0:0|0:0,0:0:0:0:
287,201,167572,2,0,P|316:167|417:171,1,127.500004863739,2|0,0:0|0:0,0:0:0:0:
181,14,168149,102,0,P|210:48|311:44,1,127.500004863739,2|0,0:0|0:0,0:0:0:0:
95,235,168726,6,0,B|186:174|116:151|210:81,1,191.250007295609,6|0,0:0|0:0,0:0:0:0:
136,122,169303,2,0,P|107:110|68:98,2,63.7500024318696,2|2|0,0:0|0:0|0:0,0:0:0:0:
227,171,169736,1,2,0:0:0:0:
177,235,169880,102,0,P|227:219|301:199,1,127.500004863739,4|2,0:0|0:0,0:0:0:0:
258,30,170457,1,2,0:0:0:0:
206,89,170601,2,0,P|224:118|321:113,1,127.500004863739,2|2,0:0|0:0,0:0:0:0:
370,174,171034,6,0,P|392:114|418:56,1,127.500004863739,4|2,0:0|0:0,0:0:0:0:
265,222,171611,2,0,P|251:192|240:162,2,63.7500024318696,2|2|0,0:0|0:0|0:0,0:0:0:0:
227,302,172043,2,0,P|270:257|332:256,1,127.500004863739,2|0,0:0|0:0,0:0:0:0:
240,163,172476,2,0,P|177:149|115:135,1,127.500004863739,2|2,0:0|0:0,0:0:0:0:
99,119,172837,1,0,0:0:0:0:
98,121,172909,1,0,0:0:0:0:
97,124,172981,1,0,0:0:0:0:
95,127,173053,1,2,0:0:0:0:
94,130,173125,1,0,0:0:0:0:
93,133,173197,1,0,0:0:0:0:
91,136,173269,1,0,0:0:0:0:
90,139,173341,69,6,1:2:0:0:
342,57,173918,1,2,0:0:0:0:
283,112,174063,2,0,P|300:151|353:169,1,85,2|0,1:2|0:0,0:0:0:0:
431,167,174351,2,0,P|350:193|270:223,1,170,2|0,0:0|0:0,0:0:0:0:
383,361,174784,2,0,B|374:322|404:277|453:275|453:275|470:307|516:323,2,170,2|2|2,0:0|0:0|0:0,0:0:0:0:
241,45,175649,6,0,B|186:23|159:102|182:162|305:156|320:73|323:41,1,255,2|0,1:2|0:0,0:0:0:0:
369,118,176226,2,0,P|244:91|119:65,1,255,2|0,0:0|0:0,0:0:0:0:
77,241,176803,2,0,B|95:149|95:149|58:138|41:99,1,170,2|0,1:2|0:0,0:0:0:0:
87,0,177236,1,0,0:0:0:0:
87,0,177380,2,0,P|124:36|126:84,1,85,2|0,0:0|0:0,0:0:0:0:
195,134,177668,2,0,P|184:174|152:201,1,85,4|0,0:3|0:0,0:0:0:0:
93,16,177957,102,0,P|111:33|116:58,1,51,2|0,0:0|0:0,0:0:0:0:
233,138,178966,21,0,0:0:0:0:
241,135,179038,1,0,0:0:0:0:
249,133,179111,6,0,L|268:128,3,19.1249994163513
304,43,179399,2,0,L|309:61,3,19.1249994163513
340,188,179688,2,0,L|335:169,3,19.1249994163513
395,97,179976,2,0,L|376:102,3,19.1249994163513
207,205,180264,102,0,P|301:219|395:236,1,191.250007295609,2|0,0:0|0:0,0:0:0:0:
409,221,180769,53,2,0:0:0:0:
415,228,180841,5,2,0:0:0:0:
425,244,180913,101,2,0:0:0:0:
433,265,180985,5,2,0:0:0:0:
436,293,181058,101,2,0:0:0:0:
428,325,181129,5,2,0:0:0:0:
405,359,181202,101,2,0:0:0:0:
360,381,181273,5,2,0:0:0:0:
300,377,181346,101,2,0:0:0:0:
253,322,181418,6,0,L|259:289,3,31.8750012159348,2|2|2|2,0:0|0:0|0:0|0:0,0:0:0:0:
197,167,181707,1,2,0:0:0:0:
191,164,181779,1,2,0:0:0:0:
185,161,181851,2,0,L|198:232,1,50.9999984436036,2|2,0:0|0:0,0:0:0:0:
84,298,181995,102,0,P|117:290|144:286,1,50.9999984436036,2|2,0:0|0:0,0:0:0:0:
292,74,182139,2,0,P|259:82|232:86,1,50.9999984436036,2|2,0:0|0:0,0:0:0:0:
324,261,182284,6,0,P|318:237|314:212,1,50.9999984436036,2|2,0:0|0:0,0:0:0:0:
101,54,182428,2,0,P|107:78|111:103,1,50.9999984436036,2|2,0:0|0:0,0:0:0:0:
265,309,182572,38,0,P|292:255|403:240,1,170,6|2,1:2|0:0,0:0:0:0:
394,71,183005,2,0,P|364:105|363:159,1,85,2|0,0:0|0:0,0:0:0:0:
437,299,183293,2,0,P|467:265|468:211,1,85,2|0,0:0|0:0,0:0:0:0:
288,184,183582,1,2,0:0:0:0:
288,184,183726,2,0,B|382:201|350:121|474:148,1,170,0|2,0:0|0:1,0:0:0:0:
306,76,184303,5,2,0:1:0:0:
374,9,184591,101,2,0:1:0:0:
106,72,184880,6,0,P|88:134|185:194,1,170,2|2,0:2|0:0,0:0:0:0:
246,183,185313,2,0,P|263:182|240:177,1,85,2|0,0:0|0:0,0:0:0:0:
41,228,185601,2,0,P|58:189|67:147,1,85,2|0,0:0|0:0,0:0:0:0:
225,89,185889,1,2,0:0:0:0:
239,109,186034,2,0,P|215:168|185:273,1,170,0|2,0:0|0:1,0:0:0:0:
25,87,186611,101,2,0:1:0:0:
303,216,186899,5,2,0:1:0:0:
110,282,187188,102,0,P|151:350|231:340,1,170,2|0,0:2|0:0,0:0:0:0:
289,283,187620,2,0,P|316:297|338:351,1,85,2|0,0:0|0:0,0:0:0:0:
461,256,187909,2,0,P|434:288|432:329,1,85,2|0,0:0|0:0,0:0:0:0:
333,203,188197,1,2,0:0:0:0:
333,203,188341,2,0,B|341:109|402:168|414:50,1,170,0|2,0:0|0:1,0:0:0:0:
412,61,188918,6,0,B|361:71|361:71|402:92,1,85,2|0,0:1|0:0,0:0:0:0:
446,239,189207,2,0,P|408:183|343:200,1,127.5,2|0,0:1|0:0,0:0:0:0:
333,203,189495,102,0,P|251:179|168:158,1,170,2|2,0:0|0:0,0:0:0:0:
59,74,189928,2,0,P|116:59|173:43,1,85,2|0,0:0|0:0,0:0:0:0:
231,244,190216,2,0,P|241:203|253:162,1,85,2|0,0:0|0:0,0:0:0:0:
201,9,190505,1,2,0:0:0:0:
187,0,190649,2,0,P|197:63|301:58,1,170,0|2,0:0|0:2,0:0:0:0:
468,131,191082,1,0,0:0:0:0:
385,62,191226,53,2,0:0:0:0:
377,93,191298,1,2,0:0:0:0:
370,124,191370,1,2,0:0:0:0:
363,155,191442,1,2,0:0:0:0:
342,178,191514,5,2,0:0:0:0:
351,219,191586,1,2,0:0:0:0:
361,260,191658,1,2,0:0:0:0:
370,302,191730,1,2,0:0:0:0:
349,339,191803,102,0,L|286:326,3,42.5,6|2|2|2,1:2|0:0|0:0|0:0,0:0:0:0:
452,239,192091,2,0,L|515:226,3,42.5,2|2|2|2,0:0|0:0|0:0|0:0,0:0:0:0:
299,151,192380,5,2,0:0:0:0:
288,148,192453,1,2,0:0:0:0:
277,145,192524,2,0,P|282:176|286:207,1,55.2499974708558,2|2,0:0|0:0,0:0:0:0:
499,310,192668,38,0,P|505:263|512:217,1,93.5000028533936,2|0,0:0|1:0,0:0:0:0:
369,16,192957,1,2,0:0:0:0:
307,66,193101,2,0,P|334:138|439:130,1,187.000005706787,0|0,1:0|0:0,0:0:0:0:
439,236,193534,2,0,P|451:143|465:50,1,187.000005706787,2|0,0:0|0:0,0:0:0:0:
446,245,194111,6,0,P|355:235|314:324,1,187.000005706787,2|0,1:2|0:0,0:0:0:0:
144,212,194543,1,0,0:0:0:0:
160,229,194688,2,0,P|197:224|231:173,1,93.5000028533936
324,93,194976,2,0,P|313:163|304:232,1,140.25000428009,2|0,0:0|0:0,0:0:0:0:
285,247,195264,101,2,0:0:0:0:
152,141,195409,2,0,P|162:95|169:49,1,93.5000028533936,0|0,1:0|0:0,0:0:0:0:
68,294,195697,2,0,L|13:278,2,46.7500014266968,0|0|2,0:0|0:0|0:0,0:0:0:0:
122,354,195986,2,0,P|166:340|211:328,1,93.5000028533936
219,332,196418,6,0,B|198:237|290:275|277:162,1,187.000005706787,2|0,1:2|0:0,0:0:0:0:
193,35,196851,1,0,0:0:0:0:
193,35,196995,2,0,P|201:81|207:128,1,93.5000028533936
310,241,197284,2,0,P|302:287|296:333,1,93.5000028533936,2|0,0:0|1:0,0:0:0:0:
277,165,197572,101,2,0:0:0:0:
355,118,197716,2,0,B|389:76|364:13|312:5|312:5|253:28,1,187.000005706787,0|0,1:0|0:0,0:0:0:0:
348,124,198149,6,0,P|386:132|425:144,1,76.4999976654053,2|0,0:0|0:0,0:0:0:0:
506,30,198438,2,0,P|494:66|487:104,1,76.4999976654053,2|0,0:0|0:0,0:0:0:0:
489,253,198726,102,0,P|463:204|351:213,1,170,0|8,1:0|0:0,0:0:0:0:
199,264,199159,21,8,0:0:0:0:
279,234,199303,5,8,0:0:0:0:
27,162,199447,1,8,0:0:0:0:
260,137,199592,101,8,0:0:0:0:
166,381,199736,1,8,0:0:0:0:
124,100,199880,22,0,L|114:40,3,42.5,2|2|2|2,1:2|0:0|0:0|0:0,0:0:0:0:
253,179,200168,2,0,L|259:136,3,42.5,2|2|2|2,0:2|0:0|0:0|0:0,0:0:0:0:
181,242,200457,5,2,0:0:0:0:
158,249,200529,1,2,0:0:0:0:
134,250,200601,1,2,0:0:0:0:
110,242,200673,1,2,0:0:0:0:
89,230,200745,1,2,0:0:0:0:
74,212,200817,1,2,0:0:0:0:
64,190,200889,1,2,0:0:0:0:
61,166,200961,1,2,0:0:0:0:
38,86,201034,70,0,P|24:174|9:262,1,178.499994552612,6|0,1:2|0:0,0:0:0:0:
44,333,201322,2,0,B|47:364|47:364|23:336,1,59.4999981842042,10|0,0:0|0:0,0:0:0:0:
196,188,201466,6,0,L|248:200,2,42.5,2|0|0,0:0|0:0|0:0,0:0:0:0:
50,79,201755,2,0,L|59:37,1,42.5,2|0,1:2|0:0,0:0:0:0:
138,15,201899,102,0,B|112:54|78:63|78:63|102:208,1,191.250007295609,8|0,0:0|0:0,0:0:0:0:
182,262,202188,6,0,B|191:200|254:156|330:167|330:167|302:203|314:243,1,255.000009727478,0|8,1:0|0:0,0:0:0:0:
432,383,202620,1,0,0:0:0:0:
439,343,202692,1,0,0:0:0:0:
423,307,202764,1,4,0:0:0:0:
406,271,202837,1,0,0:0:0:0:
414,232,202909,1,0,1:0:0:0:
509,67,203053,102,0,B|460:125|460:125|340:82,1,191.250007295609,10|0,0:0|0:0,0:0:0:0:
171,125,203341,6,0,B|184:66|225:27|301:29|333:58|326:133|274:148,1,255.000009727478,6|10,1:2|0:0,0:0:0:0:
132,219,203774,1,2,0:0:0:0:
116,214,203846,1,0,0:0:0:0:
101,210,203918,1,0,0:0:0:0:
222,332,204063,102,0,P|253:315|218:322,1,101.999996887207,0|0,1:0|0:0,0:0:0:0:
131,370,204207,2,0,P|227:334|324:303,1,204,8|0,0:0|0:0,0:0:0:0:
450,287,204495,6,0,B|412:281|387:312|387:312|332:291|313:213|358:171,1,220.999989883423,6|8,1:2|0:0,0:0:0:0:
449,100,204928,1,0,0:0:0:0:
468,81,205000,1,0,0:0:0:0:
463,55,205072,1,2,0:0:0:0:
231,13,205216,102,0,P|238:39|242:66,1,55.2499974708558,0|0,1:0|0:0,0:0:0:0:
282,257,205361,2,0,B|251:145|251:145|297:138|315:96,1,191.250007295609,10|0,0:0|0:0,0:0:0:0:
386,56,205649,6,0,P|270:86|156:118,1,237.999992736817,6|10,1:2|0:0,0:0:0:0:
24,58,206082,2,0,B|-4:24|-4:24|87:58,1,118.999996368408,2|0,0:0|0:0,0:0:0:0:
201,199,206370,2,0,P|220:191|241:185,2,42.5,2|0|8,1:2|0:0|0:0,0:0:0:0:
87,374,206659,2,0,P|81:353|73:333,1,42.5,2|0,0:0|0:0,0:0:0:0:
31,243,206803,102,0,B|95:158|179:183|201:224|200:283|144:314,1,255.000009727478,6|8,1:2|0:0,0:0:0:0:
351,189,207236,2,0,L|278:168,1,42.5
266,107,207380,2,0,B|302:121|316:157|316:157|443:132,1,191.250007295609,2|0,0:0|0:0,0:0:0:0:
500,84,207668,2,0,B|461:67|461:67|485:-17,1,110.499994941712,10|0,0:0|0:0,0:0:0:0:
241,184,207957,6,0,B|209:312|353:255|311:403,1,220.999989883423,6|10,1:2|0:0,0:0:0:0:
26,258,208389,2,0,P|46:220|158:212,1,165.749992412568,2|0,0:0|0:0,0:0:0:0:
162,219,208678,1,2,1:2:0:0:
14,28,208822,2,0,P|8:75|0:120,1,93.5000028533936,8|2,0:0|0:0,0:0:0:0:
23,142,209039,1,0,0:0:0:0:
31,139,209111,101,6,1:2:0:0:
172,44,209255,2,0,P|201:52|254:57,2,46.7500014266968,2|0|8,0:2|0:0|0:0,0:0:0:0:
245,251,209543,2,0,P|249:228|255:205,1,46.7500014266968
374,105,209688,21,2,0:0:0:0:
394,101,209760,5,2,0:0:0:0:
420,102,209832,101,2,1:2:0:0:
451,114,209904,5,2,0:0:0:0:
476,150,209976,101,10,0:0:0:0:
479,198,210048,5,2,0:0:0:0:
447,247,210121,101,2,0:0:0:0:
381,262,210193,5,2,0:0:0:0:
322,215,210265,101,6,1:2:0:0:
315,218,210337,1,2,0:0:0:0:
308,221,210409,2,0,L|248:203,1,55.2499974708558,2|2,0:0|0:0,0:0:0:0:
100,169,210553,5,10,0:0:0:0:
58,196,210625,1,2,0:0:0:0:
37,240,210697,1,2,0:0:0:0:
39,289,210769,1,2,0:0:0:0:
65,332,210841,1,2,0:0:0:0:
108,355,210913,1,2,0:0:0:0:
157,355,210985,1,2,1:2:0:0:
201,332,211057,1,2,0:0:0:0:
226,289,211130,102,0,P|216:206|210:124,1,165.749992412568,10|0,0:0|0:0,0:0:0:0:
274,54,211418,86,0,P|319:123|427:93,1,191.250007295609,2|0,1:2|0:0,0:0:0:0:
429,95,211707,2,0,P|405:52|357:50,1,101.999996887207,8|0,0:0|0:0,0:0:0:0:
288,166,211923,1,0,0:0:0:0:
292,155,211995,2,0,P|301:205|307:255,1,101.999996887207,2|0,0:0|1:0,0:0:0:0:
469,380,212284,2,0,B|437:275|437:275|472:264|491:225,1,178.499994552612,8|0,0:0|0:0,0:0:0:0:
415,199,212572,6,0,P|297:182|179:168,1,237.999992736817,2|8,1:2|0:0,0:0:0:0:
0,276,213005,1,0,0:0:0:0:
22,301,213077,1,0,0:0:0:0:
55,292,213149,1,0,0:0:0:0:
100,168,213293,2,0,P|103:191|113:213,1,46.7500014266968,0|0,1:0|0:0,0:0:0:0:
179,371,213438,2,0,P|209:294|241:218,1,165.749992412568,10|0,0:0|0:0,0:0:0:0:
275,13,213726,102,0,B|313:57|313:57|271:143|271:143|213:126|179:168,1,255.000009727478,2|8,1:2|0:0,0:0:0:0:
387,354,214159,2,0,P|413:347|458:338,2,50.9999984436036,0|0|2,0:0|0:0|0:0,0:0:0:0:
241,218,214447,6,0,P|265:223|290:230,1,50.9999984436036,0|0,1:0|0:0,0:0:0:0:
445,174,214591,2,0,B|362:154|420:86|322:63,1,165.749992412568,8|0,0:0|0:0,0:0:0:0:
132,90,214880,102,0,B|144:40|211:3|273:13|273:13|244:41|254:101,1,237.999992736817,2|8,1:2|0:0,0:0:0:0:
156,274,215313,2,0,L|90:254,1,59.4999981842042
32,192,215457,1,0,0:0:0:0:
48,168,215529,1,0,0:0:0:0:
76,171,215601,1,0,1:0:0:0:
206,341,215745,2,0,P|280:323|355:306,1,152.999995330811,10|0,0:0|0:0,0:0:0:0:
436,258,216034,6,0,B|477:221|450:136|356:139|306:185|288:253,1,255.000009727478,2|8,1:2|0:0,0:0:0:0:
183,122,216466,2,0,P|194:93|197:59,2,63.7500024318696,0|0|2,0:0|0:0|0:0,0:0:0:0:
296,229,216755,1,0,1:0:0:0:
397,178,216899,102,0,P|304:203|213:230,1,191.250007295609,10|0,0:0|0:0,0:0:0:0:
23,151,217188,6,0,B|127:171|77:324|201:337,1,255.000009727478,6|8,1:2|0:0,0:0:0:0:
300,101,217620,2,0,P|295:87|298:106,1,80.7499978437424
397,178,217764,102,0,P|282:144|167:116,1,237.999992736817,6|8,0:2|0:0,0:0:0:0:
253,359,218197,2,0,P|281:350|310:343,1,46.7500014266968,0|0,0:2|0:0,0:0:0:0:
346,265,218341,21,6,1:2:0:0:
331,221,218414,5,2,0:0:0:0:
296,191,218485,101,2,0:0:0:0:
250,185,218557,5,2,0:0:0:0:
208,203,218630,101,10,0:0:0:0:
165,221,218702,5,2,0:0:0:0:
120,215,218774,101,2,0:0:0:0:
84,185,218846,5,2,0:0:0:0:
70,141,218918,101,6,0:0:0:0:
307,47,219063,2,0,P|322:81|321:122,1,46.7500014266968,0|0,1:0|0:0,0:0:0:0:
202,284,219207,2,0,P|198:183|244:93,1,204,8|0,0:0|0:0,0:0:0:0:
236,81,219495,85,6,1:2:0:0:
390,223,219639,2,0,P|405:201|414:175,1,55.2499974708558,2|0,0:0|0:0,0:0:0:0:
505,174,219784,2,0,P|497:140|479:112,1,55.2499974708558,10|0,0:0|0:0,0:0:0:0:
384,24,219928,1,2,0:0:0:0:
393,18,220000,1,0,0:0:0:0:
402,12,220072,1,0,0:0:0:0:
248,180,220216,5,2,1:2:0:0:
143,119,220361,1,8,0:0:0:0:
307,47,220505,1,2,0:0:0:0:
367,313,220649,102,0,P|377:267|390:223,1,93.5000028533936,2|2,1:2|0:0,0:0:0:0:
193,43,220938,1,10,0:0:0:0:
78,172,221082,1,0,0:0:0:0:
55,165,221154,1,0,0:0:0:0:
33,159,221226,1,2,0:0:0:0:
122,318,221370,6,0,P|148:298|183:293,1,59.4999981842042,2|0,1:2|0:0,0:0:0:0:
249,346,221514,2,0,P|257:287|269:228,1,118.999996368408,10|0,0:0|0:0,0:0:0:0:
41,22,221803,101,2,1:2:0:0:
192,175,221947,1,0,0:0:0:0:
278,131,222091,1,10,0:0:0:0:
368,308,222236,5,2,0:0:0:0:
363,322,222308,1,0,0:0:0:0:
359,336,222380,1,2,0:0:0:0:
173,92,222524,1,2,1:2:0:0:
401,206,222668,102,0,P|432:197|474:189,1,59.4999981842042,10|0,0:0|0:0,0:0:0:0:
381,130,222813,2,0,P|412:121|454:113,1,59.4999981842042,2|0,0:0|0:0,0:0:0:0:
512,137,222957,5,2,1:2:0:0:
291,212,223101,1,2,0:0:0:0:
468,35,223245,2,0,P|417:27|368:15,1,101.999996887207,10|0,0:0|0:0,0:0:0:0:
196,218,223534,102,0,P|208:169|215:119,1,101.999996887207,2|0,0:0|1:0,0:0:0:0:
22,67,223822,1,10,0:0:0:0:
130,290,223966,1,0,0:0:0:0:
139,287,224039,1,0,0:0:0:0:
148,284,224111,5,6,1:2:0:0:
300,178,224255,1,0,0:0:0:0:
368,243,224399,2,0,P|356:288|349:334,1,93.5000028533936,10|2,0:0|0:0,0:0:0:0:
320,364,224615,2,0,P|315:331|306:300,1,46.7500014266968
413,66,224832,101,2,1:2:0:0:
488,208,224976,2,0,P|495:161|507:116,1,93.5000028533936,10|2,0:0|0:0,0:0:0:0:
494,101,225192,1,0,0:0:0:0:
494,101,225264,5,2,1:2:0:0:
242,189,225409,1,2,0:0:0:0:
213,77,225553,1,10,0:0:0:0:
381,234,225697,102,0,P|366:274|366:305,1,59.4999981842042
421,343,225841,5,2,0:0:0:0:
311,133,225986,1,0,1:0:0:0:
164,247,226130,2,0,P|114:233|64:222,1,101.999996887207,10|0,0:0|0:0,0:0:0:0:
0,24,226418,102,0,P|49:12|99:0,1,101.999996887207,2|0,1:2|0:0,0:0:0:0:
30,154,226707,1,10,0:0:0:0:
229,292,226851,1,2,0:0:0:0:
247,268,226923,1,0,0:0:0:0:
242,239,226995,5,0,0:0:0:0:
25,334,227139,1,2,1:2:0:0:
167,166,227284,2,0,P|178:116|191:66,1,101.999996887207,8|2,0:2|0:0,0:0:0:0:
179,53,227500,1,0,0:0:0:0:
179,53,227572,101,2,1:2:0:0:
357,171,227716,2,0,P|336:212|302:224,1,59.4999981842042
247,268,227861,2,0,P|333:245|420:226,1,178.499994552612,10|0,0:0|0:0,0:0:0:0:
507,123,228149,21,2,1:2:0:0:
502,134,228221,1,2,0:0:0:0:
497,145,228293,2,0,P|468:138|432:135,1,42.5,2|2,1:2|0:0,0:0:0:0:
233,44,228438,5,10,0:0:0:0:
254,33,228510,1,2,0:0:0:0:
275,24,228582,2,0,P|268:53|265:89,1,63.7500024318696,2|2,0:0|0:0,0:0:0:0:
203,335,228726,101,6,1:2:0:0:
247,268,228798,5,2,0:0:0:0:
230,203,228870,101,2,0:0:0:0:
179,183,228942,5,2,0:0:0:0:
139,189,229014,101,10,0:0:0:0:
113,213,229087,5,2,0:0:0:0:
102,244,229159,101,2,0:0:0:0:
105,272,229231,5,2,0:0:0:0:
113,286,229303,102,0,P|234:248|357:213,1,255.000009727478,2|8,0:0|0:0,0:0:0:0:
62,87,229736,102,0,P|31:78|0:68,2,42.5,0|0|2,0:0|0:0|1:2,0:0:0:0:
204,216,230024,1,0,0:0:0:0:
354,36,230168,2,0,P|287:97|289:174,1,165.749992412568,8|0,0:0|0:0,0:0:0:0:
271,151,230457,102,0,P|202:134|134:120,1,110.499994941712,2|0,0:0|1:0,0:0:0:0:
2,329,230745,2,0,B|46:233|46:233|13:214|-3:175,1,178.499994552612,8|0,0:0|0:0,0:0:0:0:
68,66,231034,6,0,B|73:36|100:10|136:15|182:43|172:90|138:156|53:156,1,237.999992736817,0|8,1:2|0:0,0:0:0:0:
206,362,231466,1,0,0:0:0:0:
225,322,231538,1,0,0:0:0:0:
261,296,231610,1,0,0:0:0:0:
305,290,231682,1,0,0:0:0:0:
346,305,231754,1,0,1:2:0:0:
173,126,231899,2,0,P|165:176|152:225,1,101.999996887207,10|0,0:0|0:0,0:0:0:0:
478,135,232188,102,0,P|434:195|309:198,1,203.999993774414,2|8,1:2|0:0,0:0:0:0:
164,32,232620,2,0,P|188:38|213:42,2,50.9999984436036,0|0|2,0:0|0:0|0:0,0:0:0:0:
318,196,232909,1,0,1:0:0:0:
113,289,233053,2,0,P|49:239|66:146,1,152.999995330811,8|0,0:0|0:0,0:0:0:0:
42,100,233341,6,0,P|19:199|0:299,1,203.999993774414,0|8,1:0|0:0,0:0:0:0:
264,340,233774,1,0,0:0:0:0:
272,335,233846,1,0,0:0:0:0:
281,330,233918,1,0,0:0:0:0:
169,196,234063,1,0,1:0:0:0:
335,89,234207,2,0,P|372:131|365:193,1,101.999996887207,10|0,0:0|0:0,0:0:0:0:
187,354,234495,102,0,B|164:253|296:287|252:140,1,203.999993774414,2|8,1:2|0:0,0:0:0:0:
75,39,234928,2,0,P|67:75|52:103,1,50.9999984436036
268,97,235072,6,0,P|195:118|122:140,1,152.999995330811,2|0,0:0|0:0,0:0:0:0:
0,186,235361,2,0,P|48:200|97:214,1,101.999996887207,10|0,0:0|0:0,0:0:0:0:
287,314,235649,102,0,B|260:175|260:175|321:175|341:122,1,237.999992736817,6|8,1:2|0:0,0:0:0:0:
108,47,236082,1,0,0:0:0:0:
108,47,236154,1,0,0:0:0:0:
108,47,236226,2,0,P|117:92|120:139,1,93.5000028533936,4|0,0:0|1:0,0:0:0:0:
258,242,236514,2,0,P|304:233|351:230,1,93.5000028533936,8|0,0:0|0:0,0:0:0:0:
461,37,236803,21,6,1:2:0:0:
416,27,236875,5,2,0:0:0:0:
374,47,236947,101,2,0:0:0:0:
354,88,237019,5,2,0:0:0:0:
362,133,237091,101,10,0:0:0:0:
396,164,237163,5,2,0:0:0:0:
442,167,237235,101,2,0:0:0:0:
480,142,237307,5,2,0:0:0:0:
496,99,237379,101,6,0:0:0:0:
179,168,237524,5,2,1:2:0:0:
121,92,237668,2,0,P|130:46|135:-1,1,93.5000028533936,8|0,0:0|0:0,0:0:0:0:
274,155,237957,70,0,P|257:248|244:341,1,187.000005706787,6|10,1:2|0:0,0:0:0:0:
34,221,238389,2,0,B|31:199|15:183|15:183|66:174|116:209|120:271,1,178.499994552612,2|0,0:0|0:0,0:0:0:0:
134,328,238678,6,0,P|145:350|144:324,1,72.2500013780594,2|0,1:2|0:0,0:0:0:0:
98,172,238822,2,0,P|109:126|116:80,1,93.5000028533936,8|2,0:0|0:0,0:0:0:0:
54,14,239039,1,0,0:0:0:0:
54,14,239111,102,0,B|154:-7|106:137|233:111,1,191.250007295609,0|0,1:0|0:0,0:0:0:0:
244,196,239399,2,0,B|282:189|282:189|308:93|308:93|268:57,1,178.499994552612,8|0,0:0|0:0,0:0:0:0:
184,9,239688,5,6,0:0:0:0:
170,12,239760,1,0,0:0:0:0:
155,16,239832,2,0,L|99:1,1,42.5,0|0,1:0|0:0,0:0:0:0:
16,298,239976,2,0,P|119:278|214:261,1,178.499994552612,10|0,0:0|0:0,0:0:0:0:
291,338,240264,102,0,B|221:325|221:325|244:196,1,204,6|0,1:2|0:0,0:0:0:0:
290,133,240553,2,0,B|323:121|323:121|295:156,1,68,10|0,0:0|0:0,0:0:0:0:
401,223,240697,2,0,P|272:169|91:101,1,272,2|2,0:0|1:2,0:0:0:0:
503,59,241130,2,0,B|420:66|399:116|476:174,1,165.749992412568,10|0,0:0|0:0,0:0:0:0:
463,163,241418,5,6,1:2:0:0:
316,305,241563,1,2,0:0:0:0:
231,18,241707,1,10,0:0:0:0:
75,193,241851,101,0,0:0:0:0:
93,232,241923,1,0,0:0:0:0:
130,257,241995,1,2,0:0:0:0:
174,260,242067,1,0,0:0:0:0:
213,240,242139,1,0,1:0:0:0:
167,67,242284,2,0,P|83:97|0:127,1,178.499994552612,10|0,0:0|0:0,0:0:0:0:
4,31,242572,6,0,B|65:54|65:54|121:168|121:168|212:143,1,272,6|10,1:2|0:0,0:0:0:0:
432,252,243005,2,0,B|368:204|368:204|408:152|412:84,1,204,2|0,0:0|0:0,0:0:0:0:
344,28,243293,2,0,L|272:43,1,55.2499974708558,2|0,1:2|0:0,0:0:0:0:
130,199,243438,2,0,B|174:215|182:283|182:283|202:219|262:211,1,204,8|0,0:0|0:0,0:0:0:0:
321,235,243726,102,0,P|204:257|88:282,1,237.999992736817,6|10,1:2|0:0,0:0:0:0:
388,384,244159,1,0,0:0:0:0:
390,339,244231,1,0,0:0:0:0:
412,301,244303,1,2,0:0:0:0:
449,277,244375,1,0,0:0:0:0:
493,273,244447,1,0,1:0:0:0:
246,58,244591,2,0,P|274:95|277:141,1,93.5000028533936,10|0,0:0|0:0,0:0:0:0:
505,37,244880,6,0,P|457:112|353:117,1,191.250007295609,6|0,1:2|0:0,0:0:0:0:
361,120,245168,1,10,0:0:0:0:
95,187,245313,2,0,P|187:193|238:270,1,191.250007295609,2|0,0:0|0:0,0:0:0:0:
289,331,245601,102,0,P|316:323|346:315,1,46.7500014266968,2|0,1:2|0:0,0:0:0:0:
450,191,245745,2,0,P|364:167|279:142,1,178.499994552612,10|0,0:0|0:0,0:0:0:0:
186,96,246034,6,0,B|226:70|226:70|216:-6,1,118.999996368408,6|0,1:2|0:0,0:0:0:0:
321,223,246322,2,0,P|351:210|373:205,1,50.9999984436036,10|0,0:0|0:0,0:0:0:0:
491,103,246466,2,0,P|466:96|443:85,1,50.9999984436036,2|0,0:0|0:0,0:0:0:0:
279,142,246611,5,2,0:0:0:0:
241,150,246683,1,2,0:0:0:0:
210,173,246755,1,2,1:2:0:0:
189,204,246827,1,2,0:0:0:0:
180,241,246899,5,10,0:0:0:0:
166,289,246971,1,2,0:0:0:0:
131,325,247043,1,2,0:0:0:0:
82,340,247115,1,2,0:0:0:0:
33,330,247188,102,0,L|43:266,3,42.5,6|2|2|2,1:2|0:0|0:0|0:0,0:0:0:0:
77,146,247476,2,0,L|84:188,3,42.5,2|2|2|2,0:0|0:0|0:0|0:0,0:0:0:0:
251,289,247764,1,2,0:0:0:0:
261,288,247836,1,2,0:0:0:0:
272,286,247908,1,2,0:0:0:0:
282,284,247980,1,2,0:0:0:0:
293,283,248053,1,2,0:0:0:0:
361,220,248197,54,0,P|368:178|379:137,1,85,0|2,1:2|0:0,0:0:0:0:
323,56,248486,2,0,P|352:101|462:83,1,152.999995330811,0|0,1:0|0:0,0:0:0:0:
293,283,248918,2,0,P|366:264|441:248,1,152.999995330811,2|0,0:0|0:0,0:0:0:0:
491,185,249351,1,2,0:0:0:0:
491,185,249495,6,0,P|473:259|457:334,2,152.999995330811,0|0|0,1:0|0:0|0:0,0:0:0:0:
265,74,250361,2,0,P|244:54|252:82,1,76.4999976654053,2|0,0:0|1:0,0:0:0:0:
251,81,250649,101,2,0:0:0:0:
340,83,250793,2,0,P|269:111|199:144,1,152.999995330811,0|0,1:0|0:0,0:0:0:0:
57,73,251226,2,0,P|58:145|125:170,1,152.999995330811,2|0,0:0|0:0,0:0:0:0:
125,170,251803,6,0,B|36:170|104:243|-8:242,1,152.999995330811,2|0,1:2|0:0,0:0:0:0:
46,308,252236,2,0,P|65:277|178:270,1,152.999995330811,2|0,0:0|0:0,0:0:0:0:
238,329,252668,2,0,P|277:317|319:304,1,76.4999976654053,2|0,0:0|1:0,0:0:0:0:
350,237,252957,101,2,0:0:0:0:
403,293,253101,2,0,P|325:269|241:243,1,152.999995330811,0|0,1:0|0:0,0:0:0:0:
372,128,253534,2,0,P|423:142|451:234,1,152.999995330811,2|2,0:0|0:0,0:0:0:0:
452,229,254111,6,0,P|466:153|481:78,1,152.999995330811,2|8,1:2|0:0,0:0:0:0:
400,31,254543,5,8,0:0:0:0:
422,22,254688,1,8,0:0:0:0:
372,128,254832,5,8,0:0:0:0:
402,140,254977,1,8,0:0:0:0:
207,52,255120,101,8,0:0:0:0:
307,11,255264,1,2,1:2:0:0:
305,20,255336,1,2,0:0:0:0:
303,29,255408,1,2,0:0:0:0:
301,39,255480,1,2,0:0:0:0:
300,48,255552,1,2,0:0:0:0:
298,58,255624,1,2,0:0:0:0:
296,67,255696,1,2,0:0:0:0:
295,76,255768,1,2,0:0:0:0:
293,86,255841,6,0,P|190:63|77:40,1,208.249993644715,2|0,0:0|0:0,0:0:0:0:
30,93,256418,70,0,B|12:188|123:165|96:343,1,267.749991828919,6|2,0:0|0:0,0:0:0:0:
96,341,258005,2,0,P|137:331|145:331,2,46.7500014266968,2|2|2,0:0|0:0|0:0,0:0:0:0:
25,274,258438,2,0,P|22:253|16:233,3,23.3750007133484,2|2|2|2,0:0|0:0|0:0|0:0,0:0:0:0:
48,234,258726,6,0,P|54:192|68:138,1,93.5000028533936,2|2,0:0|0:0,0:0:0:0:
22,76,259159,2,0,P|57:47|108:47,1,93.5000028533936,2|2,0:0|0:0,0:0:0:0:
345,99,259736,2,0,P|291:102|216:160,1,140.25000428009,2|0,0:0|0:0,0:0:0:0:
131,214,260313,1,2,0:0:0:0:
140,229,260457,2,0,L|132:280,1,46.7500014266968,2|0,0:0|0:0,0:0:0:0:
211,336,260745,102,0,L|218:289,1,46.7500014266968,2|0,0:0|0:0,0:0:0:0:
291,242,261034,6,0,P|320:272|386:277,1,93.5000028533936,2|0,0:0|0:0,0:0:0:0:
387,116,261466,2,0,P|379:161|359:204,1,93.5000028533936,2|2,0:0|0:0,0:0:0:0:
273,26,262044,1,2,0:0:0:0:
312,94,262188,2,0,P|381:98|442:65,1,140.25000428009,2|0,0:0|0:0,0:0:0:0:
282,189,262764,101,2,0:0:0:0:
481,150,263053,1,2,0:0:0:0:
264,204,263341,2,0,P|230:173|178:166,1,93.5000028533936,2|2,0:0|0:0,0:0:0:0:
126,106,263774,2,0,P|142:174|156:242,1,140.25000428009,2|2,0:0|0:0,0:0:0:0:
96,295,264351,1,2,0:0:0:0:
96,295,264495,6,0,P|60:287|28:239,1,93.5000028533936,2|0,0:0|0:0,0:0:0:0:
126,106,265072,2,0,P|131:81|141:56,2,46.7500014266968,2|0|0,0:0|0:0|0:0,0:0:0:0:
28,242,265649,102,0,P|98:252|186:339,1,187.000005706787,2|0,0:0|0:0,0:0:0:0:
257,363,266370,2,0,P|291:354|316:353,1,46.7500014266968,2|0,0:0|0:0,0:0:0:0:
471,219,266803,2,0,P|402:218|346:177,1,140.25000428009,2|0,0:0|0:0,0:0:0:0:
302,32,267380,2,0,P|294:79|284:124,1,93.5000028533936,2|0,0:0|0:0,0:0:0:0:
403,78,267957,6,0,P|332:139|263:202,1,187.000005706787,2|2,0:0|0:0,0:0:0:0:
206,260,268678,2,0,P|169:242|168:179,1,93.5000028533936
219,82,269111,2,0,L|211:128,2,46.7500014266968,2|0|0,0:0|0:0|0:0,0:0:0:0:
50,72,269688,102,0,P|95:60|143:46,1,93.5000028533936,2|2,0:0|0:0,0:0:0:0:
299,149,270264,6,0,P|322:155|345:162,2,46.7500014266968,2|2|2,0:0|0:0|0:0,0:0:0:0:
241,208,270697,1,2,0:0:0:0:
439,104,270986,1,2,0:0:0:0:
175,28,271274,1,2,0:0:0:0:
175,28,271418,2,0,P|184:79|190:130,2,93.5000028533936,2|0|0,0:0|0:0|0:0,0:0:0:0:
122,300,272284,1,2,0:0:0:0:
4,129,272572,102,0,P|37:162|137:164,1,140.25000428009,2|0,0:0|0:0,0:0:0:0:
189,120,273149,2,0,L|236:130,1,46.7500014266968,2|2,0:0|0:0,0:0:0:0:
76,47,273438,1,2,0:0:0:0:
76,47,273726,5,2,0:0:0:0:
76,47,273870,2,0,P|63:101|51:156,1,93.5000028533936,2|0,0:0|0:0,0:0:0:0:
173,273,274303,1,2,0:0:0:0:
173,273,274398,2,0,P|162:232|153:192,1,77.9166690444947,2|2,0:0|0:0,0:0:0:0:
461,67,274880,102,0,P|428:116|342:132,1,140.25000428009,6|0,0:0|0:0,0:0:0:0:
479,199,275457,2,0,P|462:168|436:146,1,62.3333352355958,2|2,0:0|0:0,0:0:0:0:
338,54,275889,2,0,P|317:121|298:189,1,140.25000428009,2|0,0:0|0:0,0:0:0:0:
235,237,276466,1,2,0:0:0:0:
235,237,276611,2,0,L|179:247,1,46.7500014266968,0|2,0:0|0:0,0:0:0:0:
269,111,276899,2,0,L|297:116,3,23.3750007133484,2|2|2|2,0:0|0:0|0:0|0:0,0:0:0:0:
251,87,277188,6,0,P|256:50|259:22,2,46.7500014266968,2|2|2,0:0|0:0|0:0,0:0:0:0:
371,162,277620,2,0,P|419:133|474:127,1,93.5000028533936,2|2,0:0|0:0,0:0:0:0:
201,272,278197,1,2,0:0:0:0:
262,219,278341,2,0,P|311:229|395:296,1,140.25000428009,2|2,0:0|0:0,0:0:0:0:
437,341,278918,2,0,L|488:331,2,46.7500014266968,2|0|0,0:0|0:0|0:0,0:0:0:0:
237,122,279495,102,0,P|208:163|151:173,1,93.5000028533936,2|2,0:0|0:0,0:0:0:0:
209,264,279928,2,0,P|163:252|109:241,1,93.5000028533936,2|2,0:0|0:0,0:0:0:0:
74,0,280505,1,2,0:0:0:0:
15,55,280649,2,0,P|28:102|126:115,1,140.25000428009,2|0,0:0|0:0,0:0:0:0:
81,7,281226,5,2,0:0:0:0:
316,96,281514,1,2,0:0:0:0:
50,232,281803,102,0,P|40:192|34:168,2,46.7500014266968,2|2|2,0:0|0:0|0:0,0:0:0:0:
121,278,282236,2,0,B|223:263|186:328|308:320,1,187.000005706787,2|2,0:0|0:0,0:0:0:0:
377,177,282957,2,0,P|310:171|271:226,1,140.25000428009,2|0,0:0|0:0,0:0:0:0:
390,376,283534,2,0,P|406:307|424:240,1,140.25000428009,2|0,0:0|0:0,0:0:0:0:
378,177,284111,5,2,0:0:0:0:
391,163,284255,2,0,P|380:107|372:52,1,93.5000028533936,2|2,0:0|0:0,0:0:0:0:
167,166,284832,2,0,L|109:148,2,46.7500014266968,2|2|2,0:0|0:0|0:0,0:0:0:0:
229,229,285264,102,0,P|264:215|269:146,1,93.5000028533936,2|0,0:0|0:0,0:0:0:0:
157,49,285697,1,2,0:0:0:0:
169,60,285841,2,0,P|214:48|260:39,1,93.5000028533936,2|0,0:0|0:0,0:0:0:0:
160,273,286418,6,0,P|87:254|14:239,2,140.25000428009,2|2|2,0:0|0:0|0:0,0:0:0:0:
368,200,287572,1,2,0:0:0:0:
356,210,288149,102,0,P|360:186|367:157,1,46.7500014266968,2|0,0:0|0:0,0:0:0:0:
233,0,288438,2,0,P|238:22|242:45,1,46.7500014266968,2|0,0:0|0:0,0:0:0:0:
192,112,288725,5,2,0:0:0:0:
172,103,288869,1,2,0:0:0:0:
345,49,289014,1,2,0:0:0:0:
415,131,289159,2,0,P|405:176|397:222,1,93.5000028533936,2|2,0:0|0:0,0:0:0:0:
137,274,289659,1,2,0:0:0:0:
175,336,289825,101,2,0:0:0:0:
322,76,290502,5,2,0:0:0:0:
289,205,290854,1,2,0:0:0:0:
250,356,291207,101,2,0:0:0:0:
338,283,291687,5,2,0:0:0:0:
268,213,292208,101,2,0:0:0:0:
28,166,292636,5,0,0:0:0:0:
28,166,292779,2,0,P|56:217|142:225,1,127.5,2|0,0:0|0:0,0:0:0:0:
193,158,293350,102,0,P|185:120|168:99,1,46.7500014266968,2|0,0:0|0:0,0:0:0:0:
281,182,293726,2,0,P|297:157|322:140,1,46.7500014266968,2|0,0:0|0:0,0:0:0:0:
264,4,294155,6,0,P|242:124|223:246,1,244.375,6|0,0:0|0:0,0:0:0:0:
256,192,297081,12,0,300496,0:0:0:0:
