osu file format v14

[General]
AudioFilename: audio.ogg
AudioLeadIn: 0
PreviewTime: 147673
Countdown: 0
SampleSet: Soft
StackLeniency: 0.7
Mode: 3
LetterboxInBreaks: 0
SpecialStyle: 0
WidescreenStoryboard: 1

[Editor]
DistanceSpacing: 1.3
BeatDivisor: 4
GridSize: 32
TimelineZoom: 1.900001

[Metadata]
Title:Awakening [Long Version]
TitleUnicode:Awakening [Long Version]
Artist:technoplanet
ArtistUnicode:technoplanet
Creator:Touru0711
Version:Pengdoll's MAXIMUM
Source:SOUND VOLTEX IV HEAVENLY HAVEN
Tags:Strange Story Pengdoll FAMoss SDVX BEMANI Konami The 7th KACオリジナル楽曲コンテスト Dimension EDM Electronic Video Game Instrumental 旋律世界 M3 2020 秋 Music Media-Mix Market Fall M3-46 EP
BeatmapID:2756523
BeatmapSetID:1326970

[Difficulty]
HPDrainRate:8.2
CircleSize:4
OverallDifficulty:7.5
ApproachRate:5
SliderMultiplier:1.4
SliderTickRate:1

[Events]
//Background and Video events
0,0,"background.jpg",0,0
//Break Periods
//Storyboard Layer 0 (Background)
//Storyboard Layer 1 (Fail)
//Storyboard Layer 2 (Pass)
//Storyboard Layer 3 (Foreground)
//Storyboard Layer 4 (Overlay)
//Storyboard Sound Samples
Sample,163539,0,"kick11.wav",70

[TimingPoints]
26520,288.461538461538,4,2,1,50,1,0
147673,-100,4,2,1,40,0,1
166135,-100,4,2,1,40,0,0
186904,-100,4,2,1,50,0,1
208827,-100,4,2,1,50,0,0

[HitObjects]
64,192,26519,5,2,0:0:0:0:
192,192,26519,1,4,0:0:0:0:
320,192,26519,1,0,0:0:0:0:
320,192,26808,1,8,0:0:0:0:
448,192,26808,128,0,27529:0:0:0:0:
192,192,26880,1,0,0:0:0:0:
320,192,26952,1,0,0:0:0:0:
64,192,27024,1,0,0:0:0:0:
192,192,27096,1,0,0:0:0:0:
64,192,27241,1,2,0:0:0:0:
192,192,27241,1,0,0:0:0:0:
64,192,27385,1,8,0:0:0:0:
320,192,27385,1,0,0:0:0:0:
192,192,27457,1,0,0:0:0:0:
320,192,27529,1,0,0:0:0:0:
64,192,27601,1,0,0:0:0:0:
192,192,27673,1,2,0:0:0:0:
320,192,27673,1,0,0:0:0:0:
448,192,27673,1,0,0:0:0:0:
64,192,27962,1,8,0:0:0:0:
192,192,27962,1,0,0:0:0:0:
448,192,28034,1,0,0:0:0:0:
192,192,28106,1,0,0:0:0:0:
320,192,28178,1,0,0:0:0:0:
64,192,28250,1,0,0:0:0:0:
64,192,28394,1,2,0:0:0:0:
448,192,28394,1,0,0:0:0:0:
192,192,28539,1,8,0:0:0:0:
320,192,28539,1,0,0:0:0:0:
448,192,28539,1,0,0:0:0:0:
64,192,28611,1,0,0:0:0:0:
320,192,28683,1,0,0:0:0:0:
192,192,28755,1,0,0:0:0:0:
64,192,28827,1,2,0:0:0:0:
320,192,28827,1,0,0:0:0:0:
448,192,28827,1,0,0:0:0:0:
64,192,29116,1,8,0:0:0:0:
192,192,29116,1,0,0:0:0:0:
320,192,29188,1,0,0:0:0:0:
192,192,29260,1,0,0:0:0:0:
448,192,29332,1,0,0:0:0:0:
320,192,29404,1,0,0:0:0:0:
64,192,29548,1,2,0:0:0:0:
320,192,29548,1,0,0:0:0:0:
64,192,29693,1,8,0:0:0:0:
192,192,29693,1,0,0:0:0:0:
448,192,29693,1,0,0:0:0:0:
320,192,29765,1,0,0:0:0:0:
192,192,29837,1,0,0:0:0:0:
448,192,29909,1,0,0:0:0:0:
64,192,29981,1,2,0:0:0:0:
192,192,29981,1,0,0:0:0:0:
320,192,29981,1,0,0:0:0:0:
320,192,30269,1,8,0:0:0:0:
448,192,30269,1,0,0:0:0:0:
64,192,30342,1,0,0:0:0:0:
320,192,30414,1,0,0:0:0:0:
192,192,30486,1,0,0:0:0:0:
448,192,30558,1,0,0:0:0:0:
64,192,30702,1,2,0:0:0:0:
448,192,30702,1,0,0:0:0:0:
64,192,30846,1,8,0:0:0:0:
192,192,30846,1,0,0:0:0:0:
320,192,30846,1,0,0:0:0:0:
448,192,30919,1,0,0:0:0:0:
192,192,30991,1,0,0:0:0:0:
320,192,31063,1,0,0:0:0:0:
64,192,31135,1,2,0:0:0:0:
192,192,31135,1,0,0:0:0:0:
448,192,31135,1,0,0:0:0:0:
192,192,31423,1,8,0:0:0:0:
320,192,31423,1,0,0:0:0:0:
448,192,31495,1,0,0:0:0:0:
320,192,31568,1,0,0:0:0:0:
64,192,31640,1,0,0:0:0:0:
192,192,31712,1,0,0:0:0:0:
192,192,31856,1,2,0:0:0:0:
448,192,31856,1,0,0:0:0:0:
64,192,32000,1,8,0:0:0:0:
320,192,32000,1,0,0:0:0:0:
448,192,32000,1,0,0:0:0:0:
192,192,32072,1,0,0:0:0:0:
320,192,32144,1,0,0:0:0:0:
64,192,32217,1,0,0:0:0:0:
192,192,32289,1,2,0:0:0:0:
320,192,32289,1,0,0:0:0:0:
448,192,32289,1,0,0:0:0:0:
64,192,32577,1,8,0:0:0:0:
448,192,32577,1,0,0:0:0:0:
320,192,32649,1,0,0:0:0:0:
448,192,32721,1,0,0:0:0:0:
192,192,32794,1,0,0:0:0:0:
320,192,32866,1,0,0:0:0:0:
64,192,33010,1,2,0:0:0:0:
320,192,33010,1,0,0:0:0:0:
64,192,33154,1,8,0:0:0:0:
192,192,33154,1,0,0:0:0:0:
448,192,33154,1,0,0:0:0:0:
320,192,33226,1,0,0:0:0:0:
192,192,33298,1,0,0:0:0:0:
448,192,33370,1,0,0:0:0:0:
64,192,33443,1,2,0:0:0:0:
192,192,33443,1,0,0:0:0:0:
320,192,33443,1,0,0:0:0:0:
64,192,33731,1,8,0:0:0:0:
448,192,33731,1,0,0:0:0:0:
192,192,33803,1,0,0:0:0:0:
64,192,33875,1,0,0:0:0:0:
320,192,33947,1,0,0:0:0:0:
192,192,34019,1,0,0:0:0:0:
192,192,34164,1,2,0:0:0:0:
448,192,34164,1,0,0:0:0:0:
64,192,34308,1,8,0:0:0:0:
320,192,34308,1,0,0:0:0:0:
448,192,34308,1,0,0:0:0:0:
192,192,34380,1,0,0:0:0:0:
320,192,34452,1,0,0:0:0:0:
64,192,34524,1,0,0:0:0:0:
320,192,34596,1,2,0:0:0:0:
448,192,34596,128,0,35606:0:0:0:0:
192,192,34632,1,0,0:0:0:0:
64,192,34669,1,0,0:0:0:0:
192,192,34741,1,0,0:0:0:0:
64,192,34885,1,0,0:0:0:0:
64,192,35029,1,0,0:0:0:0:
320,192,35101,1,0,0:0:0:0:
192,192,35173,1,0,0:0:0:0:
320,192,35245,1,0,0:0:0:0:
192,192,35318,128,0,35390:0:0:0:0:
64,192,35462,128,0,35678:0:0:0:0:
192,192,35534,1,0,0:0:0:0:
320,192,35606,1,0,0:0:0:0:
448,192,35678,1,0,0:0:0:0:
64,192,35750,1,4,0:0:0:0:
192,192,35750,1,2,0:0:0:0:
320,192,35750,1,0,0:0:0:0:
192,192,35894,1,0,0:0:0:0:
320,192,36039,1,8,0:0:0:0:
448,192,36039,128,0,36760:0:0:0:0:
192,192,36111,1,0,0:0:0:0:
320,192,36183,1,0,0:0:0:0:
64,192,36255,1,0,0:0:0:0:
192,192,36327,1,0,0:0:0:0:
64,192,36471,1,2,0:0:0:0:
192,192,36471,1,0,0:0:0:0:
64,192,36616,1,8,0:0:0:0:
320,192,36616,1,0,0:0:0:0:
192,192,36688,1,0,0:0:0:0:
320,192,36760,1,0,0:0:0:0:
64,192,36832,1,0,0:0:0:0:
192,192,36904,1,2,0:0:0:0:
320,192,36904,1,0,0:0:0:0:
448,192,36904,1,0,0:0:0:0:
448,192,37048,1,0,0:0:0:0:
64,192,37193,1,8,0:0:0:0:
192,192,37193,1,0,0:0:0:0:
448,192,37265,1,0,0:0:0:0:
192,192,37337,1,0,0:0:0:0:
320,192,37409,1,0,0:0:0:0:
64,192,37481,1,0,0:0:0:0:
64,192,37625,1,2,0:0:0:0:
448,192,37625,1,0,0:0:0:0:
192,192,37769,1,8,0:0:0:0:
320,192,37769,1,0,0:0:0:0:
448,192,37769,1,0,0:0:0:0:
64,192,37842,1,0,0:0:0:0:
320,192,37914,1,0,0:0:0:0:
192,192,37986,1,0,0:0:0:0:
64,192,38058,1,2,0:0:0:0:
320,192,38058,1,0,0:0:0:0:
448,192,38058,1,0,0:0:0:0:
320,192,38202,1,0,0:0:0:0:
64,192,38346,1,8,0:0:0:0:
192,192,38346,1,0,0:0:0:0:
320,192,38419,1,0,0:0:0:0:
192,192,38491,1,0,0:0:0:0:
448,192,38563,1,0,0:0:0:0:
320,192,38635,1,0,0:0:0:0:
64,192,38779,1,2,0:0:0:0:
320,192,38779,1,0,0:0:0:0:
64,192,38923,1,8,0:0:0:0:
192,192,38923,1,0,0:0:0:0:
448,192,38923,1,0,0:0:0:0:
320,192,38995,1,0,0:0:0:0:
192,192,39068,1,0,0:0:0:0:
448,192,39140,1,0,0:0:0:0:
64,192,39212,1,2,0:0:0:0:
192,192,39212,1,0,0:0:0:0:
320,192,39212,1,0,0:0:0:0:
64,192,39356,1,0,0:0:0:0:
320,192,39500,1,8,0:0:0:0:
448,192,39500,1,0,0:0:0:0:
64,192,39572,1,0,0:0:0:0:
320,192,39644,1,0,0:0:0:0:
192,192,39717,1,0,0:0:0:0:
448,192,39789,1,0,0:0:0:0:
64,192,39933,1,2,0:0:0:0:
448,192,39933,1,0,0:0:0:0:
64,192,40077,1,8,0:0:0:0:
192,192,40077,1,0,0:0:0:0:
320,192,40077,1,0,0:0:0:0:
448,192,40149,1,0,0:0:0:0:
192,192,40221,1,0,0:0:0:0:
320,192,40294,1,0,0:0:0:0:
64,192,40366,1,2,0:0:0:0:
192,192,40366,1,0,0:0:0:0:
448,192,40366,1,0,0:0:0:0:
448,192,40510,1,0,0:0:0:0:
192,192,40654,1,8,0:0:0:0:
320,192,40654,1,0,0:0:0:0:
448,192,40726,1,0,0:0:0:0:
320,192,40798,1,0,0:0:0:0:
64,192,40870,1,0,0:0:0:0:
192,192,40943,1,0,0:0:0:0:
192,192,41087,1,2,0:0:0:0:
448,192,41087,1,0,0:0:0:0:
64,192,41231,1,8,0:0:0:0:
320,192,41231,1,0,0:0:0:0:
448,192,41231,1,0,0:0:0:0:
192,192,41303,1,0,0:0:0:0:
320,192,41375,1,0,0:0:0:0:
64,192,41447,1,0,0:0:0:0:
192,192,41519,1,2,0:0:0:0:
320,192,41519,1,0,0:0:0:0:
448,192,41519,1,0,0:0:0:0:
320,192,41664,1,0,0:0:0:0:
64,192,41808,1,8,0:0:0:0:
448,192,41808,1,0,0:0:0:0:
320,192,41880,1,0,0:0:0:0:
448,192,41952,1,0,0:0:0:0:
192,192,42024,1,0,0:0:0:0:
320,192,42096,1,0,0:0:0:0:
64,192,42241,1,2,0:0:0:0:
320,192,42241,1,0,0:0:0:0:
64,192,42385,1,8,0:0:0:0:
192,192,42385,1,0,0:0:0:0:
448,192,42385,1,0,0:0:0:0:
320,192,42457,1,0,0:0:0:0:
192,192,42529,1,0,0:0:0:0:
448,192,42601,1,0,0:0:0:0:
64,192,42673,128,2,43394:0:0:0:0:
192,192,42673,1,0,0:0:0:0:
320,192,42673,1,0,0:0:0:0:
320,192,42818,1,0,0:0:0:0:
192,192,42962,1,8,0:0:0:0:
448,192,42962,1,0,0:0:0:0:
448,192,43106,1,0,0:0:0:0:
320,192,43178,1,0,0:0:0:0:
192,192,43250,1,0,0:0:0:0:
320,192,43394,128,2,43827:0:0:0:0:
448,192,43394,1,0,0:0:0:0:
64,192,43539,1,8,0:0:0:0:
448,192,43539,1,0,0:0:0:0:
192,192,43683,1,0,0:0:0:0:
64,192,43755,1,0,0:0:0:0:
192,192,43827,128,2,44548:0:0:0:0:
448,192,43827,1,0,0:0:0:0:
448,192,43971,1,0,0:0:0:0:
64,192,44116,1,8,0:0:0:0:
320,192,44116,1,0,0:0:0:0:
64,192,44260,1,0,0:0:0:0:
448,192,44332,1,0,0:0:0:0:
320,192,44404,1,0,0:0:0:0:
64,192,44548,1,2,0:0:0:0:
448,192,44548,128,0,45125:0:0:0:0:
64,192,44693,1,8,0:0:0:0:
192,192,44693,1,0,0:0:0:0:
320,192,44693,1,0,0:0:0:0:
64,192,44981,128,4,45125:0:0:0:0:
192,192,44981,128,2,45125:0:0:0:0:
320,192,44981,128,0,45125:0:0:0:0:
64,192,45269,1,8,0:0:0:0:
192,192,45269,1,0,0:0:0:0:
320,192,45269,1,0,0:0:0:0:
448,192,45342,1,0,0:0:0:0:
320,192,45414,1,0,0:0:0:0:
192,192,45486,1,0,0:0:0:0:
448,192,45558,1,0,0:0:0:0:
192,192,45630,1,0,0:0:0:0:
64,192,45702,1,2,0:0:0:0:
320,192,45702,1,0,0:0:0:0:
64,192,45846,1,8,0:0:0:0:
320,192,45846,1,0,0:0:0:0:
448,192,45846,1,0,0:0:0:0:
192,192,45919,1,0,0:0:0:0:
448,192,45991,1,0,0:0:0:0:
64,192,46063,1,0,0:0:0:0:
192,192,46135,1,2,0:0:0:0:
320,192,46135,1,0,0:0:0:0:
448,192,46135,1,0,0:0:0:0:
64,192,46279,1,0,0:0:0:0:
320,192,46279,1,0,0:0:0:0:
64,192,46423,1,8,0:0:0:0:
192,192,46423,1,0,0:0:0:0:
448,192,46423,1,0,0:0:0:0:
320,192,46495,1,0,0:0:0:0:
192,192,46568,1,0,0:0:0:0:
448,192,46640,1,0,0:0:0:0:
320,192,46712,1,0,0:0:0:0:
448,192,46784,1,0,0:0:0:0:
64,192,46856,1,2,0:0:0:0:
192,192,46856,1,0,0:0:0:0:
64,192,47000,1,8,0:0:0:0:
192,192,47000,1,0,0:0:0:0:
320,192,47000,1,0,0:0:0:0:
448,192,47072,1,0,0:0:0:0:
320,192,47144,1,0,0:0:0:0:
192,192,47217,1,0,0:0:0:0:
64,192,47289,1,2,0:0:0:0:
320,192,47289,1,0,0:0:0:0:
448,192,47289,1,0,0:0:0:0:
192,192,47433,1,0,0:0:0:0:
448,192,47433,1,0,0:0:0:0:
64,192,47577,1,8,0:0:0:0:
192,192,47577,1,0,0:0:0:0:
320,192,47577,1,0,0:0:0:0:
448,192,47649,1,0,0:0:0:0:
320,192,47721,1,0,0:0:0:0:
64,192,47794,1,0,0:0:0:0:
448,192,47866,1,0,0:0:0:0:
64,192,47938,1,0,0:0:0:0:
192,192,48010,1,2,0:0:0:0:
320,192,48010,1,0,0:0:0:0:
64,192,48154,1,8,0:0:0:0:
320,192,48154,1,0,0:0:0:0:
448,192,48154,1,0,0:0:0:0:
192,192,48226,1,0,0:0:0:0:
448,192,48298,1,0,0:0:0:0:
320,192,48370,1,0,0:0:0:0:
64,192,48443,1,2,0:0:0:0:
192,192,48443,1,0,0:0:0:0:
448,192,48443,1,0,0:0:0:0:
64,192,48587,1,0,0:0:0:0:
320,192,48587,1,0,0:0:0:0:
192,192,48731,1,8,0:0:0:0:
320,192,48731,1,0,0:0:0:0:
448,192,48731,1,0,0:0:0:0:
64,192,48803,1,0,0:0:0:0:
192,192,48875,1,0,0:0:0:0:
448,192,48947,1,0,0:0:0:0:
64,192,49019,1,0,0:0:0:0:
448,192,49092,1,0,0:0:0:0:
192,192,49164,1,2,0:0:0:0:
320,192,49164,1,0,0:0:0:0:
64,192,49308,1,8,0:0:0:0:
320,192,49308,1,0,0:0:0:0:
448,192,49308,1,0,0:0:0:0:
192,192,49380,1,0,0:0:0:0:
320,192,49452,1,0,0:0:0:0:
448,192,49524,1,0,0:0:0:0:
64,192,49596,1,2,0:0:0:0:
192,192,49596,1,0,0:0:0:0:
320,192,49596,1,0,0:0:0:0:
64,192,49741,1,0,0:0:0:0:
448,192,49741,1,0,0:0:0:0:
192,192,49885,1,8,0:0:0:0:
320,192,49885,1,0,0:0:0:0:
448,192,49885,1,0,0:0:0:0:
64,192,49957,1,0,0:0:0:0:
320,192,50029,1,0,0:0:0:0:
192,192,50101,1,0,0:0:0:0:
448,192,50173,1,0,0:0:0:0:
192,192,50245,1,0,0:0:0:0:
64,192,50318,1,2,0:0:0:0:
320,192,50318,1,0,0:0:0:0:
64,192,50462,1,8,0:0:0:0:
320,192,50462,1,0,0:0:0:0:
448,192,50462,1,0,0:0:0:0:
192,192,50534,1,0,0:0:0:0:
448,192,50606,1,0,0:0:0:0:
320,192,50678,1,0,0:0:0:0:
64,192,50750,1,2,0:0:0:0:
192,192,50750,1,0,0:0:0:0:
448,192,50750,1,0,0:0:0:0:
192,192,50894,1,0,0:0:0:0:
320,192,50894,1,0,0:0:0:0:
64,192,51039,1,8,0:0:0:0:
320,192,51039,1,0,0:0:0:0:
448,192,51039,1,0,0:0:0:0:
192,192,51111,1,0,0:0:0:0:
448,192,51183,1,0,0:0:0:0:
64,192,51255,1,0,0:0:0:0:
192,192,51327,1,0,0:0:0:0:
64,192,51399,1,0,0:0:0:0:
320,192,51471,1,2,0:0:0:0:
448,192,51471,1,0,0:0:0:0:
64,192,51616,1,8,0:0:0:0:
192,192,51616,1,0,0:0:0:0:
320,192,51616,1,0,0:0:0:0:
448,192,51688,1,0,0:0:0:0:
192,192,51760,1,0,0:0:0:0:
64,192,51832,1,0,0:0:0:0:
192,192,51904,1,2,0:0:0:0:
320,192,51904,1,0,0:0:0:0:
448,192,51904,1,0,0:0:0:0:
64,192,52048,1,0,0:0:0:0:
448,192,52048,1,0,0:0:0:0:
64,192,52193,1,8,0:0:0:0:
192,192,52193,1,0,0:0:0:0:
320,192,52193,1,0,0:0:0:0:
448,192,52265,1,0,0:0:0:0:
192,192,52337,1,0,0:0:0:0:
320,192,52409,1,0,0:0:0:0:
64,192,52481,1,0,0:0:0:0:
320,192,52553,1,0,0:0:0:0:
192,192,52625,1,2,0:0:0:0:
448,192,52625,1,0,0:0:0:0:
64,192,52769,1,8,0:0:0:0:
320,192,52769,1,0,0:0:0:0:
448,192,52769,1,0,0:0:0:0:
192,192,52842,1,0,0:0:0:0:
320,192,52914,1,0,0:0:0:0:
64,192,52986,1,0,0:0:0:0:
192,192,53058,1,2,0:0:0:0:
320,192,53058,1,0,0:0:0:0:
448,192,53058,1,0,0:0:0:0:
64,192,53202,1,0,0:0:0:0:
192,192,53202,1,0,0:0:0:0:
64,192,53346,1,8,0:0:0:0:
320,192,53346,1,0,0:0:0:0:
448,192,53346,1,0,0:0:0:0:
192,192,53419,1,0,0:0:0:0:
64,192,53491,1,0,0:0:0:0:
448,192,53491,1,0,0:0:0:0:
320,192,53563,1,0,0:0:0:0:
448,192,53635,1,0,0:0:0:0:
320,192,53707,1,0,0:0:0:0:
64,192,53779,1,2,0:0:0:0:
448,192,53779,1,0,0:0:0:0:
64,192,53923,1,8,0:0:0:0:
192,192,53923,1,0,0:0:0:0:
320,192,53923,1,0,0:0:0:0:
64,192,54212,128,2,54356:0:0:0:0:
320,192,54212,128,4,54356:0:0:0:0:
448,192,54212,128,0,54356:0:0:0:0:
192,192,54500,1,8,0:0:0:0:
320,192,54500,1,0,0:0:0:0:
448,192,54500,1,0,0:0:0:0:
64,192,54644,1,0,0:0:0:0:
192,192,54717,1,0,0:0:0:0:
448,192,54789,1,0,0:0:0:0:
192,192,54861,1,0,0:0:0:0:
64,192,54933,1,2,0:0:0:0:
448,192,54933,1,0,0:0:0:0:
192,192,55077,1,8,0:0:0:0:
320,192,55077,1,0,0:0:0:0:
448,192,55077,1,0,0:0:0:0:
64,192,55149,1,0,0:0:0:0:
320,192,55221,1,0,0:0:0:0:
64,192,55294,1,0,0:0:0:0:
192,192,55366,1,2,0:0:0:0:
320,192,55366,1,0,0:0:0:0:
448,192,55366,1,0,0:0:0:0:
64,192,55510,1,0,0:0:0:0:
448,192,55510,1,0,0:0:0:0:
64,192,55654,1,8,0:0:0:0:
192,192,55654,1,0,0:0:0:0:
448,192,55654,1,0,0:0:0:0:
64,192,55798,1,0,0:0:0:0:
320,192,55798,1,0,0:0:0:0:
448,192,55870,1,0,0:0:0:0:
320,192,55943,1,0,0:0:0:0:
192,192,56015,1,0,0:0:0:0:
320,192,56087,1,2,0:0:0:0:
448,192,56087,1,0,0:0:0:0:
64,192,56231,1,8,0:0:0:0:
320,192,56231,1,0,0:0:0:0:
448,192,56231,1,0,0:0:0:0:
192,192,56303,1,0,0:0:0:0:
64,192,56375,1,0,0:0:0:0:
192,192,56447,1,0,0:0:0:0:
64,192,56519,1,2,0:0:0:0:
320,192,56519,1,0,0:0:0:0:
448,192,56519,1,0,0:0:0:0:
192,192,56664,1,0,0:0:0:0:
320,192,56664,1,0,0:0:0:0:
64,192,56808,1,8,0:0:0:0:
192,192,56808,1,0,0:0:0:0:
448,192,56808,1,0,0:0:0:0:
64,192,56952,1,0,0:0:0:0:
320,192,56952,1,0,0:0:0:0:
192,192,57024,1,0,0:0:0:0:
320,192,57096,1,0,0:0:0:0:
448,192,57169,1,0,0:0:0:0:
192,192,57241,1,2,0:0:0:0:
320,192,57241,1,0,0:0:0:0:
64,192,57385,1,8,0:0:0:0:
192,192,57385,1,0,0:0:0:0:
448,192,57385,1,0,0:0:0:0:
320,192,57457,1,0,0:0:0:0:
448,192,57529,1,0,0:0:0:0:
320,192,57601,1,0,0:0:0:0:
64,192,57673,1,2,0:0:0:0:
192,192,57673,1,0,0:0:0:0:
448,192,57673,1,0,0:0:0:0:
192,192,57818,1,0,0:0:0:0:
320,192,57818,1,0,0:0:0:0:
64,192,57962,1,8,0:0:0:0:
320,192,57962,1,0,0:0:0:0:
448,192,57962,1,0,0:0:0:0:
192,192,58106,1,0,0:0:0:0:
448,192,58106,1,0,0:0:0:0:
320,192,58178,1,0,0:0:0:0:
192,192,58250,1,0,0:0:0:0:
64,192,58322,1,0,0:0:0:0:
192,192,58394,1,2,0:0:0:0:
320,192,58394,1,0,0:0:0:0:
64,192,58539,1,8,0:0:0:0:
192,192,58539,1,0,0:0:0:0:
320,192,58539,1,0,0:0:0:0:
448,192,58611,1,0,0:0:0:0:
64,192,58683,1,0,0:0:0:0:
448,192,58755,1,0,0:0:0:0:
64,192,58827,1,2,0:0:0:0:
192,192,58827,1,0,0:0:0:0:
320,192,58827,1,0,0:0:0:0:
320,192,58971,1,0,0:0:0:0:
448,192,58971,1,0,0:0:0:0:
64,192,59116,1,8,0:0:0:0:
320,192,59116,1,0,0:0:0:0:
448,192,59116,1,0,0:0:0:0:
192,192,59260,1,0,0:0:0:0:
448,192,59260,1,0,0:0:0:0:
320,192,59332,1,0,0:0:0:0:
192,192,59404,1,0,0:0:0:0:
64,192,59476,1,0,0:0:0:0:
192,192,59548,1,2,0:0:0:0:
320,192,59548,1,0,0:0:0:0:
64,192,59693,1,8,0:0:0:0:
192,192,59693,1,0,0:0:0:0:
448,192,59693,1,0,0:0:0:0:
320,192,59765,1,0,0:0:0:0:
64,192,59837,1,0,0:0:0:0:
320,192,59909,1,0,0:0:0:0:
64,192,59981,1,2,0:0:0:0:
192,192,59981,1,0,0:0:0:0:
448,192,59981,1,0,0:0:0:0:
320,192,60125,1,0,0:0:0:0:
448,192,60125,1,0,0:0:0:0:
64,192,60269,1,8,0:0:0:0:
192,192,60269,1,0,0:0:0:0:
448,192,60269,1,0,0:0:0:0:
64,192,60414,1,0,0:0:0:0:
320,192,60414,1,0,0:0:0:0:
448,192,60486,1,0,0:0:0:0:
320,192,60558,1,0,0:0:0:0:
192,192,60630,1,0,0:0:0:0:
320,192,60702,1,2,0:0:0:0:
448,192,60702,1,0,0:0:0:0:
192,192,60846,1,8,0:0:0:0:
320,192,60846,1,0,0:0:0:0:
448,192,60846,1,0,0:0:0:0:
64,192,60919,1,0,0:0:0:0:
320,192,60991,1,0,0:0:0:0:
64,192,61063,1,0,0:0:0:0:
192,192,61135,1,2,0:0:0:0:
320,192,61135,1,0,0:0:0:0:
448,192,61135,1,0,0:0:0:0:
64,192,61279,1,0,0:0:0:0:
192,192,61279,1,0,0:0:0:0:
64,192,61423,1,8,0:0:0:0:
192,192,61423,1,0,0:0:0:0:
448,192,61423,1,0,0:0:0:0:
64,192,61568,1,0,0:0:0:0:
320,192,61568,1,0,0:0:0:0:
192,192,61640,1,0,0:0:0:0:
320,192,61712,1,0,0:0:0:0:
448,192,61784,1,0,0:0:0:0:
192,192,61856,1,2,0:0:0:0:
320,192,61856,1,0,0:0:0:0:
192,192,62000,1,8,0:0:0:0:
320,192,62000,1,0,0:0:0:0:
448,192,62000,1,0,0:0:0:0:
64,192,62072,1,0,0:0:0:0:
448,192,62144,1,0,0:0:0:0:
64,192,62217,1,0,0:0:0:0:
192,192,62289,1,2,0:0:0:0:
320,192,62289,1,0,0:0:0:0:
448,192,62289,1,0,0:0:0:0:
64,192,62433,1,0,0:0:0:0:
192,192,62433,1,0,0:0:0:0:
64,192,62577,1,8,0:0:0:0:
320,192,62577,1,0,0:0:0:0:
448,192,62577,1,0,0:0:0:0:
64,192,62721,1,2,0:0:0:0:
192,192,62721,1,0,0:0:0:0:
320,192,62721,1,0,0:0:0:0:
448,192,62794,1,0,0:0:0:0:
192,192,62866,1,0,0:0:0:0:
448,192,62938,1,0,0:0:0:0:
64,192,63010,1,2,0:0:0:0:
192,192,63010,1,0,0:0:0:0:
320,192,63010,1,0,0:0:0:0:
64,192,63154,1,8,0:0:0:0:
320,192,63154,1,0,0:0:0:0:
448,192,63154,1,0,0:0:0:0:
192,192,63202,1,0,0:0:0:0:
448,192,63250,1,0,0:0:0:0:
320,192,63298,1,0,0:0:0:0:
192,192,63346,1,0,0:0:0:0:
64,192,63394,1,0,0:0:0:0:
192,192,63443,1,2,0:0:0:0:
320,192,63443,1,4,0:0:0:0:
448,192,63443,1,0,0:0:0:0:
320,192,63623,128,0,63947:0:0:0:0:
192,192,64596,1,0,0:0:0:0:
448,192,64669,128,0,64885:0:0:0:0:
320,192,65245,128,0,65390:0:0:0:0:
64,192,65462,1,2,0:0:0:0:
320,192,65462,1,0,0:0:0:0:
64,192,65750,1,2,0:0:0:0:
192,192,65750,128,0,65967:0:0:0:0:
192,192,66039,1,0,0:0:0:0:
448,192,66327,1,0,0:0:0:0:
320,192,66760,128,0,66832:0:0:0:0:
320,192,66904,1,0,0:0:0:0:
192,192,67193,1,0,0:0:0:0:
64,192,67481,1,0,0:0:0:0:
64,192,68058,1,2,0:0:0:0:
320,192,68058,1,0,0:0:0:0:
64,192,68202,128,0,68563:0:0:0:0:
320,192,68346,1,0,0:0:0:0:
64,192,68635,1,0,0:0:0:0:
192,192,69212,1,0,0:0:0:0:
448,192,69212,128,0,69500:0:0:0:0:
320,192,69861,128,0,70005:0:0:0:0:
64,192,70077,1,2,0:0:0:0:
320,192,70077,1,0,0:0:0:0:
192,192,70366,128,2,70582:0:0:0:0:
320,192,70366,128,0,72601:0:0:0:0:
192,192,70654,1,0,0:0:0:0:
192,192,70943,1,0,0:0:0:0:
64,192,71375,128,0,71447:0:0:0:0:
64,192,71519,128,0,72601:0:0:0:0:
64,192,72673,1,2,0:0:0:0:
192,192,72673,1,4,0:0:0:0:
320,192,72673,1,0,0:0:0:0:
192,192,73178,1,0,0:0:0:0:
320,192,73443,1,0,0:0:0:0:
64,192,73539,1,0,0:0:0:0:
192,192,73635,1,0,0:0:0:0:
448,192,73731,1,0,0:0:0:0:
192,192,73827,1,0,0:0:0:0:
320,192,73827,1,0,0:0:0:0:
448,192,74404,1,0,0:0:0:0:
64,192,74693,1,2,0:0:0:0:
320,192,74693,1,0,0:0:0:0:
64,192,74981,1,2,0:0:0:0:
192,192,74981,1,0,0:0:0:0:
448,192,75269,1,0,0:0:0:0:
192,192,75558,1,0,0:0:0:0:
448,192,75702,1,0,0:0:0:0:
64,192,75846,1,0,0:0:0:0:
320,192,75991,1,0,0:0:0:0:
64,192,76135,1,0,0:0:0:0:
320,192,76135,1,0,0:0:0:0:
320,192,76387,1,0,0:0:0:0:
448,192,76459,1,0,0:0:0:0:
192,192,76532,1,0,0:0:0:0:
320,192,76604,1,0,0:0:0:0:
64,192,76676,1,0,0:0:0:0:
448,192,76736,1,0,0:0:0:0:
192,192,76808,1,0,0:0:0:0:
448,192,76872,1,0,0:0:0:0:
192,192,76936,1,0,0:0:0:0:
448,192,77000,1,0,0:0:0:0:
64,192,77072,1,0,0:0:0:0:
320,192,77144,1,0,0:0:0:0:
64,192,77217,1,0,0:0:0:0:
192,192,77289,1,2,0:0:0:0:
320,192,77289,1,0,0:0:0:0:
448,192,77289,1,0,0:0:0:0:
64,192,77433,1,0,0:0:0:0:
192,192,77577,1,0,0:0:0:0:
448,192,77866,1,0,0:0:0:0:
320,192,78010,1,0,0:0:0:0:
192,192,78154,1,0,0:0:0:0:
64,192,78298,1,0,0:0:0:0:
64,192,78443,1,0,0:0:0:0:
448,192,78443,1,0,0:0:0:0:
192,192,78587,1,0,0:0:0:0:
320,192,78731,1,0,0:0:0:0:
64,192,78875,1,0,0:0:0:0:
192,192,79019,1,0,0:0:0:0:
448,192,79164,1,0,0:0:0:0:
192,192,79308,1,2,0:0:0:0:
448,192,79308,1,0,0:0:0:0:
64,192,79452,1,0,0:0:0:0:
64,192,79596,1,2,0:0:0:0:
448,192,79596,128,0,79813:0:0:0:0:
320,192,79669,1,0,0:0:0:0:
192,192,79741,1,0,0:0:0:0:
320,192,79813,128,0,80029:0:0:0:0:
192,192,79885,1,0,0:0:0:0:
64,192,79957,1,0,0:0:0:0:
192,192,80029,128,0,80245:0:0:0:0:
448,192,80101,1,0,0:0:0:0:
320,192,80173,1,0,0:0:0:0:
64,192,80245,128,0,80462:0:0:0:0:
320,192,80318,1,0,0:0:0:0:
192,192,80390,1,0,0:0:0:0:
448,192,80462,1,0,0:0:0:0:
320,192,80534,1,0,0:0:0:0:
192,192,80606,1,0,0:0:0:0:
64,192,80678,1,0,0:0:0:0:
320,192,80750,1,0,0:0:0:0:
448,192,80750,1,0,0:0:0:0:
64,192,80894,1,0,0:0:0:0:
320,192,80967,1,0,0:0:0:0:
192,192,81039,1,0,0:0:0:0:
448,192,81111,1,0,0:0:0:0:
192,192,81183,1,0,0:0:0:0:
448,192,81255,1,0,0:0:0:0:
64,192,81327,1,0,0:0:0:0:
320,192,81385,128,0,81558:0:0:0:0:
192,192,81443,128,0,81558:0:0:0:0:
64,192,81500,128,0,81558:0:0:0:0:
448,192,81616,1,0,0:0:0:0:
320,192,81724,1,0,0:0:0:0:
192,192,81760,1,0,0:0:0:0:
64,192,81796,1,0,0:0:0:0:
192,192,81904,1,2,0:0:0:0:
320,192,81904,1,4,0:0:0:0:
448,192,81904,1,0,0:0:0:0:
64,192,82048,1,2,0:0:0:0:
192,192,82048,128,0,82193:0:0:0:0:
320,192,82048,128,0,82193:0:0:0:0:
64,192,82193,1,8,0:0:0:0:
448,192,82193,1,0,0:0:0:0:
320,192,82265,1,0,0:0:0:0:
64,192,82337,1,2,0:0:0:0:
192,192,82337,1,0,0:0:0:0:
320,192,82409,1,2,0:0:0:0:
448,192,82409,1,0,0:0:0:0:
192,192,82481,128,0,82553:0:0:0:0:
448,192,82553,128,2,82625:0:0:0:0:
192,192,82625,128,2,82697:0:0:0:0:
448,192,82697,128,0,82769:0:0:0:0:
192,192,82769,1,8,0:0:0:0:
320,192,82769,1,0,0:0:0:0:
64,192,82914,1,0,0:0:0:0:
192,192,82986,1,0,0:0:0:0:
64,192,83058,1,2,0:0:0:0:
320,192,83058,1,0,0:0:0:0:
448,192,83058,1,0,0:0:0:0:
192,192,83202,1,2,0:0:0:0:
320,192,83202,128,0,83346:0:0:0:0:
448,192,83202,128,0,83346:0:0:0:0:
64,192,83274,1,0,0:0:0:0:
192,192,83346,1,8,0:0:0:0:
320,192,83419,1,0,0:0:0:0:
448,192,83419,1,0,0:0:0:0:
64,192,83491,1,2,0:0:0:0:
192,192,83491,1,0,0:0:0:0:
320,192,83563,1,2,0:0:0:0:
448,192,83563,1,0,0:0:0:0:
320,192,83707,1,2,0:0:0:0:
448,192,83707,1,0,0:0:0:0:
64,192,83779,1,2,0:0:0:0:
192,192,83779,1,0,0:0:0:0:
64,192,83923,1,8,0:0:0:0:
320,192,83923,1,2,0:0:0:0:
448,192,83923,1,0,0:0:0:0:
64,192,84068,1,2,0:0:0:0:
192,192,84068,1,0,0:0:0:0:
320,192,84068,1,0,0:0:0:0:
64,192,84212,1,2,0:0:0:0:
192,192,84212,1,0,0:0:0:0:
448,192,84212,1,0,0:0:0:0:
192,192,84356,128,0,84572:0:0:0:0:
320,192,84428,128,0,84644:0:0:0:0:
448,192,84500,128,0,84717:0:0:0:0:
64,192,84572,128,0,84644:0:0:0:0:
192,192,84644,128,0,84717:0:0:0:0:
320,192,84717,128,0,84789:0:0:0:0:
64,192,84789,128,0,85582:0:0:0:70:electronic28.wav
448,192,84789,1,0,0:0:0:0:
320,192,84861,1,0,0:0:0:70:electronic28.wav
192,192,84933,1,0,0:0:0:70:electronic28.wav
320,192,85005,1,0,0:0:0:70:electronic28.wav
192,192,85077,1,0,0:0:0:70:electronic28.wav
448,192,85149,1,0,0:0:0:70:electronic28.wav
320,192,85221,1,0,0:0:0:70:electronic28.wav
448,192,85294,1,0,0:0:0:70:electronic28.wav
192,192,85366,128,2,85582:0:0:0:0:
320,192,85366,128,0,85582:0:0:0:0:
64,192,85654,1,4,0:0:0:0:
320,192,85654,1,2,0:0:0:0:
448,192,85654,1,0,0:0:0:0:
64,192,85798,1,4,0:0:0:0:
192,192,85798,1,2,0:0:0:0:
320,192,85870,1,4,0:0:0:0:
448,192,85870,1,2,0:0:0:0:
64,192,85943,128,2,86015:0:0:0:0:
192,192,85943,128,0,86015:0:0:0:0:
320,192,86015,128,2,86069:0:0:0:0:
448,192,86015,128,0,86069:0:0:0:0:
192,192,86159,128,2,86213:0:0:0:0:
320,192,86159,128,0,86213:0:0:0:0:
64,192,86303,128,2,86357:0:0:0:0:
192,192,86303,128,0,86357:0:0:0:0:
192,192,86447,1,2,0:0:0:0:
448,192,86447,1,0,0:0:0:0:
64,192,86519,1,2,0:0:0:0:
320,192,86519,1,4,0:0:0:0:
192,192,86592,1,0,0:0:0:0:
64,192,86628,128,0,86700:0:0:0:0:
192,192,86736,1,2,0:0:0:0:
448,192,86736,1,0,0:0:0:0:
320,192,86808,1,0,0:0:0:0:
448,192,86844,128,0,86916:0:0:0:0:
64,192,86952,1,2,0:0:0:0:
192,192,86952,1,0,0:0:0:0:
320,192,87024,1,0,0:0:0:0:
192,192,87060,1,0,0:0:0:0:
64,192,87096,128,0,87169:0:0:0:0:
320,192,87169,1,0,0:0:0:0:
448,192,87241,1,0,0:0:0:0:
320,192,87313,1,0,0:0:0:0:
64,192,87385,1,2,0:0:0:0:
192,192,87385,1,0,0:0:0:0:
448,192,87457,1,0,0:0:0:0:
64,192,87529,1,2,0:0:0:0:
192,192,87529,1,0,0:0:0:0:
320,192,87601,1,2,0:0:0:0:
448,192,87601,1,0,0:0:0:0:
64,192,87673,128,2,88034:0:0:0:0:
192,192,87673,128,0,87890:0:0:0:0:
448,192,88250,1,0,0:0:0:0:
320,192,88322,1,0,0:0:0:0:
192,192,88394,128,0,88467:0:0:0:0:
192,192,88539,1,0,0:0:0:0:
320,192,88683,1,2,0:0:0:0:
64,192,88827,1,2,0:0:0:0:
192,192,88827,1,4,0:0:0:0:
448,192,88827,1,0,0:0:0:0:
64,192,88971,1,2,0:0:0:0:
192,192,88971,1,0,0:0:0:0:
448,192,88971,1,0,0:0:0:0:
64,192,89116,1,2,0:0:0:0:
320,192,89116,1,0,0:0:0:0:
448,192,89116,1,0,0:0:0:0:
192,192,89188,1,0,0:0:0:0:
320,192,89260,1,2,0:0:0:0:
448,192,89260,1,0,0:0:0:0:
64,192,89332,1,2,0:0:0:0:
192,192,89404,128,0,89476:0:0:0:0:
320,192,89404,1,0,0:0:0:0:
64,192,89476,128,0,89620:0:0:0:0:
192,192,89548,128,0,89765:0:0:0:0:
320,192,89620,128,0,89693:0:0:0:0:
64,192,89693,128,2,89837:0:0:0:0:
448,192,89693,1,0,0:0:0:0:
320,192,89765,1,0,0:0:0:0:
192,192,89837,1,0,0:0:0:0:
448,192,89837,1,0,0:0:0:0:
64,192,89909,1,0,0:0:0:0:
320,192,89981,1,2,0:0:0:0:
448,192,89981,1,0,0:0:0:0:
64,192,90125,128,2,90486:0:0:0:0:
192,192,90125,128,4,90269:0:0:0:0:
320,192,90125,1,0,0:0:0:0:
192,192,90342,1,2,0:0:0:0:
320,192,90342,128,4,90702:0:0:0:0:
448,192,90342,128,0,90486:0:0:0:0:
64,192,90558,1,2,0:0:0:0:
192,192,90558,128,4,90702:0:0:0:0:
448,192,90558,128,0,90919:0:0:0:0:
64,192,90774,128,2,90919:0:0:0:0:
192,192,90774,1,4,0:0:0:0:
320,192,90774,128,0,90919:0:0:0:0:
64,192,90991,1,2,0:0:0:0:
320,192,90991,1,4,0:0:0:0:
448,192,90991,1,0,0:0:0:0:
192,192,91063,1,0,0:0:0:0:
320,192,91135,1,2,0:0:0:0:
192,192,91423,1,4,0:0:0:0:
320,192,91423,1,2,0:0:0:0:
448,192,91423,1,8,0:0:0:0:
64,192,91495,1,0,0:0:0:0:
320,192,91568,1,4,0:0:0:0:
448,192,91568,1,2,0:0:0:0:
64,192,91640,1,4,0:0:0:0:
192,192,91640,1,2,0:0:0:0:
320,192,91712,128,0,91784:0:0:0:0:
192,192,91784,128,2,91856:0:0:0:0:
320,192,91856,128,2,91928:0:0:0:0:
192,192,91928,128,0,92000:0:0:0:0:
320,192,92000,1,8,0:0:0:0:
448,192,92000,1,0,0:0:0:0:
64,192,92144,128,0,92217:0:0:0:0:
192,192,92217,128,0,92289:0:0:0:0:
64,192,92289,128,2,92361:0:0:0:0:
320,192,92289,1,0,0:0:0:0:
448,192,92361,1,0,0:0:0:0:
192,192,92433,1,2,0:0:0:0:
320,192,92433,128,0,92577:0:0:0:0:
64,192,92505,1,0,0:0:0:0:
192,192,92577,1,8,0:0:0:0:
448,192,92577,1,2,0:0:0:0:
320,192,92649,128,0,92721:0:0:0:0:
64,192,92721,1,2,0:0:0:0:
448,192,92721,1,0,0:0:0:0:
192,192,92794,1,2,0:0:0:0:
320,192,92794,1,0,0:0:0:0:
192,192,92938,1,2,0:0:0:0:
320,192,92938,1,0,0:0:0:0:
64,192,93010,1,2,0:0:0:0:
448,192,93010,1,0,0:0:0:0:
192,192,93154,1,2,0:0:0:0:
320,192,93154,1,8,0:0:0:0:
448,192,93154,1,0,0:0:0:0:
64,192,93298,1,2,0:0:0:0:
192,192,93298,1,0,0:0:0:0:
448,192,93298,1,0,0:0:0:0:
64,192,93443,128,2,93731:0:0:0:0:
192,192,93443,1,0,0:0:0:0:
320,192,93443,1,0,0:0:0:0:
448,192,93515,1,0,0:0:0:70:electronic28.wav
320,192,93587,128,0,93659:0:0:0:70:electronic28.wav
448,192,93659,128,0,93731:0:0:0:70:electronic28.wav
192,192,93731,128,0,94019:0:0:0:70:electronic28.wav
320,192,93803,128,0,93875:0:0:0:70:electronic28.wav
64,192,93875,128,0,93947:0:0:0:70:electronic28.wav
320,192,93947,128,0,94092:0:0:0:70:electronic28.wav
448,192,94019,128,0,94308:0:0:0:70:electronic28.wav
192,192,94092,128,0,94164:0:0:0:70:electronic28.wav
320,192,94164,128,0,94236:0:0:0:70:electronic28.wav
64,192,94236,128,0,94380:0:0:0:70:electronic28.wav
320,192,94308,128,0,94380:0:0:0:70:electronic28.wav
448,192,94380,128,0,94452:0:0:0:70:electronic28.wav
64,192,94452,128,0,94524:0:0:0:70:electronic28.wav
192,192,94524,128,0,94596:0:0:0:70:electronic28.wav
64,192,94596,1,2,0:0:0:0:
320,192,94596,128,0,94813:0:0:0:0:
448,192,94596,1,0,0:0:0:0:
192,192,94885,1,2,0:0:0:0:
320,192,94885,1,0,0:0:0:0:
192,192,95029,1,2,0:0:0:0:
320,192,95029,1,0,0:0:0:0:
64,192,95101,1,2,0:0:0:0:
448,192,95101,1,0,0:0:0:0:
192,192,95173,1,2,0:0:0:0:
320,192,95173,1,0,0:0:0:0:
64,192,95245,128,2,95300:0:0:0:0:
448,192,95245,128,0,95300:0:0:0:0:
192,192,95390,128,2,95444:0:0:0:0:
320,192,95390,128,0,95444:0:0:0:0:
64,192,95534,128,2,95588:0:0:0:0:
448,192,95534,128,0,95588:0:0:0:0:
64,192,95678,1,2,0:0:0:0:
320,192,95678,1,0,0:0:0:0:
192,192,95750,1,2,0:0:0:0:
448,192,95750,1,0,0:0:0:0:
320,192,95822,1,0,0:0:0:0:
448,192,95858,128,0,95931:0:0:0:0:
64,192,95967,1,2,0:0:0:0:
320,192,95967,1,0,0:0:0:0:
192,192,96039,1,0,0:0:0:0:
64,192,96075,128,0,96147:0:0:0:0:
320,192,96183,1,2,0:0:0:0:
448,192,96183,1,0,0:0:0:0:
192,192,96255,1,0,0:0:0:0:
320,192,96291,1,0,0:0:0:0:
448,192,96327,128,0,96399:0:0:0:0:
192,192,96399,1,0,0:0:0:0:
64,192,96471,1,0,0:0:0:0:
192,192,96544,1,0,0:0:0:0:
320,192,96616,1,2,0:0:0:0:
448,192,96616,1,0,0:0:0:0:
64,192,96688,1,0,0:0:0:0:
192,192,96760,1,2,0:0:0:0:
448,192,96760,1,0,0:0:0:0:
320,192,96832,1,0,0:0:0:0:
64,192,96904,128,2,97697:0:0:0:0:
192,192,96904,128,4,97697:0:0:0:0:
448,192,96904,128,0,97769:0:0:0:0:
64,192,97769,1,2,0:0:0:0:
192,192,97769,1,0,0:0:0:0:
320,192,97842,1,2,0:0:0:0:
448,192,97842,1,0,0:0:0:0:
64,192,97914,1,2,0:0:0:0:
192,192,97914,1,0,0:0:0:0:
320,192,97986,1,2,0:0:0:0:
64,192,98058,1,2,0:0:0:0:
192,192,98058,1,4,0:0:0:0:
448,192,98058,1,0,0:0:0:0:
192,192,98202,1,2,0:0:0:0:
320,192,98202,1,0,0:0:0:0:
448,192,98202,1,0,0:0:0:0:
64,192,98346,1,2,0:0:0:0:
320,192,98346,1,0,0:0:0:0:
448,192,98346,1,0,0:0:0:0:
192,192,98419,1,0,0:0:0:0:
64,192,98491,1,2,0:0:0:0:
448,192,98491,1,0,0:0:0:0:
192,192,98563,1,2,0:0:0:0:
320,192,98563,1,0,0:0:0:0:
64,192,98635,1,0,0:0:0:0:
448,192,98635,128,0,98851:0:0:0:0:
320,192,98707,128,0,98779:0:0:0:0:
192,192,98779,128,0,98923:0:0:0:0:
320,192,98851,128,0,98995:0:0:0:0:
64,192,98923,1,2,0:0:0:0:
448,192,98923,128,0,98995:0:0:0:0:
192,192,98995,128,0,99068:0:0:0:0:
320,192,99068,128,0,99140:0:0:0:0:
448,192,99068,1,0,0:0:0:0:
64,192,99140,128,0,99212:0:0:0:0:
192,192,99212,128,2,99284:0:0:0:0:
448,192,99212,1,4,0:0:0:0:
320,192,99356,1,2,0:0:0:0:
64,192,99500,1,2,0:0:0:0:
448,192,99500,128,0,99572:0:0:0:0:
192,192,99572,1,2,0:0:0:0:
192,192,99717,128,2,99789:0:0:0:0:
320,192,99717,1,0,0:0:0:0:
448,192,99789,1,2,0:0:0:0:
192,192,99861,1,2,0:0:0:0:
320,192,99861,128,0,99933:0:0:0:0:
64,192,99933,1,2,0:0:0:0:
448,192,99933,128,0,100005:0:0:0:0:
320,192,100005,1,2,0:0:0:0:
64,192,100077,128,2,100149:0:0:0:0:
192,192,100077,1,0,0:0:0:0:
448,192,100149,1,2,0:0:0:0:
192,192,100221,128,2,100294:0:0:0:0:
320,192,100221,1,0,0:0:0:0:
448,192,100294,1,2,0:0:0:0:
64,192,100366,128,2,101447:0:0:0:0:
192,192,100366,1,4,0:0:0:0:
320,192,100366,128,0,100870:0:0:0:0:
448,192,100510,128,0,100870:0:0:0:0:
192,192,100798,1,0,0:0:0:0:
320,192,100943,128,0,101015:0:0:0:0:
192,192,101015,128,0,101087:0:0:0:0:
320,192,101087,128,0,101231:0:0:0:0:
448,192,101087,128,0,102096:0:0:0:0:
192,192,101159,128,0,101231:0:0:0:0:
192,192,101375,1,0,0:0:0:0:
320,192,101447,1,0,0:0:0:0:
64,192,101519,1,0,0:0:0:0:
192,192,101519,128,0,102601:0:0:0:0:
64,192,101664,128,0,101808:0:0:0:0:
320,192,101664,128,0,101808:0:0:0:0:
64,192,101880,1,0,0:0:0:0:
320,192,101880,1,0,0:0:0:0:
64,192,102096,1,0,0:0:0:0:
320,192,102096,128,0,102601:0:0:0:0:
448,192,102169,128,0,102241:0:0:0:0:
448,192,102313,1,0,0:0:0:0:
64,192,102385,128,0,102457:0:0:0:0:
64,192,102529,1,0,0:0:0:0:
448,192,102601,128,0,102673:0:0:0:0:
192,192,102673,1,2,0:0:0:0:
320,192,102673,1,0,0:0:0:0:
64,192,102818,128,2,103755:0:0:0:0:
320,192,102818,1,0,0:0:0:0:
192,192,102962,1,2,0:0:0:0:
320,192,102962,1,4,0:0:0:0:
448,192,102962,1,0,0:0:0:0:
192,192,103106,1,2,0:0:0:0:
448,192,103106,1,0,0:0:0:0:
320,192,103178,1,2,0:0:0:0:
192,192,103250,128,0,103322:0:0:0:0:
320,192,103322,128,2,103467:0:0:0:0:
192,192,103394,128,2,103611:0:0:0:0:
448,192,103394,128,0,103467:0:0:0:0:
320,192,103539,128,2,103611:0:0:0:0:
448,192,103539,1,0,0:0:0:0:
192,192,103683,128,2,103755:0:0:0:0:
320,192,103683,1,0,0:0:0:0:
64,192,103827,1,2,0:0:0:0:
192,192,103827,1,0,0:0:0:0:
448,192,103875,1,0,0:0:0:0:
320,192,103923,1,0,0:0:0:0:
64,192,103971,1,0,0:0:0:0:
448,192,104019,1,0,0:0:0:0:
320,192,104068,1,0,0:0:0:0:
192,192,104116,1,0,0:0:0:0:
64,192,104164,1,0,0:0:0:0:
448,192,104212,1,0,0:0:0:0:
192,192,104260,1,0,0:0:0:0:
64,192,104308,1,0,0:0:0:0:
320,192,104356,1,0,0:0:0:0:
192,192,104404,1,0,0:0:0:0:
448,192,104452,1,0,0:0:0:0:
320,192,104500,1,0,0:0:0:0:
64,192,104548,1,0,0:0:0:0:
448,192,104596,1,0,0:0:0:0:
192,192,104644,1,0,0:0:0:0:
320,192,104693,1,8,0:0:0:0:
64,192,104741,1,0,0:0:0:0:
192,192,104789,1,0,0:0:0:0:
448,192,104837,1,0,0:0:0:0:
320,192,104885,1,0,0:0:0:0:
192,192,104933,1,0,0:0:0:0:
64,192,104981,128,2,105269:0:0:0:0:
448,192,104981,1,4,0:0:0:0:
192,192,105125,128,0,105269:0:0:0:0:
320,192,105269,128,2,105342:0:0:0:0:
448,192,105269,1,8,0:0:0:0:
192,192,105342,128,0,105414:0:0:0:0:
320,192,105414,1,2,0:0:0:0:
448,192,105414,1,0,0:0:0:0:
64,192,105486,1,2,0:0:0:0:
192,192,105486,1,0,0:0:0:0:
448,192,105558,128,0,105630:0:0:0:0:
64,192,105630,128,2,105702:0:0:0:0:
448,192,105702,128,2,105774:0:0:0:0:
64,192,105774,128,0,105846:0:0:0:0:
192,192,105846,1,8,0:0:0:0:
448,192,105846,1,0,0:0:0:0:
320,192,105991,128,0,106063:0:0:0:0:
64,192,106063,128,0,106135:0:0:0:0:
192,192,106135,1,2,0:0:0:0:
320,192,106135,1,0,0:0:0:0:
448,192,106135,128,0,106207:0:0:0:0:
320,192,106279,128,2,106423:0:0:0:0:
448,192,106279,1,0,0:0:0:0:
64,192,106423,1,8,0:0:0:0:
448,192,106423,1,0,0:0:0:0:
192,192,106495,128,0,106568:0:0:0:0:
64,192,106568,1,2,0:0:0:0:
448,192,106568,1,0,0:0:0:0:
192,192,106640,1,2,0:0:0:0:
320,192,106640,1,0,0:0:0:0:
192,192,106784,1,2,0:0:0:0:
320,192,106784,1,0,0:0:0:0:
64,192,106856,1,2,0:0:0:0:
448,192,106856,1,0,0:0:0:0:
64,192,107000,1,8,0:0:0:0:
320,192,107000,1,2,0:0:0:0:
448,192,107000,1,0,0:0:0:0:
64,192,107144,1,2,0:0:0:0:
192,192,107144,1,0,0:0:0:0:
320,192,107144,1,0,0:0:0:0:
192,192,107289,1,2,0:0:0:0:
448,192,107289,1,0,0:0:0:0:
320,192,107361,1,2,0:0:0:0:
192,192,107433,1,2,0:0:0:0:
320,192,107505,1,2,0:0:0:0:
64,192,107577,1,2,0:0:0:0:
192,192,107577,1,8,0:0:0:0:
448,192,107577,128,4,108082:0:0:0:0:
64,192,107866,1,2,0:0:0:0:
192,192,107866,128,0,107938:0:0:0:0:
320,192,107866,128,0,108010:0:0:0:0:
192,192,108010,1,0,0:0:0:0:
320,192,108082,1,0,0:0:0:0:
64,192,108154,1,2,0:0:0:0:
448,192,108154,1,8,0:0:0:0:
64,192,108298,1,2,0:0:0:0:
192,192,108298,1,0,0:0:0:0:
320,192,108370,1,2,0:0:0:0:
448,192,108370,1,0,0:0:0:0:
192,192,108443,1,2,0:0:0:0:
64,192,108491,1,0,0:0:0:0:
320,192,108539,1,0,0:0:0:0:
192,192,108587,1,0,0:0:0:0:
448,192,108623,128,0,108695:0:0:0:0:
320,192,108731,1,2,0:0:0:0:
192,192,108779,1,0,0:0:0:0:
448,192,108827,1,0,0:0:0:0:
320,192,108875,1,0,0:0:0:0:
64,192,108923,1,0,0:0:0:0:
192,192,108947,128,0,109019:0:0:0:0:
448,192,109044,1,0,0:0:0:0:
64,192,109092,1,0,0:0:0:0:
192,192,109128,128,0,109182:0:0:0:0:
448,192,109212,1,0,0:0:0:0:
64,192,109260,128,0,109308:0:0:0:0:
192,192,109260,128,0,109356:0:0:0:0:
320,192,109308,128,0,109404:0:0:0:0:
448,192,109356,128,0,109404:0:0:0:0:
64,192,109452,128,0,109596:0:0:0:0:
192,192,109596,1,4,0:0:0:0:
320,192,109596,1,2,0:0:0:0:
448,192,109596,1,0,0:0:0:0:
320,192,109741,1,0,0:0:0:0:
448,192,109741,1,0,0:0:0:0:
64,192,109813,1,0,0:0:0:0:
192,192,109885,1,0,0:0:0:0:
448,192,110077,1,0,0:0:0:0:
64,192,110173,1,0,0:0:0:0:
192,192,110269,1,0,0:0:0:0:
320,192,110366,1,0,0:0:0:0:
192,192,110462,1,0,0:0:0:0:
320,192,110558,1,0,0:0:0:0:
448,192,110654,1,0,0:0:0:0:
64,192,110750,1,0,0:0:0:0:
192,192,110750,1,0,0:0:0:0:
448,192,110822,1,0,0:0:0:0:
320,192,110894,1,0,0:0:0:0:
64,192,110967,1,0,0:0:0:0:
448,192,111039,1,0,0:0:0:0:
192,192,111111,1,0,0:0:0:0:
64,192,111183,1,0,0:0:0:0:
320,192,111255,1,0,0:0:0:0:
192,192,111327,1,0,0:0:0:0:
448,192,111399,1,0,0:0:0:0:
320,192,111471,1,0,0:0:0:0:
64,192,111544,1,0,0:0:0:0:
192,192,111616,1,2,0:0:0:0:
448,192,111616,1,0,0:0:0:0:
320,192,111904,1,2,0:0:0:0:
448,192,111904,1,0,0:0:0:0:
64,192,111976,1,0,0:0:0:0:
448,192,112120,1,0,0:0:0:0:
64,192,112193,1,0,0:0:0:0:
448,192,112337,1,0,0:0:0:0:
64,192,112409,1,0,0:0:0:0:
448,192,112481,1,0,0:0:0:0:
64,192,112553,1,0,0:0:0:0:
448,192,112697,1,0,0:0:0:0:
64,192,112769,1,0,0:0:0:0:
448,192,112914,1,0,0:0:0:0:
64,192,112986,1,0,0:0:0:0:
320,192,113058,1,0,0:0:0:0:
448,192,113058,1,0,0:0:0:0:
64,192,113130,1,0,0:0:0:0:
448,192,113310,1,0,0:0:0:0:
64,192,113382,1,0,0:0:0:0:
448,192,113455,1,0,0:0:0:0:
64,192,113527,1,0,0:0:0:0:
448,192,113599,1,0,0:0:0:0:
64,192,113671,1,0,0:0:0:0:
320,192,113725,1,0,0:0:0:0:
192,192,113797,1,0,0:0:0:0:
320,192,113869,1,0,0:0:0:0:
192,192,113941,1,0,0:0:0:0:
320,192,114013,1,0,0:0:0:0:
192,192,114086,1,0,0:0:0:0:
320,192,114158,1,0,0:0:0:0:
64,192,114212,1,2,0:0:0:0:
192,192,114212,1,0,0:0:0:0:
448,192,114212,1,0,0:0:0:0:
64,192,114356,128,0,115294:0:0:0:0:
320,192,114356,128,0,114428:0:0:0:0:
320,192,114500,1,0,0:0:0:0:
192,192,114644,1,0,0:0:0:0:
320,192,114717,1,0,0:0:0:0:
192,192,114789,1,0,0:0:0:0:
448,192,114861,1,0,0:0:0:0:
192,192,114933,1,2,0:0:0:0:
320,192,114933,1,0,0:0:0:0:
448,192,115077,1,0,0:0:0:0:
192,192,115221,1,0,0:0:0:0:
320,192,115294,1,0,0:0:0:0:
64,192,115366,1,2,0:0:0:0:
192,192,115366,128,0,116447:0:0:0:0:
448,192,115366,1,0,0:0:0:0:
320,192,115510,1,0,0:0:0:0:
448,192,115654,1,0,0:0:0:0:
320,192,115798,1,0,0:0:0:0:
64,192,115870,1,0,0:0:0:0:
448,192,115943,1,0,0:0:0:0:
64,192,116015,128,0,116087:0:0:0:0:
320,192,116087,1,2,0:0:0:0:
448,192,116087,1,0,0:0:0:0:
64,192,116231,1,10,0:0:0:0:
448,192,116375,1,0,0:0:0:0:
320,192,116447,1,0,0:0:0:0:
64,192,116519,1,2,0:0:0:0:
192,192,116519,1,0,0:0:0:0:
448,192,116519,128,0,117962:0:0:0:0:
320,192,116664,1,0,0:0:0:0:
192,192,116808,1,0,0:0:0:0:
64,192,116952,1,0,0:0:0:0:
320,192,117024,1,0,0:0:0:0:
192,192,117096,1,0,0:0:0:0:
64,192,117169,1,0,0:0:0:0:
192,192,117241,1,2,0:0:0:0:
320,192,117241,1,0,0:0:0:0:
64,192,117385,1,8,0:0:0:0:
192,192,117457,1,0,0:0:0:0:
320,192,117529,1,0,0:0:0:0:
192,192,117601,1,0,0:0:0:0:
64,192,117673,1,2,0:0:0:0:
320,192,117673,1,0,0:0:0:0:
64,192,117818,128,8,117962:0:0:0:0:
192,192,117962,1,8,0:0:0:0:
320,192,118034,1,8,0:0:0:0:
192,192,118106,1,8,0:0:0:0:
320,192,118178,1,8,0:0:0:0:
192,192,118250,1,8,0:0:0:0:
320,192,118322,1,8,0:0:0:0:
192,192,118394,1,8,0:0:0:0:
320,192,118467,1,8,0:0:0:0:
192,192,118539,1,8,0:0:0:0:
320,192,118611,1,8,0:0:0:0:
192,192,118683,1,8,0:0:0:0:
320,192,118755,1,8,0:0:0:0:
64,192,118827,1,4,0:0:0:0:
192,192,118827,1,2,0:0:0:0:
448,192,118827,1,0,0:0:0:0:
64,192,118923,1,0,0:0:0:0:
320,192,119019,1,0,0:0:0:0:
448,192,119116,1,0,0:0:0:0:
320,192,119212,1,0,0:0:0:0:
64,192,119308,1,0,0:0:0:0:
192,192,119404,1,2,0:0:0:0:
320,192,119404,1,4,0:0:0:0:
448,192,119404,1,0,0:0:0:0:
448,192,119500,1,0,0:0:0:0:
192,192,119596,1,0,0:0:0:0:
64,192,119693,1,0,0:0:0:0:
192,192,119789,1,0,0:0:0:0:
448,192,119885,1,0,0:0:0:0:
64,192,119981,1,4,0:0:0:0:
192,192,119981,1,2,0:0:0:0:
320,192,119981,1,0,0:0:0:0:
192,192,120077,1,0,0:0:0:0:
320,192,120173,1,0,0:0:0:0:
448,192,120269,1,0,0:0:0:0:
320,192,120366,1,0,0:0:0:0:
192,192,120462,1,0,0:0:0:0:
64,192,120558,1,2,0:0:0:0:
320,192,120558,1,4,0:0:0:0:
448,192,120558,1,0,0:0:0:0:
64,192,120654,1,0,0:0:0:0:
192,192,120750,1,0,0:0:0:0:
320,192,120846,1,0,0:0:0:0:
192,192,120943,1,0,0:0:0:0:
64,192,121039,1,0,0:0:0:0:
192,192,121135,128,4,121183:0:0:0:0:
320,192,121135,128,2,121183:0:0:0:0:
448,192,121135,128,0,121183:0:0:0:0:
192,192,121231,1,0,0:0:0:0:
64,192,121327,1,0,0:0:0:0:
448,192,121423,1,0,0:0:0:0:
64,192,121519,1,0,0:0:0:0:
192,192,121616,1,0,0:0:0:0:
64,192,121712,128,2,121760:0:0:0:0:
320,192,121712,128,4,121760:0:0:0:0:
448,192,121712,128,0,121760:0:0:0:0:
320,192,121808,1,0,0:0:0:0:
192,192,121904,1,0,0:0:0:0:
64,192,122000,1,0,0:0:0:0:
192,192,122096,1,0,0:0:0:0:
320,192,122193,1,0,0:0:0:0:
64,192,122289,128,4,122337:0:0:0:0:
192,192,122289,128,2,122337:0:0:0:0:
448,192,122289,128,0,122337:0:0:0:0:
448,192,122385,1,0,0:0:0:0:
320,192,122481,1,0,0:0:0:0:
192,192,122577,1,0,0:0:0:0:
320,192,122673,1,0,0:0:0:0:
448,192,122769,1,0,0:0:0:0:
64,192,122866,128,4,122914:0:0:0:0:
192,192,122866,128,2,122914:0:0:0:0:
320,192,122866,128,0,122914:0:0:0:0:
64,192,122962,1,0,0:0:0:0:
192,192,123058,1,0,0:0:0:0:
448,192,123154,1,0,0:0:0:0:
192,192,123250,1,0,0:0:0:0:
64,192,123346,1,0,0:0:0:0:
192,192,123443,128,4,123491:0:0:0:0:
320,192,123443,128,2,123635:0:0:0:0:
192,192,123539,128,0,123731:0:0:0:0:
448,192,123635,128,0,123923:0:0:0:0:
320,192,123731,128,0,124019:0:0:0:0:
192,192,123827,128,0,123923:0:0:0:0:
64,192,123923,128,0,124019:0:0:0:0:
192,192,124019,128,0,124212:0:0:0:0:
448,192,124019,1,0,0:0:0:0:
320,192,124116,1,0,0:0:0:0:
448,192,124212,1,0,0:0:0:0:
64,192,124308,128,0,124500:0:0:0:0:
192,192,124308,1,0,0:0:0:0:
320,192,124404,1,0,0:0:0:0:
320,192,124500,1,0,0:0:0:0:
64,192,124596,1,4,0:0:0:0:
448,192,124596,1,0,0:0:0:0:
448,192,124885,1,0,0:0:0:0:
64,192,124957,1,0,0:0:0:0:
192,192,125029,1,0,0:0:0:0:
320,192,125101,1,0,0:0:0:0:
64,192,125173,1,0,0:0:0:0:
448,192,125173,128,0,125678:0:0:0:0:
64,192,125462,1,0,0:0:0:0:
320,192,125462,1,0,0:0:0:0:
64,192,125750,128,4,126471:0:0:0:0:
192,192,125750,128,0,126399:0:0:0:0:
320,192,125750,1,0,0:0:0:0:
448,192,125750,1,0,0:0:0:0:
320,192,126255,128,0,126327:0:0:0:0:
448,192,126327,1,0,0:0:0:0:
320,192,126399,1,0,0:0:0:0:
192,192,126471,1,0,0:0:0:0:
64,192,126544,1,0,0:0:0:0:
448,192,126616,1,0,0:0:0:0:
192,192,126688,1,0,0:0:0:0:
320,192,126760,1,0,0:0:0:0:
64,192,126832,1,0,0:0:0:0:
448,192,126904,1,0,0:0:0:0:
448,192,127000,1,0,0:0:0:0:
192,192,127096,1,0,0:0:0:0:
192,192,127193,1,0,0:0:0:0:
320,192,127289,1,0,0:0:0:0:
64,192,127385,1,0,0:0:0:0:
448,192,127481,1,0,0:0:0:0:
320,192,127577,1,0,0:0:0:0:
192,192,127673,1,0,0:0:0:0:
64,192,127769,1,0,0:0:0:0:
192,192,127842,1,0,0:0:0:0:
320,192,127914,1,0,0:0:0:0:
448,192,127986,1,0,0:0:0:0:
64,192,128058,128,4,128202:0:0:0:0:
192,192,128058,1,2,0:0:0:0:
320,192,128058,1,0,0:0:0:0:
64,192,128274,1,0,0:0:0:0:
320,192,128491,1,0,0:0:0:0:
192,192,128563,1,0,0:0:0:0:
448,192,128635,1,0,0:0:0:0:
320,192,128707,1,0,0:0:0:0:
64,192,128779,1,0,0:0:0:0:
448,192,128851,1,0,0:0:0:0:
192,192,129068,1,0,0:0:0:0:
320,192,129212,1,0,0:0:0:0:
64,192,129284,1,0,0:0:0:0:
448,192,129428,1,0,0:0:0:0:
192,192,129644,1,0,0:0:0:0:
64,192,129717,1,0,0:0:0:0:
320,192,129789,1,0,0:0:0:0:
64,192,129933,1,0,0:0:0:0:
192,192,130005,1,0,0:0:0:0:
192,192,130149,1,0,0:0:0:0:
320,192,130221,1,0,0:0:0:0:
64,192,130294,1,0,0:0:0:0:
320,192,130366,1,0,0:0:0:0:
448,192,130582,1,0,0:0:0:0:
320,192,130798,1,0,0:0:0:0:
64,192,130870,1,0,0:0:0:0:
192,192,130943,1,0,0:0:0:0:
320,192,131159,1,0,0:0:0:0:
192,192,131231,1,0,0:0:0:0:
448,192,131375,1,0,0:0:0:0:
320,192,131519,1,0,0:0:0:0:
64,192,131736,1,0,0:0:0:0:
448,192,131952,1,0,0:0:0:0:
192,192,132096,1,0,0:0:0:0:
320,192,132169,1,0,0:0:0:0:
64,192,132241,1,0,0:0:0:0:
448,192,132313,1,0,0:0:0:0:
320,192,132529,1,0,0:0:0:0:
192,192,132601,1,0,0:0:0:0:
448,192,132673,128,0,132709:0:0:0:0:
320,192,132745,1,0,0:0:0:0:
64,192,132818,1,0,0:0:0:0:
192,192,132890,1,0,0:0:0:0:
64,192,133106,1,0,0:0:0:0:
320,192,133178,1,0,0:0:0:0:
192,192,133250,128,0,133286:0:0:0:0:
320,192,133467,1,0,0:0:0:0:
448,192,133683,1,0,0:0:0:0:
448,192,133827,128,0,133863:0:0:0:0:
320,192,134044,1,0,0:0:0:0:
64,192,134260,1,0,0:0:0:0:
192,192,134404,128,0,134440:0:0:0:0:
320,192,134620,1,0,0:0:0:0:
448,192,134837,128,0,134909:0:0:0:0:
320,192,134945,1,0,0:0:0:0:
192,192,134981,1,0,0:0:0:0:
64,192,135017,1,0,0:0:0:0:
448,192,135233,1,0,0:0:0:0:
192,192,135450,1,0,0:0:0:0:
64,192,135846,1,0,0:0:0:0:
192,192,135991,1,0,0:0:0:0:
192,192,136135,1,0,0:0:0:0:
448,192,136135,128,0,136928:0:0:0:0:
320,192,136351,1,0,0:0:0:0:
64,192,136568,1,0,0:0:0:0:
192,192,136712,1,0,0:0:0:0:
320,192,136928,1,0,0:0:0:0:
448,192,137144,1,0,0:0:0:0:
192,192,137289,128,2,137685:0:0:0:0:
320,192,137289,128,4,137505:0:0:0:0:
448,192,137289,128,0,138046:0:0:0:0:
64,192,137577,128,0,137685:0:0:0:0:
320,192,137577,128,0,137685:0:0:0:0:
64,192,137757,1,0,0:0:0:0:
320,192,137757,1,0,0:0:0:0:
64,192,137866,128,0,138262:0:0:0:0:
192,192,137866,128,0,138262:0:0:0:0:
320,192,138118,128,0,138407:0:0:0:0:
448,192,138118,128,0,138407:0:0:0:0:
64,192,138334,128,0,138623:0:0:0:0:
192,192,138479,128,0,138839:0:0:0:0:
320,192,138479,128,0,138839:0:0:0:0:
64,192,138695,128,0,139200:0:0:0:0:
448,192,138695,128,0,138947:0:0:0:0:
192,192,138911,128,0,139200:0:0:0:0:
320,192,139019,128,0,139416:0:0:0:0:
448,192,139019,128,0,139416:0:0:0:0:
64,192,139272,128,0,139416:0:0:0:0:
192,192,139272,128,0,139669:0:0:0:0:
64,192,139488,1,0,0:0:0:0:
320,192,139488,1,0,0:0:0:0:
64,192,139596,128,4,139669:0:0:0:0:
320,192,139596,128,0,139957:0:0:0:0:
448,192,139596,128,0,139669:0:0:0:0:
448,192,139741,1,0,0:0:0:0:
320,192,140029,1,0,0:0:0:0:
192,192,140173,1,0,0:0:0:0:
448,192,140173,128,0,140498:0:0:0:0:
64,192,140390,1,0,0:0:0:0:
192,192,140534,1,0,0:0:0:0:
320,192,140570,1,0,0:0:0:0:
448,192,140606,1,0,0:0:0:0:
64,192,140750,1,4,0:0:0:0:
192,192,140750,128,0,140894:0:0:0:0:
320,192,140750,128,0,141111:0:0:0:0:
192,192,140967,1,0,0:0:0:0:
320,192,141183,1,0,0:0:0:0:
448,192,141327,128,0,141832:0:0:0:0:
320,192,141544,128,0,141832:0:0:0:0:
192,192,141616,1,0,0:0:0:0:
64,192,141760,1,0,0:0:0:0:
64,192,141832,1,0,0:0:0:0:
192,192,141904,1,4,0:0:0:0:
320,192,141904,128,0,142048:0:0:0:0:
448,192,141904,128,0,142265:0:0:0:0:
64,192,142120,1,0,0:0:0:0:
320,192,142120,128,0,142409:0:0:0:0:
192,192,142337,128,0,142409:0:0:0:0:
448,192,142337,1,0,0:0:0:0:
64,192,142481,128,0,142842:0:0:0:0:
320,192,142481,1,0,0:0:0:0:
192,192,142697,128,0,142986:0:0:0:0:
448,192,142697,1,0,0:0:0:0:
64,192,142914,1,0,0:0:0:0:
320,192,142914,128,0,142986:0:0:0:0:
320,192,143058,1,0,0:0:0:70:kick11.wav
448,192,143058,128,0,143419:0:0:0:0:
192,192,143274,128,0,143563:0:0:0:0:
320,192,143274,1,0,0:0:0:0:
64,192,143346,1,0,0:0:0:0:
320,192,143419,1,0,0:0:0:0:
64,192,143491,128,0,143779:0:0:0:0:
448,192,143491,1,0,0:0:0:0:
192,192,143635,1,0,0:0:0:70:kick11.wav
320,192,143635,128,0,143779:0:0:0:0:
448,192,143635,128,0,143995:0:0:0:0:
64,192,143851,128,0,143995:0:0:0:0:
192,192,143851,128,0,144140:0:0:0:0:
320,192,143851,1,0,0:0:0:0:
64,192,144068,1,0,0:0:0:70:kick11.wav
320,192,144068,128,0,144140:0:0:0:0:
448,192,144068,128,0,144140:0:0:0:0:
64,192,144212,128,4,144572:0:0:0:0:
192,192,144212,1,0,0:0:0:70:kick11.wav
320,192,144212,128,0,144572:0:0:0:0:
448,192,144212,128,0,145870:0:0:0:0:
192,192,144428,128,0,145077:0:0:0:0:
64,192,144644,1,0,0:0:0:0:
64,192,144717,1,0,0:0:0:0:
320,192,144789,128,0,145077:0:0:0:0:
64,192,145077,1,0,0:0:0:0:
64,192,145366,128,0,147193:0:0:0:0:
192,192,145366,128,0,146519:0:0:0:0:
320,192,145366,128,0,145870:0:0:0:0:
320,192,145943,1,0,0:0:0:0:
448,192,145943,1,0,0:0:0:0:
448,192,146519,128,0,147385:0:0:0:0:
320,192,146664,1,0,0:0:0:70:kick11.wav
192,192,146952,1,0,0:0:0:70:kick11.wav
320,192,147096,128,0,147193:0:0:0:0:
192,192,147193,128,0,147289:0:0:0:0:
64,192,147289,128,0,147385:0:0:0:0:
320,192,147385,1,0,0:0:0:70:kick11.wav
192,192,147457,1,0,0:0:0:70:kick11.wav
448,192,147529,1,0,0:0:0:70:kick11.wav
64,192,147601,1,0,0:0:0:70:kick11.wav
192,192,147673,128,4,147890:0:0:0:0:
320,192,147673,128,0,147890:0:0:0:70:kick11.wav
448,192,147673,1,0,0:0:0:0:
192,192,147962,1,0,0:0:0:70:kick11.wav
448,192,148010,1,0,0:0:0:0:
320,192,148058,1,0,0:0:0:0:
64,192,148106,1,0,0:0:0:70:kick11.wav
448,192,148154,1,0,0:0:0:0:
192,192,148202,1,0,0:0:0:0:
64,192,148250,1,0,0:0:0:0:
320,192,148322,1,0,0:0:0:0:
192,192,148394,1,0,0:0:0:70:kick11.wav
448,192,148394,1,0,0:0:0:0:
320,192,148467,1,0,0:0:0:0:
64,192,148539,1,0,0:0:0:70:kick11.wav
448,192,148539,1,0,0:0:0:0:
192,192,148611,1,0,0:0:0:0:
64,192,148683,1,0,0:0:0:70:kick11.wav
448,192,148683,1,0,0:0:0:0:
320,192,148755,1,0,0:0:0:0:
192,192,148827,128,0,148899:0:0:0:0:
320,192,148899,128,0,148971:0:0:0:0:
192,192,148971,1,0,0:0:0:70:kick11.wav
448,192,148971,128,0,149044:0:0:0:0:
320,192,149044,128,0,149116:0:0:0:0:
64,192,149116,128,0,149188:0:0:0:0:
192,192,149188,128,0,149260:0:0:0:0:
64,192,149260,1,0,0:0:0:70:kick11.wav
320,192,149260,128,0,149332:0:0:0:0:
192,192,149332,128,0,149404:0:0:0:0:
448,192,149404,128,0,149476:0:0:0:0:
320,192,149476,128,0,149548:0:0:0:0:
64,192,149548,128,0,149620:0:0:0:70:kick11.wav
448,192,149548,1,0,0:0:0:0:
192,192,149620,128,0,149693:0:0:0:0:
64,192,149693,128,4,149765:0:0:0:0:
320,192,149693,1,0,0:0:0:70:kick11.wav
192,192,149765,1,0,0:0:0:0:
320,192,149837,1,0,0:0:0:70:kick11.wav
448,192,149837,1,0,0:0:0:0:
64,192,149909,1,0,0:0:0:70:kick11.wav
192,192,149981,128,4,150197:0:0:0:0:
320,192,149981,128,0,150125:0:0:0:70:kick11.wav
448,192,149981,128,0,150053:0:0:0:0:
64,192,150053,128,0,150342:0:0:0:0:
448,192,150125,1,0,0:0:0:0:
320,192,150197,1,0,0:0:0:0:
192,192,150269,1,0,0:0:0:0:
320,192,150342,1,0,0:0:0:0:
64,192,150414,1,0,0:0:0:70:kick11.wav
448,192,150414,1,0,0:0:0:0:
192,192,150486,1,0,0:0:0:0:
320,192,150558,1,0,0:0:0:0:
64,192,150630,1,0,0:0:0:0:
320,192,150702,1,0,0:0:0:70:kick11.wav
448,192,150702,1,0,0:0:0:0:
192,192,150774,1,0,0:0:0:0:
64,192,150846,128,0,150894:0:0:0:70:kick11.wav
320,192,150894,128,0,150943:0:0:0:0:
448,192,150943,128,0,150991:0:0:0:0:
64,192,150991,128,0,151039:0:0:0:70:kick11.wav
192,192,151039,128,0,151087:0:0:0:0:
320,192,151087,128,0,151135:0:0:0:0:
448,192,151135,128,0,151495:0:0:0:0:
192,192,151207,1,0,0:0:0:0:
64,192,151279,128,0,151495:0:0:0:70:kick11.wav
320,192,151351,128,0,151423:0:0:0:0:
192,192,151423,128,0,151784:0:0:0:0:
320,192,151495,128,0,151784:0:0:0:0:
64,192,151568,1,0,0:0:0:70:kick11.wav
448,192,151568,128,0,151928:0:0:0:0:
192,192,151856,1,0,0:0:0:70:kick11.wav
320,192,151856,128,0,152217:0:0:0:0:
64,192,151928,1,0,0:0:0:0:
448,192,152000,1,0,0:0:0:70:kick11.wav
192,192,152072,1,0,0:0:0:0:
64,192,152144,1,0,0:0:0:70:kick11.wav
448,192,152217,1,0,0:0:0:70:kick11.wav
64,192,152289,1,4,0:0:0:0:
192,192,152289,128,0,152361:0:0:0:70:kick11.wav
320,192,152289,1,0,0:0:0:0:
448,192,152361,1,0,0:0:0:0:
192,192,152433,1,0,0:0:0:0:
320,192,152505,1,0,0:0:0:0:
448,192,152577,1,0,0:0:0:0:
64,192,152649,128,0,152938:0:0:0:0:
192,192,152721,128,0,152866:0:0:0:70:kick11.wav
448,192,152721,1,0,0:0:0:0:
320,192,152866,1,0,0:0:0:0:
192,192,152938,1,0,0:0:0:0:
64,192,153010,1,0,0:0:0:70:kick11.wav
448,192,153010,1,0,0:0:0:0:
320,192,153082,1,0,0:0:0:0:
64,192,153154,1,0,0:0:0:70:kick11.wav
192,192,153154,1,0,0:0:0:0:
448,192,153226,1,0,0:0:0:0:
192,192,153298,1,0,0:0:0:70:kick11.wav
320,192,153298,1,0,0:0:0:0:
448,192,153370,1,0,0:0:0:0:
64,192,153443,128,0,153515:0:0:0:0:
320,192,153443,1,0,0:0:0:0:
64,192,153587,1,0,0:0:0:70:kick11.wav
192,192,153587,1,0,0:0:0:0:
320,192,153635,1,0,0:0:0:0:
448,192,153683,1,0,0:0:0:0:
192,192,153731,1,0,0:0:0:0:
320,192,153803,1,0,0:0:0:0:
64,192,153875,1,0,0:0:0:70:kick11.wav
448,192,153875,128,0,154092:0:0:0:0:
192,192,153947,1,0,0:0:0:0:
320,192,154019,1,0,0:0:0:0:
64,192,154092,1,0,0:0:0:0:
192,192,154164,128,0,154236:0:0:0:70:kick11.wav
448,192,154164,1,0,0:0:0:0:
320,192,154236,128,0,154308:0:0:0:0:
64,192,154308,1,0,0:0:0:70:kick11.wav
192,192,154308,128,0,154380:0:0:0:0:
448,192,154380,1,0,0:0:0:0:
192,192,154452,1,0,0:0:0:70:kick11.wav
320,192,154452,128,0,154524:0:0:0:0:
448,192,154524,1,0,0:0:0:70:kick11.wav
64,192,154596,128,4,154669:0:0:0:0:
192,192,154596,128,0,154741:0:0:0:70:kick11.wav
320,192,154596,1,0,0:0:0:0:
64,192,154741,1,0,0:0:0:0:
192,192,154813,1,0,0:0:0:0:
320,192,154885,1,0,0:0:0:0:
192,192,154957,1,0,0:0:0:0:
64,192,155029,1,0,0:0:0:70:kick11.wav
320,192,155029,1,0,0:0:0:0:
448,192,155101,1,0,0:0:0:0:
192,192,155173,128,4,155221:0:0:0:0:
320,192,155173,128,0,155269:0:0:0:0:
448,192,155221,128,0,155318:0:0:0:0:
64,192,155269,1,0,0:0:0:0:
192,192,155318,1,0,0:0:0:70:kick11.wav
320,192,155366,1,0,0:0:0:0:
448,192,155414,1,0,0:0:0:0:
64,192,155462,1,0,0:0:0:70:kick11.wav
320,192,155510,1,0,0:0:0:0:
192,192,155558,1,0,0:0:0:0:
448,192,155606,1,0,0:0:0:70:kick11.wav
64,192,155654,1,0,0:0:0:0:
192,192,155702,1,0,0:0:0:0:
320,192,155750,1,0,0:0:0:0:
448,192,155750,128,0,156231:0:0:0:0:
192,192,155846,128,0,156039:0:0:0:0:
64,192,155943,128,0,156135:0:0:0:0:
320,192,156039,128,0,156135:0:0:0:0:
192,192,156135,128,0,156231:0:0:0:0:
320,192,156231,128,0,156327:0:0:0:0:
64,192,156327,128,0,156832:0:0:0:0:
448,192,156327,128,0,156423:0:0:0:0:
192,192,156423,1,0,0:0:0:0:
320,192,156471,128,0,156519:0:0:0:70:kick11.wav
192,192,156519,128,0,156832:0:0:0:0:
448,192,156616,1,0,0:0:0:70:kick11.wav
320,192,156688,1,0,0:0:0:70:kick11.wav
448,192,156760,1,0,0:0:0:70:kick11.wav
320,192,156832,1,0,0:0:0:70:kick11.wav
64,192,156904,128,4,157193:0:0:0:0:
192,192,156904,1,0,0:0:0:70:kick11.wav
448,192,156904,128,0,157120:0:0:0:0:
192,192,157193,128,0,157409:0:0:0:70:kick11.wav
320,192,157193,128,0,157409:0:0:0:0:
448,192,157265,128,0,157337:0:0:0:0:
64,192,157337,128,0,157409:0:0:0:70:kick11.wav
448,192,157409,128,0,157769:0:0:0:0:
64,192,157481,128,4,157697:0:0:0:0:
192,192,157481,1,0,0:0:0:70:kick11.wav
320,192,157481,1,0,0:0:0:0:
192,192,157769,128,0,157986:0:0:0:0:
320,192,157769,128,0,157986:0:0:0:0:
64,192,157842,128,0,157914:0:0:0:0:
448,192,157914,128,0,157986:0:0:0:0:
64,192,157986,128,0,158058:0:0:0:0:
192,192,158058,1,4,0:0:0:0:
320,192,158058,1,0,0:0:0:70:kick11.wav
448,192,158058,128,0,158419:0:0:0:0:
64,192,158130,1,0,0:0:0:0:
192,192,158202,1,0,0:0:0:70:kick11.wav
64,192,158346,128,0,158563:0:0:0:70:kick11.wav
320,192,158346,128,0,158707:0:0:0:0:
448,192,158491,1,0,0:0:0:0:
64,192,158635,128,4,158707:0:0:0:0:
192,192,158635,128,0,158995:0:0:0:70:kick11.wav
448,192,158635,128,0,158707:0:0:0:0:
320,192,158779,1,0,0:0:0:0:
64,192,158923,128,4,159212:0:0:0:0:
320,192,158923,128,0,158995:0:0:0:70:kick11.wav
448,192,158923,128,0,158995:0:0:0:0:
192,192,159068,1,0,0:0:0:0:
192,192,159212,128,4,159356:0:0:0:0:
320,192,159212,1,0,0:0:0:70:kick11.wav
448,192,159212,128,0,159284:0:0:0:0:
64,192,159284,128,0,159428:0:0:0:0:
320,192,159356,128,0,159428:0:0:0:0:
448,192,159428,128,0,159500:0:0:0:0:
192,192,159500,128,0,159572:0:0:0:0:
320,192,159572,128,0,159644:0:0:0:0:
64,192,159644,1,0,0:0:0:70:kick11.wav
448,192,159644,128,0,159717:0:0:0:0:
320,192,159717,128,0,159789:0:0:0:0:
192,192,159789,1,0,0:0:0:0:
448,192,159861,1,0,0:0:0:0:
64,192,159933,1,0,0:0:0:70:kick11.wav
320,192,159933,1,0,0:0:0:0:
448,192,160005,1,0,0:0:0:0:
192,192,160077,1,0,0:0:0:70:kick11.wav
64,192,160125,1,0,0:0:0:0:
320,192,160173,1,0,0:0:0:0:
192,192,160221,1,0,0:0:0:70:kick11.wav
448,192,160269,1,0,0:0:0:0:
320,192,160318,1,0,0:0:0:0:
64,192,160366,128,4,160510:0:0:0:0:
192,192,160366,128,0,160582:0:0:0:70:kick11.wav
448,192,160366,128,0,160798:0:0:0:0:
320,192,160510,1,0,0:0:0:70:kick11.wav
64,192,160654,128,0,160726:0:0:0:70:kick11.wav
192,192,160726,128,0,160798:0:0:0:0:
64,192,160798,1,0,0:0:0:70:kick11.wav
320,192,160798,128,0,160870:0:0:0:0:
192,192,160870,128,0,160943:0:0:0:0:
448,192,160943,128,0,161015:0:0:0:0:
320,192,161015,128,0,161087:0:0:0:0:
192,192,161087,128,0,161159:0:0:0:70:kick11.wav
448,192,161087,1,0,0:0:0:0:
64,192,161159,128,0,161231:0:0:0:0:
192,192,161231,128,0,161303:0:0:0:70:kick11.wav
320,192,161231,1,0,0:0:0:0:
64,192,161303,128,0,161375:0:0:0:0:
320,192,161375,128,0,161447:0:0:0:70:kick11.wav
448,192,161375,1,0,0:0:0:0:
192,192,161447,128,0,161519:0:0:0:70:kick11.wav
64,192,161519,1,4,0:0:0:0:
320,192,161519,128,0,161736:0:0:0:70:kick11.wav
448,192,161519,128,0,161592:0:0:0:0:
192,192,161592,1,0,0:0:0:0:
448,192,161664,128,0,161880:0:0:0:0:
64,192,161736,1,0,0:0:0:0:
320,192,161808,128,0,161880:0:0:0:70:kick11.wav
64,192,161880,1,0,0:0:0:0:
320,192,161952,1,0,0:0:0:70:kick11.wav
448,192,161952,128,0,162024:0:0:0:0:
192,192,162024,1,0,0:0:0:0:
64,192,162096,128,0,162169:0:0:0:0:
320,192,162169,1,0,0:0:0:0:
192,192,162241,1,0,0:0:0:70:kick11.wav
448,192,162241,128,0,162457:0:0:0:0:
64,192,162313,1,0,0:0:0:0:
320,192,162385,1,0,0:0:0:70:kick11.wav
192,192,162433,1,0,0:0:0:0:
64,192,162481,1,0,0:0:0:0:
448,192,162529,1,0,0:0:0:70:kick11.wav
192,192,162577,1,0,0:0:0:0:
320,192,162625,1,0,0:0:0:0:
64,192,162673,128,0,162745:0:0:0:70:kick11.wav
192,192,162673,128,0,162890:0:0:0:0:
448,192,162673,1,0,0:0:0:0:
320,192,162745,1,0,0:0:0:0:
64,192,162818,128,0,163034:0:0:0:70:kick11.wav
448,192,162890,1,0,0:0:0:0:
192,192,162962,128,0,163034:0:0:0:70:kick11.wav
448,192,163034,1,0,0:0:0:0:
64,192,163106,128,0,163178:0:0:0:70:kick11.wav
192,192,163106,1,0,0:0:0:0:
320,192,163178,1,0,0:0:0:0:
448,192,163250,128,0,163322:0:0:0:0:
192,192,163322,1,0,0:0:0:0:
64,192,163394,128,0,163611:0:0:0:70:kick11.wav
320,192,163394,1,0,0:0:0:0:
448,192,163467,1,0,0:0:0:0:
192,192,163539,1,4,0:0:0:0:
320,192,163587,1,0,0:0:0:0:
448,192,163635,1,0,0:0:0:0:
64,192,163683,1,0,0:0:0:70:kick11.wav
320,192,163731,1,0,0:0:0:0:
192,192,163779,1,0,0:0:0:0:
64,192,163827,1,4,0:0:0:0:
320,192,163827,1,0,0:0:0:70:kick11.wav
448,192,163827,1,0,0:0:0:0:
192,192,163899,1,0,0:0:0:0:
448,192,163971,1,0,0:0:0:0:
192,192,164044,1,0,0:0:0:0:
320,192,164116,1,0,0:0:0:70:kick11.wav
64,192,164188,1,0,0:0:0:70:kick11.wav
320,192,164260,1,0,0:0:0:70:kick11.wav
192,192,164332,1,0,0:0:0:70:kick11.wav
64,192,164404,1,4,0:0:0:0:
448,192,164404,1,0,0:0:0:70:kick11.wav
320,192,164476,1,0,0:0:0:70:kick11.wav
64,192,164548,1,0,0:0:0:70:kick11.wav
320,192,164620,1,0,0:0:0:70:kick11.wav
192,192,164693,1,0,0:0:0:70:kick11.wav
448,192,164765,1,0,0:0:0:70:kick11.wav
192,192,164837,1,0,0:0:0:70:kick11.wav
320,192,164909,1,0,0:0:0:70:kick11.wav
64,192,164981,128,4,165029:0:0:0:0:
448,192,164981,1,0,0:0:0:70:kick11.wav
192,192,165029,128,0,165077:0:0:0:0:
320,192,165077,128,0,165125:0:0:0:0:
448,192,165125,128,0,165269:0:0:0:0:
192,192,165173,1,0,0:0:0:0:
64,192,165221,1,0,0:0:0:0:
320,192,165269,128,0,165318:0:0:0:0:
192,192,165318,128,0,165366:0:0:0:0:
64,192,165366,128,0,165606:0:0:0:0:
448,192,165414,1,0,0:0:0:70:kick11.wav
320,192,165462,1,0,0:0:0:0:
192,192,165510,1,0,0:0:0:0:
448,192,165558,128,0,165654:0:0:0:0:
320,192,165606,128,0,165702:0:0:0:0:
192,192,165654,128,0,165750:0:0:0:0:
64,192,165702,1,0,0:0:0:70:kick11.wav
448,192,165750,1,0,0:0:0:0:
320,192,165798,1,0,0:0:0:0:
64,192,165846,128,0,165894:0:0:0:70:kick11.wav
192,192,165894,128,0,165943:0:0:0:0:
320,192,165943,128,0,165991:0:0:0:0:
448,192,165991,128,0,166039:0:0:0:70:kick11.wav
192,192,166039,128,0,166135:0:0:0:0:
64,192,166087,128,0,166135:0:0:0:0:
320,192,166135,128,4,166423:0:0:0:0:
448,192,166135,128,0,166423:0:0:0:70:kick11.wav
192,192,166423,128,0,166495:0:0:0:0:
320,192,166495,128,0,166568:0:0:0:0:
192,192,166568,1,0,0:0:0:70:kick11.wav
448,192,166568,128,0,166640:0:0:0:0:
64,192,166640,128,0,166712:0:0:0:0:
192,192,166712,128,0,166784:0:0:0:0:
320,192,166784,128,0,166856:0:0:0:0:
64,192,166856,1,0,0:0:0:70:kick11.wav
448,192,166856,128,0,166928:0:0:0:0:
320,192,166928,128,0,167000:0:0:0:0:
64,192,167000,128,0,167072:0:0:0:70:kick11.wav
448,192,167000,1,0,0:0:0:0:
192,192,167072,128,0,167144:0:0:0:0:
320,192,167144,128,0,167217:0:0:0:70:kick11.wav
448,192,167144,1,0,0:0:0:0:
64,192,167217,128,0,167289:0:0:0:0:
192,192,167289,128,4,167433:0:0:0:0:
448,192,167289,1,0,0:0:0:70:kick11.wav
64,192,167433,1,0,0:0:0:70:kick11.wav
320,192,167433,128,0,167505:0:0:0:0:
448,192,167505,128,0,167577:0:0:0:0:
64,192,167577,1,0,0:0:0:70:kick11.wav
192,192,167577,128,0,167649:0:0:0:0:
320,192,167649,128,0,167721:0:0:0:0:
64,192,167721,128,0,167794:0:0:0:70:kick11.wav
192,192,167794,128,0,167866:0:0:0:0:
320,192,167866,128,0,167938:0:0:0:70:kick11.wav
448,192,167866,1,0,0:0:0:0:
64,192,167938,128,0,168010:0:0:0:0:
192,192,168010,128,0,168082:0:0:0:70:kick11.wav
320,192,168010,1,0,0:0:0:0:
448,192,168082,128,0,168154:0:0:0:0:
64,192,168154,128,0,168226:0:0:0:70:kick11.wav
192,192,168154,1,0,0:0:0:0:
320,192,168226,128,0,168298:0:0:0:0:
192,192,168298,128,0,168370:0:0:0:70:kick11.wav
448,192,168298,1,0,0:0:0:0:
320,192,168370,128,0,168659:0:0:0:0:
64,192,168443,128,4,168731:0:0:0:0:
192,192,168443,128,0,168731:0:0:0:70:kick11.wav
448,192,168443,128,0,168587:0:0:0:0:
448,192,168731,128,0,168803:0:0:0:0:
320,192,168803,128,0,168875:0:0:0:0:
64,192,168875,1,0,0:0:0:70:kick11.wav
192,192,168875,128,0,168947:0:0:0:0:
448,192,168947,128,0,169019:0:0:0:0:
320,192,169019,128,0,169092:0:0:0:0:
64,192,169092,128,0,169164:0:0:0:0:
192,192,169164,128,0,169236:0:0:0:70:kick11.wav
448,192,169164,1,0,0:0:0:0:
320,192,169236,128,0,169308:0:0:0:0:
64,192,169308,1,0,0:0:0:70:kick11.wav
448,192,169308,128,0,169380:0:0:0:0:
192,192,169380,128,0,169452:0:0:0:0:
64,192,169452,128,0,169524:0:0:0:70:kick11.wav
320,192,169452,1,0,0:0:0:0:
448,192,169524,128,0,169669:0:0:0:0:
64,192,169596,1,4,0:0:0:0:
192,192,169596,128,0,169669:0:0:0:70:kick11.wav
320,192,169596,128,0,169669:0:0:0:0:
320,192,169741,1,0,0:0:0:70:kick11.wav
448,192,169741,1,0,0:0:0:0:
192,192,169813,1,0,0:0:0:0:
64,192,169885,1,0,0:0:0:70:kick11.wav
448,192,169885,1,0,0:0:0:0:
320,192,169957,1,0,0:0:0:0:
448,192,170029,1,0,0:0:0:70:kick11.wav
64,192,170101,1,0,0:0:0:0:
192,192,170173,128,0,170245:0:0:0:70:kick11.wav
320,192,170173,1,0,0:0:0:0:
64,192,170245,128,0,170318:0:0:0:0:
320,192,170318,128,0,170390:0:0:0:70:kick11.wav
192,192,170390,128,0,170462:0:0:0:0:
64,192,170462,1,0,0:0:0:70:kick11.wav
448,192,170462,128,0,170678:0:0:0:0:
320,192,170534,128,0,170678:0:0:0:0:
192,192,170606,128,0,170678:0:0:0:70:kick11.wav
64,192,170678,128,0,171039:0:0:0:0:
192,192,170750,128,4,171039:0:0:0:0:
320,192,170750,128,0,170943:0:0:0:70:kick11.wav
448,192,170750,128,0,170943:0:0:0:0:
320,192,171039,1,0,0:0:0:70:kick11.wav
192,192,171135,128,0,171231:0:0:0:0:
320,192,171183,1,0,0:0:0:70:kick11.wav
448,192,171183,1,0,0:0:0:0:
64,192,171231,128,0,171519:0:0:0:0:
192,192,171327,128,0,171712:0:0:0:0:
448,192,171423,128,0,171519:0:0:0:0:
320,192,171519,128,0,171616:0:0:0:0:
64,192,171616,128,0,171808:0:0:0:70:kick11.wav
448,192,171616,128,0,171808:0:0:0:0:
320,192,171712,128,0,171808:0:0:0:70:kick11.wav
192,192,171808,128,0,171904:0:0:0:0:
64,192,171904,128,0,172337:0:0:0:70:kick11.wav
320,192,171904,1,0,0:0:0:0:
448,192,171904,128,0,172193:0:0:0:0:
192,192,172048,1,0,0:0:0:70:kick11.wav
320,192,172120,1,0,0:0:0:0:
192,192,172193,1,0,0:0:0:70:kick11.wav
192,192,172337,128,0,172625:0:0:0:70:kick11.wav
320,192,172337,128,0,172409:0:0:0:0:
448,192,172337,128,0,172769:0:0:0:0:
64,192,172481,1,0,0:0:0:70:kick11.wav
64,192,172625,1,0,0:0:0:70:kick11.wav
64,192,172769,128,0,172986:0:0:0:70:kick11.wav
192,192,172769,128,0,172842:0:0:0:0:
320,192,172769,128,0,173274:0:0:0:0:
448,192,172914,1,0,0:0:0:70:kick11.wav
64,192,173058,1,0,0:0:0:70:kick11.wav
448,192,173058,128,0,173202:0:0:0:0:
192,192,173130,1,0,0:0:0:0:
64,192,173202,128,0,173419:0:0:0:0:
192,192,173274,128,0,173563:0:0:0:0:
448,192,173346,1,0,0:0:0:0:
320,192,173419,1,0,0:0:0:0:
64,192,173491,1,0,0:0:0:70:kick11.wav
448,192,173491,128,0,173707:0:0:0:0:
320,192,173563,128,0,173635:0:0:0:0:
192,192,173635,1,0,0:0:0:0:
320,192,173707,1,0,0:0:0:0:
64,192,173779,1,0,0:0:0:70:kick11.wav
448,192,173779,1,0,0:0:0:0:
192,192,173851,1,0,0:0:0:0:
320,192,173923,1,0,0:0:0:0:
64,192,173971,1,0,0:0:0:0:
192,192,174019,1,0,0:0:0:0:
448,192,174068,1,0,0:0:0:0:
320,192,174116,1,0,0:0:0:0:
192,192,174164,1,0,0:0:0:0:
64,192,174212,128,0,174644:0:0:0:70:kick11.wav
448,192,174212,128,0,174717:0:0:0:0:
320,192,174356,1,0,0:0:0:70:kick11.wav
192,192,174500,1,0,0:0:0:70:kick11.wav
64,192,174717,1,0,0:0:0:70:kick11.wav
192,192,174789,128,0,175005:0:0:0:70:kick11.wav
448,192,174789,1,0,0:0:0:0:
64,192,174933,1,0,0:0:0:0:
448,192,174969,1,0,0:0:0:0:
64,192,175077,128,0,175294:0:0:0:70:kick11.wav
320,192,175077,1,0,0:0:0:0:
448,192,175149,1,0,0:0:0:0:
192,192,175221,1,0,0:0:0:0:
320,192,175294,1,0,0:0:0:0:
64,192,175366,1,4,0:0:0:0:
192,192,175366,1,0,0:0:0:70:kick11.wav
448,192,175366,1,0,0:0:0:0:
64,192,175462,1,0,0:0:0:0:
192,192,175558,1,0,0:0:0:0:
320,192,175654,128,0,175846:0:0:0:0:
448,192,175654,128,0,175846:0:0:0:0:
64,192,175750,1,0,0:0:0:0:
192,192,175846,1,0,0:0:0:0:
64,192,175943,1,4,0:0:0:0:
320,192,175943,1,0,0:0:0:70:kick11.wav
448,192,175943,1,0,0:0:0:0:
64,192,176039,1,0,0:0:0:0:
192,192,176135,1,0,0:0:0:0:
320,192,176231,128,0,176423:0:0:0:0:
448,192,176231,128,0,176423:0:0:0:0:
192,192,176327,1,0,0:0:0:0:
64,192,176423,1,0,0:0:0:0:
192,192,176519,1,4,0:0:0:0:
320,192,176519,1,0,0:0:0:70:kick11.wav
448,192,176519,1,0,0:0:0:0:
192,192,176616,1,0,0:0:0:0:
320,192,176712,1,0,0:0:0:0:
64,192,176808,128,0,177000:0:0:0:0:
448,192,176808,128,0,177000:0:0:0:0:
320,192,176904,1,0,0:0:0:0:
192,192,177000,1,0,0:0:0:0:
64,192,177096,1,4,0:0:0:0:
320,192,177096,1,0,0:0:0:70:kick11.wav
448,192,177096,1,0,0:0:0:0:
320,192,177193,1,0,0:0:0:70:kick11.wav
192,192,177289,1,0,0:0:0:70:kick11.wav
64,192,177385,128,0,177577:0:0:0:70:kick11.wav
448,192,177385,128,0,177577:0:0:0:0:
320,192,177481,1,0,0:0:0:70:kick11.wav
192,192,177577,1,0,0:0:0:70:kick11.wav
64,192,177673,1,4,0:0:0:0:
320,192,177673,1,0,0:0:0:70:kick11.wav
448,192,177673,1,0,0:0:0:0:
448,192,177769,1,0,0:0:0:70:kick11.wav
192,192,177866,1,0,0:0:0:70:kick11.wav
64,192,177962,128,0,178154:0:0:0:70:kick11.wav
448,192,178058,1,0,0:0:0:70:kick11.wav
320,192,178154,1,0,0:0:0:70:kick11.wav
64,192,178250,1,0,0:0:0:70:kick11.wav
192,192,178250,1,0,0:0:0:0:
448,192,178250,1,0,0:0:0:0:
448,192,178346,1,0,0:0:0:70:kick11.wav
320,192,178443,1,0,0:0:0:70:kick11.wav
192,192,178539,128,0,178731:0:0:0:70:kick11.wav
64,192,178635,1,0,0:0:0:70:kick11.wav
448,192,178731,1,0,0:0:0:70:kick11.wav
64,192,178827,1,4,0:0:0:0:
192,192,178827,1,0,0:0:0:70:kick11.wav
320,192,178827,1,0,0:0:0:0:
320,192,178923,1,0,0:0:0:70:kick11.wav
448,192,179019,1,0,0:0:0:70:kick11.wav
192,192,179116,1,0,0:0:0:70:kick11.wav
320,192,179212,1,0,0:0:0:70:kick11.wav
64,192,179308,1,0,0:0:0:70:kick11.wav
192,192,179404,1,0,0:0:0:70:kick11.wav
320,192,179404,1,0,0:0:0:0:
448,192,179404,1,0,0:0:0:0:
192,192,179500,1,0,0:0:0:70:kick11.wav
64,192,179596,1,0,0:0:0:70:kick11.wav
320,192,179693,128,0,180324:0:0:0:70:kick11.wav
448,192,179693,1,0,0:0:0:0:
192,192,179789,1,0,0:0:0:70:kick11.wav
64,192,179885,1,0,0:0:0:70:kick11.wav
192,192,179981,128,4,180179:0:0:0:0:
448,192,179981,128,0,180558:0:0:0:70:kick11.wav
64,192,180125,128,0,180179:0:0:0:0:
192,192,180269,128,0,180324:0:0:0:0:
320,192,180414,128,0,180468:0:0:0:70:kick11.wav
64,192,180558,128,0,180991:0:0:0:0:
192,192,180558,1,0,0:0:0:0:
320,192,180630,1,0,0:0:0:0:
448,192,180702,1,0,0:0:0:70:kick11.wav
192,192,180774,1,0,0:0:0:0:
320,192,180846,1,0,0:0:0:70:kick11.wav
448,192,180894,1,0,0:0:0:0:
192,192,180943,1,0,0:0:0:0:
320,192,180991,1,0,0:0:0:70:kick11.wav
448,192,181039,1,0,0:0:0:0:
192,192,181087,1,0,0:0:0:0:
64,192,181135,1,0,0:0:0:0:
320,192,181135,128,0,181712:0:0:0:0:
64,192,181279,128,0,181333:0:0:0:70:kick11.wav
192,192,181423,128,0,181477:0:0:0:70:kick11.wav
448,192,181568,128,0,181622:0:0:0:0:
64,192,181712,128,0,182000:0:0:0:70:kick11.wav
192,192,181712,1,0,0:0:0:0:
448,192,181784,1,0,0:0:0:0:
320,192,181856,1,0,0:0:0:70:kick11.wav
448,192,181928,1,0,0:0:0:0:
192,192,182000,1,0,0:0:0:70:kick11.wav
320,192,182048,1,0,0:0:0:0:
448,192,182096,1,0,0:0:0:0:
64,192,182144,1,0,0:0:0:70:kick11.wav
192,192,182193,1,0,0:0:0:0:
320,192,182241,1,0,0:0:0:0:
64,192,182289,1,4,0:0:0:0:
448,192,182289,128,0,182577:0:0:0:70:kick11.wav
192,192,182361,1,0,0:0:0:70:kick11.wav
64,192,182433,1,0,0:0:0:70:kick11.wav
320,192,182505,1,0,0:0:0:0:
192,192,182577,1,0,0:0:0:0:
448,192,182649,1,0,0:0:0:0:
320,192,182721,1,0,0:0:0:70:kick11.wav
192,192,182794,1,0,0:0:0:0:
64,192,182866,128,4,183154:0:0:0:0:
320,192,182866,1,0,0:0:0:0:
448,192,182866,128,0,183010:0:0:0:0:
192,192,182938,128,0,183082:0:0:0:0:
320,192,183010,128,0,183226:0:0:0:70:kick11.wav
448,192,183082,128,0,183298:0:0:0:0:
192,192,183154,128,0,183298:0:0:0:70:kick11.wav
64,192,183226,128,0,183370:0:0:0:70:kick11.wav
320,192,183298,128,0,183370:0:0:0:70:kick11.wav
192,192,183370,128,0,183443:0:0:0:70:kick11.wav
64,192,183443,1,4,0:0:0:0:
448,192,183443,1,0,0:0:0:70:kick11.wav
320,192,183491,1,0,0:0:0:0:
192,192,183539,1,0,0:0:0:0:
64,192,183587,1,0,0:0:0:70:kick11.wav
320,192,183635,1,0,0:0:0:0:
192,192,183683,1,0,0:0:0:0:
448,192,183731,1,0,0:0:0:70:kick11.wav
320,192,183779,1,0,0:0:0:0:
64,192,183827,1,0,0:0:0:0:
192,192,183875,1,0,0:0:0:70:kick11.wav
320,192,183923,1,0,0:0:0:0:
448,192,183971,1,0,0:0:0:0:
64,192,184019,1,0,0:0:0:70:kick11.wav
320,192,184068,1,0,0:0:0:0:
448,192,184116,1,0,0:0:0:0:
64,192,184164,1,0,0:0:0:70:kick11.wav
192,192,184212,1,0,0:0:0:0:
320,192,184260,1,0,0:0:0:0:
448,192,184308,128,0,184356:0:0:0:70:kick11.wav
192,192,184356,128,0,184404:0:0:0:0:
320,192,184404,128,0,184452:0:0:0:0:
64,192,184452,128,0,184500:0:0:0:70:kick11.wav
192,192,184500,128,0,184548:0:0:0:0:
320,192,184548,128,0,184596:0:0:0:0:
64,192,184596,128,4,185678:0:0:0:0:
448,192,184596,128,0,185173:0:0:0:70:kick11.wav
192,192,185173,1,0,0:0:0:0:
320,192,185173,1,0,0:0:0:0:
64,192,185750,1,4,0:0:0:0:
192,192,185750,128,0,186255:0:0:0:0:
320,192,185750,1,0,0:0:0:0:
448,192,185750,128,0,186327:0:0:0:0:
64,192,186039,1,2,0:0:0:0:
320,192,186111,1,2,0:0:0:0:
64,192,186183,1,2,0:0:0:0:
320,192,186255,1,2,0:0:0:0:
64,192,186327,1,2,0:0:0:0:
192,192,186327,1,0,0:0:0:0:
320,192,186399,1,2,0:0:0:0:
448,192,186399,1,0,0:0:0:0:
64,192,186471,1,2,0:0:0:0:
192,192,186544,1,2,0:0:0:0:
320,192,186616,1,2,0:0:0:0:
448,192,186616,1,0,0:0:0:0:
64,192,186688,1,2,0:0:0:0:
192,192,186688,1,0,0:0:0:0:
320,192,186760,1,2,0:0:0:0:
448,192,186760,1,0,0:0:0:0:
192,192,186832,1,2,0:0:0:0:
64,192,186904,128,2,187120:0:0:0:0:
320,192,186904,1,4,0:0:0:0:
448,192,186904,1,0,0:0:0:0:
320,192,187048,128,2,187120:0:0:0:0:
448,192,187048,128,0,187265:0:0:0:0:
64,192,187193,1,8,0:0:0:0:
320,192,187193,128,0,187265:0:0:0:0:
192,192,187265,128,0,187337:0:0:0:0:
320,192,187337,1,2,0:0:0:0:
448,192,187337,128,0,187409:0:0:0:0:
64,192,187409,1,2,0:0:0:0:
192,192,187409,128,0,187553:0:0:0:0:
320,192,187481,128,0,187553:0:0:0:0:
64,192,187553,128,2,187625:0:0:0:0:
448,192,187553,1,0,0:0:0:0:
192,192,187625,128,2,187697:0:0:0:0:
320,192,187625,1,0,0:0:0:0:
64,192,187697,128,0,187769:0:0:0:0:
320,192,187769,128,8,187914:0:0:0:0:
448,192,187769,1,0,0:0:0:0:
192,192,187842,128,0,187986:0:0:0:0:
64,192,187914,128,0,187986:0:0:0:0:
448,192,187914,128,0,188274:0:0:0:0:
320,192,187986,128,0,188058:0:0:0:0:
64,192,188058,1,2,0:0:0:0:
192,192,188058,1,0,0:0:0:0:
64,192,188202,128,2,188419:0:0:0:0:
192,192,188202,128,0,188274:0:0:0:0:
192,192,188346,128,8,188419:0:0:0:0:
448,192,188346,1,0,0:0:0:0:
320,192,188419,128,0,188491:0:0:0:0:
64,192,188491,128,2,188563:0:0:0:0:
192,192,188491,1,0,0:0:0:0:
320,192,188563,128,2,188707:0:0:0:0:
448,192,188563,1,0,0:0:0:0:
192,192,188635,128,0,188707:0:0:0:0:
64,192,188707,1,2,0:0:0:0:
448,192,188707,128,0,188779:0:0:0:0:
192,192,188779,1,2,0:0:0:0:
320,192,188779,128,0,188851:0:0:0:0:
448,192,188851,128,0,188923:0:0:0:0:
64,192,188923,128,10,188995:0:0:0:0:
192,192,188971,128,0,189044:0:0:0:0:
320,192,189019,128,0,189092:0:0:0:0:
448,192,189068,128,2,189140:0:0:0:0:
64,192,189116,128,2,189644:0:0:0:0:
192,192,189164,128,2,189572:0:0:0:0:
320,192,189212,128,2,189356:0:0:0:0:
448,192,189212,1,4,0:0:0:0:
448,192,189356,128,0,189428:0:0:0:0:
320,192,189428,128,0,189500:0:0:0:0:
448,192,189500,128,0,190077:0:0:0:0:
320,192,189572,128,0,189644:0:0:0:0:
192,192,189644,128,0,189717:0:0:0:0:
64,192,189717,128,0,189789:0:0:0:0:
320,192,189789,128,0,190077:0:0:0:0:
192,192,189861,128,0,189933:0:0:0:0:
64,192,189933,128,0,190005:0:0:0:0:
192,192,190005,128,0,190077:0:0:0:0:
64,192,190077,1,0,0:0:0:0:
320,192,190149,1,0,0:0:0:0:
64,192,190221,1,0,0:0:0:0:
320,192,190294,1,0,0:0:0:0:
192,192,190366,1,2,0:0:0:0:
448,192,190366,1,4,0:0:0:0:
64,192,190438,1,2,0:0:0:0:
320,192,190438,1,4,0:0:0:0:
64,192,190582,1,2,0:0:0:0:
320,192,190582,1,0,0:0:0:0:
192,192,190654,128,0,190726:0:0:0:0:
64,192,190726,1,2,0:0:0:0:
448,192,190726,1,0,0:0:0:0:
320,192,190798,128,0,190870:0:0:0:0:
64,192,190870,1,2,0:0:0:0:
448,192,190870,1,0,0:0:0:0:
192,192,190943,128,2,191231:0:0:0:0:
320,192,190943,128,0,191231:0:0:0:0:
64,192,191231,1,2,0:0:0:0:
448,192,191231,1,0,0:0:0:0:
192,192,191303,1,0,0:0:0:0:
448,192,191375,1,0,0:0:0:0:
192,192,191447,1,0,0:0:0:0:
64,192,191519,128,2,191664:0:0:0:0:
320,192,191519,1,4,0:0:0:0:
448,192,191519,1,0,0:0:0:0:
192,192,191592,128,0,191736:0:0:0:0:
448,192,191664,128,0,191736:0:0:0:0:
320,192,191736,128,0,191808:0:0:0:0:
64,192,191808,128,8,191952:0:0:0:0:
448,192,191808,128,0,191880:0:0:0:0:
192,192,191880,128,0,192024:0:0:0:0:
320,192,191952,128,2,192024:0:0:0:0:
64,192,192024,1,2,0:0:0:0:
448,192,192024,1,0,0:0:0:0:
192,192,192096,1,2,0:0:0:0:
320,192,192096,1,0,0:0:0:0:
448,192,192169,128,0,192241:0:0:0:0:
192,192,192241,128,2,192385:0:0:0:0:
320,192,192313,128,0,192457:0:0:0:0:
64,192,192385,1,8,0:0:0:0:
448,192,192385,128,0,192457:0:0:0:0:
192,192,192457,1,0,0:0:0:0:
320,192,192529,1,0,0:0:0:0:
64,192,192577,1,0,0:0:0:0:
192,192,192625,1,0,0:0:0:0:
64,192,192673,1,2,0:0:0:0:
320,192,192673,1,4,0:0:0:0:
448,192,192673,128,0,192890:0:0:0:0:
64,192,192818,128,2,192890:0:0:0:0:
192,192,192818,1,0,0:0:0:0:
320,192,192962,128,2,193058:0:0:0:0:
448,192,192962,1,8,0:0:0:0:
192,192,193010,128,0,193106:0:0:0:0:
64,192,193058,128,0,193154:0:0:0:0:
448,192,193106,1,2,0:0:0:0:
320,192,193154,1,0,0:0:0:0:
192,192,193202,1,0,0:0:0:0:
64,192,193250,1,2,0:0:0:0:
192,192,193322,128,2,193394:0:0:0:0:
320,192,193322,1,0,0:0:0:0:
64,192,193394,128,2,193467:0:0:0:0:
448,192,193394,1,0,0:0:0:0:
320,192,193467,128,0,193539:0:0:0:0:
64,192,193539,1,2,0:0:0:0:
192,192,193539,1,8,0:0:0:0:
448,192,193539,1,0,0:0:0:0:
320,192,193611,1,2,0:0:0:0:
192,192,193683,1,2,0:0:0:0:
320,192,193755,1,2,0:0:0:0:
64,192,193827,1,2,0:0:0:0:
192,192,193827,128,4,193971:0:0:0:0:
448,192,193827,1,0,0:0:0:0:
320,192,193899,128,0,194188:0:0:0:0:
448,192,193971,128,0,194404:0:0:0:0:
192,192,194044,128,0,194116:0:0:0:0:
64,192,194116,128,0,194260:0:0:0:0:
192,192,194188,128,0,194380:0:0:0:0:
320,192,194260,128,0,194332:0:0:0:0:
64,192,194332,128,0,194428:0:0:0:0:
320,192,194404,128,0,194452:0:0:0:0:
192,192,194452,128,0,194500:0:0:0:0:
64,192,194500,128,0,194548:0:0:0:0:
448,192,194548,128,0,194596:0:0:0:0:
320,192,194596,128,0,194644:0:0:0:0:
192,192,194644,128,0,194693:0:0:0:0:
448,192,194693,1,2,0:0:0:0:
64,192,194741,1,2,0:0:0:0:
320,192,194789,1,2,0:0:0:0:
192,192,194837,1,2,0:0:0:0:
448,192,194885,1,2,0:0:0:0:
64,192,194933,1,2,0:0:0:0:
320,192,194981,1,6,0:0:0:0:
192,192,195053,1,0,0:0:0:0:
64,192,195125,1,0,0:0:0:0:
320,192,195197,1,0,0:0:0:0:
192,192,195269,1,0,0:0:0:0:
64,192,195342,1,0,0:0:0:0:
320,192,195414,1,0,0:0:0:0:
192,192,195486,1,0,0:0:0:0:
448,192,195558,1,0,0:0:0:70:kick11.wav
320,192,195606,1,0,0:0:0:0:
192,192,195654,1,0,0:0:0:0:
64,192,195702,1,0,0:0:0:0:
448,192,195750,1,0,0:0:0:0:
192,192,195798,1,0,0:0:0:0:
320,192,195846,1,0,0:0:0:0:
448,192,195919,1,0,0:0:0:0:
192,192,195991,1,0,0:0:0:0:
320,192,196063,1,0,0:0:0:0:
64,192,196135,128,4,196327:0:0:0:0:
192,192,196135,1,2,0:0:0:0:
448,192,196135,1,0,0:0:0:0:
320,192,196231,128,0,196279:0:0:0:0:
192,192,196279,128,0,196327:0:0:0:0:
448,192,196327,1,0,0:0:0:0:
320,192,196375,1,0,0:0:0:0:
64,192,196423,1,0,0:0:0:0:
192,192,196471,1,0,0:0:0:0:
320,192,196519,1,0,0:0:0:0:
448,192,196568,1,0,0:0:0:70:kick11.wav
64,192,196616,1,0,0:0:0:0:
192,192,196664,1,0,0:0:0:0:
448,192,196712,128,0,197289:0:0:0:0:
320,192,196784,1,0,0:0:0:0:
192,192,196856,1,0,0:0:0:70:kick11.wav
64,192,196928,1,0,0:0:0:0:
320,192,197000,128,0,197072:0:0:0:70:kick11.wav
192,192,197072,128,0,197144:0:0:0:70:kick11.wav
64,192,197144,128,0,197217:0:0:0:70:kick11.wav
192,192,197217,128,0,197289:0:0:0:70:kick11.wav
64,192,197289,1,2,0:0:0:0:
320,192,197289,128,0,197361:0:0:0:0:
192,192,197361,1,2,0:0:0:0:
448,192,197361,128,0,197433:0:0:0:0:
64,192,197433,1,0,0:0:0:0:
320,192,197505,1,2,0:0:0:0:
448,192,197505,128,0,197577:0:0:0:0:
192,192,197577,1,0,0:0:0:0:
320,192,197649,1,2,0:0:0:0:
448,192,197649,128,0,197721:0:0:0:0:
64,192,197721,1,0,0:0:0:0:
192,192,197794,1,2,0:0:0:0:
448,192,197794,128,0,197938:0:0:0:0:
64,192,197866,128,2,198154:0:0:0:0:
320,192,197866,1,0,0:0:0:0:
192,192,197938,1,0,0:0:0:0:
448,192,198010,1,0,0:0:0:0:
320,192,198082,1,0,0:0:0:0:
192,192,198154,1,2,0:0:0:0:
448,192,198202,1,2,0:0:0:0:
64,192,198250,1,2,0:0:0:0:
320,192,198298,1,2,0:0:0:0:
192,192,198346,1,2,0:0:0:0:
448,192,198394,1,2,0:0:0:0:
64,192,198443,128,2,199092:0:0:0:0:
192,192,198443,128,4,198731:0:0:0:0:
320,192,198443,128,0,198659:0:0:0:0:
320,192,198731,1,0,0:0:0:0:
192,192,198803,1,0,0:0:0:0:
448,192,198875,1,0,0:0:0:0:
320,192,198947,1,0,0:0:0:0:
448,192,199019,1,0,0:0:0:0:
192,192,199092,1,0,0:0:0:0:
64,192,199164,1,0,0:0:0:70:kick11.wav
192,192,199236,1,0,0:0:0:0:
320,192,199308,1,0,0:0:0:0:
448,192,199308,1,0,0:0:0:0:
64,192,199380,1,0,0:0:0:0:
192,192,199452,1,0,0:0:0:0:
448,192,199452,1,0,0:0:0:0:
320,192,199524,1,0,0:0:0:0:
64,192,199596,128,2,199669:0:0:0:0:
192,192,199596,128,4,199669:0:0:0:0:
320,192,199669,128,2,199741:0:0:0:0:
448,192,199669,128,4,199741:0:0:0:0:
192,192,199741,128,6,199813:0:0:0:0:
448,192,199813,128,6,199885:0:0:0:0:
64,192,199885,128,2,199957:0:0:0:0:
192,192,199885,128,4,199957:0:0:0:0:
320,192,199957,128,2,200029:0:0:0:0:
448,192,199957,128,4,200029:0:0:0:0:
64,192,200029,128,6,200101:0:0:0:0:
320,192,200101,128,6,200173:0:0:0:0:
64,192,200173,128,2,200390:0:0:0:0:
448,192,200173,128,4,200678:0:0:0:0:
64,192,200462,1,4,0:0:0:0:
192,192,200462,128,2,200678:0:0:0:0:
320,192,200462,128,8,200678:0:0:0:0:
64,192,200750,1,2,0:0:0:0:
192,192,200750,1,4,0:0:0:0:
320,192,200750,128,0,200967:0:0:0:0:
448,192,200750,128,0,201039:0:0:0:0:
64,192,200894,128,0,200967:0:0:0:0:
192,192,200967,128,0,201111:0:0:0:0:
64,192,201039,128,8,201255:0:0:0:0:
320,192,201039,1,2,0:0:0:0:
448,192,201111,128,0,201183:0:0:0:0:
192,192,201183,128,2,201255:0:0:0:0:
320,192,201255,128,2,201399:0:0:0:0:
448,192,201255,1,0,0:0:0:0:
64,192,201327,1,2,0:0:0:0:
192,192,201327,128,0,201399:0:0:0:0:
448,192,201399,128,0,201471:0:0:0:0:
192,192,201471,1,2,0:0:0:0:
320,192,201471,128,0,201544:0:0:0:0:
448,192,201544,128,0,201616:0:0:0:0:
320,192,201616,1,10,0:0:0:0:
192,192,201664,1,0,0:0:0:0:
64,192,201712,128,0,201760:0:0:0:0:
192,192,201760,128,0,201808:0:0:0:0:
320,192,201808,128,0,201904:0:0:0:0:
448,192,201856,128,0,201904:0:0:0:0:
64,192,201904,1,2,0:0:0:0:
192,192,201904,128,0,202120:0:0:0:0:
64,192,202048,1,2,0:0:0:0:
448,192,202048,128,0,202120:0:0:0:0:
320,192,202120,128,0,202265:0:0:0:0:
192,192,202193,1,8,0:0:0:0:
448,192,202193,128,2,202265:0:0:0:0:
64,192,202265,128,0,202337:0:0:0:0:
320,192,202337,128,2,202409:0:0:0:0:
448,192,202337,1,0,0:0:0:0:
192,192,202409,128,0,202481:0:0:0:0:
320,192,202481,1,2,0:0:0:0:
448,192,202481,1,0,0:0:0:0:
64,192,202553,1,2,0:0:0:0:
192,192,202553,1,0,0:0:0:0:
320,192,202625,1,2,0:0:0:0:
448,192,202625,128,0,202818:0:0:0:0:
64,192,202673,1,0,0:0:0:0:
192,192,202721,1,0,0:0:0:0:
320,192,202769,128,10,202866:0:0:0:0:
192,192,202818,128,0,202914:0:0:0:0:
64,192,202866,128,0,202962:0:0:0:0:
448,192,202914,1,2,0:0:0:0:
320,192,202962,1,0,0:0:0:0:
192,192,203010,1,0,0:0:0:0:
64,192,203058,1,4,0:0:0:0:
320,192,203058,1,2,0:0:0:0:
448,192,203058,1,0,0:0:0:0:
192,192,203154,1,2,0:0:0:0:
320,192,203202,1,0,0:0:0:0:
448,192,203250,1,2,0:0:0:0:
64,192,203298,1,0,0:0:0:0:
192,192,203346,1,0,0:0:0:0:
320,192,203394,1,0,0:0:0:0:
64,192,203443,1,0,0:0:0:0:
192,192,203491,1,2,0:0:0:0:
320,192,203539,1,0,0:0:0:0:
448,192,203587,1,0,0:0:0:0:
192,192,203635,128,8,203731:0:0:0:0:
320,192,203683,128,2,203779:0:0:0:0:
448,192,203731,128,2,204019:0:0:0:0:
64,192,203779,1,2,0:0:0:0:
192,192,203827,1,0,0:0:0:0:
320,192,203875,1,0,0:0:0:0:
192,192,203923,1,10,0:0:0:0:
64,192,203971,1,2,0:0:0:0:
320,192,204019,1,2,0:0:0:0:
192,192,204068,1,2,0:0:0:0:
448,192,204116,1,2,0:0:0:0:
320,192,204164,1,2,0:0:0:0:
64,192,204212,128,2,205005:0:0:0:0:
448,192,204212,128,4,205005:0:0:0:0:
192,192,204789,128,0,205005:0:0:0:0:
320,192,204789,128,0,205005:0:0:0:0:
64,192,205077,1,0,0:0:0:0:
192,192,205125,1,0,0:0:0:0:
448,192,205173,1,0,0:0:0:0:
64,192,205221,1,0,0:0:0:0:
320,192,205269,1,0,0:0:0:0:
448,192,205318,1,0,0:0:0:0:
64,192,205366,1,4,0:0:0:0:
192,192,205366,1,2,0:0:0:0:
448,192,205438,128,6,205486:0:0:0:0:
64,192,205510,1,2,0:0:0:0:
192,192,205510,1,4,0:0:0:0:
320,192,205582,128,6,205630:0:0:0:0:
64,192,205654,1,2,0:0:0:0:
192,192,205654,1,4,0:0:0:0:
448,192,205726,128,6,205774:0:0:0:0:
64,192,205798,1,2,0:0:0:0:
192,192,205798,1,4,0:0:0:0:
320,192,205870,128,6,205919:0:0:0:0:
64,192,205943,1,2,0:0:0:0:
192,192,205943,1,4,0:0:0:0:
448,192,206015,128,6,206063:0:0:0:0:
64,192,206087,1,2,0:0:0:0:
192,192,206087,1,4,0:0:0:0:
320,192,206159,128,6,206207:0:0:0:0:
64,192,206231,1,2,0:0:0:0:
192,192,206231,1,4,0:0:0:0:
448,192,206303,128,6,206351:0:0:0:0:
64,192,206375,1,2,0:0:0:0:
192,192,206375,1,4,0:0:0:0:
320,192,206447,128,6,206495:0:0:0:0:
64,192,206519,1,4,0:0:0:0:
448,192,206519,1,2,0:0:0:0:
320,192,206592,128,6,206640:0:0:0:0:
64,192,206664,1,2,0:0:0:0:
448,192,206664,1,4,0:0:0:0:
192,192,206736,128,6,206784:0:0:0:0:
64,192,206808,1,4,0:0:0:0:
448,192,206808,1,2,0:0:0:0:
320,192,206880,128,6,206928:0:0:0:0:
64,192,206952,1,2,0:0:0:0:
448,192,206952,1,4,0:0:0:0:
192,192,207024,128,6,207072:0:0:0:0:
320,192,207096,1,4,0:0:0:0:
448,192,207096,1,2,0:0:0:0:
192,192,207169,128,6,207217:0:0:0:0:
320,192,207241,1,2,0:0:0:0:
448,192,207241,1,4,0:0:0:0:
64,192,207313,128,6,207361:0:0:0:0:
320,192,207385,1,2,0:0:0:0:
448,192,207385,1,4,0:0:0:0:
192,192,207457,128,6,207505:0:0:0:0:
320,192,207529,1,2,0:0:0:0:
448,192,207529,1,4,0:0:0:0:
64,192,207601,128,6,207649:0:0:0:0:
192,192,207673,1,4,0:0:0:0:
320,192,207673,1,2,0:0:0:0:
448,192,207745,128,6,207794:0:0:0:0:
192,192,207818,1,2,0:0:0:0:
320,192,207818,1,4,0:0:0:0:
64,192,207890,128,6,207938:0:0:0:0:
192,192,207962,1,4,0:0:0:0:
320,192,207962,1,2,0:0:0:0:
448,192,208034,128,6,208082:0:0:0:0:
192,192,208106,1,2,0:0:0:0:
320,192,208106,1,4,0:0:0:0:
64,192,208178,128,6,208226:0:0:0:0:
192,192,208250,1,2,0:0:0:0:
320,192,208250,1,4,0:0:0:0:
448,192,208322,128,6,208370:0:0:0:0:
192,192,208394,1,2,0:0:0:0:
320,192,208394,1,4,0:0:0:0:
64,192,208467,128,6,208515:0:0:0:0:
192,192,208539,1,2,0:0:0:0:
320,192,208539,1,4,0:0:0:0:
448,192,208611,128,6,208659:0:0:0:0:
192,192,208683,1,2,0:0:0:0:
320,192,208683,1,4,0:0:0:0:
64,192,208755,128,6,208803:0:0:0:0:
192,192,208827,128,2,212000:0:0:0:0:
320,192,208827,128,4,211135:0:0:0:0:
448,192,208827,128,0,211135:0:0:0:0:
64,192,208899,128,0,209765:0:0:0:0:
