osu file format v14

[General]
AudioFilename: audio.mp3
AudioLeadIn: 0
PreviewTime: 47472
Countdown: 0
SampleSet: Normal
StackLeniency: 0.7
Mode: 2
LetterboxInBreaks: 0
WidescreenStoryboard: 0

[Editor]
Bookmarks: 47941
DistanceSpacing: 0.9
BeatDivisor: 4
GridSize: 32
TimelineZoom: 1.8

[Metadata]
Title:DEEP BLUE TOWN e Oide yo
TitleUnicode:DEEP BLUE TOWNへおいでよ
Artist:team Umifure
ArtistUnicode:team うみフレ
Creator:Spectator
Version:Salad
Source:アイマリンプロジェクト
Tags:アイマリン ウェンディ ウーニィ iMarine Project 内田彩 Uchida Aya 内田真礼 Uchida Maaya 佐倉綾音 Sakura Ayane Anime Japanese Pop JPop J-Pop
BeatmapID:2628326
BeatmapSetID:1264612

[Difficulty]
HPDrainRate:3
CircleSize:3
OverallDifficulty:7
ApproachRate:7
SliderMultiplier:1.5
SliderTickRate:1

[Events]
//Background and Video events
0,0,"bg.jpg",0,0
//Break Periods
//Storyboard Layer 0 (Background)
//Storyboard Layer 1 (Fail)
//Storyboard Layer 2 (Pass)
//Storyboard Layer 3 (Foreground)
//Storyboard Layer 4 (Overlay)
//Storyboard Sound Samples

[TimingPoints]
2944,375,4,1,1,55,1,0
8944,-100,4,1,1,60,0,0
20944,-100,4,1,1,50,0,0
32756,-100,4,1,1,55,0,0
44944,-100,4,1,1,60,0,0
46444,-100,4,2,2,60,0,0
47944,-100,4,1,1,70,0,1
59944,-100,4,1,1,60,0,0
65944,-100,4,1,1,70,0,1
77006,-100,4,1,1,60,0,0
79444,-100,4,1,1,50,0,0
81319,-100,4,1,1,55,0,0
82069,-100,4,1,1,60,0,0
83194,-100,4,1,1,40,0,0
83944,-100,4,1,1,60,0,0
103631,-100,4,2,2,60,0,0
104194,-100,4,2,2,65,0,0
104944,-100,4,1,1,70,0,1
116944,-100,4,1,1,60,0,0
128944,-100,4,1,1,70,0,1
129694,-100,4,1,3,70,0,1
130069,-100,4,1,1,70,0,1
131194,-100,4,1,3,70,0,1
131569,-100,4,1,1,70,0,1
135037,-100,4,1,1,60,0,1
135131,-100,4,1,4,70,0,1
135506,-100,4,1,1,70,0,1
136444,-100,4,1,5,70,0,1
136631,-100,4,1,1,70,0,1
136819,-100,4,1,5,70,0,1
137006,-100,4,1,1,70,0,1
137475,-100,4,1,1,70,0,1
137756,-100,4,1,1,70,0,1
140944,-100,4,1,1,55,0,0
146944,-100,4,1,1,60,0,0
149944,-100,4,1,1,65,0,0
154444,-100,4,2,2,55,0,0
155944,-100,4,1,1,65,0,0
157631,-100,4,1,1,65,0,0
158006,-100,4,1,1,65,0,0
158194,-100,4,1,1,70,0,0
158944,-100,4,1,1,80,0,1
170850,-100,4,1,1,80,0,0
170944,-100,4,1,1,80,0,1
171319,-100,4,1,10,80,0,1
171881,-100,4,1,1,80,0,1
172069,-100,4,1,10,80,0,1
172631,-100,4,1,1,80,0,1
172819,-100,4,1,10,80,0,1
173381,-100,4,1,1,80,0,1
173569,-100,4,1,10,80,0,1
173756,-100,4,1,1,80,0,1
173944,-100,4,1,10,80,0,1
174131,-100,4,1,1,80,0,1
174319,-100,4,1,10,80,0,1
174881,-100,4,1,1,80,0,1
175069,-100,4,1,10,80,0,1
175631,-100,4,1,1,80,0,1
175819,-100,4,1,10,80,0,1
176006,-100,4,1,1,80,0,1
176194,-100,4,1,10,80,0,1
176381,-100,4,1,1,80,0,1
176569,-100,4,1,10,80,0,1
176662,-100,4,1,1,80,0,1
176756,-100,4,1,10,80,0,1
176850,-100,4,1,1,80,0,1
176944,-100,4,1,10,80,0,1
177131,-100,4,1,1,80,0,1
177319,-100,4,1,10,80,0,1
177881,-100,4,1,1,80,0,1
178069,-100,4,1,10,80,0,1
178631,-100,4,1,1,80,0,1
178819,-100,4,1,10,80,0,1
179287,-100,4,1,1,80,0,1
179569,-100,4,1,10,80,0,1
180131,-100,4,1,1,80,0,1
180319,-100,4,1,10,80,0,1
180881,-100,4,1,1,80,0,1
181069,-100,4,1,10,80,0,1
181631,-100,4,1,1,80,0,1
181819,-100,4,1,10,80,0,1
182006,-100,4,1,1,80,0,1
182194,-100,4,1,10,80,0,1
182381,-100,4,1,1,80,0,1
182944,-100,4,1,1,80,0,0
194194,-100,4,1,30,80,0,1
194287,-100,4,1,30,70,0,0

[Colours]
Combo1 : 252,242,122
Combo2 : 101,203,241
Combo3 : 180,180,180
Combo4 : 197,243,133
Combo5 : 136,237,251

[HitObjects]
255,94,2944,6,0,L|134:95,2,112.5,4|4|4,0:0|0:0|0:0,0:0:0:0:
431,91,3694,2,0,L|431:272,1,150,4|8,0:0|0:0,0:0:0:0:
347,236,4256,1,0,0:0:0:0:
172,243,4444,6,0,L|6:244,2,150,4|4|4,0:0|0:0|0:0,0:0:0:0:
337,243,5569,2,0,L|337:143,1,75,8|0,0:0|2:0,0:0:0:0:
164,124,5944,6,0,L|29:123,2,112.5,4|4|4,0:0|0:0|0:0,0:0:0:0:
247,169,6694,2,0,L|382:168,2,112.5,4|4|4,0:0|0:0|0:0,0:0:0:0:
420,119,7444,6,0,L|421:299,1,150,0|4,1:0|0:0,0:0:0:0:
118,272,8194,1,4,0:0:0:0:
117,143,8569,1,8,0:0:0:0:
427,235,8944,6,0,P|468:205|416:131,1,150,4|8,0:2|0:0,0:0:0:0:
283,252,9694,2,0,L|461:250,1,150,4|0,0:0|0:0,0:0:0:0:
290,106,10444,6,0,L|112:104,2,150,4|0|4,0:0|0:0|0:0,0:0:0:0:
116,104,11381,1,0,0:0:0:0:
116,104,11569,1,8,0:0:0:0:
304,104,11944,6,0,L|305:284,1,150,4|8,0:0|0:0,0:0:0:0:
123,104,12694,2,0,L|122:284,1,150,4|0,0:0|0:0,0:0:0:0:
204,252,13256,1,0,0:0:0:0:
387,256,13444,6,0,P|428:206|375:137,1,150,4|8,0:0|0:0,0:0:0:0:
306,139,14006,1,0,0:0:0:0:
125,256,14194,2,0,P|84:206|137:137,1,150,8|8,0:0|0:0,0:0:0:0:
206,139,14756,1,0,0:0:0:0:
385,141,14944,6,0,L|216:141,1,150,4|8,0:2|0:0,0:0:0:0:
55,256,15694,2,0,L|224:256,1,150,4|0,0:0|0:0,0:0:0:0:
40,199,16444,6,0,L|219:200,2,150,4|8|4,0:0|0:0|0:0,0:0:0:0:
212,199,17381,1,0,0:0:0:0:
212,199,17569,1,8,0:0:0:0:
48,200,17944,6,0,P|57:151|151:97,1,150,4|8,0:2|0:0,0:0:0:0:
285,104,18694,1,4,0:0:0:0:
440,188,19069,2,0,L|451:294,1,75
269,231,19444,6,0,L|129:233,2,112.5,4|0|0,0:0|0:0|0:0,0:0:0:0:
289,131,20381,2,0,P|321:214|235:245,1,150,8|8,0:0|0:3,0:0:0:0:
112,289,20944,6,0,P|69:251|127:184,1,150,4|8,0:0|0:0,0:0:0:0:
276,172,21694,1,4,0:0:0:0:
102,85,22069,1,8,0:0:0:0:
268,163,22444,6,0,L|422:173,1,150,4|8,0:0|0:0,0:0:0:0:
248,277,23194,2,0,L|94:287,1,150,4|8,0:0|0:0,0:0:0:0:
270,344,23944,6,0,P|341:321|365:226,1,150,0|8,0:0|0:0,0:0:0:0:
210,212,24694,1,4,0:0:0:0:
366,89,25069,2,0,L|366:180,1,75,8|0,0:0|0:0,0:0:0:0:
188,238,25444,6,0,P|135:227|96:139,1,150,4|8,0:0|0:0,0:0:0:0:
179,144,26006,1,0,0:0:0:0:
361,239,26194,2,0,P|414:228|453:140,1,150,4|8,0:0|0:0,0:0:0:0:
370,145,26756,1,0,0:0:0:0:
188,146,26944,6,0,L|360:146,1,150,4|8,0:0|0:0,0:0:0:0:
501,252,27694,2,0,L|329:252,1,150,4|8,0:0|0:0,0:0:0:0:
180,314,28444,6,0,L|180:135,1,150,4|8,0:0|0:0,0:0:0:0:
346,158,29194,2,0,L|509:158,1,150,4|8,0:0|0:0,0:0:0:0:
214,138,29944,6,0,L|214:302,1,150,4|8,0:0|0:0,0:0:0:0:
378,280,30694,1,4,0:0:0:0:
201,285,31069,1,8,0:0:0:0:
376,290,31444,6,0,L|375:113,1,150,4|8,0:0|0:0,0:0:0:0:
200,146,32006,1,0,0:0:0:0:
117,152,32194,1,4,0:0:0:0:
299,296,32569,2,0,L|297:201,1,75,8|0,0:0|0:0,0:0:0:0:
110,237,32944,6,0,P|139:148|209:126,1,150,4|8,0:2|0:0,0:0:0:0:
267,129,33506,1,0,0:0:0:0:
349,132,33694,1,4,0:0:0:0:
184,131,34069,1,8,0:0:0:0:
181,213,34256,1,0,0:0:0:0:
361,236,34444,6,0,P|332:147|262:125,1,150,4|8,0:0|0:0,0:0:0:0:
204,128,35006,1,0,0:0:0:0:
122,131,35194,1,4,1:0:0:0:
287,130,35569,1,8,1:0:0:0:
462,129,35944,6,0,L|301:129,3,150,4|8|4|8,0:0|0:0|0:0|0:0,0:0:0:0:
37,120,37444,5,8,0:0:0:0:
211,124,37819,1,8,0:0:0:0:
37,120,38194,1,8,0:0:0:0:
216,117,38569,2,0,L|216:220,1,75,8|4,0:1|0:1,0:0:0:0:
51,211,38944,6,0,L|50:49,1,150,4|8,0:2|0:0,0:0:0:0:
224,317,39694,2,0,L|225:155,1,150,4|8,0:0|0:0,0:0:0:0:
402,170,40444,5,4,0:0:0:0:
399,38,40819,1,8,0:0:0:0:
97,257,41194,2,0,L|357:256,1,225,4|4,0:0|0:0,0:0:0:0:
144,273,41944,6,0,L|145:100,1,150,4|8,0:2|0:0,0:0:0:0:
309,115,42694,1,4,0:0:0:0:
470,172,43069,1,8,0:0:0:0:
471,243,43256,1,4,0:0:0:0:
298,258,43444,6,0,L|132:257,1,150,4|8,0:2|0:0,0:0:0:0:
300,115,44194,2,0,L|466:114,1,150,4|8,0:0|0:0,0:0:0:0:
123,56,44944,5,4,0:0:0:0:
123,56,45131,1,8,0:0:0:0:
291,54,45506,1,4,0:0:0:0:
291,54,45693,1,8,0:0:0:0:
123,56,46069,1,8,0:0:0:0:
291,54,46256,1,8,0:0:0:0:
433,143,47569,2,0,L|434:238,1,75,4|4,0:1|0:0,0:0:0:0:
257,228,47944,6,0,P|185:203|170:125,1,150,4|8,0:2|0:0,0:0:0:0:
248,133,48506,1,2,0:0:0:0:
330,129,48694,1,4,0:0:0:0:
165,125,49069,1,8,0:0:0:0:
471,123,49444,6,0,L|471:279,1,150,4|8,0:0|0:0,0:0:0:0:
306,274,50194,1,4,0:0:0:0:
470,274,50569,1,8,0:0:0:0:
470,274,50756,1,2,0:0:0:0:
293,279,50944,6,0,P|221:254|206:176,1,150,4|8,0:2|0:0,0:0:0:0:
284,184,51506,1,2,0:0:0:0:
366,180,51694,1,4,0:0:0:0:
201,176,52069,1,8,0:0:0:0:
366,180,52444,6,0,L|366:341,1,150,4|8,0:0|0:0,0:0:0:0:
283,326,53006,1,2,0:0:0:0:
200,322,53194,1,4,0:0:0:0:
31,323,53569,1,8,0:0:0:0:
31,323,53756,1,2,0:0:0:0:
209,317,53944,6,0,P|281:292|296:214,1,150,4|8,0:2|0:0,0:0:0:0:
218,222,54506,1,2,0:0:0:0:
136,218,54694,1,4,0:0:0:0:
292,210,55069,1,8,0:0:0:0:
292,210,55256,1,2,0:0:0:0:
112,209,55444,6,0,L|113:52,1,150,4|8,0:0|0:0,0:0:0:0:
195,53,56006,1,2,0:0:0:0:
277,47,56194,1,4,0:0:0:0:
426,107,56569,1,8,0:0:0:0:
110,293,56944,6,0,L|109:136,1,150,4|8,0:2|0:0,0:0:0:0:
191,143,57506,1,2,0:0:0:0:
341,144,57694,2,0,L|160:144,1,150,4|8,0:2|0:0,0:0:0:0:
490,237,58444,6,0,L|491:77,1,150,4|8,0:2|0:0,0:0:0:0:
161,83,59194,2,0,L|161:249,1,150,4|8,0:0|0:0,0:0:0:0:
236,230,59756,1,2,0:0:0:0:
394,228,59944,6,0,L|248:229,2,112.5,4|4|4,0:2|0:0|0:0,0:0:0:0:
219,230,60694,1,4,0:0:0:0:
388,229,61069,2,0,L|387:118,1,75,8|0,0:0|0:0,0:0:0:0:
218,127,61444,6,0,L|58:126,2,150,4|4|4,1:0|1:0|0:0,0:0:0:0:
388,229,62569,2,0,L|387:118,1,75,8|4,0:0|0:0,0:0:0:0:
213,110,62944,6,0,L|86:109,2,112.5,4|4|4,0:0|0:0|0:0,0:0:0:0:
298,188,63694,2,0,L|171:187,2,112.5,4|4|4,0:0|0:0|0:0,0:0:0:0:
477,188,64444,5,4,0:0:0:0:
312,192,64819,1,4,0:0:0:0:
147,196,65194,1,4,0:0:0:0:
469,237,65944,6,0,P|510:207|458:133,1,150,4|8,0:2|0:0,0:0:0:0:
317,254,66694,2,0,L|495:252,1,150,4|0,0:0|0:0,0:0:0:0:
325,108,67444,6,0,L|190:107,2,112.5,4|0|4,0:0|0:0|0:0,0:0:0:0:
151,106,68381,1,2,0:0:0:0:
69,108,68569,1,8,0:0:0:0:
221,287,68944,6,0,L|385:289,1,150,4|8,0:0|0:0,0:0:0:0:
197,78,69694,2,0,L|196:258,1,150,4|0,0:0|0:0,0:0:0:0:
278,226,70256,1,2,0:0:0:0:
454,259,70444,6,0,P|495:209|442:140,1,150,8|8,0:0|0:0,0:0:0:0:
373,142,71006,1,2,0:0:0:0:
192,187,71194,2,0,L|355:189,1,150,8|8,0:0|0:0,0:0:0:0:
341,188,71756,1,2,0:0:0:0:
173,96,71944,6,0,L|173:259,1,150,4|4,0:2|0:2,0:0:0:0:
346,296,72694,2,0,L|196:296,1,150,4|0,0:0|0:0,0:0:0:0:
111,260,73256,1,2,0:0:0:0:
290,180,73444,6,0,L|406:182,2,112.5,4|8|4,0:0|0:0|0:0,0:0:0:0:
103,184,74381,1,2,0:0:0:0:
103,184,74569,1,8,0:0:0:0:
418,105,74944,6,0,L|419:283,1,150,4|8,0:2|0:0,0:0:0:0:
336,105,75506,1,2,0:0:0:0:
253,105,75694,1,4,0:0:0:0:
163,182,76069,2,0,L|255:182,1,75,4|2,0:3|0:2,0:0:0:0:
416,249,76444,6,0,L|276:251,2,112.5,4|8|14,0:2|0:0|0:0,0:0:0:0:
238,268,77381,2,0,L|87:268,1,150,8|8,0:0|0:3,0:0:0:0:
88,181,77944,5,4,0:0:0:0:
403,182,78319,1,4,0:2:0:0:
223,232,79444,2,0,P|317:189|330:148,2,150,4|4|4,0:3|0:3|0:3,0:0:0:0:
139,228,80381,1,8,0:0:0:0:
454,235,80756,6,0,L|453:71,1,150,4|4,0:3|0:0,0:0:0:0:
370,90,81319,1,12,0:0:0:0:
287,95,81506,1,4,0:0:0:0:
114,178,81694,1,4,0:0:0:0:
81,98,81881,1,0,0:0:0:0:
117,23,82069,1,8,0:0:0:0:
197,5,82256,1,8,0:0:0:0:
380,11,82444,1,8,0:1:0:0:
168,288,83944,6,0,P|181:213|268:186,1,150,4|8,0:2|0:0,0:0:0:0:
406,180,84694,1,4,0:0:0:0:
242,182,85069,2,0,L|146:182,1,75,8|0,0:0|0:0,0:0:0:0:
344,182,85444,6,0,L|344:20,1,150,4|8,0:0|0:0,0:0:0:0:
261,31,86006,1,0,0:0:0:0:
177,31,86194,2,0,L|359:32,1,150,4|8,0:0|0:0,0:0:0:0:
57,105,86944,6,0,L|57:277,1,150,4|8,0:2|0:0,0:0:0:0:
139,251,87506,1,0,0:0:0:0:
308,120,87694,2,0,L|308:292,1,150,4|8,0:2|0:0,0:0:0:0:
228,266,88256,1,0,0:0:0:0:
149,268,88444,6,0,L|149:110,1,150,4|8,0:2|0:0,0:0:0:0:
336,173,89194,2,0,L|337:344,1,150,4|8,0:0|0:0,0:0:0:0:
254,323,89756,1,4,0:0:0:0:
74,323,89944,6,0,L|229:325,1,150,4|8,0:2|0:0,0:0:0:0:
395,306,90694,2,0,L|240:308,1,150,4|8,0:0|0:0,0:0:0:0:
95,318,91444,6,0,L|95:132,1,150,4|8,0:0|0:0,0:0:0:0:
266,169,92194,1,4,0:0:0:0:
430,171,92569,1,8,0:0:0:0:
347,171,92756,1,0,0:0:0:0:
176,174,92944,6,0,P|138:136|195:51,1,150,4|8,0:2|0:0,0:0:0:0:
254,54,93506,1,0,0:0:0:0:
336,51,93694,1,4,0:0:0:0:
171,48,94069,1,8,0:0:0:0:
171,48,94256,1,4,0:0:0:0:
342,115,94444,6,0,L|501:123,2,150,8|8|8,0:0|0:0|0:0,0:0:0:0:
178,136,95569,1,8,0:0:0:0:
178,136,95756,1,0,0:0:0:0:
357,134,95944,6,0,P|411:148|456:254,1,150,4|8,0:2|0:0,0:0:0:0:
375,229,96506,1,0,0:0:0:0:
292,229,96694,2,0,L|292:388,1,150,4|8,0:0|0:0,0:0:0:0:
140,239,97444,6,0,L|140:58,1,150,4|8,0:0|0:0,0:0:0:0:
464,241,98194,2,0,L|464:14,1,225,4|0,0:0|0:0,0:0:0:0:
288,78,98944,6,0,P|220:95|200:190,1,150,4|8,0:2|0:0,0:0:0:0:
357,152,99694,1,4,0:0:0:0:
192,148,100069,1,8,0:0:0:0:
192,148,100256,1,0,0:0:0:0:
372,225,100444,6,0,L|188:227,3,150,4|8|4|8,0:2|0:0|0:0|0:0,0:0:0:0:
221,144,101756,1,0,0:0:0:0:
403,144,101944,5,8,0:0:0:0:
485,144,102131,1,0,0:0:0:0:
320,145,102506,1,8,0:0:0:0:
238,145,102693,1,0,0:0:0:0:
403,143,103069,1,8,0:0:0:0:
221,144,103256,1,4,0:0:0:0:
117,143,104569,2,0,L|116:238,1,75,8|8,0:2|0:2,0:0:0:0:
293,228,104944,6,0,P|365:203|380:125,1,150,4|8,0:2|0:0,0:0:0:0:
302,133,105506,1,2,0:0:0:0:
220,129,105694,1,4,0:0:0:0:
385,125,106069,1,8,0:0:0:0:
66,123,106444,6,0,L|66:279,1,150,4|8,0:0|0:0,0:0:0:0:
206,274,107194,1,4,0:0:0:0:
67,274,107569,1,8,0:0:0:0:
67,274,107756,1,6,0:0:0:0:
226,278,107944,6,0,P|298:253|313:175,1,150,4|8,0:2|0:0,0:0:0:0:
235,183,108506,1,2,0:0:0:0:
153,179,108694,1,4,0:0:0:0:
311,176,109069,1,8,0:0:0:0:
146,180,109444,6,0,L|146:341,1,150,4|8,0:0|0:0,0:0:0:0:
229,326,110006,1,2,0:0:0:0:
312,322,110194,1,4,0:0:0:0:
481,323,110569,1,8,0:0:0:0:
481,323,110756,1,6,0:0:0:0:
303,317,110944,6,0,P|231:292|216:214,1,150,4|8,0:2|0:0,0:0:0:0:
294,222,111506,1,2,0:0:0:0:
376,218,111694,1,4,0:0:0:0:
219,210,112069,1,8,0:0:0:0:
219,210,112256,1,2,0:0:0:0:
399,209,112444,6,0,L|398:52,1,150,4|8,0:0|0:0,0:0:0:0:
318,53,113006,1,2,0:0:0:0:
239,47,113194,1,4,0:0:0:0:
88,107,113569,1,8,0:0:0:0:
405,293,113944,6,0,L|406:136,1,150,4|8,0:2|0:0,0:0:0:0:
324,143,114506,1,2,0:0:0:0:
154,144,114694,2,0,L|335:144,1,150,4|8,0:2|0:0,0:0:0:0:
11,237,115444,6,0,L|10:77,1,150,4|8,0:2|0:0,0:0:0:0:
337,83,116194,2,0,L|337:249,1,150,4|8,0:0|0:0,0:0:0:0:
255,230,116756,1,2,0:0:0:0:
101,228,116944,6,0,L|247:229,2,112.5,4|4|4,0:0|0:0|0:0,0:0:0:0:
264,226,117694,1,4,0:0:0:0:
101,228,118069,1,8,0:0:0:0:
426,210,118444,6,0,L|280:211,2,112.5,4|4|4,0:0|0:0|0:0,0:0:0:0:
343,210,119194,1,4,0:0:0:0:
169,208,119381,1,8,0:0:0:0:
169,208,119569,1,8,0:0:0:0:
335,240,119944,6,0,L|447:240,2,112.5,4|4|4,0:0|0:0|0:0,0:0:0:0:
245,288,120694,2,0,L|391:289,2,112.5,4|4|4,0:0|0:0|0:0,0:0:0:0:
421,225,121444,5,4,0:0:0:0:
256,228,121819,1,4,0:0:0:0:
91,231,122194,1,4,0:0:0:0:
267,228,122381,1,8,0:0:0:0:
349,228,122569,1,8,0:0:0:0:
267,228,122756,1,8,0:0:0:0:
88,328,122944,6,0,L|87:186,2,112.5,4|4|4,0:0|0:0|0:0,0:0:0:0:
263,324,123694,1,4,0:0:0:0:
345,325,123881,1,8,0:0:0:0:
427,326,124069,1,8,0:0:0:0:
90,232,124444,6,0,L|89:90,2,112.5,4|4|4,0:0|0:0|0:0,0:0:0:0:
265,228,125194,2,0,P|328:217|256:129,1,225,4|0,0:0|0:0,0:0:0:0:
83,233,125944,6,0,L|82:91,2,112.5,4|4|4,0:0|0:0|0:0,0:0:0:0:
259,230,126694,2,0,L|258:88,2,112.5,4|4|4,0:0|0:0|0:0,0:0:0:0:
422,317,127444,6,0,L|238:318,2,150,4|4|4,0:0|0:0|0:0,0:0:0:0:
95,229,128569,1,8,0:0:0:0:
95,229,128756,1,4,0:0:0:0:
275,226,128944,5,4,0:2:0:0:
357,226,129131,1,2,0:0:0:0:
439,227,129319,1,8,0:0:0:0:
253,99,129694,2,0,L|396:98,2,112.5,6|0|2,0:0|0:0|0:0,0:0:0:0:
72,248,130444,5,4,0:0:0:0:
154,248,130631,1,2,0:0:0:0:
236,249,130819,1,8,0:0:0:0:
404,142,131194,2,0,L|291:141,2,112.5,6|0|2,0:0|0:0|0:0,0:0:0:0:
223,233,131944,6,0,L|400:235,1,150,8|8,0:0|0:0,0:0:0:0:
200,347,132694,2,0,L|377:349,1,150,8|8,0:0|0:0,0:0:0:0:
268,346,133256,1,2,0:0:0:0:
89,343,133444,6,0,L|89:184,1,150,4|8,0:2|0:0,0:0:0:0:
171,194,134006,1,2,0:0:0:0:
355,196,134194,2,0,P|340:134|266:95,1,150,8|8,0:0|0:0,0:0:0:0:
185,92,134756,1,6,0:0:0:0:
102,91,134944,1,4,0:2:0:0:
276,69,135131,6,0,L|459:71,1,150,2|2,0:1|0:0,0:0:0:0:
342,69,135694,2,0,L|342:241,1,150,4|0,0:0|0:0,0:0:0:0:
424,220,136256,1,6,0:0:0:0:
239,220,136444,6,0,L|65:223,2,150,6|10|4,0:0|0:0|0:0,0:0:0:0:
89,222,137569,1,8,0:1:0:0:
419,217,137944,6,0,L|419:45,1,150,4|8,0:2|0:0,0:0:0:0:
336,67,138506,1,0,0:0:0:0:
253,67,138694,1,12,0:0:0:0:
376,67,138975,1,8,0:0:0:0:
252,67,139256,1,8,0:0:0:0:
95,74,139444,6,0,L|259:73,1,150,4|8,0:2|0:0,0:0:0:0:
418,74,140194,2,0,L|418:267,1,150,8|8,0:0|0:0,0:0:0:0:
339,219,140756,1,4,0:0:0:0:
172,254,140944,6,0,P|105:208|193:112,1,225,4|4,0:2|0:0,0:0:0:0:
87,108,141694,2,0,L|264:105,1,150,4|8,0:0|0:0,0:0:0:0:
404,160,142444,6,0,P|471:114|383:18,1,225,4|4,0:0|0:0,0:0:0:0:
491,14,143194,2,0,L|314:11,1,150,4|8,0:0|0:0,0:0:0:0:
194,11,143944,6,0,L|364:12,3,150,4|4|4|8,0:0|0:0|0:0|0:0,0:0:0:0:
29,165,145444,6,0,L|208:158,2,150,8|8|8,0:0|0:0|0:0,0:0:0:0:
186,171,146569,1,8,0:0:0:0:
186,171,146756,1,4,0:0:0:0:
362,170,146944,6,0,P|415:160|459:63,1,150,4|8,0:2|0:0,0:0:0:0:
378,83,147506,1,0,0:0:0:0:
295,83,147694,2,0,L|296:250,1,150,4|8,0:0|0:0,0:0:0:0:
441,232,148444,5,4,0:0:0:0:
117,259,148819,2,0,P|130:202|222:166,1,150,8|4,0:0|0:0,0:0:0:0:
289,166,149381,1,0,0:0:0:0:
371,168,149569,1,0,0:0:0:0:
53,163,149944,6,0,L|230:165,2,150,4|8|4,0:2|0:0|0:0,0:0:0:0:
51,61,151069,1,0,0:0:0:0:
374,92,151444,6,0,P|425:132|357:164,1,150,4|8,0:2|0:0,0:0:0:0:
63,183,152194,2,0,P|12:223|80:255,1,150,4|8,0:0|0:0,0:0:0:0:
401,263,152944,5,8,0:0:0:0:
318,264,153131,1,0,0:0:0:0:
165,261,153506,1,8,0:0:0:0:
82,262,153693,1,0,0:0:0:0:
247,187,154069,1,8,0:0:0:0:
74,184,154256,1,4,0:0:0:0:
339,222,155944,5,4,0:2:0:0:
421,223,156131,1,0,0:0:0:0:
251,158,156506,1,8,0:0:0:0:
169,159,156693,1,0,0:0:0:0:
345,132,157069,1,8,0:0:0:0:
148,134,157256,1,4,0:0:0:0:
78,164,157631,6,0,L|258:162,1,150,8|4,0:0|0:0,0:0:0:0:
404,83,158194,1,10,0:0:0:0:
473,127,158381,1,0,0:0:0:0:
493,207,158569,1,4,0:0:0:0:
458,281,158756,1,8,0:0:0:0:
272,327,158944,6,0,L|103:326,1,150,4|8,0:2|0:0,0:0:0:0:
204,325,159506,1,2,0:0:0:0:
377,319,159694,2,0,P|417:271|359:200,1,150,4|8,0:0|0:0,0:0:0:0:
299,207,160256,1,2,0:0:0:0:
117,207,160444,6,0,L|277:207,2,150,4|8|4,0:0|0:0|0:0,0:0:0:0:
295,208,161569,1,8,0:0:0:0:
295,208,161756,1,6,0:0:0:0:
118,210,161944,6,0,P|132:156|241:120,1,150,4|8,0:2|0:0,0:0:0:0:
293,114,162506,1,2,0:0:0:0:
375,114,162694,1,4,0:0:0:0:
210,114,163069,1,8,0:0:0:0:
293,114,163256,1,2,0:0:0:0:
469,118,163444,6,0,L|296:118,1,150,4|8,0:0|0:0,0:0:0:0:
236,118,164006,1,2,0:0:0:0:
318,115,164194,2,0,L|319:284,1,150,4|8,0:0|0:0,0:0:0:0:
236,265,164756,1,6,0:0:0:0:
61,274,164944,6,0,P|76:220|181:189,1,150,4|8,0:2|0:0,0:0:0:0:
238,181,165506,1,2,0:0:0:0:
320,180,165694,1,4,0:0:0:0:
155,183,166069,1,8,0:0:0:0:
155,183,166256,1,2,0:0:0:0:
331,182,166444,5,4,0:0:0:0:
395,130,166631,1,2,0:0:0:0:
416,48,166819,1,8,0:0:0:0:
395,130,167006,1,2,0:0:0:0:
331,182,167194,1,4,0:0:0:0:
156,181,167569,1,8,0:0:0:0:
156,181,167756,1,6,0:0:0:0:
340,184,167944,6,0,L|499:182,1,150,4|8,0:2|0:0,0:0:0:0:
489,182,168506,1,2,0:0:0:0:
310,90,168694,2,0,L|151:88,1,150,4|8,0:2|0:0,0:0:0:0:
160,88,169256,1,2,0:0:0:0:
340,184,169444,6,0,L|499:182,3,150,4|8|8|8,0:2|0:0|0:0|0:0,0:0:0:0:
491,93,170756,1,4,0:0:0:0:
305,95,170944,6,0,P|230:131|252:193,1,150,4|8,0:2|0:0,0:0:0:0:
323,180,171506,1,2,0:0:0:0:
405,176,171694,2,0,L|407:344,1,150,4|8,0:0|0:0,0:0:0:0:
324,327,172256,1,2,0:0:0:0:
143,334,172444,6,0,L|308:334,2,150,4|8|4,0:0|0:0|0:0,0:0:0:0:
315,328,173569,1,8,0:0:0:0:
315,328,173756,1,6,0:0:0:0:
134,330,173944,6,0,P|74:285|128:220,1,150,4|8,0:2|0:0,0:0:0:0:
183,227,174506,1,2,0:0:0:0:
265,227,174694,2,0,L|88:227,1,150,4|8,0:0|0:0,0:0:0:0:
197,224,175256,1,2,0:0:0:0:
375,225,175444,6,0,L|375:62,1,150,4|8,0:0|0:0,0:0:0:0:
292,79,176006,1,2,0:0:0:0:
119,189,176194,2,0,L|291:190,1,150,4|8,0:0|0:0,0:0:0:0:
351,191,176756,1,6,0:0:0:0:
166,194,176944,6,0,P|106:175|81:71,1,150,4|8,0:2|0:0,0:0:0:0:
156,97,177506,1,2,0:0:0:0:
238,96,177694,2,0,L|56:96,1,150,4|8,0:0|0:0,0:0:0:0:
170,94,178256,1,2,0:0:0:0:
348,94,178444,5,4,0:0:0:0:
419,134,178631,1,2,0:0:0:0:
443,212,178819,1,8,0:0:0:0:
410,287,179006,1,2,0:0:0:0:
332,315,179194,2,0,L|150:313,1,150,4|8,0:0|0:0,0:0:0:0:
181,230,179756,1,6,0:0:0:0:
365,232,179944,6,0,P|424:221|462:124,1,150,4|8,0:2|0:0,0:0:0:0:
382,146,180506,1,2,0:0:0:0:
204,193,180694,2,0,L|375:194,1,150,4|8,0:2|0:0,0:0:0:0:
271,196,181256,1,2,0:0:0:0:
98,239,181444,6,0,L|269:240,2,150,4|8|8,0:2|0:0|0:0,0:0:0:0:
260,161,182569,1,4,0:0:0:0:
340,202,182756,1,6,0:0:0:0:
259,248,182944,6,0,L|112:249,2,112.5,4|4|4,0:2|0:0|0:0,0:0:0:0:
455,240,183694,1,4,0:0:0:0:
286,153,184069,1,8,0:0:0:0:
203,155,184256,1,0,0:0:0:0:
29,74,184444,6,0,L|215:73,2,150,4|4|4,0:1|0:0|0:0,0:0:0:0:
201,144,185569,1,8,0:0:0:0:
201,144,185756,1,4,0:0:0:0:
375,145,185944,6,0,L|504:146,2,112.5,4|4|4,0:1|0:0|0:0,0:0:0:0:
289,223,186694,2,0,L|418:224,2,112.5,4|4|4,0:0|0:0|0:0,0:0:0:0:
101,226,187444,6,0,L|275:226,2,150,4|4|4,0:0|0:0|0:0,0:0:0:0:
100,117,188569,1,8,0:0:0:0:
436,226,188944,6,0,L|306:223,2,112.5,4|8|8,0:2|0:0|0:0,0:0:0:0:
262,223,189694,2,0,L|90:223,1,150,4|8,0:0|0:0,0:0:0:0:
194,224,190256,1,0,0:0:0:0:
357,227,190444,6,0,L|534:227,2,150,4|4|4,0:0|0:0|0:0,0:0:0:0:
192,227,191569,1,8,0:0:0:0:
192,227,191756,1,0,0:0:0:0:
371,221,191944,6,0,L|497:221,2,112.5,4|4|4,0:0|0:0|0:0,0:0:0:0:
190,112,192694,2,0,L|64:112,2,112.5,4|4|4,0:0|0:0|0:0,0:0:0:0:
377,109,193444,5,8,0:0:0:0:
377,109,193819,1,8,0:0:0:0:
25,118,194194,1,12,0:1:0:0:
