osu file format v14

[General]
AudioFilename: audio.mp3
AudioLeadIn: 0
PreviewTime: 47472
Countdown: 0
SampleSet: Normal
StackLeniency: 0.7
Mode: 2
LetterboxInBreaks: 0
WidescreenStoryboard: 1

[Editor]
Bookmarks: 47941
DistanceSpacing: 0.9
BeatDivisor: 4
GridSize: 32
TimelineZoom: 1.8

[Metadata]
Title:DEEP BLUE TOWN e Oide yo
TitleUnicode:DEEP BLUE TOWNへおいでよ
Artist:team Umifure
ArtistUnicode:team うみフレ
Creator:Spectator
Version:Platter
Source:アイマリンプロジェクト
Tags:アイマリン ウェンディ ウーニィ iMarine Project 内田彩 Uchida Aya 内田真礼 Uchida Maaya 佐倉綾音 Sakura Ayane Anime Japanese Pop JPop J-Pop
BeatmapID:2628324
BeatmapSetID:1264612

[Difficulty]
HPDrainRate:4
CircleSize:3.5
OverallDifficulty:8
ApproachRate:8
SliderMultiplier:1.6
SliderTickRate:1

[Events]
//Background and Video events
0,0,"bg.jpg",0,0
//Break Periods
//Storyboard Layer 0 (Background)
//Storyboard Layer 1 (Fail)
//Storyboard Layer 2 (Pass)
//Storyboard Layer 3 (Foreground)
//Storyboard Layer 4 (Overlay)
//Storyboard Sound Samples

[TimingPoints]
2944,375,4,1,1,55,1,0
8944,-100,4,1,1,60,0,0
20944,-100,4,1,1,50,0,0
32756,-100,4,1,1,55,0,0
44944,-90.9090909090909,4,1,1,60,0,0
46444,-100,4,2,2,60,0,0
47944,-100,4,1,1,70,0,1
59944,-100,4,1,1,60,0,0
65944,-100,4,1,1,70,0,1
77006,-100,4,1,1,60,0,0
79444,-100,4,1,1,50,0,0
81319,-100,4,1,1,55,0,0
82069,-100,4,1,1,60,0,0
83194,-100,4,1,1,40,0,0
83944,-100,4,1,1,60,0,0
103631,-100,4,2,2,60,0,0
104194,-100,4,2,2,65,0,0
104944,-100,4,1,1,70,0,1
116944,-100,4,1,1,60,0,0
128944,-100,4,1,1,70,0,1
129694,-100,4,1,3,70,0,1
130069,-100,4,1,1,70,0,1
131194,-100,4,1,3,70,0,1
131569,-100,4,1,1,70,0,1
135037,-100,4,1,1,60,0,1
135131,-100,4,1,4,70,0,1
135506,-100,4,1,1,70,0,1
136444,-100,4,1,5,70,0,1
136631,-100,4,1,1,70,0,1
136819,-100,4,1,5,70,0,1
137006,-100,4,1,1,70,0,1
137475,-100,4,1,1,70,0,1
137756,-100,4,1,1,70,0,1
140944,-100,4,1,1,55,0,0
146944,-100,4,1,1,60,0,0
149944,-100,4,1,1,65,0,0
154444,-100,4,2,2,55,0,0
155944,-100,4,1,1,65,0,0
157631,-100,4,1,1,65,0,0
158006,-100,4,1,1,65,0,0
158194,-100,4,1,1,70,0,0
158944,-100,4,1,1,80,0,1
170850,-100,4,1,1,80,0,0
170944,-100,4,1,1,80,0,1
171319,-100,4,1,10,80,0,1
171881,-100,4,1,1,80,0,1
172069,-100,4,1,10,80,0,1
172631,-100,4,1,1,80,0,1
172819,-100,4,1,10,80,0,1
173381,-100,4,1,1,80,0,1
173569,-100,4,1,10,80,0,1
173756,-100,4,1,1,80,0,1
173944,-100,4,1,10,80,0,1
174131,-100,4,1,1,80,0,1
174319,-100,4,1,10,80,0,1
174881,-100,4,1,1,80,0,1
175069,-100,4,1,10,80,0,1
175631,-100,4,1,1,80,0,1
175819,-100,4,1,10,80,0,1
176006,-100,4,1,1,80,0,1
176194,-100,4,1,10,80,0,1
176381,-100,4,1,1,80,0,1
176569,-100,4,1,10,80,0,1
176662,-100,4,1,1,80,0,1
176756,-100,4,1,10,80,0,1
176850,-100,4,1,1,80,0,1
176944,-100,4,1,10,80,0,1
177131,-100,4,1,1,80,0,1
177319,-100,4,1,10,80,0,1
177881,-100,4,1,1,80,0,1
178069,-100,4,1,10,80,0,1
178631,-100,4,1,1,80,0,1
178819,-100,4,1,10,80,0,1
179287,-100,4,1,1,80,0,1
179569,-100,4,1,10,80,0,1
180131,-100,4,1,1,80,0,1
180319,-100,4,1,10,80,0,1
180881,-100,4,1,1,80,0,1
181069,-100,4,1,10,80,0,1
181631,-100,4,1,1,80,0,1
181819,-100,4,1,10,80,0,1
182006,-100,4,1,1,80,0,1
182194,-100,4,1,10,80,0,1
182381,-100,4,1,1,80,0,1
182944,-100,4,1,1,80,0,0
194194,-100,4,1,30,80,0,1
194287,-100,4,1,30,70,0,0

[Colours]
Combo1 : 252,242,122
Combo2 : 101,203,241
Combo3 : 180,180,180
Combo4 : 197,243,133
Combo5 : 136,237,251

[HitObjects]
75,113,2944,6,0,L|213:113,2,120,4|4|4,0:0|0:0|0:0,0:0:0:0:
253,111,3694,2,0,P|298:149|232:223,1,160,4|8,0:0|0:0,0:0:0:0:
165,222,4256,1,0,0:0:0:0:
343,220,4444,6,0,L|520:220,2,160,4|4|4,0:0|0:0|0:0,0:0:0:0:
165,220,5569,2,0,L|165:325,1,80,8|0,0:0|2:0,0:0:0:0:
340,296,5944,6,0,L|476:296,2,120,4|4|4,0:0|0:0|0:0,0:0:0:0:
164,295,6694,2,0,L|28:295,2,120,4|4|4,0:0|0:0|0:0,0:0:0:0:
436,303,7444,6,0,L|435:126,1,160,0|4,1:0|0:0,0:0:0:0:
119,143,8194,1,4,0:0:0:0:
295,143,8569,1,8,0:0:0:0:
112,147,8944,6,0,P|130:217|212:249,1,160,4|8,0:2|0:0,0:0:0:0:
298,243,9506,1,0,0:2:0:0:
473,246,9694,2,0,L|473:141,1,80,4|0,0:0|0:0,0:0:0:0:
384,162,10069,2,0,L|481:163,1,80
288,210,10444,6,0,L|156:210,2,120,4|0|0,0:0|0:0|0:0,0:0:0:0:
433,298,11381,1,0,0:0:0:0:
147,301,11569,1,8,0:0:0:0:
306,332,11944,6,0,L|306:171,1,160,4|8,0:0|0:0,0:0:0:0:
221,206,12506,1,0,0:0:0:0:
118,209,12694,2,0,P|128:148|216:108,1,160,4|0,0:0|0:0,0:0:0:0:
298,106,13256,1,0,0:0:0:0:
121,187,13444,6,0,L|305:186,1,160,4|8,0:0|0:0,0:0:0:0:
192,185,14006,1,0,0:0:0:0:
16,193,14194,1,8,0:0:0:0:
27,280,14381,1,0,0:0:0:0:
84,346,14569,1,8,0:0:0:0:
171,356,14756,1,0,0:0:0:0:
429,266,14944,6,0,L|429:350,1,80,4|0,0:2|0:0,0:0:0:0:
238,121,15319,2,0,L|78:119,1,160,8|4,0:0|0:0,0:0:0:0:
154,119,15881,1,0,0:0:0:0:
242,117,16069,2,0,L|136:118,1,80
345,176,16444,6,0,L|492:176,2,120,4|0|0,0:0|0:0|0:0,0:0:0:0:
175,284,17381,1,0,0:0:0:0:
461,287,17569,1,8,0:0:0:0:
306,226,17944,6,0,L|113:225,1,160,4|8,0:2|0:0,0:0:0:0:
233,225,18506,1,0,0:0:0:0:
406,223,18694,2,0,L|318:224,1,80,4|0,0:0|0:0,0:0:0:0:
233,225,19069,2,0,L|321:226,1,80
132,259,19444,6,0,L|133:105,1,120,4|0,0:0|0:0,0:0:0:0:
477,139,20006,1,0,0:0:0:0:
301,139,20381,1,8,0:0:0:0:
257,159,20475,1,0,0:0:0:0:
240,204,20569,1,8,0:0:0:0:
255,248,20662,1,0,0:0:0:0:
298,269,20756,1,8,0:3:0:0:
478,267,20944,6,0,P|453:189|368:165,1,160,4|8,0:0|0:0,0:0:0:0:
296,161,21506,1,0,0:0:0:0:
207,159,21694,2,0,L|206:337,1,160,4|8,0:0|0:0,0:0:0:0:
294,316,22256,1,0,0:0:0:0:
116,315,22444,6,0,P|131:256|220:220,1,160,4|8,0:0|0:0,0:0:0:0:
350,157,23100,2,0,L|286:157,1,40,0|4,0:0|0:0,0:0:0:0:
117,157,23381,1,0,0:0:0:0:
301,308,23756,6,0,P|361:294|406:197,1,160
319,205,24319,1,8,0:0:0:0:
231,197,24506,1,0,0:0:0:0:
407,135,24694,2,0,L|498:136,1,80,4|0,0:0|0:0,0:0:0:0:
398,132,25069,2,0,L|305:129,1,80,8|0,0:0|0:0,0:0:0:0:
135,130,25444,6,0,L|134:242,1,80,4|0,0:0|0:0,0:0:0:0:
233,214,25819,2,0,L|130:212,1,80,8|0,0:0|0:0,0:0:0:0:
335,323,26194,2,0,L|337:133,1,160,4|8,0:0|0:0,0:0:0:0:
243,161,26756,1,0,0:0:0:0:
59,167,26944,6,0,L|240:166,1,160,4|8,0:0|0:0,0:0:0:0:
131,169,27506,1,0,0:0:0:0:
219,167,27694,2,0,L|397:165,1,160,4|8,0:0|0:0,0:0:0:0:
291,163,28256,1,0,0:0:0:0:
107,179,28444,6,0,P|122:120|211:84,1,160,4|8,0:0|0:0,0:0:0:0:
341,21,29100,2,0,L|417:22,1,40,0|4,0:0|0:0,0:0:0:0:
193,22,29381,1,0,0:0:0:0:
371,174,29756,6,0,P|431:160|476:63,1,160
388,83,30319,1,8,0:0:0:0:
300,88,30506,1,0,0:0:0:0:
119,124,30694,1,4,0:0:0:0:
143,208,30881,1,0,0:0:0:0:
207,267,31069,1,8,0:0:0:0:
294,275,31256,1,0,0:0:0:0:
114,352,31444,6,0,L|297:351,2,160,4|8|4,0:0|0:0|0:0,0:0:0:0:
295,283,32569,2,0,L|402:283,1,80,8|0,0:0|0:0,0:0:0:0:
124,327,32944,6,0,P|74:307|77:187,1,160,4|8,0:2|0:0,0:0:0:0:
144,205,33506,1,0,0:0:0:0:
322,202,33694,2,0,P|372:182|369:62,1,160,4|8,0:0|0:0,0:0:0:0:
302,80,34256,1,0,0:0:0:0:
123,253,34444,6,0,L|122:59,1,160,4|8,0:0|0:0,0:0:0:0:
209,94,35006,1,0,0:0:0:0:
297,95,35194,1,4,1:0:0:0:
121,95,35569,1,8,1:0:0:0:
472,89,35944,6,0,P|462:157|369:200,1,160,4|8,0:0|0:0,0:0:0:0:
300,199,36506,1,0,0:0:0:0:
120,202,36694,1,4,0:0:0:0:
135,115,36881,1,0,0:0:0:0:
203,59,37069,1,8,0:0:0:0:
290,55,37256,1,0,0:0:0:0:
38,200,37444,6,0,L|209:201,2,160,8|8|8,0:0|0:0|0:0,0:0:0:0:
225,194,38569,1,8,0:1:0:0:
225,194,38756,1,4,0:1:0:0:
483,210,38944,6,0,L|482:36,1,160,4|8,0:2|0:0,0:0:0:0:
394,50,39506,1,0,0:0:0:0:
215,200,39694,2,0,P|165:180|168:60,1,160,4|8,0:0|0:0,0:0:0:0:
235,78,40256,1,0,0:0:0:0:
407,78,40444,6,0,L|229:77,1,160,4|8,0:0|0:0,0:0:0:0:
335,79,41006,1,0,0:0:0:0:
76,260,41194,2,0,P|2:168|87:113,1,240,4|4,0:0|0:0,0:0:0:0:
332,246,41944,6,0,L|501:247,2,160,4|8|4,0:2|0:0|0:0,0:0:0:0:
340,158,42881,1,0,0:0:0:0:
434,159,43069,1,8,0:0:0:0:
442,245,43256,1,4,0:0:0:0:
180,246,43444,6,0,L|11:247,2,160,4|8|4,0:2|0:0|0:0,0:0:0:0:
172,158,44381,1,0,0:0:0:0:
78,159,44569,1,8,0:0:0:0:
70,245,44756,1,8,0:3:0:0:
341,200,44944,6,0,L|413:199,2,44.0000013427735,4|0|8,0:0|0:0|0:0,0:0:0:0:
161,199,45506,2,0,L|89:198,2,44.0000013427735,4|0|8,0:0|0:0|0:0,0:0:0:0:
498,234,46069,1,8,0:0:0:0:
454,235,46162,1,0,0:0:0:0:
409,236,46256,1,8,0:0:0:0:
134,297,47569,2,0,L|36:298,1,80,4|4,0:1|0:0,0:0:0:0:
310,264,47944,6,0,P|370:249|408:153,1,160,4|8,0:2|0:0,0:0:0:0:
322,164,48506,1,2,0:0:0:0:
137,166,48694,2,0,L|138:343,1,160,4|8,0:0|0:0,0:0:0:0:
226,324,49256,1,2,0:0:0:0:
476,239,49444,5,4,0:0:0:0:
469,152,49631,1,2,0:0:0:0:
409,86,49819,1,8,0:0:0:0:
322,71,50006,1,2,0:0:0:0:
142,158,50194,2,0,L|325:157,1,160,4|8,0:0|0:0,0:0:0:0:
216,137,50756,1,2,0:0:0:0:
385,134,50944,6,0,P|363:217|271:253,1,160,4|8,0:2|0:0,0:0:0:0:
214,252,51506,1,2,0:0:0:0:
125,255,51694,2,0,L|126:69,1,160,4|8,0:0|0:0,0:0:0:0:
213,95,52256,1,2,0:0:0:0:
396,92,52444,6,0,L|218:93,1,160,4|8,0:0|0:0,0:0:0:0:
236,11,53006,1,2,0:0:0:0:
417,188,53194,2,0,L|247:187,1,160,4|8,0:0|0:0,0:0:0:0:
345,189,53756,1,2,0:0:0:0:
72,289,53944,6,0,P|84:235|188:188,1,160,4|8,0:2|0:0,0:0:0:0:
257,184,54506,1,2,0:0:0:0:
435,182,54694,2,0,P|423:128|319:81,1,160,4|8,0:0|0:0,0:0:0:0:
250,77,55256,1,2,0:0:0:0:
430,78,55444,5,4,0:0:0:0:
342,85,55631,1,2,0:0:0:0:
254,92,55819,1,8,0:0:0:0:
166,100,56006,1,2,0:0:0:0:
344,183,56194,2,0,P|412:167|421:76,1,160,4|8,0:0|0:0,0:0:0:0:
339,84,56756,1,2,0:0:0:0:
89,309,56944,6,0,L|91:129,1,160,4|8,0:2|0:0,0:0:0:0:
178,147,57506,1,2,0:0:0:0:
358,151,57694,2,0,P|410:170|458:275,1,160,4|8,0:2|0:0,0:0:0:0:
370,260,58256,1,2,0:0:0:0:
94,263,58444,6,0,L|287:262,2,160,4|8|4,0:2|0:0|0:0,0:0:0:0:
279,322,59569,2,0,L|386:322,1,80,8|2,0:0|0:0,0:0:0:0:
91,300,59944,6,0,L|92:145,1,120,4|4,0:2|0:0,0:0:0:0:
223,181,60506,1,4,0:0:0:0:
486,184,60694,2,0,P|481:131|365:73,1,160,4|8,0:0|0:0,0:0:0:0:
313,74,61256,1,0,0:0:0:0:
136,115,61444,6,0,L|308:114,2,160,4|4|4,1:0|1:0|0:0,0:0:0:0:
320,175,62569,1,8,0:0:0:0:
322,262,62756,1,4,0:0:0:0:
160,252,62944,6,0,L|3:252,2,120,4|4|4,0:0|0:0|0:0,0:0:0:0:
335,251,63694,2,0,L|492:251,2,120,4|4|4,0:0|0:0|0:0,0:0:0:0:
55,149,64444,6,0,L|246:149,2,160,4|4|4,0:0|0:0|0:0,0:0:0:0:
376,264,65944,6,0,P|424:229|356:167,1,160,4|8,0:2|0:0,0:0:0:0:
286,164,66506,1,2,0:0:0:0:
112,160,66694,2,0,L|112:66,1,80,4|2,0:0|0:0,0:0:0:0:
200,81,67069,2,0,L|310:80,1,80,0|2,0:0|0:0,0:0:0:0:
458,155,67444,6,0,L|307:156,2,120,4|0|2,0:0|0:0|0:0,0:0:0:0:
283,249,68381,1,2,0:0:0:0:
9,251,68569,1,8,0:0:0:0:
186,340,68944,6,0,P|252:326|280:228,1,160,4|8,0:0|0:0,0:0:0:0:
204,246,69506,1,2,0:0:0:0:
124,244,69694,2,0,L|123:84,1,160,4|0,0:0|0:0,0:0:0:0:
210,86,70256,1,2,0:0:0:0:
388,88,70444,5,8,0:0:0:0:
458,140,70631,1,2,0:0:0:0:
471,227,70819,1,8,0:0:0:0:
430,304,71006,1,2,0:0:0:0:
248,306,71194,1,8,0:0:0:0:
265,220,71381,1,2,0:0:0:0:
331,161,71569,1,8,0:0:0:0:
418,157,71756,1,2,0:0:0:0:
240,154,71944,6,0,L|157:153,1,80,4|2,0:2|0:0,0:0:0:0:
418,157,72319,2,0,L|418:335,1,160,4|4,0:2|0:0,0:0:0:0:
330,318,72881,1,2,0:0:0:0:
241,317,73069,2,0,L|340:317,1,80,0|2,0:0|0:0,0:0:0:0:
142,247,73444,6,0,L|294:246,2,120,4|0|2,0:0|0:0|0:0,0:0:0:0:
23,281,74381,1,2,0:0:0:0:
280,283,74569,1,8,0:0:0:0:
131,317,74944,5,4,0:2:0:0:
92,238,75131,1,2,0:0:0:0:
130,158,75319,1,8,0:0:0:0:
215,138,75506,1,2,0:0:0:0:
388,87,75694,2,0,L|388:266,1,160,4|4,0:0|0:3,0:0:0:0:
300,246,76256,1,2,0:2:0:0:
18,148,76444,5,4,0:2:0:0:
139,146,76725,1,8,0:0:0:0:
495,144,77006,1,14,0:0:0:0:
347,192,77381,2,0,L|337:267,4,40,8|0|8|0|8,0:0|0:0|0:0|0:0|0:3,0:0:0:0:
456,150,77944,5,4,0:0:0:0:
457,234,78131,1,0,0:0:0:0:
177,226,78319,1,4,0:2:0:0:
67,242,79444,6,0,L|240:243,1,160,4|4,0:3|0:3,0:0:0:0:
154,169,80100,2,0,L|154:112,1,40,0|4,0:0|0:3,0:0:0:0:
61,128,80381,1,8,0:0:0:0:
368,322,80756,6,0,P|431:293|369:231,1,160,4|4,0:3|0:0,0:0:0:0:
306,230,81319,1,12,0:0:0:0:
393,228,81506,1,4,0:0:0:0:
214,228,81694,1,4,0:0:0:0:
166,221,81787,1,0,0:0:0:0:
131,187,81881,1,0,0:0:0:0:
117,140,81975,1,8,0:0:0:0:
133,93,82069,1,8,0:0:0:0:
173,75,82162,1,0,0:0:0:0:
220,71,82256,1,8,0:0:0:0:
473,78,82444,5,8,0:1:0:0:
447,158,83475,2,0,L|461:92,3,40,8|8|0|4,0:0|0:0|0:0|0:0,0:0:0:0:
195,279,83944,6,0,L|195:114,1,160,4|8,0:2|0:0,0:0:0:0:
282,119,84506,1,0,0:0:0:0:
452,116,84694,1,4,0:0:0:0:
443,203,84881,1,0,0:0:0:0:
390,274,85069,1,8,0:0:0:0:
304,294,85256,1,0,0:0:0:0:
126,298,85444,6,0,P|139:235|240:199,1,160,4|8,0:0|0:0,0:0:0:0:
148,87,86100,2,0,L|149:148,1,40,0|4,0:0|0:0,0:0:0:0:
57,127,86381,1,0,0:0:0:0:
356,321,86756,6,0,P|403:300|343:233,1,160
269,224,87319,1,8,0:0:0:0:
181,220,87506,1,0,0:0:0:0:
360,139,87694,1,4,0:2:0:0:
349,226,87881,1,0,0:0:0:0:
293,294,88069,1,8,0:0:0:0:
207,315,88256,1,0,0:0:0:0:
369,356,88444,6,0,P|357:296|247:239,1,160,4|8,0:2|0:0,0:0:0:0:
192,239,89006,1,0,0:0:0:0:
371,232,89194,2,0,L|373:58,1,160,4|8,0:0|0:0,0:0:0:0:
285,72,89756,1,4,0:0:0:0:
35,216,89944,6,0,P|41:164|148:114,1,160,4|8,0:2|0:0,0:0:0:0:
214,109,90506,1,0,0:0:0:0:
395,104,90694,2,0,L|208:102,1,160,4|8,0:0|0:0,0:0:0:0:
225,15,91256,1,0,0:0:0:0:
400,127,91444,6,0,L|213:125,2,160,4|8|4,0:0|0:0|0:0,0:0:0:0:
233,213,92569,2,0,L|125:213,1,80,8|0,0:0|0:0,0:0:0:0:
325,299,92944,6,0,P|378:290|425:195,1,160,4|8,0:2|0:0,0:0:0:0:
338,202,93506,1,0,0:0:0:0:
158,205,93694,1,4,0:0:0:0:
85,156,93881,1,0,0:0:0:0:
85,80,94069,1,8,0:0:0:0:
161,37,94256,1,4,0:0:0:0:
417,101,94444,6,0,L|233:102,2,160,8|8|8,0:0|0:0|0:0,0:0:0:0:
223,140,95569,2,0,L|126:141,1,80,8|0,0:0|0:0,0:0:0:0:
398,309,95944,6,0,P|437:279|376:191,1,160,4|8,0:2|0:0,0:0:0:0:
310,195,96506,1,0,0:0:0:0:
139,269,96694,2,0,L|323:267,1,160,4|8,0:0|0:0,0:0:0:0:
210,268,97256,1,0,0:0:0:0:
40,273,97444,6,0,L|41:90,1,160,4|8,0:0|0:0,0:0:0:0:
126,111,98006,1,0,0:0:0:0:
393,203,98194,2,0,L|119:206,1,240,4|0,0:0|0:0,0:0:0:0:
331,103,98944,5,4,0:2:0:0:
409,141,99131,1,0,0:0:0:0:
433,225,99319,1,8,0:0:0:0:
390,301,99506,1,0,0:0:0:0:
212,312,99694,2,0,L|212:153,1,160,4|8,0:0|0:0,0:0:0:0:
299,152,100256,1,0,0:0:0:0:
120,147,100444,6,0,L|312:146,1,160,4|8,0:2|0:0,0:0:0:0:
287,58,101006,1,0,0:0:0:0:
111,213,101194,2,0,L|278:215,1,160,4|8,0:0|0:0,0:0:0:0:
361,213,101756,1,0,0:0:0:0:
88,125,101944,5,8,0:0:0:0:
88,125,102037,1,0,0:0:0:0:
88,125,102131,1,0,0:0:0:0:
274,200,102506,1,8,0:0:0:0:
274,200,102599,1,0,0:0:0:0:
274,200,102693,1,0,0:0:0:0:
91,261,103069,1,8,0:0:0:0:
373,269,103256,1,4,0:0:0:0:
452,121,104569,6,0,L|344:122,1,80,8|8,0:2|0:2,0:0:0:0:
94,327,104944,6,0,L|93:136,1,160,4|8,0:2|0:0,0:0:0:0:
190,164,105506,1,2,0:0:0:0:
375,166,105694,2,0,L|374:343,1,160,4|8,0:0|0:0,0:0:0:0:
286,324,106256,1,2,0:0:0:0:
36,239,106444,5,4,0:0:0:0:
43,152,106631,1,10,0:0:0:0:
103,86,106819,1,8,0:0:0:0:
190,71,107006,1,2,0:0:0:0:
370,158,107194,2,0,L|187:157,1,160,4|8,0:0|0:0,0:0:0:0:
296,137,107756,1,6,0:0:0:0:
127,134,107944,6,0,P|149:217|241:253,1,160,4|8,0:2|0:0,0:0:0:0:
298,252,108506,1,2,0:0:0:0:
387,255,108694,2,0,L|386:69,1,160,4|8,0:0|0:0,0:0:0:0:
299,95,109256,1,2,0:0:0:0:
116,92,109444,6,0,L|294:93,1,160,4|8,0:0|0:0,0:0:0:0:
276,11,110006,1,2,0:0:0:0:
95,188,110194,2,0,L|265:187,1,160,4|8,0:0|0:0,0:0:0:0:
167,189,110756,1,6,0:0:0:0:
440,289,110944,6,0,P|428:235|324:188,1,160,4|8,0:2|0:0,0:0:0:0:
255,184,111506,1,2,0:0:0:0:
77,182,111694,2,0,P|89:128|193:81,1,160,4|8,0:0|0:0,0:0:0:0:
262,77,112256,1,2,0:0:0:0:
82,78,112444,5,4,0:0:0:0:
170,85,112631,1,2,0:0:0:0:
258,92,112819,1,8,0:0:0:0:
346,100,113006,1,2,0:0:0:0:
168,183,113194,2,0,P|100:167|91:76,1,160,4|8,0:0|0:0,0:0:0:0:
173,84,113756,1,2,0:0:0:0:
423,309,113944,6,0,L|421:129,1,160,4|8,0:2|0:0,0:0:0:0:
334,147,114506,1,2,0:0:0:0:
154,151,114694,2,0,P|102:170|54:275,1,160,4|8,0:2|0:0,0:0:0:0:
142,260,115256,1,2,0:0:0:0:
418,263,115444,6,0,L|225:262,2,160,4|8|4,0:2|0:0|0:0,0:0:0:0:
233,322,116569,2,0,L|233:215,1,80,8|2,0:0|0:0,0:0:0:0:
418,231,116944,6,0,L|283:233,2,120,4|4|4,0:0|0:0|0:0,0:0:0:0:
166,283,117694,1,4,0:0:0:0:
326,282,118069,1,8,0:0:0:0:
17,232,118444,6,0,L|152:234,2,120,4|4|4,0:0|0:0|0:0,0:0:0:0:
293,234,119194,1,4,0:0:0:0:
213,236,119381,1,8,0:0:0:0:
133,240,119569,1,8,0:0:0:0:
392,133,119944,6,0,L|257:135,2,120,4|4|4,0:0|0:0|0:0,0:0:0:0:
299,193,120694,2,0,L|164:195,2,120,4|4|4,0:0|0:0|0:0,0:0:0:0:
46,266,121444,6,0,L|45:91,1,160,4|4,0:0|0:0,0:0:0:0:
482,104,122194,1,4,0:0:0:0:
394,106,122381,1,8,0:0:0:0:
305,109,122569,1,8,0:0:0:0:
217,112,122756,1,8,0:0:0:0:
391,281,122944,6,0,P|448:268|470:200,2,120,4|4|4,0:0|0:0|0:0,0:0:0:0:
121,278,123694,1,4,0:0:0:0:
208,276,123881,1,8,0:0:0:0:
301,278,124069,1,8,0:0:0:0:
214,276,124256,1,0,0:0:0:0:
389,201,124444,6,0,P|446:188|468:120,2,120,4|4|4,0:0|0:0|0:0,0:0:0:0:
121,311,125194,2,0,P|57:195|146:170,1,240,4|0,0:0|0:0,0:0:0:0:
302,160,125944,6,0,P|359:147|381:79,2,120,4|4|4,0:0|0:0|0:0,0:0:0:0:
208,160,126694,2,0,P|265:147|287:79,2,120,4|4|4,0:0|0:0|0:0,0:0:0:0:
35,159,127444,5,4,0:0:0:0:
227,161,127819,1,4,0:0:0:0:
419,161,128194,1,4,0:0:0:0:
83,172,128569,2,0,L|82:257,1,80,8|4,0:0|0:0,0:0:0:0:
350,219,128944,6,0,L|443:222,2,80,4|2|8,0:2|0:0|0:0,0:0:0:0:
38,318,129694,2,0,L|186:316,2,120,6|0|2,0:0|0:0|0:0,0:0:0:0:
292,207,130444,5,4,0:0:0:0:
379,207,130631,1,2,0:0:0:0:
467,208,130819,1,8,0:0:0:0:
140,121,131194,2,0,L|-8:119,2,120,6|0|2,0:0|0:0|0:0,0:0:0:0:
321,119,131944,5,8,0:0:0:0:
309,206,132131,1,2,0:0:0:0:
247,269,132319,1,8,0:0:0:0:
161,287,132506,1,2,0:0:0:0:
345,285,132694,1,8,0:0:0:0:
345,285,132787,1,0,0:0:0:0:
345,285,132881,1,2,0:0:0:0:
160,340,133069,2,0,L|62:333,1,80,8|2,0:0|0:0,0:0:0:0:
258,302,133444,6,0,P|311:293|357:185,1,160,4|8,0:2|0:0,0:0:0:0:
272,207,134006,1,2,0:0:0:0:
90,204,134194,1,8,0:0:0:0:
105,117,134381,1,2,0:0:0:0:
159,47,134569,1,8,0:0:0:0:
245,33,134756,1,6,0:0:0:0:
340,35,134944,1,4,0:2:0:0:
73,212,135131,6,0,L|71:43,1,160,2|2,0:1|0:0,0:0:0:0:
249,188,135694,1,4,0:0:0:0:
330,156,135881,1,0,0:0:0:0:
349,69,136069,1,0,0:0:0:0:
317,0,136256,1,6,0:0:0:0:
55,192,136444,6,0,L|235:193,2,160,6|10|4,0:0|0:0|0:0,0:0:0:0:
235,109,137381,1,2,0:0:0:0:
235,109,137475,1,4,0:0:0:0:
235,109,137569,2,0,L|128:109,1,80,8|2,0:0|0:0,0:0:0:0:
418,96,137944,6,0,L|418:191,1,80,4|2,0:2|0:0,0:0:0:0:
328,261,138319,2,0,L|411:259,1,80,8|0,0:0|0:0,0:0:0:0:
234,205,138694,2,0,L|86:206,2,120,12|8|8,0:0|0:0|0:0,0:0:0:0:
487,177,139444,6,0,L|486:270,1,80,4|2,0:2|0:0,0:0:0:0:
398,252,139819,1,8,0:0:0:0:
310,247,140006,1,0,0:0:0:0:
130,234,140194,1,8,0:0:0:0:
216,220,140381,1,2,0:0:0:0:
303,207,140569,1,8,0:0:0:0:
389,194,140756,1,4,0:0:0:0:
124,324,140944,6,0,P|59:294|144:181,1,240,4|4,0:2|0:0,0:0:0:0:
214,118,141694,2,0,L|21:112,1,160,4|8,0:0|0:0,0:0:0:0:
388,324,142444,6,0,P|453:294|368:181,1,240,4|4,0:0|0:0,0:0:0:0:
298,118,143194,2,0,L|491:112,1,160,4|8,0:0|0:0,0:0:0:0:
92,137,143944,5,4,0:0:0:0:
267,138,144319,1,4,0:0:0:0:
92,137,144694,2,0,L|93:313,1,160,4|8,0:0|0:0,0:0:0:0:
419,235,145444,5,8,0:0:0:0:
250,241,145819,1,8,0:0:0:0:
419,235,146194,1,8,0:0:0:0:
123,244,146569,2,0,L|43:244,1,80,8|4,0:0|0:0,0:0:0:0:
294,166,146944,6,0,P|361:189|391:283,1,160,4|8,0:2|0:0,0:0:0:0:
305,267,147506,1,0,0:0:0:0:
120,267,147694,2,0,L|120:79,1,160,4|8,0:0|0:0,0:0:0:0:
207,109,148256,1,0,0:0:0:0:
299,113,148444,6,0,L|204:111,1,80,4|0,0:0|0:0,0:0:0:0:
469,186,148819,2,0,L|470:-4,1,160,8|4,0:0|0:0,0:0:0:0:
380,26,149381,1,0,0:0:0:0:
291,26,149569,1,0,0:0:0:0:
451,83,149944,6,0,L|453:193,1,80,4|0,0:2|0:0,0:0:0:0:
283,238,150319,2,0,P|224:225|226:121,1,160,8|4,0:0|0:0,0:0:0:0:
295,161,150881,1,0,0:0:0:0:
316,246,151069,1,0,0:0:0:0:
274,323,151256,1,0,0:0:0:0:
100,329,151444,6,0,L|280:330,1,160,4|8,0:2|0:0,0:0:0:0:
172,327,152006,1,0,0:0:0:0:
342,262,152194,1,4,0:0:0:0:
325,175,152381,1,0,0:0:0:0:
258,116,152569,1,8,0:0:0:0:
171,102,152756,1,0,0:0:0:0:
458,102,152944,5,8,0:0:0:0:
414,103,153037,1,0,0:0:0:0:
369,104,153131,1,0,0:0:0:0:
185,188,153506,1,8,0:0:0:0:
229,189,153599,1,0,0:0:0:0:
274,190,153693,1,0,0:0:0:0:
459,191,154069,1,8,0:0:0:0:
185,188,154256,1,4,0:0:0:0:
54,102,155944,5,4,0:2:0:0:
98,103,156037,1,0,0:0:0:0:
143,104,156131,1,0,0:0:0:0:
327,188,156506,1,8,0:0:0:0:
283,189,156599,1,0,0:0:0:0:
238,190,156693,1,0,0:0:0:0:
53,191,157069,1,8,0:0:0:0:
327,188,157256,1,4,0:0:0:0:
326,89,157444,1,0,0:0:0:0:
142,88,157631,6,0,P|94:157|159:183,1,160,8|4,0:0|0:0,0:0:0:0:
318,101,158194,1,10,0:0:0:0:
395,141,158381,1,0,0:0:0:0:
411,227,158569,1,4,0:0:0:0:
371,305,158756,1,8,0:0:0:0:
103,306,158944,6,0,L|103:125,1,160,4|8,0:2|0:0,0:0:0:0:
190,147,159506,1,2,0:0:0:0:
367,143,159694,2,0,P|352:77|254:40,1,160,4|8,0:0|0:0,0:0:0:0:
186,38,160256,1,2,0:0:0:0:
453,152,160444,5,4,0:0:0:0:
448,239,160631,1,2,0:0:0:0:
390,306,160819,1,8,0:0:0:0:
304,324,161006,1,2,0:0:0:0:
123,342,161194,2,0,L|314:342,1,160,4|8,0:0|0:0,0:0:0:0:
195,340,161756,1,6,0:0:0:0:
470,252,161944,6,0,P|465:196|360:151,1,160,4|8,0:2|0:0,0:0:0:0:
294,152,162506,1,2,0:0:0:0:
206,158,162694,1,4,0:0:0:0:
384,238,163069,2,0,L|494:247,1,80,8|2,0:0|0:0,0:0:0:0:
208,310,163444,6,0,P|160:288|193:189,1,160,4|8,0:0|0:0,0:0:0:0:
263,195,164006,1,2,0:0:0:0:
443,186,164194,2,0,L|342:190,1,80,4|2,0:0|1:0,0:0:0:0:
176,125,164569,2,0,L|175:229,1,80,8|6,0:0|0:0,0:0:0:0:
464,323,164944,6,0,P|439:250|344:218,1,160,4|8,0:2|0:0,0:0:0:0:
279,219,165506,1,2,0:0:0:0:
94,267,165694,2,0,L|92:91,1,160,4|8,0:0|0:0,0:0:0:0:
180,104,166256,1,2,0:0:0:0:
465,103,166444,5,4,0:0:0:0:
458,190,166631,1,2,0:0:0:0:
409,263,166819,1,8,0:0:0:0:
324,287,167006,1,2,0:0:0:0:
120,246,167194,2,0,L|296:243,1,160,4|8,0:0|0:0,0:0:0:0:
387,275,167756,1,6,0:0:0:0:
71,222,167944,6,0,L|71:45,1,160,4|8,0:2|0:0,0:0:0:0:
158,62,168506,1,2,0:0:0:0:
415,89,168694,1,4,0:2:0:0:
484,142,168881,1,2,0:0:0:0:
503,228,169069,1,8,0:0:0:0:
459,304,169256,1,2,0:0:0:0:
284,338,169444,6,0,L|192:339,1,80,4|2,0:2|0:0,0:0:0:0:
467,239,169819,2,0,L|468:69,1,160,8|8,0:0|0:0,0:0:0:0:
379,78,170381,1,2,0:0:0:0:
195,82,170569,1,8,0:0:0:0:
151,84,170662,1,0,0:0:0:0:
106,86,170756,1,4,0:0:0:0:
395,224,170944,6,0,P|374:164|258:130,1,160,4|8,0:2|0:0,0:0:0:0:
378,125,171506,1,2,0:0:0:0:
190,237,171694,2,0,L|188:131,1,80,4|2,0:0|0:0,0:0:0:0:
276,162,172069,2,0,L|390:161,1,80,8|2,0:0|0:0,0:0:0:0:
94,275,172444,5,4,0:0:0:0:
49,199,172631,1,2,0:0:0:0:
78,115,172819,1,8,0:0:0:0:
163,93,173006,1,2,0:0:0:0:
350,95,173194,2,0,L|462:98,1,80,4|2,0:0|0:0,0:0:0:0:
251,193,173569,2,0,L|139:196,1,80,8|6,0:0|0:0,0:0:0:0:
459,338,173944,6,0,L|460:151,1,160,4|8,0:2|0:0,0:0:0:0:
373,180,174506,1,2,0:0:0:0:
200,257,174694,2,0,L|201:70,1,160,4|8,0:0|0:0,0:0:0:0:
286,97,175256,1,2,0:0:0:0:
101,185,175444,5,4,0:0:0:0:
121,99,175631,1,2,0:0:0:0:
193,49,175819,1,8,0:0:0:0:
283,48,176006,1,2,0:0:0:0:
120,157,176194,2,0,L|16:157,1,80,4|2,0:0|0:0,0:0:0:0:
218,239,176569,2,0,L|322:239,1,80,8|6,0:0|0:0,0:0:0:0:
44,302,176944,6,0,L|45:136,1,160,4|8,0:2|0:0,0:0:0:0:
132,139,177506,1,2,0:0:0:0:
322,136,177694,2,0,L|129:138,1,160,4|8,0:0|0:0,0:0:0:0:
74,139,178256,1,2,0:0:0:0:
354,278,178444,5,4,0:0:0:0:
434,243,178631,1,2,0:0:0:0:
457,157,178819,1,8,0:0:0:0:
422,76,179006,1,2,0:0:0:0:
241,68,179194,2,0,L|431:80,1,160,4|8,0:0|0:0,0:0:0:0:
408,165,179756,1,6,0:0:0:0:
110,282,179944,5,4,0:2:0:0:
39,229,180131,1,2,0:0:0:0:
14,144,180319,1,8,0:0:0:0:
50,64,180506,1,2,0:0:0:0:
236,65,180694,2,0,L|236:170,1,80,4|2,0:2|0:0,0:0:0:0:
49,220,181069,2,0,L|154:221,1,80,8|2,0:0|0:0,0:0:0:0:
391,315,181444,6,0,P|436:286|360:220,1,160,4|8,0:2|0:0,0:0:0:0:
302,212,182006,1,2,0:0:0:0:
28,216,182194,2,0,L|28:375,1,160,8|4,0:0|0:0,0:0:0:0:
115,372,182756,1,6,0:0:0:0:
392,366,182944,6,0,L|530:365,2,120,4|4|4,0:2|0:0|0:0,0:0:0:0:
121,301,183694,1,4,0:0:0:0:
307,140,184069,2,0,L|307:253,1,80,8|0,0:0|0:0,0:0:0:0:
126,246,184444,6,0,L|310:245,2,160,4|4|4,0:1|0:0|0:0,0:0:0:0:
323,308,185569,2,0,L|422:307,1,80,8|4,0:0|0:0,0:0:0:0:
109,157,185944,6,0,L|107:298,1,120,4|4,0:1|0:0,0:0:0:0:
238,269,186506,1,4,0:0:0:0:
493,209,186694,2,0,L|495:350,1,120,4|4,0:0|0:0,0:0:0:0:
364,321,187256,1,4,0:0:0:0:
64,180,187444,6,0,L|258:181,1,160,4|4,0:0|0:0,0:0:0:0:
407,181,188194,1,4,0:0:0:0:
231,176,188569,1,8,0:0:0:0:
409,171,188944,6,0,L|266:172,2,120,4|8|8,0:2|0:0|0:0,0:0:0:0:
230,177,189694,2,0,P|178:140|254:94,1,160,4|8,0:0|0:0,0:0:0:0:
318,84,190256,1,0,0:0:0:0:
49,92,190444,6,0,L|232:90,2,160,4|4|4,0:0|0:0|0:0,0:0:0:0:
240,91,191569,1,8,0:0:0:0:
240,91,191756,1,0,0:0:0:0:
412,92,191944,6,0,L|282:93,2,120,4|4|4,0:0|0:0|0:0,0:0:0:0:
238,202,192694,2,0,L|108:203,2,120,4|4|4,0:0|0:0|0:0,0:0:0:0:
490,193,193444,5,8,0:0:0:0:
491,73,193819,1,8,0:0:0:0:
23,74,194194,1,12,0:1:0:0:
