osu file format v14

[General]
AudioFilename: audio.mp3
AudioLeadIn: 0
PreviewTime: 47472
Countdown: 0
SampleSet: Normal
StackLeniency: 0.7
Mode: 2
LetterboxInBreaks: 0
WidescreenStoryboard: 1

[Editor]
Bookmarks: 47941
DistanceSpacing: 0.9
BeatDivisor: 4
GridSize: 32
TimelineZoom: 1.8

[Metadata]
Title:DEEP BLUE TOWN e Oide yo
TitleUnicode:DEEP BLUE TOWNへおいでよ
Artist:team Umifure
ArtistUnicode:team うみフレ
Creator:Spectator
Version:Cup
Source:アイマリンプロジェクト
Tags:アイマリン ウェンディ ウーニィ iMarine Project 内田彩 Uchida Aya 内田真礼 Uchida Maaya 佐倉綾音 Sakura Ayane Anime Japanese Pop JPop J-Pop
BeatmapID:2628487
BeatmapSetID:1264612

[Difficulty]
HPDrainRate:2
CircleSize:2
OverallDifficulty:6
ApproachRate:6
SliderMultiplier:1.3
SliderTickRate:1

[Events]
//Background and Video events
0,0,"bg.jpg",0,0
//Break Periods
//Storyboard Layer 0 (Background)
//Storyboard Layer 1 (Fail)
//Storyboard Layer 2 (Pass)
//Storyboard Layer 3 (Foreground)
//Storyboard Layer 4 (Overlay)
//Storyboard Sound Samples

[TimingPoints]
2944,375,4,1,1,55,1,0
8944,-100,4,1,1,60,0,0
20944,-100,4,1,1,50,0,0
32756,-100,4,1,1,55,0,0
44944,-100,4,1,1,60,0,0
46444,-100,4,2,2,60,0,0
47944,-100,4,1,1,70,0,1
59944,-100,4,1,1,60,0,0
65944,-100,4,1,1,70,0,1
77006,-100,4,1,1,60,0,0
79444,-100,4,1,1,50,0,0
81319,-100,4,1,1,55,0,0
82069,-100,4,1,1,60,0,0
83194,-100,4,1,1,40,0,0
83944,-100,4,1,1,60,0,0
103631,-100,4,2,2,60,0,0
104194,-100,4,2,2,65,0,0
104944,-100,4,1,1,70,0,1
116944,-100,4,1,1,60,0,0
128944,-100,4,1,1,70,0,1
129694,-100,4,1,3,70,0,1
130069,-100,4,1,1,70,0,1
131194,-100,4,1,3,70,0,1
131569,-100,4,1,1,70,0,1
135037,-100,4,1,1,60,0,1
135131,-100,4,1,4,70,0,1
135319,-100,4,1,1,70,0,1
135506,-100,4,1,1,70,0,1
136444,-100,4,1,5,70,0,1
136631,-100,4,1,1,70,0,1
136819,-100,4,1,5,70,0,1
137006,-100,4,1,1,70,0,1
137475,-100,4,1,1,70,0,1
137756,-100,4,1,1,70,0,1
140944,-100,4,1,1,55,0,0
146944,-100,4,1,1,60,0,0
149944,-100,4,1,1,65,0,0
154444,-100,4,2,2,55,0,0
155944,-100,4,1,1,65,0,0
157631,-100,4,1,1,65,0,0
158006,-100,4,1,1,65,0,0
158194,-100,4,1,1,70,0,0
158944,-100,4,1,1,80,0,1
170850,-100,4,1,1,80,0,0
170944,-100,4,1,1,80,0,1
171319,-100,4,1,10,80,0,1
171881,-100,4,1,1,80,0,1
172069,-100,4,1,10,80,0,1
172631,-100,4,1,1,80,0,1
172819,-100,4,1,10,80,0,1
173381,-100,4,1,1,80,0,1
173569,-100,4,1,10,80,0,1
173756,-100,4,1,1,80,0,1
173944,-100,4,1,10,80,0,1
174131,-100,4,1,1,80,0,1
174319,-100,4,1,10,80,0,1
174881,-100,4,1,1,80,0,1
175069,-100,4,1,10,80,0,1
175631,-100,4,1,1,80,0,1
175819,-100,4,1,10,80,0,1
176006,-100,4,1,1,80,0,1
176194,-100,4,1,10,80,0,1
176381,-100,4,1,1,80,0,1
176569,-100,4,1,10,80,0,1
176662,-100,4,1,1,80,0,1
176756,-100,4,1,10,80,0,1
176850,-100,4,1,1,80,0,1
176944,-100,4,1,10,80,0,1
177131,-100,4,1,1,80,0,1
177319,-100,4,1,10,80,0,1
177881,-100,4,1,1,80,0,1
178069,-100,4,1,10,80,0,1
178631,-100,4,1,1,80,0,1
178819,-100,4,1,10,80,0,1
179287,-100,4,1,1,80,0,1
179569,-100,4,1,10,80,0,1
180131,-100,4,1,1,80,0,1
180319,-100,4,1,10,80,0,1
180881,-100,4,1,1,80,0,1
181069,-100,4,1,10,80,0,1
181631,-100,4,1,1,80,0,1
181819,-100,4,1,10,80,0,1
182006,-100,4,1,1,80,0,1
182194,-100,4,1,10,80,0,1
182381,-100,4,1,1,80,0,1
182944,-100,4,1,1,80,0,0
194194,-100,4,1,30,80,0,1
194287,-100,4,1,30,70,0,0

[Colours]
Combo1 : 252,242,122
Combo2 : 101,203,241
Combo3 : 180,180,180
Combo4 : 197,243,133
Combo5 : 136,237,251

[HitObjects]
211,230,2944,6,0,P|153:194|252:48,1,260,4|4,0:0|0:0,0:0:0:0:
371,32,4069,1,8,0:0:0:0:
198,50,4444,2,0,P|264:61|373:243,1,260,4|4,0:0|0:0,0:0:0:0:
214,204,5569,1,8,0:0:0:0:
59,138,5944,6,0,L|58:324,1,130,4|0,0:0|0:0,0:0:0:0:
211,136,6694,2,0,L|212:328,1,130,4|0,0:0|0:0,0:0:0:0:
60,217,7444,1,0,1:0:0:0:
213,215,7819,1,4,0:0:0:0:
366,214,8194,1,4,0:0:0:0:
214,291,8944,6,0,P|131:198|237:140,1,260,4|4,0:2|0:0,0:0:0:0:
379,134,10069,1,0,0:0:0:0:
216,133,10444,2,0,L|52:135,2,130,4|0|4,0:0|0:0|0:0,0:0:0:0:
397,131,11569,1,8,0:0:0:0:
216,133,11944,6,0,P|246:256|412:297,1,260,4|4,0:0|0:0,0:0:0:0:
221,318,13069,1,0,0:0:0:0:
359,307,13444,1,4,0:0:0:0:
352,167,13819,1,8,0:0:0:0:
243,58,14194,1,8,0:0:0:0:
90,36,14569,1,8,0:0:0:0:
258,303,14944,6,0,P|337:196|235:152,1,260,4|4,0:2|0:0,0:0:0:0:
93,146,16069,1,0,0:0:0:0:
256,145,16444,2,0,L|420:147,2,130,4|8|4,0:0|0:0|0:0,0:0:0:0:
75,143,17569,1,8,0:0:0:0:
256,144,17944,6,0,P|226:267|80:316,1,260,4|4,0:2|0:0,0:0:0:0:
262,327,19069,1,0,0:0:0:0:
112,319,19444,2,0,L|343:321,1,195,4|0,0:0|0:0,0:0:0:0:
441,323,20944,6,0,L|441:27,1,260,4|4,0:0|0:0,0:0:0:0:
301,44,22069,1,8,0:0:0:0:
161,46,22444,2,0,P|78:113|193:204,1,260,4|4,0:0|0:0,0:0:0:0:
299,205,23569,1,8,0:0:0:0:
159,205,23944,6,0,L|159:49,1,130,0|8,0:0|0:0,0:0:0:0:
299,65,24694,2,0,L|132:65,1,130,4|8,0:0|0:0,0:0:0:0:
320,56,25444,1,4,0:0:0:0:
440,120,25819,1,8,0:0:0:0:
477,241,26194,1,4,0:0:0:0:
441,369,26569,1,8,0:0:0:0:
265,368,26944,6,0,P|180:342|94:165,1,260,4|4,0:0|0:0,0:0:0:0:
232,184,28069,1,8,0:0:0:0:
371,178,28444,2,0,L|372:338,1,130,4|8,0:0|0:0,0:0:0:0:
231,321,29194,2,0,L|70:320,1,130,4|8,0:0|0:0,0:0:0:0:
259,319,29944,6,0,L|420:319,1,130,4|8,0:0|0:0,0:0:0:0:
256,217,30694,2,0,L|256:41,1,130,4|8,0:0|0:0,0:0:0:0:
409,206,31444,2,0,P|396:129|217:33,1,260,4|4,0:0|0:0,0:0:0:0:
94,36,32569,1,8,0:0:0:0:
263,102,32944,6,0,L|-60:100,1,260,4|4,0:2|0:0,0:0:0:0:
146,101,34069,1,8,0:0:0:0:
288,98,34444,2,0,P|360:173|271:296,1,260,4|4,0:0|1:0,0:0:0:0:
148,293,35569,1,8,1:0:0:0:
290,292,35944,5,4,0:0:0:0:
388,229,36319,1,8,0:0:0:0:
411,114,36694,1,4,0:0:0:0:
372,3,37069,1,8,0:0:0:0:
229,4,37444,2,0,L|79:3,2,130,8|8|8,0:0|0:0|0:0,0:0:0:0:
229,147,38569,1,8,0:1:0:0:
371,145,38944,6,0,P|455:215|341:295,1,260,4|4,0:2|0:0,0:0:0:0:
227,299,40069,1,8,0:0:0:0:
84,296,40444,1,4,0:0:0:0:
252,293,40819,1,8,0:0:0:0:
84,296,41194,2,0,L|85:130,1,130,4|8,0:0|0:0,0:0:0:0:
227,165,41944,6,0,P|325:183|392:342,1,260,4|4,0:2|0:0,0:0:0:0:
252,316,43069,1,8,0:0:0:0:
109,317,43444,2,0,L|109:171,1,130,4|8,0:2|0:0,0:0:0:0:
251,185,44194,2,0,L|399:184,1,130,4|8,0:0|0:0,0:0:0:0:
237,190,44944,5,4,0:0:0:0:
452,184,45506,1,4,0:0:0:0:
237,190,46069,1,8,0:0:0:0:
237,190,47569,1,4,0:1:0:0:
405,194,47944,6,0,P|466:149|399:7,1,260,4|4,0:2|0:0,0:0:0:0:
231,8,49069,1,8,0:0:0:0:
373,12,49444,2,0,L|373:155,1,130,4|8,0:0|0:0,0:0:0:0:
230,142,50194,2,0,L|85:141,1,130,4|8,0:0|0:0,0:0:0:0:
268,142,50944,6,0,P|368:177|425:331,1,260,4|4,0:2|0:0,0:0:0:0:
284,315,52069,1,8,0:0:0:0:
141,316,52444,1,4,0:0:0:0:
157,173,52819,1,8,0:0:0:0:
259,73,53194,1,4,0:0:0:0:
401,57,53569,1,8,0:0:0:0:
232,54,53944,6,0,P|157:110|256:223,1,260,4|4,0:2|0:0,0:0:0:0:
377,224,55069,1,8,0:0:0:0:
234,224,55444,2,0,L|99:222,2,130,4|8|4,0:0|0:0|0:0,0:0:0:0:
443,224,56944,6,0,P|425:146|259:60,1,260,4|4,0:2|0:2,0:0:0:0:
144,108,58069,1,8,0:0:0:0:
280,64,58444,1,4,0:2:0:0:
422,66,58819,1,8,0:0:0:0:
280,64,59194,2,0,L|279:224,1,130,4|8,0:0|0:0,0:0:0:0:
422,193,59944,6,0,P|399:293|233:362,1,260,4|4,0:2|0:0,0:0:0:0:
125,365,61069,1,8,0:0:0:0:
267,362,61444,2,0,L|267:49,1,260,4|4,1:0|0:0,0:0:0:0:
124,104,62569,1,8,0:0:0:0:
266,105,62944,6,0,L|266:257,1,130,4|0,0:0|0:0,0:0:0:0:
408,244,63694,2,0,L|408:396,1,130,4|0,0:0|0:0,0:0:0:0:
239,370,64444,2,0,L|58:371,2,130,4|4|4,0:0|0:0|0:0,0:0:0:0:
274,290,65944,6,0,P|357:197|251:139,1,260,4|4,0:2|0:0,0:0:0:0:
114,134,67069,1,0,0:0:0:0:
296,133,67444,2,0,L|460:135,2,130,4|8|4,0:0|0:0|0:0,0:0:0:0:
115,131,68569,1,8,0:0:0:0:
296,133,68944,6,0,P|266:256|100:297,1,260,4|4,0:0|0:0,0:0:0:0:
291,318,70069,1,0,0:0:0:0:
153,307,70444,1,8,0:0:0:0:
160,167,70819,1,8,0:0:0:0:
269,58,71194,1,8,0:0:0:0:
419,36,71569,1,8,0:0:0:0:
264,310,71944,6,0,P|185:203|287:159,1,260,4|4,0:2|0:0,0:0:0:0:
433,146,73069,1,0,0:0:0:0:
277,161,73444,2,0,L|113:163,2,130,4|8|4,0:0|0:0|0:0,0:0:0:0:
437,143,74569,1,8,0:0:0:0:
256,144,74944,6,0,P|286:267|432:316,1,260,4|4,0:2|0:0,0:0:0:0:
250,327,76069,1,4,0:3:0:0:
400,319,76444,2,0,L|169:321,1,195,4|14,0:2|0:0,0:0:0:0:
195,239,77944,5,4,0:0:0:0:
363,240,78319,1,4,0:2:0:0:
212,339,79444,2,0,P|129:295|235:133,1,325,4|8,0:3|0:0,0:0:0:0:
383,128,80756,6,0,L|384:351,1,195,4|12,0:3|0:0,0:0:0:0:
234,324,81694,2,0,L|74:323,1,130,4|8,0:0|0:0,0:0:0:0:
273,324,82444,1,8,0:1:0:0:
247,313,83944,6,0,P|151:299|83:151,1,260,4|4,0:2|0:0,0:0:0:0:
224,164,85069,1,8,0:0:0:0:
367,164,85444,2,0,P|322:280|200:312,1,260,4|4,0:0|0:0,0:0:0:0:
57,314,86569,1,8,0:0:0:0:
225,308,86944,6,0,L|225:144,1,130,4|8,0:2|0:0,0:0:0:0:
82,175,87694,2,0,L|225:176,1,130,4|8,0:2|0:0,0:0:0:0:
354,176,88444,2,0,P|418:228|343:370,1,260,4|4,0:2|0:0,0:0:0:0:
211,367,89569,1,8,0:0:0:0:
380,367,89944,6,0,L|379:85,1,260,4|4,0:2|0:0,0:0:0:0:
210,107,91069,1,8,0:0:0:0:
352,107,91444,2,0,L|489:107,2,130,4|8|4,0:0|0:0|0:0,0:0:0:0:
172,224,92944,6,0,P|95:160|199:52,1,260,4|4,0:2|0:0,0:0:0:0:
174,193,94069,1,8,0:0:0:0:
316,193,94444,1,8,0:0:0:0:
174,193,94819,1,8,0:0:0:0:
31,193,95194,1,8,0:0:0:0:
31,193,95569,1,8,0:0:0:0:
199,190,95944,6,0,P|270:246|191:374,1,260,4|4,0:2|0:0,0:0:0:0:
57,367,97069,1,8,0:0:0:0:
199,367,97444,1,4,0:0:0:0:
341,364,97819,1,8,0:0:0:0:
199,367,98194,2,0,L|485:367,1,260,4|4,0:0|0:2,0:0:0:0:
321,326,99319,5,8,0:0:0:0:
268,193,99694,1,4,0:0:0:0:
327,62,100069,1,8,0:0:0:0:
467,33,100444,1,4,0:2:0:0:
324,29,100819,1,8,0:0:0:0:
200,26,101194,1,4,0:0:0:0:
324,29,101569,1,8,0:0:0:0:
439,28,101944,5,8,0:0:0:0:
224,31,102506,1,8,0:0:0:0:
439,28,103069,1,8,0:0:0:0:
275,190,104569,1,8,0:2:0:0:
133,194,104944,6,0,P|72:149|139:7,1,260,4|4,0:2|0:0,0:0:0:0:
281,8,106069,1,8,0:0:0:0:
139,12,106444,2,0,L|283:13,1,130,4|8,0:0|0:0,0:0:0:0:
411,141,107194,2,0,L|282:142,1,130,4|8,0:0|0:0,0:0:0:0:
138,144,107944,6,0,P|45:196|139:260,1,260,4|4,0:2|0:0,0:0:0:0:
279,261,109069,1,8,0:0:0:0:
135,261,109444,1,4,0:0:0:0:
168,148,109819,1,8,0:0:0:0:
262,79,110194,1,4,0:0:0:0:
378,64,110569,1,8,0:0:0:0:
209,61,110944,6,0,P|134:117|233:230,1,260,4|4,0:2|0:0,0:0:0:0:
67,234,112069,1,8,0:0:0:0:
210,231,112444,2,0,L|346:233,2,130,4|8|4,0:0|0:0|0:0,0:0:0:0:
495,229,113944,6,0,P|477:151|311:65,1,260,4|4,0:2|0:2,0:0:0:0:
187,66,115069,1,8,0:0:0:0:
331,63,115444,1,4,0:2:0:0:
332,205,115819,1,8,0:0:0:0:
189,205,116194,2,0,L|332:206,1,130,4|8,0:0|0:0,0:0:0:0:
162,204,116944,6,0,P|188:117|363:57,1,260,4|4,0:0|0:0,0:0:0:0:
176,50,118069,1,8,0:0:0:0:
331,51,118444,6,0,P|401:118|315:244,1,260,4|4,0:0|0:0,0:0:0:0:
174,243,119569,1,8,0:0:0:0:
329,240,119944,6,0,P|314:166|157:79,1,260,4|4,0:0|0:0,0:0:0:0:
164,77,121444,1,4,0:0:0:0:
319,77,121819,1,4,0:0:0:0:
474,77,122194,1,4,0:0:0:0:
162,78,122944,6,0,L|162:358,1,260,4|4,0:0|0:0,0:0:0:0:
304,335,124069,1,8,0:0:0:0:
446,331,124444,6,0,L|446:51,1,260,4|4,0:0|0:0,0:0:0:0:
304,74,125569,1,0,0:0:0:0:
161,76,125944,6,0,L|160:214,1,130,4|0,0:0|0:0,0:0:0:0:
303,205,126694,2,0,L|447:205,1,130,4|0,0:0|0:0,0:0:0:0:
290,202,127444,2,0,L|137:202,1,130,4|4,0:0|0:0,0:0:0:0:
328,204,128194,1,4,0:0:0:0:
26,224,128944,6,0,P|40:154|230:79,1,260,4|6,0:2|0:0,0:0:0:0:
351,71,130069,1,8,0:0:0:0:
194,66,130444,2,0,P|111:126|203:223,1,260,4|6,0:0|0:0,0:0:0:0:
335,224,131569,1,8,0:0:0:0:
192,227,131944,6,0,L|191:89,1,130,4|8,0:0|0:0,0:0:0:0:
333,91,132694,2,0,L|476:92,1,130,8|8,0:0|0:0,0:0:0:0:
320,95,133444,5,4,0:2:0:0:
317,197,133819,1,8,0:0:0:0:
267,296,134194,1,8,0:0:0:0:
145,332,134569,1,8,0:0:0:0:
305,335,134944,6,0,L|456:334,1,130,4|8,0:2|0:0,0:0:0:0:
290,195,135694,2,0,L|289:346,1,130,4|8,0:0|0:0,0:0:0:0:
458,324,136444,2,0,L|315:325,1,130,6|10,0:0|0:0,0:0:0:0:
153,323,137194,2,0,L|319:324,1,130,4|8,0:0|0:0,0:0:0:0:
457,327,137944,6,0,L|456:180,1,130,4|8,0:2|0:0,0:0:0:0:
287,190,138694,2,0,L|288:43,1,130,12|8,0:0|0:0,0:0:0:0:
118,61,139444,1,4,0:2:0:0:
286,51,139819,2,0,L|419:51,2,130,8|8|8,0:0|0:0|0:0,0:0:0:0:
131,51,140944,6,0,P|144:150|296:212,1,260,4|4,0:2|0:0,0:0:0:0:
394,212,142069,1,8,0:0:0:0:
277,215,142444,2,0,P|160:172|131:51,1,260,4|4,0:0|0:0,0:0:0:0:
248,51,143569,1,8,0:0:0:0:
364,48,143944,6,0,L|365:222,1,130,4|4,0:0|0:0,0:0:0:0:
247,181,144694,2,0,L|248:355,1,130,4|8,0:0|0:0,0:0:0:0:
380,333,145444,1,8,0:0:0:0:
245,336,145819,1,8,0:0:0:0:
110,338,146194,1,8,0:0:0:0:
381,51,146944,6,0,P|368:150|216:212,1,260,4|4,0:2|0:0,0:0:0:0:
118,212,148069,1,8,0:0:0:0:
260,215,148444,2,0,L|259:72,1,130,4|8,0:0|0:0,0:0:0:0:
116,74,149194,2,0,L|257:74,1,130,4|0,0:0|0:0,0:0:0:0:
388,76,149944,5,4,0:2:0:0:
391,218,150319,1,8,0:0:0:0:
248,216,150694,2,0,L|387:216,1,130,4|0,0:0|0:0,0:0:0:0:
234,348,151444,1,4,0:2:0:0:
131,278,151819,1,8,0:0:0:0:
88,167,152194,1,4,0:0:0:0:
128,55,152569,1,8,0:0:0:0:
298,53,152944,5,8,0:0:0:0:
83,56,153506,1,8,0:0:0:0:
298,53,154069,1,8,0:0:0:0:
214,53,155944,5,4,0:2:0:0:
467,54,156506,1,8,0:0:0:0:
214,53,157069,1,8,0:0:0:0:
214,53,158569,1,4,0:0:0:0:
382,51,158944,6,0,P|468:140|363:195,1,260,4|4,0:2|0:0,0:0:0:0:
214,204,160069,1,8,0:0:0:0:
382,202,160444,2,0,L|384:350,1,130,4|8,0:0|0:0,0:0:0:0:
214,331,161194,2,0,L|76:331,1,130,4|8,0:0|0:0,0:0:0:0:
252,329,161944,6,0,P|338:321|406:163,1,260,4|4,0:2|0:0,0:0:0:0:
266,175,163069,1,8,0:0:0:0:
123,175,163444,1,4,0:0:0:0:
146,268,163819,1,8,0:0:0:0:
219,334,164194,1,4,0:0:0:0:
363,334,164569,1,8,0:0:0:0:
195,335,164944,6,0,P|114:289|222:192,1,260,4|4,0:2|0:0,0:0:0:0:
362,182,166069,1,8,0:0:0:0:
193,183,166444,2,0,L|192:27,1,130,4|8,0:0|0:0,0:0:0:0:
361,54,167194,2,0,L|503:53,1,130,4|8,0:0|0:0,0:0:0:0:
308,55,167944,6,0,L|308:206,1,130,4|8,0:2|0:0,0:0:0:0:
139,187,168694,1,4,0:2:0:0:
307,189,169069,1,8,0:0:0:0:
139,187,169444,2,0,L|141:41,1,130,4|8,0:2|0:0,0:0:0:0:
309,60,170194,1,8,0:0:0:0:
439,60,170569,1,8,0:0:0:0:
270,60,170944,6,0,P|202:111|288:246,1,260,4|4,0:2|0:0,0:0:0:0:
437,246,172069,1,8,0:0:0:0:
268,247,172444,2,0,L|268:394,1,130,4|8,0:0|0:0,0:0:0:0:
437,246,173194,2,0,L|268:247,1,130,4|8,0:0|0:0,0:0:0:0:
138,252,173944,6,0,P|65:199|163:79,1,260,4|4,0:2|0:0,0:0:0:0:
281,75,175069,1,8,0:0:0:0:
138,77,175444,1,4,0:0:0:0:
161,170,175819,1,8,0:0:0:0:
234,236,176194,1,4,0:0:0:0:
378,236,176569,1,8,0:0:0:0:
209,237,176944,6,0,P|221:151|378:80,1,260,4|4,0:2|0:0,0:0:0:0:
194,82,178069,1,8,0:0:0:0:
25,85,178444,2,0,L|26:235,1,130,4|8,0:0|0:0,0:0:0:0:
194,206,179194,2,0,L|358:205,1,130,4|8,0:0|0:0,0:0:0:0:
155,210,179944,6,0,L|156:65,1,130,4|8,0:2|0:0,0:0:0:0:
324,77,180694,2,0,L|181:75,1,130,4|8,0:2|0:0,0:0:0:0:
362,81,181444,2,0,L|501:79,2,130,4|8|8,0:2|0:0|0:0,0:0:0:0:
125,322,182944,6,0,P|150:218|309:164,1,260,4|4,0:2|0:0,0:0:0:0:
450,158,184069,1,8,0:0:0:0:
281,149,184444,2,0,B|281:285|281:285|280:137,1,260,4|4,0:1|0:0,0:0:0:0:
137,166,185569,1,8,0:0:0:0:
279,164,185944,6,0,L|430:166,1,130,4|0,0:1|0:0,0:0:0:0:
265,164,186694,2,0,L|264:314,1,130,4|0,0:0|0:0,0:0:0:0:
425,298,187444,1,4,0:0:0:0:
263,299,187819,1,4,0:0:0:0:
102,300,188194,1,4,0:0:0:0:
351,302,188944,6,0,P|421:258|325:133,1,260,4|4,0:2|0:0,0:0:0:0:
181,133,190069,1,8,0:0:0:0:
323,130,190444,2,0,L|324:394,1,260,4|4,0:0|0:0,0:0:0:0:
180,333,191569,1,8,0:0:0:0:
322,329,191944,6,0,L|467:330,1,130,4|0,0:0|0:0,0:0:0:0:
308,329,192694,2,0,L|163:330,1,130,4|0,0:0|0:0,0:0:0:0:
359,324,193444,5,8,0:0:0:0:
359,324,193819,1,8,0:0:0:0:
177,326,194194,1,12,0:1:0:0:
