osu file format v14

[General]
AudioFilename: audio.mp3
AudioLeadIn: 0
PreviewTime: 456
Countdown: 0
SampleSet: Soft
StackLeniency: 0.7
Mode: 3
LetterboxInBreaks: 0
SpecialStyle: 0
WidescreenStoryboard: 1

[Editor]
DistanceSpacing: 1
BeatDivisor: 4
GridSize: 32
TimelineZoom: 1

[Metadata]
Title:Melody of Promise
TitleUnicode:Melody of Promise
Artist:tatatat
ArtistUnicode:tatatat
Creator:tatatat
Version:7K Beginner
Source:ファイナルファンタジー
Tags:Masashi Hamauzu 浜渦正志 Nobuo Uematsu 植松伸夫 Main Theme ~誓い~ The Promise FF Final Fantasy 13 Square Enix Video Game Instrumental Music Box 誓いのメロディー メイン・テーマ SEMO-00001 SQEX-10183 chikai rpg ファイナルファンタジーXIII
BeatmapID:2950217
BeatmapSetID:936195

[Difficulty]
HPDrainRate:7
CircleSize:7
OverallDifficulty:7
ApproachRate:10
SliderMultiplier:1.8
SliderTickRate:1

[Events]
//Background and Video events
0,0,"muhlight.jpg",0,0
//Break Periods
//Storyboard Layer 0 (Background)
//Storyboard Layer 1 (Fail)
//Storyboard Layer 2 (Pass)
//Storyboard Layer 3 (Foreground)
//Storyboard Layer 4 (Overlay)
//Storyboard Sound Samples

[TimingPoints]
456,882.352941176471,4,2,1,40,1,0
24279,882.352941176471,4,2,1,40,1,0
26926,882.352941176471,4,2,1,40,1,0

[HitObjects]
435,192,456,5,2,0:0:0:0:
486,192,897,1,0,0:0:0:0:
435,192,1338,1,2,0:0:0:0:
329,192,1779,1,0,0:0:0:0:
256,192,2220,1,8,0:0:0:0:
128,192,3103,128,2,3985:0:0:0:0:
332,192,3985,1,2,0:0:0:0:
281,192,4426,1,0,0:0:0:0:
182,192,4867,1,2,0:0:0:0:
76,192,5308,1,0,0:0:0:0:
179,192,5750,128,8,7514:0:0:0:0:
36,192,7514,1,2,0:0:0:0:
128,192,7956,1,0,0:0:0:0:
179,192,8397,1,2,0:0:0:0:
332,192,8838,1,0,0:0:0:0:
230,192,9279,1,8,0:0:0:0:
25,192,10161,128,2,11044:0:0:0:0:
76,192,11044,1,2,0:0:0:0:
182,192,11485,1,0,0:0:0:0:
256,192,11926,1,2,0:0:0:0:
332,192,12367,1,0,0:0:0:0:
230,192,12808,128,8,14573:0:0:0:0:
435,192,14573,5,2,0:0:0:0:
486,192,15014,1,0,0:0:0:0:
435,192,15456,1,2,0:0:0:0:
329,192,15897,1,0,0:0:0:0:
256,192,16338,1,8,0:0:0:0:
128,192,17220,128,2,18103:0:0:0:0:
332,192,18103,1,2,0:0:0:0:
281,192,18544,1,0,0:0:0:0:
182,192,18985,1,2,0:0:0:0:
76,192,19426,1,0,0:0:0:0:
179,192,19867,128,8,21632:0:0:0:0:
36,192,21632,1,2,0:0:0:0:
128,192,22073,1,0,0:0:0:0:
179,192,22514,1,2,0:0:0:0:
332,192,22956,1,0,0:0:0:0:
230,192,23397,1,8,0:0:0:0:
329,192,24279,128,4,26926:0:0:0:0:
402,192,26926,128,2,28690:0:0:0:0:
329,192,28690,1,2,0:0:0:0:
230,192,29131,1,0,0:0:0:0:
179,192,29573,1,2,0:0:0:0:
25,192,30455,128,8,32220:0:0:0:0:
332,192,32220,128,2,33984:0:0:0:0:
256,192,33984,1,2,0:0:0:0:
435,192,34426,1,0,0:0:0:0:
486,192,34867,1,2,0:0:0:0:
179,192,35749,128,8,37514:0:0:0:0:
486,192,37514,128,2,39278:0:0:0:0:
435,192,39278,1,2,0:0:0:0:
329,192,39720,1,0,0:0:0:0:
256,192,40161,1,8,0:0:0:0:
329,192,41043,1,2,0:0:0:0:
435,192,41926,1,2,0:0:0:0:
486,192,42808,128,4,44573:0:0:0:0:
329,192,44573,1,2,0:0:0:0:
182,192,45455,1,8,0:0:0:0:
329,192,46337,1,2,0:0:0:0:
182,192,47220,1,8,0:0:0:0:
36,192,48102,1,2,0:0:0:0:
128,192,48543,1,0,0:0:0:0:
179,192,48984,128,8,51631:0:0:0:0:
109,192,51631,1,2,0:0:0:0:
256,192,52514,1,2,0:0:0:0:
329,192,53396,1,8,0:0:0:0:
109,192,54278,1,2,0:0:0:0:
486,192,55161,128,4,56926:0:0:0:0:
332,192,56926,1,2,0:0:0:0:
281,192,57808,1,2,0:0:0:0:
182,192,58690,1,8,0:0:0:0:
109,192,59573,1,2,0:0:0:0:
256,192,60014,1,0,0:0:0:0:
329,192,60455,1,2,0:0:0:0:
256,192,61337,1,2,0:0:0:0:
230,192,62220,128,2,63984:0:0:0:0:
76,192,63984,128,8,65749:0:0:0:0:
25,192,65749,1,2,0:0:0:0:
179,192,66631,1,2,0:0:0:0:
332,192,67514,1,8,0:0:0:0:
25,192,68396,1,2,0:0:0:0:
486,192,69278,128,4,71043:0:0:0:0:
435,192,71043,1,2,0:0:0:0:
329,192,71926,1,2,0:0:0:0:
256,192,72808,1,8,0:0:0:0:
179,192,73690,1,2,0:0:0:0:
281,192,74131,1,0,0:0:0:0:
179,192,74573,1,2,0:0:0:0:
25,192,75455,1,8,0:0:0:0:
281,192,76337,128,2,78102:0:0:0:0:
128,192,78102,128,4,79867:0:0:0:0:
