osu file format v14

[General]
AudioFilename: audio.mp3
AudioLeadIn: 0
PreviewTime: 456
Countdown: 0
SampleSet: Soft
StackLeniency: 0.7
Mode: 3
LetterboxInBreaks: 0
SpecialStyle: 0
WidescreenStoryboard: 1

[Editor]
DistanceSpacing: 1
BeatDivisor: 4
GridSize: 32
TimelineZoom: 1

[Metadata]
Title:Melody of Promise
TitleUnicode:Melody of Promise
Artist:tatatat
ArtistUnicode:tatatat
Creator:tatatat
Version:10K Easy
Source:ファイナルファンタジー
Tags:Masashi Hamauzu 浜渦正志 Nobuo Uematsu 植松伸夫 Main Theme ~誓い~ The Promise FF Final Fantasy 13 Square Enix Video Game Instrumental Music Box 誓いのメロディー メイン・テーマ SEMO-00001 SQEX-10183 chikai rpg ファイナルファンタジーXIII
BeatmapID:2950142
BeatmapSetID:936195

[Difficulty]
HPDrainRate:7.5
CircleSize:10
OverallDifficulty:7.5
ApproachRate:10
SliderMultiplier:1.8
SliderTickRate:1

[Events]
//Background and Video events
0,0,"muhlight.jpg",0,0
//Break Periods
//Storyboard Layer 0 (Background)
//Storyboard Layer 1 (Fail)
//Storyboard Layer 2 (Pass)
//Storyboard Layer 3 (Foreground)
//Storyboard Layer 4 (Overlay)
//Storyboard Sound Samples

[TimingPoints]
456,882.352941176471,4,2,1,40,1,0
24279,882.352941176471,4,2,1,40,1,0
26926,882.352941176471,4,2,1,40,1,0

[HitObjects]
486,192,456,5,0,0:0:0:0:
128,192,456,1,2,0:0:0:0:
384,192,897,1,0,0:0:0:0:
332,192,1338,1,0,0:0:0:0:
230,192,1338,1,2,0:0:0:0:
179,192,1779,1,0,0:0:0:0:
128,192,2220,1,8,0:0:0:0:
332,192,2220,128,0,3103:0:0:0:0:
128,192,3103,128,0,3985:0:0:0:0:
281,192,3103,1,2,0:0:0:0:
435,192,3985,1,0,0:0:0:0:
179,192,3985,1,2,0:0:0:0:
230,192,4426,1,0,0:0:0:0:
128,192,4867,1,0,0:0:0:0:
384,192,4867,1,2,0:0:0:0:
25,192,5308,1,0,0:0:0:0:
179,192,5750,128,0,7514:0:0:0:0:
332,192,5750,1,8,0:0:0:0:
76,192,7514,1,0,0:0:0:0:
281,192,7514,1,2,0:0:0:0:
179,192,7956,1,0,0:0:0:0:
230,192,8397,1,0,0:0:0:0:
384,192,8397,1,2,0:0:0:0:
435,192,8838,1,0,0:0:0:0:
281,192,9279,1,8,0:0:0:0:
230,192,9279,128,0,10161:0:0:0:0:
25,192,10161,128,0,11044:0:0:0:0:
384,192,10161,1,2,0:0:0:0:
76,192,11044,1,0,0:0:0:0:
332,192,11044,1,2,0:0:0:0:
179,192,11485,1,0,0:0:0:0:
281,192,11926,1,2,0:0:0:0:
128,192,11926,1,0,0:0:0:0:
384,192,12367,1,0,0:0:0:0:
230,192,12808,128,0,14573:0:0:0:0:
76,192,12808,1,8,0:0:0:0:
486,192,14573,5,0,0:0:0:0:
179,192,14573,1,2,0:0:0:0:
435,192,15014,1,0,0:0:0:0:
384,192,15456,1,0,0:0:0:0:
179,192,15456,1,2,0:0:0:0:
128,192,15897,1,0,0:0:0:0:
76,192,16338,1,8,0:0:0:0:
332,192,16338,128,0,17220:0:0:0:0:
128,192,17220,128,0,18103:0:0:0:0:
281,192,17220,1,2,0:0:0:0:
486,192,18103,1,0,0:0:0:0:
179,192,18103,1,2,0:0:0:0:
281,192,18544,1,0,0:0:0:0:
179,192,18985,1,0,0:0:0:0:
435,192,18985,1,2,0:0:0:0:
25,192,19426,1,0,0:0:0:0:
179,192,19867,128,0,21632:0:0:0:0:
384,192,19867,1,8,0:0:0:0:
76,192,21632,1,0,0:0:0:0:
332,192,21632,1,2,0:0:0:0:
179,192,22073,1,0,0:0:0:0:
281,192,22514,1,0,0:0:0:0:
486,192,22514,1,2,0:0:0:0:
384,192,22956,1,0,0:0:0:0:
230,192,23397,128,0,24279:0:0:0:0:
128,192,23397,1,8,0:0:0:0:
281,192,24279,128,0,26926:0:0:0:0:
25,192,24279,1,4,0:0:0:0:
332,192,26926,128,0,28690:0:0:0:0:
128,192,26926,1,2,0:0:0:0:
281,192,28690,1,0,0:0:0:0:
76,192,28690,1,2,0:0:0:0:
179,192,29131,1,0,0:0:0:0:
384,192,29573,1,2,0:0:0:0:
76,192,29573,128,0,30455:0:0:0:0:
25,192,30455,128,0,32220:0:0:0:0:
281,192,30455,1,8,0:0:0:0:
332,192,32220,128,0,33984:0:0:0:0:
179,192,32220,1,2,0:0:0:0:
76,192,33984,1,0,0:0:0:0:
230,192,33984,1,2,0:0:0:0:
332,192,34426,1,0,0:0:0:0:
179,192,34867,1,2,0:0:0:0:
486,192,34867,128,0,35749:0:0:0:0:
179,192,35749,128,0,37514:0:0:0:0:
281,192,35749,1,8,0:0:0:0:
486,192,37514,128,0,39278:0:0:0:0:
332,192,37514,1,2,0:0:0:0:
435,192,39278,1,0,0:0:0:0:
230,192,39278,1,2,0:0:0:0:
332,192,39720,1,0,0:0:0:0:
76,192,40161,1,8,0:0:0:0:
230,192,40161,128,0,41043:0:0:0:0:
128,192,41043,1,2,0:0:0:0:
384,192,41043,128,0,41926:0:0:0:0:
179,192,41926,1,2,0:0:0:0:
435,192,41926,128,0,42808:0:0:0:0:
486,192,42808,128,0,44573:0:0:0:0:
25,192,42808,1,4,0:0:0:0:
179,192,44573,1,2,0:0:0:0:
384,192,44573,128,0,45455:0:0:0:0:
230,192,45455,128,0,46337:0:0:0:0:
76,192,45455,1,8,0:0:0:0:
179,192,46337,1,2,0:0:0:0:
384,192,46337,128,0,47220:0:0:0:0:
76,192,47220,1,8,0:0:0:0:
230,192,47220,128,0,48102:0:0:0:0:
76,192,48102,1,0,0:0:0:0:
332,192,48102,1,2,0:0:0:0:
179,192,48543,1,0,0:0:0:0:
281,192,48984,128,0,51631:0:0:0:0:
384,192,48984,1,8,0:0:0:0:
435,192,51631,1,2,0:0:0:0:
128,192,51631,128,0,52514:0:0:0:0:
384,192,52514,1,2,0:0:0:0:
230,192,52514,128,0,53396:0:0:0:0:
76,192,53396,1,8,0:0:0:0:
332,192,53396,128,0,54278:0:0:0:0:
128,192,54278,1,2,0:0:0:0:
230,192,54278,128,0,55161:0:0:0:0:
486,192,55161,128,0,56926:0:0:0:0:
179,192,55161,1,4,0:0:0:0:
128,192,56926,1,2,0:0:0:0:
332,192,56926,128,0,57808:0:0:0:0:
384,192,57808,1,2,0:0:0:0:
230,192,57808,128,0,58690:0:0:0:0:
128,192,58690,128,0,59573:0:0:0:0:
281,192,58690,1,8,0:0:0:0:
179,192,59573,1,0,0:0:0:0:
384,192,59573,1,2,0:0:0:0:
281,192,60014,1,0,0:0:0:0:
384,192,60455,128,0,61337:0:0:0:0:
76,192,60455,1,2,0:0:0:0:
179,192,61337,1,0,0:0:0:0:
281,192,61337,1,2,0:0:0:0:
230,192,62220,128,0,63984:0:0:0:0:
332,192,62220,1,2,0:0:0:0:
76,192,63984,128,0,65749:0:0:0:0:
281,192,63984,1,8,0:0:0:0:
281,192,65749,1,2,0:0:0:0:
25,192,65749,128,0,66631:0:0:0:0:
384,192,66631,1,2,0:0:0:0:
179,192,66631,128,0,67514:0:0:0:0:
486,192,67514,1,8,0:0:0:0:
332,192,67514,128,0,68396:0:0:0:0:
25,192,68396,128,0,69278:0:0:0:0:
179,192,68396,1,2,0:0:0:0:
486,192,69278,128,0,71043:0:0:0:0:
76,192,69278,1,4,0:0:0:0:
179,192,71043,1,2,0:0:0:0:
384,192,71043,128,0,71926:0:0:0:0:
128,192,71926,1,2,0:0:0:0:
281,192,71926,128,0,72808:0:0:0:0:
384,192,72808,1,8,0:0:0:0:
230,192,72808,128,0,73690:0:0:0:0:
435,192,73690,1,0,0:0:0:0:
179,192,73690,1,2,0:0:0:0:
281,192,74131,1,0,0:0:0:0:
384,192,74573,1,2,0:0:0:0:
179,192,74573,128,0,75455:0:0:0:0:
332,192,75455,1,8,0:0:0:0:
25,192,75455,128,0,76337:0:0:0:0:
281,192,76337,128,0,78102:0:0:0:0:
76,192,76337,1,2,0:0:0:0:
128,192,78102,128,0,79867:0:0:0:0:
486,192,78102,1,4,0:0:0:0:
