osu file format v14

[General]
AudioFilename: audio.mp3
AudioLeadIn: 0
PreviewTime: -1
Countdown: 1
SampleSet: None
StackLeniency: 0.7
Mode: 0
LetterboxInBreaks: 0
WidescreenStoryboard: 1

[Editor]
DistanceSpacing: 0.8
BeatDivisor: 6
GridSize: 16
TimelineZoom: 1

[Metadata]
Title:BREAK OUT
TitleUnicode:BREAK OUT
Artist:tatan
ArtistUnicode:tatan
Creator:wahu-kan
Version:Insane
Source:
Tags:
BeatmapID:1551410
BeatmapSetID:696497

[Difficulty]
HPDrainRate:8
CircleSize:5
OverallDifficulty:8
ApproachRate:9
SliderMultiplier:1.6
SliderTickRate:2

[Events]
//Background and Video events
//Break Periods
//Storyboard Layer 0 (Background)
//Storyboard Layer 1 (Fail)
//Storyboard Layer 2 (Pass)
//Storyboard Layer 3 (Foreground)
//Storyboard Sound Samples

[TimingPoints]
540,487.80487804878,4,1,0,26,1,0
640,-66.6666666666667,4,1,0,26,0,0

[HitObjects]
111,88,2491,6,0,B|200:70|178:164|126:304,1,240.000009155274
212,168,3222,1,0,0:0:0:0:
218,70,3466,2,0,P|319:110|227:156,1,240.000009155274
246,168,4198,1,0,0:0:0:0:
196,291,4442,2,0,P|292:270|214:166,1,240.000009155274
96,128,5174,1,0,0:0:0:0:
136,111,5418,2,0,B|229:103|229:103|176:107|176:107|280:98,1,240.000009155274
368,160,6149,1,0,0:0:0:0:
448,160,6393,6,0,P|437:237|370:259,1,120.000004577637
306,306,6881,2,0,P|234:342|174:330,1,120.000004577637
164,270,7369,2,0,P|122:204|151:150,1,120.000004577637
222,147,7857,2,0,P|229:85|155:68,1,120.000004577637
68,63,8344,2,0,P|40:127|100:167,1,120.000004577637
132,223,8832,2,0,P|183:262|247:233,1,120.000004577637
363,247,9320,2,0,B|401:291|401:291|362:247|362:247|464:362,1,240.000009155274
167,39,10296,6,0,P|303:117|365:60,1,240.000009155274
397,269,11027,1,0,0:0:0:0:
255,340,11271,1,0,0:0:0:0:
77,155,11759,1,0,0:0:0:0:
240,256,12247,2,0,P|303:169|203:176,1,240.000009155274
102,50,12979,1,0,0:0:0:0:
352,96,13222,1,0,0:0:0:0:
82,245,13710,1,0,0:0:0:0:
190,347,13954,5,0,0:0:0:0:
242,319,14198,2,0,B|265:292|265:292|313:308|313:308|330:279,1,120.000004577637
416,203,14686,1,0,0:0:0:0:
373,154,14930,2,0,B|330:131|330:131|316:75|316:75|274:62,1,120.000004577637
209,33,15417,5,0,0:0:0:0:
89,48,15661,2,0,B|77:81|77:81|140:100|140:100|114:149,1,120.000004577637
51,178,16149,1,0,0:0:0:0:
90,260,16393,2,0,B|152:267|152:267|142:308|142:308|170:332,1,120.000004577637
238,330,16881,1,0,0:0:0:0:
372,321,17125,2,0,B|384:284|384:284|353:254|353:254|411:218,1,120.000004577637
400,176,17450,1,0,0:0:0:0:
384,128,17531,1,0,0:0:0:0:
352,96,17613,1,0,0:0:0:0:
304,80,17694,1,0,0:0:0:0:
256,96,17775,1,0,0:0:0:0:
224,128,17857,1,0,0:0:0:0:
206,217,18100,6,0,P|285:248|318:201,1,120.000004577637
337,313,18588,1,0,0:0:0:0:
189,313,18832,1,0,0:0:0:0:
84,170,19076,1,0,0:0:0:0:
248,180,19320,1,0,0:0:0:0:
104,270,19564,1,0,0:0:0:0:
183,84,19808,1,0,0:0:0:0:
396,83,20052,6,0,P|337:112|268:83,1,120.000004577637
279,145,20377,1,0,0:0:0:0:
302,185,20458,1,0,0:0:0:0:
328,224,20539,1,0,0:0:0:0:
283,297,20783,5,0,0:0:0:0:
233,315,20865,1,0,0:0:0:0:
184,301,20946,1,0,0:0:0:0:
147,268,21027,2,0,P|100:240|105:163,1,120.000004577637
175,160,21515,2,0,B|125:129|125:129|206:87|206:87|125:9,1,240.000009155274
280,40,22247,1,0,0:0:0:0:
420,114,22491,1,0,0:0:0:0:
272,192,22735,5,0,0:0:0:0:
267,201,22816,1,0,0:0:0:0:
263,212,22897,1,0,0:0:0:0:
258,221,22979,2,0,P|307:259|386:237,1,120.000004577637
448,256,23466,2,0,P|441:303|352:320,1,120.000004577637
307,329,23954,6,0,P|243:296|179:329,1,120.000004577637
59,217,24442,1,0,0:0:0:0:
104,93,24686,1,0,0:0:0:0:
175,46,24930,2,0,P|232:79|308:49,1,120.000004577637
317,117,25418,2,0,B|404:87|404:87|408:143|408:143|327:218,1,240.000009155274
268,246,26149,1,0,0:0:0:0:
145,339,26637,5,0,0:0:0:0:
101,322,26718,1,0,0:0:0:0:
75,281,26800,1,0,0:0:0:0:
70,232,26881,2,0,P|128:211|156:259,1,120.000004577637
278,219,27369,2,0,P|235:186|231:121,1,120.000004577637
328,47,27857,1,0,0:0:0:0:
437,97,28100,1,0,0:0:0:0:
406,203,28344,1,0,0:0:0:0:
278,320,28588,5,0,0:0:0:0:
228,316,28670,1,0,0:0:0:0:
185,284,28751,1,0,0:0:0:0:
159,231,28832,2,0,P|211:237|251:180,1,120.000004577637
144,92,29320,1,0,0:0:0:0:
326,52,29564,1,0,0:0:0:0:
419,210,29808,5,0,0:0:0:0:
218,317,30052,1,0,0:0:0:0:
266,144,30296,1,0,0:0:0:0:
112,208,30539,6,0,L|96:112,1,80.0000030517579
160,128,30783,2,0,L|144:32,1,80.0000030517579
224,48,31027,2,0,L|192:16,1,40.000001525879
288,80,31190,2,0,L|352:80,1,40.000001525879
240,160,31353,2,0,L|288:208,1,40.000001525879
336,176,31515,2,0,P|400:176|448:224,1,120.000004577637
384,288,32003,5,0,0:0:0:0:
352,320,32084,1,0,0:0:0:0:
304,336,32166,1,0,0:0:0:0:
256,336,32247,2,0,L|144:336,1,105.000004005432
112,160,32735,1,0,0:0:0:0:
272,208,32979,1,0,0:0:0:0:
108,161,33222,2,0,P|236:129|268:225,1,240.000009155274
271,207,33954,5,0,0:0:0:0:
368,64,34198,2,0,B|400:96|400:96|352:128|352:128|368:160,1,120.000004577637
400,320,34686,1,0,0:0:0:0:
176,320,34930,1,0,0:0:0:0:
256,192,35174,1,0,0:0:0:0:
64,208,35418,1,0,0:0:0:0:
112,80,35661,6,0,L|176:96,1,40.000001525879
150,89,35824,2,0,L|198:105,1,40.000001525879
187,101,35987,2,0,L|246:120,1,40.000001525879
225,113,36149,2,0,P|174:142|186:200,1,120.000004577637
344,187,36637,1,0,0:0:0:0:
405,311,36881,1,0,0:0:0:0:
292,348,37125,2,0,B|266:294|266:294|188:303,1,120.000004577637
68,281,37613,1,0,0:0:0:0:
95,160,37857,5,0,0:0:0:0:
117,118,37938,1,0,0:0:0:0:
148,83,38019,1,0,0:0:0:0:
183,53,38100,2,0,L|304:66,1,120.000004577637
224,240,38588,1,0,0:0:0:0:
416,224,38832,1,0,0:0:0:0:
416,224,38913,1,0,0:0:0:0:
416,224,38995,1,0,0:0:0:0:
416,224,39076,1,0,0:0:0:0:
144,320,39320,5,0,0:0:0:0:
144,96,39564,1,0,0:0:0:0:
325,267,39808,1,0,0:0:0:0:
325,267,39889,1,0,0:0:0:0:
325,267,39970,1,0,0:0:0:0:
325,267,40052,1,0,0:0:0:0:
411,139,40296,1,0,0:0:0:0:
297,63,40539,2,0,P|355:33|409:63,1,120.000004577637
304,160,41027,2,0,L|439:176,1,120.000004577637
400,256,41515,5,0,0:0:0:0:
240,288,41759,1,0,0:0:0:0:
138,226,42003,2,0,P|82:207|50:143,1,120.000004577637
55,126,42328,1,0,0:0:0:0:
74,84,42409,2,0,L|197:82,1,120.000004577637
193,82,42735,1,0,0:0:0:0:
346,58,42979,1,0,0:0:0:0:
421,224,43222,1,0,0:0:0:0:
312,271,43466,2,0,B|257:313|257:313|231:301|231:301|256:312|256:312|278:297|278:297|255:313|255:313|185:280,1,240.000009155274
128,256,44198,5,0,0:0:0:0:
96,152,44442,2,0,P|164:122|224:152,1,120.000004577637
352,128,44930,2,0,P|380:160|464:160,1,120.000004577637
142,181,45418,2,0,B|215:76|215:76|225:140|282:104|282:104|221:253|425:240,1,480.000018310548
439,168,46637,2,0,B|440:137|440:137|439:168|439:168|443:78,1,120.000004577637
309,38,47125,1,0,0:0:0:0:
160,96,47369,1,0,0:0:0:0:
127,195,47613,2,0,B|253:218|249:106|177:120|129:285|251:236,1,240.000009155274
332,174,48344,2,0,B|230:195|276:321|337:298|396:111|304:154|388:258|410:253,1,240.000009155274
399,255,48913,5,0,0:0:0:0:
395,276,48995,1,0,0:0:0:0:
379,292,49076,1,0,0:0:0:0:
356,301,49157,1,0,0:0:0:0:
335,296,49239,1,0,0:0:0:0:
327,286,49320,2,0,P|282:261|248:295,1,80.0000030517579
236,298,49564,1,0,0:0:0:0:
85,211,49808,2,0,L|181:211,1,70.0000026702882
198,189,50052,1,0,0:0:0:0:
157,100,50296,5,0,0:0:0:0:
49,259,50539,1,0,0:0:0:0:
216,331,50783,1,0,0:0:0:0:
277,253,51027,2,0,L|357:253,1,70.0000026702882
365,233,51271,1,0,0:0:0:0:
463,144,51515,2,0,L|383:144,1,70.0000026702882
370,122,51759,1,0,0:0:0:0:
317,45,52003,2,0,L|237:61,1,70.0000026702882
231,85,52247,1,0,0:0:0:0:
74,69,52735,5,0,0:0:0:0:
201,137,52979,2,0,B|261:94|261:94|208:80|243:170|199:257,1,240.000009155274
208,235,53710,2,0,B|200:287|200:287|288:189|288:189|337:228|258:225,1,240.000009155274
287,224,54442,1,0,0:0:0:0:
288,230,54686,2,0,P|345:266|411:237,1,120.000004577637
403,80,55174,2,0,P|349:110|291:96,1,120.000004577637
231,58,55661,2,0,P|147:32|109:52,1,120.000004577637
133,139,56149,2,0,P|128:216|187:245,1,120.000004577637
84,319,56637,2,0,P|131:346|196:319,1,120.000004577637
414,125,56962,6,0,L|414:173,1,35.0000013351441
429,240,57125,2,0,L|333:256,1,70.0000026702882
335,261,57369,1,0,0:0:0:0:
137,324,57613,2,0,L|217:324,1,70.0000026702882
235,320,57857,1,0,0:0:0:0:
95,211,58100,5,0,0:0:0:0:
123,73,58344,1,0,0:0:0:0:
299,242,58588,1,0,0:0:0:0:
339,103,58832,1,0,0:0:0:0:
238,139,59076,2,0,P|175:146|166:221,1,120.000004577637
302,318,59564,1,0,0:0:0:0:
391,263,59808,2,0,P|464:289|482:255,1,120.000004577637
424,210,60296,1,0,0:0:0:0:
192,176,60539,1,0,0:0:0:0:
192,96,60783,6,0,B|251:87|251:87|265:117|265:117|284:92|284:92|298:124|298:124|330:97|330:97|366:124,1,240.000009155274
432,224,61515,1,0,0:0:0:0:
292,107,61759,1,0,0:0:0:0:
109,46,62003,1,0,0:0:0:0:
208,304,62247,2,0,P|140:323|92:267,1,120.000004577637
64,176,62735,1,0,0:0:0:0:
160,128,62979,2,0,P|225:107|272:144,1,120.000004577637
288,192,63466,2,0,P|323:247|391:240,1,120.000004577637
412,215,63792,1,0,0:0:0:0:
421,168,63873,1,0,0:0:0:0:
406,120,63954,1,0,0:0:0:0:
269,77,64198,5,0,0:0:0:0:
220,77,64279,1,0,0:0:0:0:
176,89,64361,1,0,0:0:0:0:
145,127,64442,1,0,0:0:0:0:
130,251,64686,5,0,0:0:0:0:
148,290,64767,1,0,0:0:0:0:
182,305,64848,1,0,0:0:0:0:
216,309,64930,2,0,B|269:298|269:298|285:256|285:256|322:281|322:281|340:236|340:236|405:239,1,240.000009155274
112,100,65661,6,0,B|70:149|22:296|189:298|144:97|144:97|125:122|193:96|193:96|137:286|277:283|270:105|270:105|297:378|375:121|375:121|336:123|336:123|354:99|354:99|372:121|372:121|335:122|335:122|414:244|469:160,1,1320.00005035401
