osu file format v14

[General]
AudioFilename: audio.mp3
AudioLeadIn: 0
PreviewTime: -1
Countdown: 1
SampleSet: Normal
StackLeniency: 0.7
Mode: 3
LetterboxInBreaks: 0
SpecialStyle: 0
WidescreenStoryboard: 1

[Editor]
DistanceSpacing: 0.8
BeatDivisor: 6
GridSize: 16
TimelineZoom: 1

[Metadata]
Title:BREAK OUT
TitleUnicode:BREAK OUT
Artist:tatan
ArtistUnicode:tatan
Creator:wahu-kan
Version:Hard
Source:
Tags:
BeatmapID:1475326
BeatmapSetID:696497

[Difficulty]
HPDrainRate:6
CircleSize:4
OverallDifficulty:8
ApproachRate:5
SliderMultiplier:1.4
SliderTickRate:1

[Events]
//Background and Video events
//Break Periods
//Storyboard Layer 0 (Background)
//Storyboard Layer 1 (Fail)
//Storyboard Layer 2 (Pass)
//Storyboard Layer 3 (Foreground)
//Storyboard Sound Samples

[TimingPoints]
540,487.80487804878,4,1,0,26,1,0

[HitObjects]
192,192,1271,5,0,0:0:0:0:
320,192,1271,1,0,0:0:0:0:
64,192,1353,1,0,0:0:0:0:
448,192,1353,1,0,0:0:0:0:
320,192,1434,1,0,0:0:0:0:
192,192,1434,1,0,0:0:0:0:
64,192,1515,128,0,1759:0:0:0:0:
448,192,1515,128,0,1759:0:0:0:0:
192,192,1922,128,0,2247:0:0:0:0:
320,192,1922,128,0,2247:0:0:0:0:
64,192,2247,128,0,2491:0:0:0:0:
448,192,2247,128,0,2491:0:0:0:0:
192,192,2491,128,0,2979:0:0:0:0:
320,192,2491,128,0,2979:0:0:0:0:
64,192,2979,1,0,0:0:0:0:
192,192,3222,1,0,0:0:0:0:
448,192,3222,128,0,3710:0:0:0:0:
64,192,3222,1,0,0:0:0:0:
64,192,3710,1,0,0:0:0:0:
192,192,3792,1,0,0:0:0:0:
320,192,3873,1,0,0:0:0:0:
192,192,3954,128,0,4198:0:0:0:0:
320,192,4198,128,0,4442:0:0:0:0:
64,192,4442,128,0,4930:0:0:0:0:
192,192,4442,128,0,4930:0:0:0:0:
448,192,4686,1,0,0:0:0:0:
320,192,4767,1,0,0:0:0:0:
448,192,4848,1,0,0:0:0:0:
320,192,4930,1,0,0:0:0:0:
320,192,5174,128,0,5661:0:0:0:0:
448,192,5174,128,0,5661:0:0:0:0:
64,192,5418,1,0,0:0:0:0:
192,192,5499,1,0,0:0:0:0:
64,192,5580,1,0,0:0:0:0:
192,192,5661,1,0,0:0:0:0:
320,192,5905,1,0,0:0:0:0:
192,192,5987,1,0,0:0:0:0:
64,192,6068,1,0,0:0:0:0:
192,192,6149,1,0,0:0:0:0:
320,192,6231,1,0,0:0:0:0:
448,192,6312,1,0,0:0:0:0:
320,192,6393,128,0,6881:0:0:0:0:
192,192,6393,128,0,6881:0:0:0:0:
64,192,6881,1,0,0:0:0:0:
448,192,6881,1,0,0:0:0:0:
192,192,7125,128,0,7613:0:0:0:0:
320,192,7125,128,0,7613:0:0:0:0:
448,192,7613,1,0,0:0:0:0:
64,192,7613,1,0,0:0:0:0:
192,192,7857,128,0,8344:0:0:0:0:
320,192,7857,128,0,8344:0:0:0:0:
64,192,8100,1,0,0:0:0:0:
448,192,8344,1,0,0:0:0:0:
64,192,8344,1,0,0:0:0:0:
192,192,8588,1,0,0:0:0:0:
320,192,8588,1,0,0:0:0:0:
64,192,8832,1,0,0:0:0:0:
448,192,8832,1,0,0:0:0:0:
192,192,9076,1,0,0:0:0:0:
320,192,9076,1,0,0:0:0:0:
192,192,9320,128,0,9808:0:0:0:0:
320,192,9320,128,0,9808:0:0:0:0:
64,192,9808,128,0,10296:0:0:0:0:
448,192,9808,1,0,0:0:0:0:
320,192,10296,1,0,0:0:0:0:
448,192,10296,1,0,0:0:0:0:
192,192,10539,1,0,0:0:0:0:
64,192,10621,1,0,0:0:0:0:
192,192,10702,1,0,0:0:0:0:
320,192,10783,1,0,0:0:0:0:
448,192,11027,128,0,11515:0:0:0:0:
64,192,11027,128,0,11515:0:0:0:0:
192,192,11596,1,0,0:0:0:0:
64,192,11678,1,0,0:0:0:0:
320,192,11759,1,0,0:0:0:0:
448,192,11759,1,0,0:0:0:0:
192,192,12003,1,0,0:0:0:0:
64,192,12084,1,0,0:0:0:0:
192,192,12166,1,0,0:0:0:0:
320,192,12247,1,0,0:0:0:0:
64,192,12247,128,0,12735:0:0:0:0:
448,192,12491,1,0,0:0:0:0:
320,192,12735,1,0,0:0:0:0:
192,192,12816,1,0,0:0:0:0:
64,192,12897,1,0,0:0:0:0:
448,192,12979,128,0,13466:0:0:0:0:
192,192,12979,1,0,0:0:0:0:
192,192,13222,1,0,0:0:0:0:
64,192,13466,1,0,0:0:0:0:
320,192,13710,1,0,0:0:0:0:
448,192,13710,1,0,0:0:0:0:
192,192,13792,1,0,0:0:0:0:
64,192,13873,1,0,0:0:0:0:
192,192,13954,1,0,0:0:0:0:
64,192,14035,1,0,0:0:0:0:
192,192,14117,1,0,0:0:0:0:
320,192,14198,128,0,14442:0:0:0:0:
64,192,14198,128,0,14442:0:0:0:0:
448,192,14686,1,0,0:0:0:0:
192,192,14686,1,0,0:0:0:0:
320,192,14930,128,0,15174:0:0:0:0:
192,192,14930,128,0,15174:0:0:0:0:
64,192,14930,128,0,15174:0:0:0:0:
448,192,15418,1,0,0:0:0:0:
64,192,15418,1,0,0:0:0:0:
448,192,15661,128,0,15905:0:0:0:0:
64,192,15661,128,0,15905:0:0:0:0:
192,192,15661,128,0,15905:0:0:0:0:
320,192,16149,1,0,0:0:0:0:
192,192,16149,1,0,0:0:0:0:
448,192,16393,128,0,16637:0:0:0:0:
64,192,16393,128,0,16637:0:0:0:0:
192,192,16393,128,0,16637:0:0:0:0:
320,192,16881,1,0,0:0:0:0:
192,192,16881,1,0,0:0:0:0:
448,192,17125,128,0,17369:0:0:0:0:
64,192,17125,128,0,17369:0:0:0:0:
192,192,17125,128,0,17369:0:0:0:0:
320,192,17613,128,0,18100:0:0:0:0:
64,192,17613,128,0,18100:0:0:0:0:
192,192,18100,1,0,0:0:0:0:
64,192,18344,1,0,0:0:0:0:
192,192,18344,1,0,0:0:0:0:
192,192,18588,1,0,0:0:0:0:
64,192,18670,1,0,0:0:0:0:
192,192,18751,1,0,0:0:0:0:
320,192,18832,1,0,0:0:0:0:
448,192,18832,1,0,0:0:0:0:
64,192,18832,1,0,0:0:0:0:
320,192,19076,1,0,0:0:0:0:
192,192,19076,1,0,0:0:0:0:
448,192,19320,1,0,0:0:0:0:
64,192,19320,1,0,0:0:0:0:
320,192,19564,1,0,0:0:0:0:
192,192,19564,1,0,0:0:0:0:
448,192,19808,1,0,0:0:0:0:
192,192,19808,1,0,0:0:0:0:
192,192,20052,1,0,0:0:0:0:
64,192,20052,1,0,0:0:0:0:
64,192,20296,1,0,0:0:0:0:
192,192,20296,1,0,0:0:0:0:
64,192,20539,1,0,0:0:0:0:
192,192,20621,1,0,0:0:0:0:
64,192,20702,1,0,0:0:0:0:
448,192,20783,1,0,0:0:0:0:
320,192,20783,1,0,0:0:0:0:
192,192,20783,1,0,0:0:0:0:
64,192,21027,1,0,0:0:0:0:
320,192,21027,1,0,0:0:0:0:
192,192,21271,1,0,0:0:0:0:
448,192,21271,1,0,0:0:0:0:
64,192,21353,1,0,0:0:0:0:
192,192,21434,1,0,0:0:0:0:
64,192,21515,128,0,22003:0:0:0:0:
320,192,21515,128,0,22003:0:0:0:0:
192,192,22003,1,0,0:0:0:0:
192,192,22247,128,0,22491:0:0:0:0:
64,192,22491,1,0,0:0:0:0:
320,192,22735,1,0,0:0:0:0:
64,192,22735,128,0,22979:0:0:0:0:
448,192,22857,1,0,0:0:0:0:
320,192,22979,1,0,0:0:0:0:
192,192,22979,128,0,23222:0:0:0:0:
320,192,23222,1,0,0:0:0:0:
448,192,23222,1,0,0:0:0:0:
64,192,23222,128,0,23466:0:0:0:0:
320,192,23466,1,0,0:0:0:0:
192,192,23466,128,0,23710:0:0:0:0:
448,192,23710,1,0,0:0:0:0:
64,192,23710,128,0,23954:0:0:0:0:
192,192,23954,1,0,0:0:0:0:
320,192,24198,1,0,0:0:0:0:
448,192,24198,1,0,0:0:0:0:
192,192,24198,1,0,0:0:0:0:
320,192,24442,1,0,0:0:0:0:
64,192,24523,1,0,0:0:0:0:
192,192,24605,1,0,0:0:0:0:
448,192,24686,1,0,0:0:0:0:
64,192,24767,1,0,0:0:0:0:
192,192,24848,1,0,0:0:0:0:
320,192,24930,1,0,0:0:0:0:
320,192,25174,1,0,0:0:0:0:
448,192,25174,1,0,0:0:0:0:
64,192,25174,128,0,25661:0:0:0:0:
192,192,25174,128,0,25661:0:0:0:0:
320,192,25905,1,0,0:0:0:0:
448,192,25905,1,0,0:0:0:0:
64,192,25905,1,0,0:0:0:0:
320,192,26149,1,0,0:0:0:0:
192,192,26149,128,0,26393:0:0:0:0:
320,192,26637,1,0,0:0:0:0:
64,192,26637,128,0,26881:0:0:0:0:
448,192,26759,1,0,0:0:0:0:
320,192,26881,1,0,0:0:0:0:
192,192,26881,128,0,27125:0:0:0:0:
320,192,27125,1,0,0:0:0:0:
448,192,27125,1,0,0:0:0:0:
64,192,27125,128,0,27369:0:0:0:0:
320,192,27369,1,0,0:0:0:0:
192,192,27369,128,0,27613:0:0:0:0:
448,192,27613,1,0,0:0:0:0:
64,192,27613,1,0,0:0:0:0:
320,192,27857,1,0,0:0:0:0:
64,192,27857,1,0,0:0:0:0:
192,192,27857,1,0,0:0:0:0:
320,192,28100,1,0,0:0:0:0:
448,192,28100,1,0,0:0:0:0:
192,192,28100,1,0,0:0:0:0:
64,192,28344,1,0,0:0:0:0:
320,192,28588,1,0,0:0:0:0:
192,192,28588,128,0,28832:0:0:0:0:
448,192,28710,1,0,0:0:0:0:
320,192,28832,1,0,0:0:0:0:
64,192,28832,128,0,29076:0:0:0:0:
320,192,29076,1,0,0:0:0:0:
448,192,29076,1,0,0:0:0:0:
192,192,29076,128,0,29320:0:0:0:0:
320,192,29320,1,0,0:0:0:0:
64,192,29320,128,0,29564:0:0:0:0:
448,192,29564,1,0,0:0:0:0:
192,192,29564,1,0,0:0:0:0:
320,192,29808,1,0,0:0:0:0:
192,192,29808,1,0,0:0:0:0:
64,192,29808,1,0,0:0:0:0:
320,192,30052,1,0,0:0:0:0:
448,192,30052,1,0,0:0:0:0:
192,192,30052,128,0,30296:0:0:0:0:
320,192,30539,1,0,0:0:0:0:
64,192,30539,1,0,0:0:0:0:
192,192,30600,1,0,0:0:0:0:
320,192,30661,1,0,0:0:0:0:
64,192,30661,1,0,0:0:0:0:
448,192,30783,1,0,0:0:0:0:
192,192,30783,1,0,0:0:0:0:
320,192,31027,1,0,0:0:0:0:
64,192,31027,128,0,31271:0:0:0:0:
448,192,31149,1,0,0:0:0:0:
320,192,31271,1,0,0:0:0:0:
320,192,31515,1,0,0:0:0:0:
448,192,31515,1,0,0:0:0:0:
192,192,31515,1,0,0:0:0:0:
64,192,31759,128,0,32003:0:0:0:0:
192,192,31759,1,0,0:0:0:0:
448,192,32003,1,0,0:0:0:0:
192,192,32003,1,0,0:0:0:0:
320,192,32125,1,0,0:0:0:0:
320,192,32247,1,0,0:0:0:0:
448,192,32491,1,0,0:0:0:0:
192,192,32491,1,0,0:0:0:0:
320,192,32735,1,0,0:0:0:0:
64,192,32816,1,0,0:0:0:0:
192,192,32897,1,0,0:0:0:0:
448,192,32979,1,0,0:0:0:0:
64,192,33060,1,0,0:0:0:0:
192,192,33141,1,0,0:0:0:0:
320,192,33222,128,0,33466:0:0:0:0:
64,192,33222,128,0,33466:0:0:0:0:
320,192,33710,1,0,0:0:0:0:
192,192,33710,1,0,0:0:0:0:
320,192,33954,1,0,0:0:0:0:
448,192,33954,1,0,0:0:0:0:
64,192,33954,1,0,0:0:0:0:
192,192,34198,1,0,0:0:0:0:
64,192,34198,1,0,0:0:0:0:
320,192,34442,1,0,0:0:0:0:
448,192,34442,1,0,0:0:0:0:
192,192,34442,1,0,0:0:0:0:
320,192,34686,1,0,0:0:0:0:
64,192,34686,128,0,34930:0:0:0:0:
448,192,34930,1,0,0:0:0:0:
192,192,34930,128,0,35174:0:0:0:0:
320,192,35174,1,0,0:0:0:0:
64,192,35174,128,0,35418:0:0:0:0:
448,192,35418,1,0,0:0:0:0:
320,192,35661,128,0,35905:0:0:0:0:
192,192,35661,128,0,35905:0:0:0:0:
64,192,35661,128,0,35905:0:0:0:0:
448,192,36149,1,0,0:0:0:0:
192,192,36149,1,0,0:0:0:0:
320,192,36393,128,0,36637:0:0:0:0:
192,192,36393,128,0,36637:0:0:0:0:
64,192,36393,128,0,36637:0:0:0:0:
448,192,36881,128,0,37125:0:0:0:0:
192,192,36881,128,0,37125:0:0:0:0:
64,192,36881,128,0,37125:0:0:0:0:
320,192,37369,1,0,0:0:0:0:
448,192,37369,1,0,0:0:0:0:
64,192,37369,1,0,0:0:0:0:
64,192,37613,1,0,0:0:0:0:
192,192,37694,1,0,0:0:0:0:
64,192,37775,1,0,0:0:0:0:
320,192,37857,1,0,0:0:0:0:
448,192,37857,1,0,0:0:0:0:
192,192,37938,1,0,0:0:0:0:
64,192,38019,1,0,0:0:0:0:
320,192,38100,1,0,0:0:0:0:
448,192,38344,1,0,0:0:0:0:
64,192,38426,1,0,0:0:0:0:
192,192,38507,1,0,0:0:0:0:
320,192,38588,1,0,0:0:0:0:
192,192,38670,1,0,0:0:0:0:
64,192,38751,1,0,0:0:0:0:
192,192,38832,1,0,0:0:0:0:
64,192,38913,1,0,0:0:0:0:
320,192,38995,1,0,0:0:0:0:
448,192,38995,1,0,0:0:0:0:
320,192,39320,1,0,0:0:0:0:
64,192,39320,128,0,39564:0:0:0:0:
448,192,39564,1,0,0:0:0:0:
192,192,39564,128,0,39808:0:0:0:0:
320,192,39808,1,0,0:0:0:0:
64,192,39808,128,0,40377:0:0:0:0:
320,192,40052,1,0,0:0:0:0:
448,192,40052,1,0,0:0:0:0:
320,192,40377,128,0,40865:0:0:0:0:
192,192,40377,128,0,40865:0:0:0:0:
64,192,41027,1,0,0:0:0:0:
192,192,41271,1,0,0:0:0:0:
64,192,41271,1,0,0:0:0:0:
320,192,41515,1,0,0:0:0:0:
64,192,41515,1,0,0:0:0:0:
320,192,41759,1,0,0:0:0:0:
192,192,41759,128,0,42247:0:0:0:0:
64,192,41759,1,0,0:0:0:0:
320,192,42247,1,0,0:0:0:0:
448,192,42247,1,0,0:0:0:0:
64,192,42247,1,0,0:0:0:0:
448,192,42491,1,0,0:0:0:0:
192,192,42491,1,0,0:0:0:0:
320,192,42735,1,0,0:0:0:0:
192,192,42735,1,0,0:0:0:0:
448,192,42979,1,0,0:0:0:0:
64,192,42979,1,0,0:0:0:0:
320,192,43222,1,0,0:0:0:0:
192,192,43222,1,0,0:0:0:0:
448,192,43466,128,0,43710:0:0:0:0:
64,192,43466,128,0,43710:0:0:0:0:
192,192,43466,128,0,43710:0:0:0:0:
320,192,43954,1,0,0:0:0:0:
64,192,43954,1,0,0:0:0:0:
448,192,44198,128,0,44442:0:0:0:0:
192,192,44198,128,0,44442:0:0:0:0:
448,192,44686,128,0,44930:0:0:0:0:
64,192,44686,128,0,44930:0:0:0:0:
320,192,45174,1,0,0:0:0:0:
448,192,45174,1,0,0:0:0:0:
192,192,45174,1,0,0:0:0:0:
448,192,45418,128,0,47125:0:0:0:0:
192,192,45418,128,0,47125:0:0:0:0:
64,192,45418,128,0,47125:0:0:0:0:
320,192,47369,1,0,0:0:0:0:
448,192,47369,1,0,0:0:0:0:
64,192,47369,1,0,0:0:0:0:
320,192,47613,1,0,0:0:0:0:
448,192,47613,1,0,0:0:0:0:
192,192,47613,1,0,0:0:0:0:
320,192,48100,1,0,0:0:0:0:
192,192,48100,1,0,0:0:0:0:
448,192,48344,128,0,48832:0:0:0:0:
192,192,48344,1,0,0:0:0:0:
64,192,48426,1,0,0:0:0:0:
192,192,48507,1,0,0:0:0:0:
64,192,48588,1,0,0:0:0:0:
192,192,48670,1,0,0:0:0:0:
64,192,48751,1,0,0:0:0:0:
192,192,48832,1,0,0:0:0:0:
192,192,49076,1,0,0:0:0:0:
64,192,49157,1,0,0:0:0:0:
192,192,49239,1,0,0:0:0:0:
320,192,49320,1,0,0:0:0:0:
448,192,49320,1,0,0:0:0:0:
320,192,49564,1,0,0:0:0:0:
64,192,49645,1,0,0:0:0:0:
192,192,49726,1,0,0:0:0:0:
320,192,49808,1,0,0:0:0:0:
448,192,49808,1,0,0:0:0:0:
320,192,50052,1,0,0:0:0:0:
192,192,50052,128,0,50539:0:0:0:0:
64,192,50052,128,0,50539:0:0:0:0:
320,192,50539,1,0,0:0:0:0:
448,192,50783,1,0,0:0:0:0:
64,192,50865,1,0,0:0:0:0:
192,192,50946,1,0,0:0:0:0:
320,192,51027,1,0,0:0:0:0:
64,192,51109,1,0,0:0:0:0:
192,192,51190,1,0,0:0:0:0:
320,192,51271,1,0,0:0:0:0:
448,192,51271,1,0,0:0:0:0:
320,192,51515,1,0,0:0:0:0:
192,192,51515,1,0,0:0:0:0:
448,192,51759,1,0,0:0:0:0:
64,192,51759,1,0,0:0:0:0:
192,192,51759,1,0,0:0:0:0:
320,192,52003,1,0,0:0:0:0:
448,192,52003,1,0,0:0:0:0:
192,192,52003,128,0,52735:0:0:0:0:
64,192,52003,128,0,52735:0:0:0:0:
320,192,52735,1,0,0:0:0:0:
448,192,52979,128,0,53222:0:0:0:0:
64,192,52979,1,0,0:0:0:0:
192,192,53222,1,0,0:0:0:0:
64,192,53304,1,0,0:0:0:0:
192,192,53385,1,0,0:0:0:0:
320,192,53466,1,0,0:0:0:0:
448,192,53710,1,0,0:0:0:0:
64,192,53792,1,0,0:0:0:0:
192,192,53873,1,0,0:0:0:0:
320,192,53954,1,0,0:0:0:0:
320,192,54198,1,0,0:0:0:0:
448,192,54198,1,0,0:0:0:0:
320,192,54442,1,0,0:0:0:0:
64,192,54523,1,0,0:0:0:0:
192,192,54605,1,0,0:0:0:0:
448,192,54686,1,0,0:0:0:0:
64,192,54686,1,0,0:0:0:0:
320,192,54930,1,0,0:0:0:0:
192,192,54930,1,0,0:0:0:0:
320,192,55174,1,0,0:0:0:0:
448,192,55174,1,0,0:0:0:0:
64,192,55255,1,0,0:0:0:0:
192,192,55336,1,0,0:0:0:0:
320,192,55418,1,0,0:0:0:0:
64,192,55499,1,0,0:0:0:0:
192,192,55580,1,0,0:0:0:0:
448,192,55661,1,0,0:0:0:0:
320,192,55905,1,0,0:0:0:0:
64,192,55905,1,0,0:0:0:0:
448,192,56149,128,0,56393:0:0:0:0:
192,192,56149,128,0,56393:0:0:0:0:
64,192,56393,1,0,0:0:0:0:
448,192,56637,128,0,56881:0:0:0:0:
64,192,56637,128,0,56881:0:0:0:0:
192,192,56637,1,0,0:0:0:0:
320,192,57125,1,0,0:0:0:0:
448,192,57125,1,0,0:0:0:0:
64,192,57125,1,0,0:0:0:0:
448,192,57369,1,0,0:0:0:0:
192,192,57369,1,0,0:0:0:0:
64,192,57450,1,0,0:0:0:0:
192,192,57531,1,0,0:0:0:0:
320,192,57613,1,0,0:0:0:0:
448,192,57613,1,0,0:0:0:0:
448,192,57857,1,0,0:0:0:0:
192,192,58100,1,0,0:0:0:0:
64,192,58182,1,0,0:0:0:0:
192,192,58263,1,0,0:0:0:0:
320,192,58344,1,0,0:0:0:0:
448,192,58588,1,0,0:0:0:0:
192,192,58670,1,0,0:0:0:0:
64,192,58751,1,0,0:0:0:0:
320,192,58832,1,0,0:0:0:0:
192,192,58913,1,0,0:0:0:0:
64,192,58995,1,0,0:0:0:0:
320,192,59076,1,0,0:0:0:0:
448,192,59076,1,0,0:0:0:0:
64,192,59157,1,0,0:0:0:0:
192,192,59239,1,0,0:0:0:0:
320,192,59320,1,0,0:0:0:0:
64,192,59401,1,0,0:0:0:0:
192,192,59483,1,0,0:0:0:0:
448,192,59564,1,0,0:0:0:0:
320,192,59808,1,0,0:0:0:0:
448,192,59808,1,0,0:0:0:0:
64,192,59808,128,0,60539:0:0:0:0:
192,192,60052,1,0,0:0:0:0:
192,192,60296,128,0,60539:0:0:0:0:
320,192,60539,1,0,0:0:0:0:
448,192,60783,128,0,61027:0:0:0:0:
192,192,60783,128,0,61027:0:0:0:0:
320,192,61271,1,0,0:0:0:0:
64,192,61271,1,0,0:0:0:0:
320,192,61515,1,0,0:0:0:0:
192,192,61515,1,0,0:0:0:0:
320,192,61759,1,0,0:0:0:0:
64,192,61759,1,0,0:0:0:0:
448,192,62003,1,0,0:0:0:0:
192,192,62003,1,0,0:0:0:0:
320,192,62247,1,0,0:0:0:0:
64,192,62247,1,0,0:0:0:0:
320,192,62491,1,0,0:0:0:0:
192,192,62491,1,0,0:0:0:0:
320,192,62735,1,0,0:0:0:0:
64,192,62735,1,0,0:0:0:0:
320,192,62979,1,0,0:0:0:0:
448,192,62979,1,0,0:0:0:0:
64,192,62979,1,0,0:0:0:0:
320,192,63222,1,0,0:0:0:0:
448,192,63222,1,0,0:0:0:0:
192,192,63222,1,0,0:0:0:0:
320,192,63466,128,0,63710:0:0:0:0:
64,192,63466,128,0,63710:0:0:0:0:
192,192,63466,128,0,63710:0:0:0:0:
448,192,63954,128,0,64198:0:0:0:0:
192,192,63954,128,0,64198:0:0:0:0:
64,192,63954,128,0,64198:0:0:0:0:
448,192,64442,1,0,0:0:0:0:
192,192,64442,1,0,0:0:0:0:
320,192,64686,1,0,0:0:0:0:
64,192,64686,1,0,0:0:0:0:
448,192,64930,128,0,65418:0:0:0:0:
192,192,64930,128,0,65418:0:0:0:0:
320,192,65661,128,0,66881:0:0:0:0:
192,192,65661,128,0,66881:0:0:0:0:
64,192,65661,128,0,66881:0:0:0:0:
