osu file format v14

[General]
AudioFilename: audio.mp3
AudioLeadIn: 0
PreviewTime: -1
Countdown: 1
SampleSet: Normal
StackLeniency: 0.7
Mode: 3
LetterboxInBreaks: 0
SpecialStyle: 0
WidescreenStoryboard: 0

[Editor]
DistanceSpacing: 0.8
BeatDivisor: 6
GridSize: 16
TimelineZoom: 1

[Metadata]
Title:BREAK OUT
TitleUnicode:BREAK OUT
Artist:tatan
ArtistUnicode:tatan
Creator:wahu-kan
Version:Easy
Source:
Tags:
BeatmapID:1475325
BeatmapSetID:696497

[Difficulty]
HPDrainRate:6
CircleSize:2
OverallDifficulty:8
ApproachRate:5
SliderMultiplier:1.4
SliderTickRate:1

[Events]
//Background and Video events
//Break Periods
//Storyboard Layer 0 (Background)
//Storyboard Layer 1 (Fail)
//Storyboard Layer 2 (Pass)
//Storyboard Layer 3 (Foreground)
//Storyboard Sound Samples

[TimingPoints]
540,487.80487804878,4,1,0,26,1,0
946,-399.999999999997,4,1,0,26,0,0

[HitObjects]
128,192,10296,5,0,0:0:0:0:
384,192,10296,1,0,0:0:0:0:
128,192,10783,1,0,0:0:0:0:
384,192,11027,128,0,11515:0:0:0:0:
128,192,11759,1,0,0:0:0:0:
384,192,11759,1,0,0:0:0:0:
128,192,12247,1,0,0:0:0:0:
384,192,12491,1,0,0:0:0:0:
128,192,12735,1,0,0:0:0:0:
384,192,12979,128,0,13466:0:0:0:0:
128,192,13710,1,0,0:0:0:0:
384,192,13710,1,0,0:0:0:0:
128,192,14198,128,0,14442:0:0:0:0:
384,192,14686,1,0,0:0:0:0:
128,192,14930,128,0,15174:0:0:0:0:
384,192,15418,1,0,0:0:0:0:
384,192,15661,128,0,15905:0:0:0:0:
128,192,16149,1,0,0:0:0:0:
384,192,16393,128,0,16637:0:0:0:0:
128,192,16881,1,0,0:0:0:0:
384,192,17125,128,0,17369:0:0:0:0:
128,192,17613,128,0,18100:0:0:0:0:
128,192,18832,1,0,0:0:0:0:
384,192,18832,1,0,0:0:0:0:
128,192,19076,1,0,0:0:0:0:
384,192,19320,1,0,0:0:0:0:
128,192,19564,1,0,0:0:0:0:
384,192,19808,1,0,0:0:0:0:
128,192,20783,1,0,0:0:0:0:
384,192,20783,1,0,0:0:0:0:
128,192,21027,1,0,0:0:0:0:
384,192,21271,1,0,0:0:0:0:
128,192,21515,128,0,22003:0:0:0:0:
128,192,22735,1,0,0:0:0:0:
384,192,22857,1,0,0:0:0:0:
128,192,22979,1,0,0:0:0:0:
128,192,23222,1,0,0:0:0:0:
384,192,23222,1,0,0:0:0:0:
128,192,23466,1,0,0:0:0:0:
384,192,23710,1,0,0:0:0:0:
128,192,24198,1,0,0:0:0:0:
384,192,24198,1,0,0:0:0:0:
128,192,24442,1,0,0:0:0:0:
384,192,24686,1,0,0:0:0:0:
128,192,24930,1,0,0:0:0:0:
128,192,25174,1,0,0:0:0:0:
384,192,25174,1,0,0:0:0:0:
128,192,25905,1,0,0:0:0:0:
384,192,25905,1,0,0:0:0:0:
128,192,26149,1,0,0:0:0:0:
128,192,26637,1,0,0:0:0:0:
384,192,26759,1,0,0:0:0:0:
128,192,26881,1,0,0:0:0:0:
128,192,27125,1,0,0:0:0:0:
384,192,27125,1,0,0:0:0:0:
128,192,27369,1,0,0:0:0:0:
384,192,27613,1,0,0:0:0:0:
128,192,27857,1,0,0:0:0:0:
128,192,28100,1,0,0:0:0:0:
384,192,28100,1,0,0:0:0:0:
128,192,28588,1,0,0:0:0:0:
384,192,28710,1,0,0:0:0:0:
128,192,28832,1,0,0:0:0:0:
128,192,29076,1,0,0:0:0:0:
384,192,29076,1,0,0:0:0:0:
128,192,29320,1,0,0:0:0:0:
384,192,29564,1,0,0:0:0:0:
128,192,29808,1,0,0:0:0:0:
128,192,30052,1,0,0:0:0:0:
384,192,30052,1,0,0:0:0:0:
128,192,30539,1,0,0:0:0:0:
128,192,30661,1,0,0:0:0:0:
384,192,30783,1,0,0:0:0:0:
128,192,31027,1,0,0:0:0:0:
384,192,31149,1,0,0:0:0:0:
128,192,31271,1,0,0:0:0:0:
128,192,31515,1,0,0:0:0:0:
384,192,31515,1,0,0:0:0:0:
384,192,32003,1,0,0:0:0:0:
128,192,32125,1,0,0:0:0:0:
128,192,32247,1,0,0:0:0:0:
384,192,32491,1,0,0:0:0:0:
128,192,32735,1,0,0:0:0:0:
384,192,32979,1,0,0:0:0:0:
128,192,33222,128,0,33466:0:0:0:0:
128,192,33710,1,0,0:0:0:0:
128,192,33954,1,0,0:0:0:0:
384,192,33954,1,0,0:0:0:0:
128,192,34442,1,0,0:0:0:0:
384,192,34442,1,0,0:0:0:0:
128,192,34686,1,0,0:0:0:0:
384,192,34930,1,0,0:0:0:0:
128,192,35174,1,0,0:0:0:0:
384,192,35418,1,0,0:0:0:0:
128,192,35661,128,0,35905:0:0:0:0:
384,192,36149,1,0,0:0:0:0:
128,192,36393,128,0,36637:0:0:0:0:
384,192,36881,128,0,37125:0:0:0:0:
128,192,37369,1,0,0:0:0:0:
384,192,37369,1,0,0:0:0:0:
128,192,37857,1,0,0:0:0:0:
384,192,37857,1,0,0:0:0:0:
128,192,38100,1,0,0:0:0:0:
384,192,38344,1,0,0:0:0:0:
128,192,38588,1,0,0:0:0:0:
384,192,38913,1,0,0:0:0:0:
128,192,38913,1,0,0:0:0:0:
128,192,39320,1,0,0:0:0:0:
384,192,39564,1,0,0:0:0:0:
128,192,39808,1,0,0:0:0:0:
128,192,40052,1,0,0:0:0:0:
384,192,40052,1,0,0:0:0:0:
128,192,40377,128,0,40865:0:0:0:0:
128,192,41515,1,0,0:0:0:0:
128,192,41759,1,0,0:0:0:0:
128,192,42247,1,0,0:0:0:0:
384,192,42247,1,0,0:0:0:0:
384,192,42491,1,0,0:0:0:0:
128,192,42735,1,0,0:0:0:0:
384,192,42979,1,0,0:0:0:0:
128,192,43222,1,0,0:0:0:0:
384,192,43466,128,0,43710:0:0:0:0:
128,192,43954,1,0,0:0:0:0:
384,192,44198,128,0,44442:0:0:0:0:
384,192,44686,128,0,44930:0:0:0:0:
128,192,45174,1,0,0:0:0:0:
384,192,45174,1,0,0:0:0:0:
384,192,45418,128,0,46881:0:0:0:0:
128,192,47369,1,0,0:0:0:0:
384,192,47369,1,0,0:0:0:0:
128,192,47613,1,0,0:0:0:0:
384,192,47613,1,0,0:0:0:0:
128,192,48100,1,0,0:0:0:0:
384,192,48344,128,0,48832:0:0:0:0:
128,192,49320,1,0,0:0:0:0:
384,192,49320,1,0,0:0:0:0:
128,192,49564,1,0,0:0:0:0:
128,192,49808,1,0,0:0:0:0:
384,192,49808,1,0,0:0:0:0:
128,192,50052,1,0,0:0:0:0:
128,192,50539,1,0,0:0:0:0:
384,192,50783,1,0,0:0:0:0:
128,192,51027,1,0,0:0:0:0:
128,192,51271,1,0,0:0:0:0:
384,192,51271,1,0,0:0:0:0:
128,192,51515,1,0,0:0:0:0:
384,192,51759,1,0,0:0:0:0:
128,192,52003,1,0,0:0:0:0:
384,192,52003,1,0,0:0:0:0:
128,192,52735,1,0,0:0:0:0:
384,192,52979,128,0,53222:0:0:0:0:
128,192,53466,1,0,0:0:0:0:
384,192,53710,1,0,0:0:0:0:
128,192,53954,1,0,0:0:0:0:
128,192,54198,1,0,0:0:0:0:
384,192,54198,1,0,0:0:0:0:
128,192,54442,1,0,0:0:0:0:
384,192,54686,1,0,0:0:0:0:
128,192,54930,1,0,0:0:0:0:
128,192,55174,1,0,0:0:0:0:
384,192,55174,1,0,0:0:0:0:
128,192,55418,1,0,0:0:0:0:
384,192,55661,1,0,0:0:0:0:
128,192,55905,1,0,0:0:0:0:
384,192,56149,128,0,56393:0:0:0:0:
384,192,56637,128,0,56881:0:0:0:0:
128,192,57125,1,0,0:0:0:0:
384,192,57125,1,0,0:0:0:0:
384,192,57369,1,0,0:0:0:0:
128,192,57613,1,0,0:0:0:0:
384,192,57613,1,0,0:0:0:0:
384,192,57857,1,0,0:0:0:0:
128,192,58344,1,0,0:0:0:0:
384,192,58588,1,0,0:0:0:0:
128,192,58832,1,0,0:0:0:0:
128,192,59076,1,0,0:0:0:0:
384,192,59076,1,0,0:0:0:0:
128,192,59320,1,0,0:0:0:0:
384,192,59564,1,0,0:0:0:0:
128,192,59808,1,0,0:0:0:0:
384,192,59808,1,0,0:0:0:0:
128,192,60539,1,0,0:0:0:0:
384,192,60783,128,0,61027:0:0:0:0:
128,192,61271,1,0,0:0:0:0:
128,192,61515,1,0,0:0:0:0:
128,192,61759,1,0,0:0:0:0:
384,192,62003,1,0,0:0:0:0:
128,192,62247,1,0,0:0:0:0:
128,192,62491,1,0,0:0:0:0:
128,192,62735,1,0,0:0:0:0:
128,192,62979,1,0,0:0:0:0:
384,192,62979,1,0,0:0:0:0:
128,192,63222,1,0,0:0:0:0:
384,192,63222,1,0,0:0:0:0:
128,192,63466,128,0,63710:0:0:0:0:
384,192,63954,128,0,64198:0:0:0:0:
384,192,64442,1,0,0:0:0:0:
128,192,64686,1,0,0:0:0:0:
384,192,64930,128,0,65418:0:0:0:0:
128,192,65661,128,0,66881:0:0:0:0:
