osu file format v14

[General]
AudioFilename: audio.mp3
AudioLeadIn: 0
PreviewTime: 78192
Countdown: 0
SampleSet: None
StackLeniency: 0.7
Mode: 1
LetterboxInBreaks: 0
WidescreenStoryboard: 0

[Editor]
Bookmarks: 7061,24858,40096,47716,62954,70573,78192,93430,108668,116287,123906
DistanceSpacing: 1.3
BeatDivisor: 8
GridSize: 32
TimelineZoom: 1.9

[Metadata]
Title:eth ken
TitleUnicode:eth剣
Artist:tarolabo
ArtistUnicode:tarolabo
Creator:_yu68
Version:Inner Oni
Source:
Tags:
BeatmapID:1125322
BeatmapSetID:530937

[Difficulty]
HPDrainRate:10
CircleSize:5
OverallDifficulty:10
ApproachRate:8
SliderMultiplier:1.4
SliderTickRate:1

[Events]
//Background and Video events
0,0,"BG.jpg",0,0
//Break Periods
//Storyboard Layer 0 (Background)
//Storyboard Layer 1 (Fail)
//Storyboard Layer 2 (Pass)
//Storyboard Layer 3 (Foreground)
//Storyboard Sound Samples

[TimingPoints]
2011.71707280057,476.190476190476,4,1,0,70,1,0
24749,-100,4,1,0,60,0,0
40226,-100,4,1,0,40,0,0
47606,-100,4,1,0,70,0,0
70523,-100,4,1,0,40,0,0
77249,-100,4,1,0,70,0,0
78083,-100,4,1,0,80,0,0
78202,-100,4,1,0,80,0,1
91773,-100,4,1,0,70,0,1
92011,-100,4,1,0,60,0,1
92249,-100,4,1,0,50,0,1
92487,-100,4,1,0,40,0,1
93321,-100,4,1,0,40,0,1
93440,-100,4,1,0,40,0,0
100979,-100,4,1,0,50,0,0
108618,-100,4,1,0,60,0,0
112428,-100,4,1,0,70,0,0
116237,-100,4,1,0,80,0,0
116297,-100,4,1,0,80,0,1
123886,-100,4,1,0,90,0,1
139154,-100,4,1,0,90,0,0
139273,-100,4,1,0,50,0,0

[HitObjects]
256,192,2011,5,0,0:0:0:0:
256,192,2091,1,0,0:0:0:0:
256,192,2170,1,0,0:0:0:0:
256,192,2249,1,0,0:0:0:0:
256,192,2329,1,0,0:0:0:0:
256,192,2408,1,0,0:0:0:0:
256,192,2487,1,0,0:0:0:0:
256,192,2646,1,8,0:0:0:0:
256,192,2805,1,8,0:0:0:0:
256,192,2964,1,0,0:0:0:0:
256,192,3202,1,8,0:0:0:0:
256,192,3440,1,0,0:0:0:0:
256,192,3519,1,8,0:0:0:0:
256,192,3678,1,8,0:0:0:0:
256,192,3757,1,8,0:0:0:0:
256,192,3837,1,8,0:0:0:0:
256,192,3916,1,0,0:0:0:0:
256,192,4035,1,8,0:0:0:0:
256,192,4154,1,8,0:0:0:0:
256,192,4214,1,8,0:0:0:0:
256,192,4333,1,8,0:0:0:0:
256,192,4392,1,0,0:0:0:0:
256,192,4511,1,8,0:0:0:0:
256,192,4630,1,8,0:0:0:0:
256,192,4749,1,8,0:0:0:0:
256,192,4809,1,8,0:0:0:0:
256,192,4868,1,0,0:0:0:0:
256,192,5106,1,0,0:0:0:0:
256,192,5345,1,8,0:0:0:0:
256,192,5583,1,8,0:0:0:0:
256,192,5821,1,4,0:0:0:0:
256,192,6059,1,0,0:0:0:0:
256,192,6178,1,8,0:0:0:0:
256,192,6297,1,0,0:0:0:0:
256,192,6535,1,8,0:0:0:0:
256,192,6654,1,8,0:0:0:0:
256,192,6773,1,0,0:0:0:0:
256,192,6892,1,8,0:0:0:0:
256,192,7130,1,8,0:0:0:0:
256,192,7249,1,0,0:0:0:0:
256,192,7487,1,0,0:0:0:0:
256,192,7606,1,8,0:0:0:0:
256,192,7726,1,0,0:0:0:0:
256,192,7964,1,0,0:0:0:0:
256,192,8083,1,8,0:0:0:0:
256,192,8202,1,0,0:0:0:0:
256,192,8261,1,0,0:0:0:0:
256,192,8321,1,0,0:0:0:0:
256,192,8380,1,0,0:0:0:0:
256,192,8440,1,8,0:0:0:0:
256,192,8559,1,8,0:0:0:0:
256,192,8678,1,0,0:0:0:0:
256,192,8797,1,8,0:0:0:0:
256,192,9035,1,8,0:0:0:0:
256,192,9095,1,8,0:0:0:0:
256,192,9154,1,0,0:0:0:0:
256,192,9273,1,8,0:0:0:0:
256,192,9392,1,8,0:0:0:0:
256,192,9630,1,0,0:0:0:0:
256,192,9749,1,0,0:0:0:0:
256,192,9809,1,8,0:0:0:0:
256,192,9868,1,0,0:0:0:0:
256,192,9987,1,8,0:0:0:0:
256,192,10106,1,0,0:0:0:0:
256,192,10226,1,0,0:0:0:0:
256,192,10345,1,8,0:0:0:0:
256,192,10464,1,8,0:0:0:0:
256,192,10583,1,0,0:0:0:0:
256,192,10702,1,8,0:0:0:0:
256,192,10761,1,0,0:0:0:0:
256,192,10821,1,0,0:0:0:0:
256,192,10940,1,8,0:0:0:0:
256,192,11059,1,0,0:0:0:0:
256,192,11178,1,0,0:0:0:0:
256,192,11297,1,8,0:0:0:0:
256,192,11416,1,8,0:0:0:0:
256,192,11476,1,8,0:0:0:0:
256,192,11535,1,0,0:0:0:0:
256,192,11773,1,8,0:0:0:0:
256,192,11892,1,0,0:0:0:0:
256,192,12011,1,8,0:0:0:0:
256,192,12130,1,8,0:0:0:0:
256,192,12368,1,8,0:0:0:0:
256,192,12487,1,0,0:0:0:0:
256,192,12666,1,0,0:0:0:0:
256,192,12726,1,8,0:0:0:0:
256,192,12845,1,8,0:0:0:0:
256,192,12964,1,0,0:0:0:0:
256,192,13083,1,8,0:0:0:0:
256,192,13142,1,0,0:0:0:0:
256,192,13202,1,8,0:0:0:0:
256,192,13321,1,8,0:0:0:0:
256,192,13440,1,0,0:0:0:0:
256,192,13678,1,0,0:0:0:0:
256,192,13797,1,8,0:0:0:0:
256,192,13916,1,0,0:0:0:0:
256,192,14075,1,0,0:0:0:0:
256,192,14154,1,8,0:0:0:0:
256,192,14273,1,8,0:0:0:0:
256,192,14392,1,0,0:0:0:0:
256,192,14511,1,0,0:0:0:0:
256,192,14749,1,8,0:0:0:0:
256,192,14868,1,0,0:0:0:0:
256,192,15027,1,0,0:0:0:0:
256,192,15106,1,0,0:0:0:0:
256,192,15226,1,8,0:0:0:0:
256,192,15345,1,0,0:0:0:0:
256,192,15583,1,0,0:0:0:0:
256,192,15702,1,8,0:0:0:0:
256,192,15821,1,0,0:0:0:0:
256,192,15940,1,0,0:0:0:0:
256,192,16059,1,8,0:0:0:0:
256,192,16178,1,8,0:0:0:0:
256,192,16297,1,0,0:0:0:0:
256,192,16416,1,8,0:0:0:0:
256,192,16654,1,8,0:0:0:0:
256,192,16714,1,8,0:0:0:0:
256,192,16773,1,0,0:0:0:0:
256,192,17011,1,8,0:0:0:0:
256,192,17130,1,8,0:0:0:0:
256,192,17249,1,0,0:0:0:0:
256,192,17368,1,8,0:0:0:0:
256,192,17487,1,8,0:0:0:0:
256,192,17606,1,0,0:0:0:0:
256,192,17726,1,0,0:0:0:0:
256,192,17964,1,8,0:0:0:0:
256,192,18083,1,8,0:0:0:0:
256,192,18202,1,0,0:0:0:0:
256,192,18321,1,8,0:0:0:0:
256,192,18559,1,8,0:0:0:0:
256,192,18678,1,0,0:0:0:0:
256,192,18797,1,0,0:0:0:0:
256,192,18916,1,8,0:0:0:0:
256,192,18976,1,8,0:0:0:0:
256,192,19035,1,8,0:0:0:0:
256,192,19095,1,8,0:0:0:0:
256,192,19154,1,0,0:0:0:0:
256,192,19392,1,0,0:0:0:0:
256,192,19511,1,8,0:0:0:0:
256,192,19630,1,0,0:0:0:0:
256,192,19749,1,8,0:0:0:0:
256,192,19809,1,8,0:0:0:0:
256,192,19868,1,8,0:0:0:0:
256,192,19987,1,8,0:0:0:0:
256,192,20106,1,0,0:0:0:0:
256,192,20285,1,8,0:0:0:0:
256,192,20345,1,0,0:0:0:0:
256,192,20464,1,0,0:0:0:0:
256,192,20583,1,8,0:0:0:0:
256,192,20761,1,8,0:0:0:0:
256,192,20880,1,0,0:0:0:0:
256,192,20940,1,8,0:0:0:0:
256,192,20999,1,8,0:0:0:0:
256,192,21059,1,0,0:0:0:0:
256,192,21138,1,0,0:0:0:0:
256,192,21218,1,0,0:0:0:0:
256,192,21297,1,0,0:0:0:0:
256,192,21376,1,0,0:0:0:0:
256,192,21456,1,0,0:0:0:0:
256,192,21535,1,0,0:0:0:0:
256,192,21694,1,8,0:0:0:0:
256,192,21852,1,8,0:0:0:0:
256,192,21932,1,0,0:0:0:0:
256,192,22011,1,0,0:0:0:0:
256,192,22130,1,8,0:0:0:0:
256,192,22190,1,8,0:0:0:0:
256,192,22487,1,0,0:0:0:0:
256,192,22567,1,8,0:0:0:0:
256,192,22726,1,8,0:0:0:0:
256,192,22805,1,8,0:0:0:0:
256,192,22884,1,8,0:0:0:0:
256,192,22964,1,0,0:0:0:0:
256,192,23440,1,8,0:0:0:0:
256,192,23678,1,8,0:0:0:0:
256,192,23916,1,0,0:0:0:0:
256,192,24392,1,8,0:0:0:0:
256,192,24868,1,0,0:0:0:0:
256,192,25106,1,0,0:0:0:0:
256,192,25226,1,8,0:0:0:0:
256,192,25345,1,8,0:0:0:0:
256,192,25464,1,8,0:0:0:0:
256,192,25583,1,0,0:0:0:0:
256,192,25702,1,8,0:0:0:0:
256,192,25821,1,0,0:0:0:0:
256,192,26059,1,8,0:0:0:0:
256,192,26297,1,0,0:0:0:0:
256,192,26535,1,8,0:0:0:0:
256,192,26595,1,8,0:0:0:0:
256,192,26654,1,8,0:0:0:0:
256,192,26714,1,8,0:0:0:0:
256,192,26773,1,0,0:0:0:0:
256,192,27011,1,8,0:0:0:0:
256,192,27249,1,0,0:0:0:0:
256,192,27487,1,8,0:0:0:0:
256,192,27547,1,8,0:0:0:0:
256,192,27606,1,0,0:0:0:0:
256,192,27666,1,8,0:0:0:0:
256,192,27726,1,0,0:0:0:0:
256,192,27845,1,8,0:0:0:0:
256,192,27964,1,0,0:0:0:0:
256,192,28023,1,8,0:0:0:0:
256,192,28083,1,0,0:0:0:0:
256,192,28142,1,0,0:0:0:0:
256,192,28202,1,8,0:0:0:0:
256,192,28440,1,8,0:0:0:0:
256,192,28559,1,8,0:0:0:0:
256,192,28618,1,8,0:0:0:0:
256,192,28678,1,0,0:0:0:0:
256,192,28797,1,8,0:0:0:0:
256,192,28916,1,0,0:0:0:0:
256,192,28976,1,0,0:0:0:0:
256,192,29035,1,8,0:0:0:0:
256,192,29095,1,8,0:0:0:0:
256,192,29154,1,0,0:0:0:0:
256,192,29392,1,8,0:0:0:0:
256,192,29511,1,8,0:0:0:0:
256,192,29630,1,0,0:0:0:0:
256,192,29749,1,8,0:0:0:0:
256,192,29809,1,0,0:0:0:0:
256,192,29868,1,8,0:0:0:0:
256,192,29987,1,8,0:0:0:0:
256,192,30106,1,0,0:0:0:0:
256,192,30345,1,8,0:0:0:0:
256,192,30404,1,0,0:0:0:0:
256,192,30464,1,8,0:0:0:0:
256,192,30523,1,8,0:0:0:0:
256,192,30583,1,0,0:0:0:0:
256,192,30821,1,0,0:0:0:0:
256,192,30880,1,8,0:0:0:0:
256,192,30940,1,0,0:0:0:0:
256,192,30999,1,8,0:0:0:0:
256,192,31059,1,0,0:0:0:0:
256,192,31297,1,8,0:0:0:0:
256,192,31356,1,8,0:0:0:0:
256,192,31416,1,0,0:0:0:0:
256,192,31476,1,8,0:0:0:0:
256,192,31535,1,0,0:0:0:0:
256,192,31654,1,8,0:0:0:0:
256,192,31773,1,0,0:0:0:0:
256,192,31892,1,8,0:0:0:0:
256,192,32011,1,0,0:0:0:0:
256,192,32130,1,0,0:0:0:0:
256,192,32190,1,0,0:0:0:0:
256,192,32249,1,8,0:0:0:0:
256,192,32309,1,8,0:0:0:0:
256,192,32368,1,8,0:0:0:0:
256,192,32428,1,8,0:0:0:0:
256,192,32487,1,0,0:0:0:0:
256,192,32726,1,0,0:0:0:0:
256,192,32845,1,0,0:0:0:0:
256,192,32964,1,8,0:0:0:0:
256,192,33202,1,8,0:0:0:0:
256,192,33321,1,8,0:0:0:0:
256,192,33440,1,0,0:0:0:0:
256,192,33678,1,0,0:0:0:0:
256,192,33797,1,8,0:0:0:0:
256,192,33916,1,0,0:0:0:0:
256,192,34154,1,8,0:0:0:0:
256,192,34273,1,8,0:0:0:0:
256,192,34333,1,8,0:0:0:0:
256,192,34392,1,0,0:0:0:0:
256,192,34511,1,0,0:0:0:0:
256,192,34630,1,8,0:0:0:0:
256,192,34809,1,8,0:0:0:0:
256,192,34868,1,0,0:0:0:0:
256,192,34987,1,0,0:0:0:0:
256,192,35106,1,8,0:0:0:0:
256,192,35166,1,8,0:0:0:0:
256,192,35226,1,0,0:0:0:0:
256,192,35285,1,8,0:0:0:0:
256,192,35345,1,0,0:0:0:0:
256,192,35464,1,8,0:0:0:0:
256,192,35583,1,8,0:0:0:0:
256,192,35761,1,8,0:0:0:0:
256,192,35821,1,0,0:0:0:0:
256,192,35940,1,0,0:0:0:0:
256,192,36059,1,8,0:0:0:0:
256,192,36118,1,8,0:0:0:0:
256,192,36178,1,8,0:0:0:0:
256,192,36237,1,8,0:0:0:0:
256,192,36297,1,0,0:0:0:0:
256,192,36535,1,0,0:0:0:0:
256,192,36654,1,8,0:0:0:0:
256,192,36773,1,8,0:0:0:0:
256,192,37011,1,8,0:0:0:0:
256,192,37130,1,0,0:0:0:0:
256,192,37249,1,0,0:0:0:0:
256,192,37487,1,0,0:0:0:0:
256,192,37606,1,8,0:0:0:0:
256,192,37726,1,0,0:0:0:0:
256,192,37964,1,8,0:0:0:0:
256,192,38083,1,8,0:0:0:0:
256,192,38142,1,8,0:0:0:0:
256,192,38202,1,0,0:0:0:0:
256,192,38360,1,0,0:0:0:0:
256,192,38440,1,8,0:0:0:0:
256,192,38519,1,0,0:0:0:0:
256,192,38678,1,8,0:0:0:0:
256,192,38837,1,0,0:0:0:0:
256,192,38916,1,8,0:0:0:0:
256,192,38976,1,8,0:0:0:0:
256,192,39035,1,8,0:0:0:0:
256,192,39095,1,8,0:0:0:0:
256,192,39154,1,0,0:0:0:0:
256,192,39313,1,0,0:0:0:0:
256,192,39392,1,8,0:0:0:0:
256,192,39551,1,8,0:0:0:0:
256,192,39630,1,0,0:0:0:0:
256,192,39690,1,0,0:0:0:0:
256,192,39749,1,0,0:0:0:0:
256,192,39809,1,0,0:0:0:0:
256,192,39868,1,8,0:0:0:0:
256,192,39928,1,8,0:0:0:0:
256,192,39987,1,8,0:0:0:0:
256,192,40047,1,8,0:0:0:0:
256,192,40106,1,0,0:0:0:0:
256,192,42011,1,0,0:0:0:0:
256,192,43916,12,0,45821,0:0:0:0:
256,192,46297,5,8,0:0:0:0:
256,192,46773,1,8,0:0:0:0:
256,192,47249,1,8,0:0:0:0:
256,192,47726,1,4,0:0:0:0:
256,192,47964,1,8,0:0:0:0:
256,192,48083,1,8,0:0:0:0:
256,192,48202,1,0,0:0:0:0:
256,192,48321,1,8,0:0:0:0:
256,192,48440,1,8,0:0:0:0:
256,192,48559,1,0,0:0:0:0:
256,192,48678,1,0,0:0:0:0:
256,192,48797,1,8,0:0:0:0:
256,192,49035,1,8,0:0:0:0:
256,192,49154,1,0,0:0:0:0:
256,192,49392,1,8,0:0:0:0:
256,192,49511,1,8,0:0:0:0:
256,192,49630,1,0,0:0:0:0:
256,192,49809,1,0,0:0:0:0:
256,192,49868,1,8,0:0:0:0:
256,192,49987,1,0,0:0:0:0:
256,192,50106,1,0,0:0:0:0:
256,192,50226,1,8,0:0:0:0:
256,192,50345,1,0,0:0:0:0:
256,192,50464,1,0,0:0:0:0:
256,192,50523,1,0,0:0:0:0:
256,192,50583,1,8,0:0:0:0:
256,192,50761,1,8,0:0:0:0:
256,192,50821,1,8,0:0:0:0:
256,192,50940,1,8,0:0:0:0:
256,192,51059,1,0,0:0:0:0:
256,192,51178,1,0,0:0:0:0:
256,192,51297,1,8,0:0:0:0:
256,192,51356,1,8,0:0:0:0:
256,192,51535,1,0,0:0:0:0:
256,192,51595,1,8,0:0:0:0:
256,192,51654,1,0,0:0:0:0:
256,192,51773,1,8,0:0:0:0:
256,192,51892,1,0,0:0:0:0:
256,192,52011,1,0,0:0:0:0:
256,192,52130,1,8,0:0:0:0:
256,192,52249,1,0,0:0:0:0:
256,192,52368,1,0,0:0:0:0:
256,192,52428,1,0,0:0:0:0:
256,192,52487,1,8,0:0:0:0:
256,192,52666,1,8,0:0:0:0:
256,192,52785,1,0,0:0:0:0:
256,192,52845,1,8,0:0:0:0:
256,192,52964,1,0,0:0:0:0:
256,192,53083,1,0,0:0:0:0:
256,192,53202,1,8,0:0:0:0:
256,192,53261,1,8,0:0:0:0:
256,192,53321,1,0,0:0:0:0:
256,192,53380,1,8,0:0:0:0:
256,192,53440,1,0,0:0:0:0:
256,192,53678,1,8,0:0:0:0:
256,192,53737,1,0,0:0:0:0:
256,192,53797,1,0,0:0:0:0:
256,192,53856,1,8,0:0:0:0:
256,192,53916,1,0,0:0:0:0:
256,192,54035,1,8,0:0:0:0:
256,192,54154,1,0,0:0:0:0:
256,192,54214,1,0,0:0:0:0:
256,192,54273,1,8,0:0:0:0:
256,192,54333,1,8,0:0:0:0:
256,192,54392,1,0,0:0:0:0:
256,192,54571,1,8,0:0:0:0:
256,192,54630,1,0,0:0:0:0:
256,192,54749,1,8,0:0:0:0:
256,192,54868,1,0,0:0:0:0:
256,192,54987,1,0,0:0:0:0:
256,192,55047,1,0,0:0:0:0:
256,192,55106,1,8,0:0:0:0:
256,192,55186,1,8,0:0:0:0:
256,192,55265,1,8,0:0:0:0:
256,192,55345,1,0,0:0:0:0:
256,192,55583,1,8,0:0:0:0:
256,192,55702,1,0,0:0:0:0:
256,192,55821,1,0,0:0:0:0:
256,192,55940,1,8,0:0:0:0:
256,192,56059,1,0,0:0:0:0:
256,192,56178,1,0,0:0:0:0:
256,192,56237,1,0,0:0:0:0:
256,192,56297,1,8,0:0:0:0:
256,192,56416,1,0,0:0:0:0:
256,192,56654,1,8,0:0:0:0:
256,192,56773,1,0,0:0:0:0:
256,192,56952,1,0,0:0:0:0:
256,192,57011,1,8,0:0:0:0:
256,192,57130,1,0,0:0:0:0:
256,192,57190,1,8,0:0:0:0:
256,192,57249,1,0,0:0:0:0:
256,192,57368,1,0,0:0:0:0:
256,192,57428,1,0,0:0:0:0:
256,192,57487,1,8,0:0:0:0:
256,192,57606,1,0,0:0:0:0:
256,192,57726,1,0,0:0:0:0:
256,192,57845,1,8,0:0:0:0:
256,192,57964,1,0,0:0:0:0:
256,192,58083,1,0,0:0:0:0:
256,192,58202,1,8,0:0:0:0:
256,192,58380,1,8,0:0:0:0:
256,192,58440,1,0,0:0:0:0:
256,192,58559,1,8,0:0:0:0:
256,192,58678,1,0,0:0:0:0:
256,192,58797,1,0,0:0:0:0:
256,192,58916,1,8,0:0:0:0:
256,192,58976,1,8,0:0:0:0:
256,192,59154,1,0,0:0:0:0:
256,192,59214,1,8,0:0:0:0:
256,192,59273,1,0,0:0:0:0:
256,192,59392,1,8,0:0:0:0:
256,192,59511,1,0,0:0:0:0:
256,192,59630,1,0,0:0:0:0:
256,192,59749,1,8,0:0:0:0:
256,192,59868,1,0,0:0:0:0:
256,192,59928,1,8,0:0:0:0:
256,192,60106,1,8,0:0:0:0:
256,192,60226,1,8,0:0:0:0:
256,192,60285,1,8,0:0:0:0:
256,192,60345,1,0,0:0:0:0:
256,192,60464,1,8,0:0:0:0:
256,192,60583,1,0,0:0:0:0:
256,192,60702,1,0,0:0:0:0:
256,192,60821,1,8,0:0:0:0:
256,192,60940,1,0,0:0:0:0:
256,192,60999,1,8,0:0:0:0:
256,192,61059,1,0,0:0:0:0:
256,192,61297,1,8,0:0:0:0:
256,192,61416,1,0,0:0:0:0:
256,192,61535,1,0,0:0:0:0:
256,192,61654,1,8,0:0:0:0:
256,192,61773,1,0,0:0:0:0:
256,192,61892,1,0,0:0:0:0:
256,192,61952,1,0,0:0:0:0:
256,192,62011,1,8,0:0:0:0:
256,192,62130,1,0,0:0:0:0:
256,192,62190,1,8,0:0:0:0:
256,192,62309,1,0,0:0:0:0:
256,192,62368,1,8,0:0:0:0:
256,192,62487,1,0,0:0:0:0:
256,192,62606,1,0,0:0:0:0:
256,192,62666,1,0,0:0:0:0:
256,192,62726,1,8,0:0:0:0:
256,192,62845,1,0,0:0:0:0:
256,192,62904,1,8,0:0:0:0:
256,192,62964,1,0,0:0:0:0:
256,192,63202,1,8,0:0:0:0:
256,192,63321,1,0,0:0:0:0:
256,192,63440,1,0,0:0:0:0:
256,192,63559,1,8,0:0:0:0:
256,192,63797,1,0,0:0:0:0:
256,192,63916,1,8,0:0:0:0:
256,192,64035,1,0,0:0:0:0:
256,192,64273,1,0,0:0:0:0:
256,192,64392,1,8,0:0:0:0:
256,192,64630,1,8,0:0:0:0:
256,192,64749,1,8,0:0:0:0:
256,192,64868,1,0,0:0:0:0:
256,192,65106,1,8,0:0:0:0:
256,192,65226,1,0,0:0:0:0:
256,192,65285,1,0,0:0:0:0:
256,192,65345,1,0,0:0:0:0:
256,192,65464,1,8,0:0:0:0:
256,192,65583,1,0,0:0:0:0:
256,192,65702,1,0,0:0:0:0:
256,192,65821,1,8,0:0:0:0:
256,192,65999,1,8,0:0:0:0:
256,192,66059,1,8,0:0:0:0:
256,192,66178,1,8,0:0:0:0:
256,192,66297,1,0,0:0:0:0:
256,192,66416,1,0,0:0:0:0:
256,192,66535,1,8,0:0:0:0:
256,192,66595,1,8,0:0:0:0:
256,192,66773,1,0,0:0:0:0:
256,192,66833,1,8,0:0:0:0:
256,192,66892,1,0,0:0:0:0:
256,192,67011,1,8,0:0:0:0:
256,192,67130,1,0,0:0:0:0:
256,192,67190,1,0,0:0:0:0:
256,192,67249,1,0,0:0:0:0:
256,192,67368,1,8,0:0:0:0:
256,192,67487,1,0,0:0:0:0:
256,192,67606,1,0,0:0:0:0:
256,192,67666,1,0,0:0:0:0:
256,192,67726,1,8,0:0:0:0:
256,192,67845,1,0,0:0:0:0:
256,192,68023,1,0,0:0:0:0:
256,192,68083,1,8,0:0:0:0:
256,192,68202,1,0,0:0:0:0:
256,192,68321,1,0,0:0:0:0:
256,192,68380,1,0,0:0:0:0:
256,192,68440,1,8,0:0:0:0:
256,192,68559,1,8,0:0:0:0:
256,192,68678,1,0,0:0:0:0:
256,192,68916,1,8,0:0:0:0:
256,192,69035,1,0,0:0:0:0:
256,192,69154,1,8,0:0:0:0:
256,192,69273,1,8,0:0:0:0:
256,192,69511,1,0,0:0:0:0:
256,192,69630,1,8,0:0:0:0:
256,192,69749,1,0,0:0:0:0:
256,192,69809,1,8,0:0:0:0:
256,192,69868,1,0,0:0:0:0:
256,192,69987,1,0,0:0:0:0:
256,192,70106,1,8,0:0:0:0:
256,192,70226,1,0,0:0:0:0:
256,192,70285,1,0,0:0:0:0:
256,192,70345,1,8,0:0:0:0:
256,192,70424,1,8,0:0:0:0:
256,192,70464,1,8,0:0:0:0:
256,192,70583,1,0,0:0:0:0:
256,192,72487,1,0,0:0:0:0:
256,192,74392,1,0,0:0:0:0:
256,192,75345,1,0,0:0:0:0:
256,192,76297,1,0,0:0:0:0:
256,192,77487,1,0,0:0:0:0:
256,192,77726,1,8,0:0:0:0:
256,192,77845,1,8,0:0:0:0:
256,192,77964,1,0,0:0:0:0:
256,192,78202,1,0,0:0:0:0:
256,192,78321,1,8,0:0:0:0:
256,192,78440,1,8,0:0:0:0:
256,192,78559,1,8,0:0:0:0:
256,192,78678,1,0,0:0:0:0:
256,192,78856,1,0,0:0:0:0:
256,192,78916,1,8,0:0:0:0:
256,192,79035,1,8,0:0:0:0:
256,192,79154,1,0,0:0:0:0:
256,192,79273,1,8,0:0:0:0:
256,192,79511,1,8,0:0:0:0:
256,192,79571,1,8,0:0:0:0:
256,192,79630,1,0,0:0:0:0:
256,192,79868,1,0,0:0:0:0:
256,192,79987,1,8,0:0:0:0:
256,192,80106,1,0,0:0:0:0:
256,192,80226,1,0,0:0:0:0:
256,192,80345,1,0,0:0:0:0:
256,192,80464,1,8,0:0:0:0:
256,192,80523,1,8,0:0:0:0:
256,192,80583,1,0,0:0:0:0:
256,192,80821,1,8,0:0:0:0:
256,192,80940,1,0,0:0:0:0:
256,192,81059,1,0,0:0:0:0:
256,192,81178,1,8,0:0:0:0:
256,192,81416,1,0,0:0:0:0:
256,192,81476,1,8,0:0:0:0:
256,192,81535,1,0,0:0:0:0:
256,192,81654,1,8,0:0:0:0:
256,192,81773,1,8,0:0:0:0:
256,192,82011,1,0,0:0:0:0:
256,192,82130,1,8,0:0:0:0:
256,192,82190,1,8,0:0:0:0:
256,192,82249,1,0,0:0:0:0:
256,192,82368,1,8,0:0:0:0:
256,192,82487,1,0,0:0:0:0:
256,192,82606,1,0,0:0:0:0:
256,192,82726,1,8,0:0:0:0:
256,192,82845,1,8,0:0:0:0:
256,192,82964,1,0,0:0:0:0:
256,192,83083,1,8,0:0:0:0:
256,192,83142,1,0,0:0:0:0:
256,192,83202,1,0,0:0:0:0:
256,192,83261,1,8,0:0:0:0:
256,192,83321,1,0,0:0:0:0:
256,192,83380,1,0,0:0:0:0:
256,192,83440,1,8,0:0:0:0:
256,192,83559,1,0,0:0:0:0:
256,192,83678,1,8,0:0:0:0:
256,192,83797,1,0,0:0:0:0:
256,192,83856,1,8,0:0:0:0:
256,192,83916,1,0,0:0:0:0:
256,192,84154,1,0,0:0:0:0:
256,192,84273,1,8,0:0:0:0:
256,192,84392,1,0,0:0:0:0:
256,192,84511,1,0,0:0:0:0:
256,192,84749,1,8,0:0:0:0:
256,192,84868,1,0,0:0:0:0:
256,192,85047,1,0,0:0:0:0:
256,192,85106,1,8,0:0:0:0:
256,192,85226,1,8,0:0:0:0:
256,192,85345,1,0,0:0:0:0:
256,192,85523,1,8,0:0:0:0:
256,192,85583,1,0,0:0:0:0:
256,192,85702,1,8,0:0:0:0:
256,192,85821,1,0,0:0:0:0:
256,192,85940,1,0,0:0:0:0:
256,192,86178,1,8,0:0:0:0:
256,192,86297,1,0,0:0:0:0:
256,192,86416,1,0,0:0:0:0:
256,192,86476,1,0,0:0:0:0:
256,192,86535,1,8,0:0:0:0:
256,192,86654,1,8,0:0:0:0:
256,192,86773,1,0,0:0:0:0:
256,192,86892,1,8,0:0:0:0:
256,192,87130,1,8,0:0:0:0:
256,192,87249,1,0,0:0:0:0:
256,192,87368,1,8,0:0:0:0:
256,192,87428,1,8,0:0:0:0:
256,192,87487,1,0,0:0:0:0:
256,192,87606,1,8,0:0:0:0:
256,192,87726,1,0,0:0:0:0:
256,192,87964,1,0,0:0:0:0:
256,192,88083,1,8,0:0:0:0:
256,192,88202,1,0,0:0:0:0:
256,192,88321,1,0,0:0:0:0:
256,192,88380,1,0,0:0:0:0:
256,192,88440,1,8,0:0:0:0:
256,192,88559,1,8,0:0:0:0:
256,192,88678,1,0,0:0:0:0:
256,192,88797,1,8,0:0:0:0:
256,192,88976,1,0,0:0:0:0:
256,192,89035,1,8,0:0:0:0:
256,192,89095,1,8,0:0:0:0:
256,192,89154,1,0,0:0:0:0:
256,192,89273,1,0,0:0:0:0:
256,192,89333,1,8,0:0:0:0:
256,192,89392,1,0,0:0:0:0:
256,192,89511,1,8,0:0:0:0:
256,192,89630,1,0,0:0:0:0:
256,192,89749,1,0,0:0:0:0:
256,192,89987,1,8,0:0:0:0:
256,192,90106,1,0,0:0:0:0:
256,192,90226,1,0,0:0:0:0:
256,192,90345,1,8,0:0:0:0:
256,192,90464,1,8,0:0:0:0:
256,192,90583,1,0,0:0:0:0:
256,192,90702,1,8,0:0:0:0:
256,192,90821,1,0,0:0:0:0:
256,192,90940,1,8,0:0:0:0:
256,192,91059,1,0,0:0:0:0:
256,192,91178,1,0,0:0:0:0:
256,192,91297,1,8,0:0:0:0:
256,192,91356,1,8,0:0:0:0:
256,192,91416,1,8,0:0:0:0:
256,192,91476,1,8,0:0:0:0:
256,192,91535,1,0,0:0:0:0:
256,192,91654,12,0,93202,0:0:0:0:
256,192,93440,5,8,0:0:0:0:
256,192,93499,1,8,0:0:0:0:
256,192,93559,1,8,0:0:0:0:
256,192,93618,1,8,0:0:0:0:
256,192,93678,1,8,0:0:0:0:
256,192,93737,1,8,0:0:0:0:
256,192,93797,1,8,0:0:0:0:
256,192,93856,1,8,0:0:0:0:
256,192,94154,1,8,0:0:0:0:
256,192,94273,1,8,0:0:0:0:
256,192,94392,1,8,0:0:0:0:
256,192,94511,1,8,0:0:0:0:
256,192,94630,1,8,0:0:0:0:
256,192,94868,1,8,0:0:0:0:
256,192,95106,1,8,0:0:0:0:
256,192,95345,1,8,0:0:0:0:
256,192,95424,1,8,0:0:0:0:
256,192,95503,1,8,0:0:0:0:
256,192,95583,1,8,0:0:0:0:
256,192,95702,1,8,0:0:0:0:
256,192,95821,1,8,0:0:0:0:
256,192,95940,1,8,0:0:0:0:
256,192,96059,1,8,0:0:0:0:
256,192,96178,1,8,0:0:0:0:
256,192,96297,1,8,0:0:0:0:
256,192,96416,1,8,0:0:0:0:
256,192,96535,1,8,0:0:0:0:
256,192,96595,1,8,0:0:0:0:
256,192,96654,1,8,0:0:0:0:
256,192,96714,1,8,0:0:0:0:
256,192,96773,1,8,0:0:0:0:
256,192,96892,1,8,0:0:0:0:
256,192,97011,1,8,0:0:0:0:
256,192,97249,1,8,0:0:0:0:
256,192,97368,1,8,0:0:0:0:
256,192,97487,1,8,0:0:0:0:
256,192,97726,1,8,0:0:0:0:
256,192,97964,1,8,0:0:0:0:
256,192,98083,1,8,0:0:0:0:
256,192,98202,1,8,0:0:0:0:
256,192,98321,1,8,0:0:0:0:
256,192,98440,1,8,0:0:0:0:
256,192,98678,1,8,0:0:0:0:
256,192,98797,1,8,0:0:0:0:
256,192,98916,1,8,0:0:0:0:
256,192,98995,1,8,0:0:0:0:
256,192,99075,1,8,0:0:0:0:
256,192,99154,1,8,0:0:0:0:
256,192,99273,1,8,0:0:0:0:
256,192,99392,1,8,0:0:0:0:
256,192,99511,1,8,0:0:0:0:
256,192,99630,1,8,0:0:0:0:
256,192,99749,1,8,0:0:0:0:
256,192,99868,1,8,0:0:0:0:
256,192,99987,1,8,0:0:0:0:
256,192,100106,1,8,0:0:0:0:
256,192,100226,1,8,0:0:0:0:
256,192,100345,1,8,0:0:0:0:
256,192,100464,1,8,0:0:0:0:
256,192,100583,1,8,0:0:0:0:
256,192,100662,1,8,0:0:0:0:
256,192,100741,1,8,0:0:0:0:
256,192,100821,1,8,0:0:0:0:
256,192,100900,1,8,0:0:0:0:
256,192,101059,1,0,0:0:0:0:
256,192,101297,1,8,0:0:0:0:
256,192,101376,1,8,0:0:0:0:
256,192,101535,1,8,0:0:0:0:
256,192,101694,1,8,0:0:0:0:
256,192,101852,1,8,0:0:0:0:
256,192,102011,1,0,0:0:0:0:
256,192,102249,1,8,0:0:0:0:
256,192,102329,1,8,0:0:0:0:
256,192,102487,1,8,0:0:0:0:
256,192,102646,1,8,0:0:0:0:
256,192,102805,1,0,0:0:0:0:
256,192,102964,1,0,0:0:0:0:
256,192,103202,1,8,0:0:0:0:
256,192,103281,1,8,0:0:0:0:
256,192,103440,1,8,0:0:0:0:
256,192,103599,1,8,0:0:0:0:
256,192,103757,1,0,0:0:0:0:
256,192,103916,1,8,0:0:0:0:
256,192,104154,1,8,0:0:0:0:
256,192,104233,1,8,0:0:0:0:
256,192,104392,1,8,0:0:0:0:
256,192,104551,1,8,0:0:0:0:
256,192,104710,1,0,0:0:0:0:
256,192,104868,1,0,0:0:0:0:
256,192,105265,1,8,0:0:0:0:
256,192,105345,1,8,0:0:0:0:
256,192,105821,1,0,0:0:0:0:
256,192,106218,1,8,0:0:0:0:
256,192,106297,1,8,0:0:0:0:
256,192,106773,1,0,0:0:0:0:
256,192,106932,1,8,0:0:0:0:
256,192,107091,1,8,0:0:0:0:
256,192,107249,1,0,0:0:0:0:
256,192,107408,1,0,0:0:0:0:
256,192,107567,1,8,0:0:0:0:
256,192,107726,1,0,0:0:0:0:
256,192,107904,1,8,0:0:0:0:
256,192,108083,1,0,0:0:0:0:
256,192,108202,1,0,0:0:0:0:
256,192,108380,1,8,0:0:0:0:
256,192,108559,1,8,0:0:0:0:
256,192,108678,1,0,0:0:0:0:
256,192,108916,1,8,0:0:0:0:
256,192,109035,1,8,0:0:0:0:
256,192,109392,1,8,0:0:0:0:
256,192,109511,1,8,0:0:0:0:
256,192,109630,1,0,0:0:0:0:
256,192,109749,1,8,0:0:0:0:
256,192,109987,1,8,0:0:0:0:
256,192,110106,1,0,0:0:0:0:
256,192,110345,1,8,0:0:0:0:
256,192,110583,1,0,0:0:0:0:
256,192,110821,1,0,0:0:0:0:
256,192,110940,1,8,0:0:0:0:
256,192,111059,1,0,0:0:0:0:
256,192,111297,1,8,0:0:0:0:
256,192,111535,1,0,0:0:0:0:
256,192,111654,1,8,0:0:0:0:
256,192,111892,1,0,0:0:0:0:
256,192,112011,1,8,0:0:0:0:
256,192,112130,1,8,0:0:0:0:
256,192,112249,1,0,0:0:0:0:
256,192,112368,1,8,0:0:0:0:
256,192,112487,1,0,0:0:0:0:
256,192,112845,1,8,0:0:0:0:
256,192,112964,1,0,0:0:0:0:
256,192,113202,1,8,0:0:0:0:
256,192,113440,1,0,0:0:0:0:
256,192,113559,1,0,0:0:0:0:
256,192,113797,1,8,0:0:0:0:
256,192,113916,1,0,0:0:0:0:
256,192,114154,1,8,0:0:0:0:
256,192,114392,1,0,0:0:0:0:
256,192,114630,1,8,0:0:0:0:
256,192,114749,1,8,0:0:0:0:
256,192,114809,1,8,0:0:0:0:
256,192,114868,1,0,0:0:0:0:
256,192,114987,1,8,0:0:0:0:
256,192,115226,1,8,0:0:0:0:
256,192,115345,1,0,0:0:0:0:
256,192,115583,1,0,0:0:0:0:
256,192,115642,1,0,0:0:0:0:
256,192,115702,1,0,0:0:0:0:
256,192,115761,1,0,0:0:0:0:
256,192,115821,1,8,0:0:0:0:
256,192,115940,1,0,0:0:0:0:
256,192,116059,1,8,0:0:0:0:
256,192,116178,1,8,0:0:0:0:
256,192,116297,1,0,0:0:0:0:
256,192,116416,1,8,0:0:0:0:
256,192,116654,1,8,0:0:0:0:
256,192,116773,1,0,0:0:0:0:
256,192,116892,1,0,0:0:0:0:
256,192,117011,1,8,0:0:0:0:
256,192,117130,1,8,0:0:0:0:
256,192,117249,1,0,0:0:0:0:
256,192,117368,1,8,0:0:0:0:
256,192,117428,1,8,0:0:0:0:
256,192,117487,1,0,0:0:0:0:
256,192,117606,1,8,0:0:0:0:
256,192,117726,1,0,0:0:0:0:
256,192,117845,1,0,0:0:0:0:
256,192,117904,1,0,0:0:0:0:
256,192,117964,1,8,0:0:0:0:
256,192,118083,1,8,0:0:0:0:
256,192,118202,1,0,0:0:0:0:
256,192,118261,1,8,0:0:0:0:
256,192,118321,1,0,0:0:0:0:
256,192,118380,1,0,0:0:0:0:
256,192,118440,1,8,0:0:0:0:
256,192,118559,1,8,0:0:0:0:
256,192,118678,1,0,0:0:0:0:
256,192,118916,1,8,0:0:0:0:
256,192,119035,1,8,0:0:0:0:
256,192,119154,1,0,0:0:0:0:
256,192,119273,1,8,0:0:0:0:
256,192,119333,1,8,0:0:0:0:
256,192,119392,1,0,0:0:0:0:
256,192,119511,1,0,0:0:0:0:
256,192,119630,1,8,0:0:0:0:
256,192,119868,1,8,0:0:0:0:
256,192,119987,1,8,0:0:0:0:
256,192,120106,1,0,0:0:0:0:
256,192,120166,1,8,0:0:0:0:
256,192,120226,1,0,0:0:0:0:
256,192,120285,1,8,0:0:0:0:
256,192,120345,1,0,0:0:0:0:
256,192,120464,1,8,0:0:0:0:
256,192,120583,1,0,0:0:0:0:
256,192,120702,1,0,0:0:0:0:
256,192,120761,1,0,0:0:0:0:
256,192,120821,1,8,0:0:0:0:
256,192,120940,1,8,0:0:0:0:
256,192,121059,1,0,0:0:0:0:
256,192,121118,1,0,0:0:0:0:
256,192,121178,1,0,0:0:0:0:
256,192,121297,1,0,0:0:0:0:
256,192,121416,1,8,0:0:0:0:
256,192,121535,1,0,0:0:0:0:
256,192,121595,1,0,0:0:0:0:
256,192,121654,1,0,0:0:0:0:
256,192,121773,1,8,0:0:0:0:
256,192,121892,1,8,0:0:0:0:
256,192,122011,1,0,0:0:0:0:
256,192,122249,1,0,0:0:0:0:
256,192,122368,1,8,0:0:0:0:
256,192,122487,1,0,0:0:0:0:
256,192,122606,1,8,0:0:0:0:
256,192,122666,1,8,0:0:0:0:
256,192,122726,1,0,0:0:0:0:
256,192,122845,1,0,0:0:0:0:
256,192,122964,1,8,0:0:0:0:
256,192,123083,1,0,0:0:0:0:
256,192,123142,1,8,0:0:0:0:
256,192,123202,1,0,0:0:0:0:
256,192,123261,1,0,0:0:0:0:
256,192,123321,1,8,0:0:0:0:
256,192,123440,1,0,0:0:0:0:
256,192,123559,1,0,0:0:0:0:
256,192,123618,1,8,0:0:0:0:
256,192,123678,1,0,0:0:0:0:
256,192,123737,1,0,0:0:0:0:
256,192,123797,1,8,0:0:0:0:
256,192,123856,1,8,0:0:0:0:
256,192,123916,1,0,0:0:0:0:
256,192,124035,1,8,0:0:0:0:
256,192,124273,1,8,0:0:0:0:
256,192,124392,1,0,0:0:0:0:
256,192,124511,1,0,0:0:0:0:
256,192,124571,1,0,0:0:0:0:
256,192,124630,1,8,0:0:0:0:
256,192,124749,1,8,0:0:0:0:
256,192,124809,1,8,0:0:0:0:
256,192,124868,1,0,0:0:0:0:
256,192,124987,1,0,0:0:0:0:
256,192,125106,1,8,0:0:0:0:
256,192,125226,1,0,0:0:0:0:
256,192,125285,1,0,0:0:0:0:
256,192,125345,1,0,0:0:0:0:
256,192,125464,1,8,0:0:0:0:
256,192,125583,1,0,0:0:0:0:
256,192,125702,1,0,0:0:0:0:
256,192,125761,1,8,0:0:0:0:
256,192,125821,1,0,0:0:0:0:
256,192,125999,1,0,0:0:0:0:
256,192,126059,1,8,0:0:0:0:
256,192,126178,1,8,0:0:0:0:
256,192,126237,1,8,0:0:0:0:
256,192,126297,1,0,0:0:0:0:
256,192,126416,1,0,0:0:0:0:
256,192,126535,1,8,0:0:0:0:
256,192,126654,1,8,0:0:0:0:
256,192,126714,1,0,0:0:0:0:
256,192,126773,1,0,0:0:0:0:
256,192,126892,1,8,0:0:0:0:
256,192,127011,1,0,0:0:0:0:
256,192,127071,1,8,0:0:0:0:
256,192,127130,1,0,0:0:0:0:
256,192,127249,1,8,0:0:0:0:
256,192,127368,1,0,0:0:0:0:
256,192,127428,1,0,0:0:0:0:
256,192,127487,1,8,0:0:0:0:
256,192,127606,1,8,0:0:0:0:
256,192,127726,1,0,0:0:0:0:
256,192,127904,1,0,0:0:0:0:
256,192,127964,1,0,0:0:0:0:
256,192,128083,1,8,0:0:0:0:
256,192,128202,1,0,0:0:0:0:
256,192,128261,1,0,0:0:0:0:
256,192,128321,1,0,0:0:0:0:
256,192,128380,1,8,0:0:0:0:
256,192,128440,1,0,0:0:0:0:
256,192,128559,1,8,0:0:0:0:
256,192,128678,1,0,0:0:0:0:
256,192,128797,1,8,0:0:0:0:
256,192,128856,1,8,0:0:0:0:
256,192,128916,1,0,0:0:0:0:
256,192,129035,1,0,0:0:0:0:
256,192,129095,1,0,0:0:0:0:
256,192,129154,1,8,0:0:0:0:
256,192,129273,1,8,0:0:0:0:
256,192,129392,1,0,0:0:0:0:
256,192,129511,1,8,0:0:0:0:
256,192,129571,1,8,0:0:0:0:
256,192,129630,1,0,0:0:0:0:
256,192,129749,1,0,0:0:0:0:
256,192,129809,1,8,0:0:0:0:
256,192,129868,1,0,0:0:0:0:
256,192,129928,1,0,0:0:0:0:
256,192,129987,1,8,0:0:0:0:
256,192,130047,1,8,0:0:0:0:
256,192,130106,1,0,0:0:0:0:
256,192,130166,1,0,0:0:0:0:
256,192,130226,1,0,0:0:0:0:
256,192,130285,1,0,0:0:0:0:
256,192,130345,1,8,0:0:0:0:
256,192,130464,1,8,0:0:0:0:
256,192,130523,1,8,0:0:0:0:
256,192,130583,1,0,0:0:0:0:
256,192,130702,1,0,0:0:0:0:
256,192,130761,1,8,0:0:0:0:
256,192,130821,1,0,0:0:0:0:
256,192,130880,1,8,0:0:0:0:
256,192,130940,1,8,0:0:0:0:
256,192,130999,1,8,0:0:0:0:
256,192,131059,1,0,0:0:0:0:
256,192,131118,1,0,0:0:0:0:
256,192,131178,1,8,0:0:0:0:
256,192,131237,1,0,0:0:0:0:
256,192,131297,1,8,0:0:0:0:
256,192,131356,1,8,0:0:0:0:
256,192,131416,1,8,0:0:0:0:
256,192,131476,1,8,0:0:0:0:
256,192,131535,1,0,0:0:0:0:
256,192,131714,1,0,0:0:0:0:
256,192,131773,1,8,0:0:0:0:
256,192,131892,1,8,0:0:0:0:
256,192,131952,1,8,0:0:0:0:
256,192,132011,1,0,0:0:0:0:
256,192,132130,1,8,0:0:0:0:
256,192,132249,1,0,0:0:0:0:
256,192,132309,1,0,0:0:0:0:
256,192,132368,1,8,0:0:0:0:
256,192,132487,1,0,0:0:0:0:
256,192,132606,1,0,0:0:0:0:
256,192,132666,1,0,0:0:0:0:
256,192,132726,1,0,0:0:0:0:
256,192,132845,1,8,0:0:0:0:
256,192,132964,1,0,0:0:0:0:
256,192,133083,1,0,0:0:0:0:
256,192,133142,1,0,0:0:0:0:
256,192,133202,1,8,0:0:0:0:
256,192,133321,1,8,0:0:0:0:
256,192,133440,1,0,0:0:0:0:
256,192,133618,1,8,0:0:0:0:
256,192,133678,1,0,0:0:0:0:
256,192,133797,1,8,0:0:0:0:
256,192,133916,1,0,0:0:0:0:
256,192,133976,1,0,0:0:0:0:
256,192,134035,1,8,0:0:0:0:
256,192,134095,1,8,0:0:0:0:
256,192,134154,1,0,0:0:0:0:
256,192,134273,1,8,0:0:0:0:
256,192,134392,1,0,0:0:0:0:
256,192,134511,1,8,0:0:0:0:
256,192,134571,1,0,0:0:0:0:
256,192,134690,1,0,0:0:0:0:
256,192,134749,1,8,0:0:0:0:
256,192,134809,1,8,0:0:0:0:
256,192,134868,1,0,0:0:0:0:
256,192,134987,1,0,0:0:0:0:
256,192,135047,1,0,0:0:0:0:
256,192,135106,1,8,0:0:0:0:
256,192,135226,1,8,0:0:0:0:
256,192,135345,1,0,0:0:0:0:
256,192,135404,1,8,0:0:0:0:
256,192,135464,1,0,0:0:0:0:
256,192,135523,1,0,0:0:0:0:
256,192,135583,1,8,0:0:0:0:
256,192,135702,1,8,0:0:0:0:
256,192,135821,1,0,0:0:0:0:
256,192,135880,1,0,0:0:0:0:
256,192,135940,1,0,0:0:0:0:
256,192,135999,1,0,0:0:0:0:
256,192,136059,1,8,0:0:0:0:
256,192,136118,1,8,0:0:0:0:
256,192,136178,1,0,0:0:0:0:
256,192,136237,1,0,0:0:0:0:
256,192,136297,1,0,0:0:0:0:
256,192,136416,1,0,0:0:0:0:
256,192,136535,1,8,0:0:0:0:
256,192,136595,1,0,0:0:0:0:
256,192,136654,1,8,0:0:0:0:
256,192,136714,1,8,0:0:0:0:
256,192,136773,1,0,0:0:0:0:
256,192,136833,1,0,0:0:0:0:
256,192,136892,1,8,0:0:0:0:
256,192,136952,1,0,0:0:0:0:
256,192,137011,1,8,0:0:0:0:
256,192,137130,1,8,0:0:0:0:
256,192,137249,1,0,0:0:0:0:
256,192,137309,1,0,0:0:0:0:
256,192,137368,1,0,0:0:0:0:
256,192,137428,1,0,0:0:0:0:
256,192,137487,1,0,0:0:0:0:
256,192,137547,1,0,0:0:0:0:
256,192,137606,1,0,0:0:0:0:
256,192,137666,1,0,0:0:0:0:
256,192,137726,1,0,0:0:0:0:
256,192,137785,1,0,0:0:0:0:
256,192,137845,1,0,0:0:0:0:
256,192,137904,1,0,0:0:0:0:
256,192,137964,1,8,0:0:0:0:
256,192,138023,1,8,0:0:0:0:
256,192,138083,1,8,0:0:0:0:
256,192,138142,1,8,0:0:0:0:
256,192,138202,1,0,0:0:0:0:
256,192,138321,1,0,0:0:0:0:
256,192,138380,1,0,0:0:0:0:
256,192,138440,1,8,0:0:0:0:
256,192,138559,1,8,0:0:0:0:
256,192,138678,1,0,0:0:0:0:
256,192,138797,1,0,0:0:0:0:
256,192,138916,1,8,0:0:0:0:
256,192,139154,5,4,0:0:0:0:
