osu file format v14

[General]
AudioFilename: audio.mp3
AudioLeadIn: 0
PreviewTime: 78192
Countdown: 0
SampleSet: None
StackLeniency: 0.7
Mode: 1
LetterboxInBreaks: 0
WidescreenStoryboard: 1

[Editor]
Bookmarks: 24858,40096,47716
DistanceSpacing: 1.3
BeatDivisor: 6
GridSize: 32
TimelineZoom: 3.199999

[Metadata]
Title:eth ken
TitleUnicode:eth剣
Artist:tarolabo
ArtistUnicode:tarolabo
Creator:_yu68
Version:Ex's Hell Oni
Source:
Tags:
BeatmapID:1125320
BeatmapSetID:530937

[Difficulty]
HPDrainRate:6
CircleSize:5
OverallDifficulty:6
ApproachRate:8
SliderMultiplier:2.8
SliderTickRate:1

[Events]
//Background and Video events
0,0,"BG.jpg",0,0
//Break Periods
//Storyboard Layer 0 (Background)
//Storyboard Layer 1 (Fail)
//Storyboard Layer 2 (Pass)
//Storyboard Layer 3 (Foreground)
//Storyboard Sound Samples

[TimingPoints]
2011.71707280057,476.190476190476,4,1,0,75,1,0
24749,-133.333333333333,4,1,0,75,0,0
40047,-114.285714285714,4,1,0,75,0,0
47606,-100,4,1,0,75,0,0
70702,-150,4,1,0,75,0,0
78202,-100,4,1,0,75,0,1
93440,-100,4,1,0,40,0,0
93559,-200,4,1,0,40,0,0
101059,-133.333333333333,4,1,0,60,0,0
108678,-114.285714285714,4,1,0,70,0,0
112130,-100,4,1,0,70,0,0
116297,-100,4,1,0,80,0,1
139154,-100,4,1,0,80,0,0

[HitObjects]
256,192,1773,5,0,0:0:0:0:
256,192,1833,1,0,0:0:0:0:
256,192,1892,1,0,0:0:0:0:
256,192,1952,1,0,0:0:0:0:
256,192,2011,1,8,0:0:0:0:
256,192,2091,1,8,0:0:0:0:
256,192,2170,1,0,0:0:0:0:
256,192,2249,1,8,0:0:0:0:
256,192,2329,1,0,0:0:0:0:
256,192,2408,1,0,0:0:0:0:
256,192,2487,1,8,0:0:0:0:
256,192,2567,1,0,0:0:0:0:
256,192,2646,1,8,0:0:0:0:
256,192,2726,1,8,0:0:0:0:
256,192,2805,1,0,0:0:0:0:
256,192,2884,1,0,0:0:0:0:
256,192,2964,1,8,0:0:0:0:
256,192,3202,1,0,0:0:0:0:
256,192,3440,1,0,0:0:0:0:
256,192,3519,1,8,0:0:0:0:
256,192,3599,1,0,0:0:0:0:
256,192,3678,1,8,0:0:0:0:
256,192,3757,1,8,0:0:0:0:
256,192,3837,1,8,0:0:0:0:
256,192,3916,1,0,0:0:0:0:
256,192,4035,1,8,0:0:0:0:
256,192,4095,1,0,0:0:0:0:
256,192,4154,1,8,0:0:0:0:
256,192,4214,1,8,0:0:0:0:
256,192,4273,1,0,0:0:0:0:
256,192,4333,1,0,0:0:0:0:
256,192,4392,1,8,0:0:0:0:
256,192,4551,1,0,0:0:0:0:
256,192,4630,1,0,0:0:0:0:
256,192,4710,1,8,0:0:0:0:
256,192,4789,1,8,0:0:0:0:
256,192,4868,1,0,0:0:0:0:
256,192,5106,1,12,0:0:0:0:
256,192,5345,1,12,0:0:0:0:
256,192,5583,1,12,0:0:0:0:
256,192,5741,1,0,0:0:0:0:
256,192,5821,1,12,0:0:0:0:
256,192,6059,1,0,0:0:0:0:
256,192,6178,1,8,0:0:0:0:
256,192,6297,1,0,0:0:0:0:
256,192,6416,1,0,0:0:0:0:
256,192,6535,1,8,0:0:0:0:
256,192,6654,1,8,0:0:0:0:
256,192,6773,1,0,0:0:0:0:
256,192,6892,1,8,0:0:0:0:
256,192,7130,1,0,0:0:0:0:
256,192,7190,1,0,0:0:0:0:
256,192,7249,1,8,0:0:0:0:
256,192,7368,1,0,0:0:0:0:
256,192,7487,1,8,0:0:0:0:
256,192,7606,1,8,0:0:0:0:
256,192,7726,1,0,0:0:0:0:
256,192,7845,1,0,0:0:0:0:
256,192,7964,1,8,0:0:0:0:
256,192,8023,1,8,0:0:0:0:
256,192,8083,1,8,0:0:0:0:
256,192,8142,1,8,0:0:0:0:
256,192,8202,1,0,0:0:0:0:
256,192,8321,1,0,0:0:0:0:
256,192,8440,1,8,0:0:0:0:
256,192,8678,1,0,0:0:0:0:
256,192,8797,1,8,0:0:0:0:
256,192,8916,1,0,0:0:0:0:
256,192,9035,1,0,0:0:0:0:
256,192,9154,1,8,0:0:0:0:
256,192,9273,1,0,0:0:0:0:
256,192,9392,1,8,0:0:0:0:
256,192,9511,1,8,0:0:0:0:
256,192,9630,1,0,0:0:0:0:
256,192,9749,1,8,0:0:0:0:
256,192,9789,1,8,0:0:0:0:
256,192,9868,1,0,0:0:0:0:
256,192,9948,1,8,0:0:0:0:
256,192,9987,1,8,0:0:0:0:
256,192,10106,1,0,0:0:0:0:
256,192,10226,1,8,0:0:0:0:
256,192,10265,1,8,0:0:0:0:
256,192,10345,1,0,0:0:0:0:
256,192,10424,1,8,0:0:0:0:
256,192,10464,1,8,0:0:0:0:
256,192,10583,1,0,0:0:0:0:
256,192,10702,1,8,0:0:0:0:
256,192,10741,1,8,0:0:0:0:
256,192,10821,1,0,0:0:0:0:
256,192,10900,1,8,0:0:0:0:
256,192,10940,1,8,0:0:0:0:
256,192,11059,1,0,0:0:0:0:
256,192,11178,1,8,0:0:0:0:
256,192,11297,1,0,0:0:0:0:
256,192,11416,1,0,0:0:0:0:
256,192,11535,1,8,0:0:0:0:
256,192,11773,1,0,0:0:0:0:
256,192,11892,1,0,0:0:0:0:
256,192,12011,1,8,0:0:0:0:
256,192,12130,1,8,0:0:0:0:
256,192,12249,1,0,0:0:0:0:
256,192,12368,1,0,0:0:0:0:
256,192,12487,1,8,0:0:0:0:
256,192,12606,1,0,0:0:0:0:
256,192,12726,1,8,0:0:0:0:
256,192,12785,1,8,0:0:0:0:
256,192,12845,1,8,0:0:0:0:
256,192,12904,1,8,0:0:0:0:
256,192,12964,1,0,0:0:0:0:
256,192,13083,1,0,0:0:0:0:
256,192,13202,1,8,0:0:0:0:
256,192,13321,1,0,0:0:0:0:
256,192,13440,1,8,0:0:0:0:
256,192,13499,1,8,0:0:0:0:
256,192,13559,1,8,0:0:0:0:
256,192,13618,1,8,0:0:0:0:
256,192,13678,1,0,0:0:0:0:
256,192,13856,1,0,0:0:0:0:
256,192,13916,1,8,0:0:0:0:
256,192,14035,1,0,0:0:0:0:
256,192,14095,1,8,0:0:0:0:
256,192,14214,1,8,0:0:0:0:
256,192,14273,1,0,0:0:0:0:
256,192,14392,1,8,0:0:0:0:
256,192,14511,1,0,0:0:0:0:
256,192,14571,1,0,0:0:0:0:
256,192,14630,1,8,0:0:0:0:
256,192,14749,1,0,0:0:0:0:
256,192,14868,1,8,0:0:0:0:
256,192,14987,1,0,0:0:0:0:
256,192,15047,1,0,0:0:0:0:
256,192,15106,1,0,0:0:0:0:
256,192,15226,1,0,0:0:0:0:
256,192,15345,1,8,0:0:0:0:
256,192,15503,1,0,0:0:0:0:
256,192,15583,1,0,0:0:0:0:
256,192,15662,1,8,0:0:0:0:
256,192,15821,1,0,0:0:0:0:
256,192,15900,1,8,0:0:0:0:
256,192,15979,1,0,0:0:0:0:
256,192,16059,1,0,0:0:0:0:
256,192,16138,1,8,0:0:0:0:
256,192,16297,1,0,0:0:0:0:
256,192,16416,1,8,0:0:0:0:
256,192,16476,1,0,0:0:0:0:
256,192,16535,1,0,0:0:0:0:
256,192,16595,1,8,0:0:0:0:
256,192,16654,1,0,0:0:0:0:
256,192,16714,1,0,0:0:0:0:
256,192,16773,1,8,0:0:0:0:
256,192,16892,1,0,0:0:0:0:
256,192,16952,1,0,0:0:0:0:
256,192,17011,1,8,0:0:0:0:
256,192,17130,1,0,0:0:0:0:
256,192,17249,1,0,0:0:0:0:
256,192,17368,1,8,0:0:0:0:
256,192,17428,1,8,0:0:0:0:
256,192,17487,1,0,0:0:0:0:
256,192,17547,1,0,0:0:0:0:
256,192,17606,1,8,0:0:0:0:
256,192,17845,1,0,0:0:0:0:
256,192,17904,1,0,0:0:0:0:
256,192,17964,1,8,0:0:0:0:
256,192,18083,1,0,0:0:0:0:
256,192,18202,1,0,0:0:0:0:
256,192,18281,1,8,0:0:0:0:
256,192,18360,1,8,0:0:0:0:
256,192,18440,1,0,0:0:0:0:
256,192,18559,1,0,0:0:0:0:
256,192,18678,1,8,0:0:0:0:
256,192,18797,1,0,0:0:0:0:
256,192,18856,1,0,0:0:0:0:
256,192,18916,1,8,0:0:0:0:
256,192,18976,1,8,0:0:0:0:
256,192,19035,1,8,0:0:0:0:
256,192,19095,1,8,0:0:0:0:
256,192,19154,1,0,0:0:0:0:
256,192,19273,1,0,0:0:0:0:
256,192,19333,1,0,0:0:0:0:
256,192,19392,1,8,0:0:0:0:
256,192,19511,1,0,0:0:0:0:
256,192,19630,1,8,0:0:0:0:
256,192,19749,1,0,0:0:0:0:
256,192,19809,1,0,0:0:0:0:
256,192,19868,1,8,0:0:0:0:
256,192,19987,1,0,0:0:0:0:
256,192,20106,1,0,0:0:0:0:
256,192,20186,1,0,0:0:0:0:
256,192,20265,1,0,0:0:0:0:
256,192,20345,1,0,0:0:0:0:
256,192,20424,1,0,0:0:0:0:
256,192,20503,1,0,0:0:0:0:
256,192,20583,1,8,0:0:0:0:
256,192,20662,1,8,0:0:0:0:
256,192,20741,1,8,0:0:0:0:
256,192,20821,1,0,0:0:0:0:
256,192,20881,1,0,0:0:0:0:
256,192,20940,1,0,0:0:0:0:
256,192,21000,1,0,0:0:0:0:
256,192,21059,1,8,0:0:0:0:
256,192,21139,1,8,0:0:0:0:
256,192,21218,1,0,0:0:0:0:
256,192,21297,1,8,0:0:0:0:
256,192,21377,1,0,0:0:0:0:
256,192,21456,1,0,0:0:0:0:
256,192,21535,1,8,0:0:0:0:
256,192,21615,1,0,0:0:0:0:
256,192,21694,1,8,0:0:0:0:
256,192,21774,1,8,0:0:0:0:
256,192,21853,1,0,0:0:0:0:
256,192,21932,1,0,0:0:0:0:
256,192,22012,1,8,0:0:0:0:
256,192,22250,1,0,0:0:0:0:
256,192,22488,1,0,0:0:0:0:
256,192,22567,1,8,0:0:0:0:
256,192,22647,1,0,0:0:0:0:
256,192,22726,1,8,0:0:0:0:
256,192,22805,1,8,0:0:0:0:
256,192,22885,1,8,0:0:0:0:
256,192,22964,1,0,0:0:0:0:
256,192,23440,1,8,0:0:0:0:
256,192,23678,1,0,0:0:0:0:
256,192,23916,1,0,0:0:0:0:
256,192,24392,12,0,24630,0:0:0:0:
256,192,24868,5,4,0:0:0:0:
256,192,25345,1,8,0:0:0:0:
256,192,25821,1,0,0:0:0:0:
256,192,26059,1,0,0:0:0:0:
256,192,26297,1,8,0:0:0:0:
256,192,26535,1,0,0:0:0:0:
256,192,26595,1,0,0:0:0:0:
256,192,26654,1,0,0:0:0:0:
256,192,26714,1,0,0:0:0:0:
256,192,26773,1,0,0:0:0:0:
256,192,27249,1,8,0:0:0:0:
256,192,27487,1,8,0:0:0:0:
256,192,27547,1,8,0:0:0:0:
256,192,27606,1,8,0:0:0:0:
256,192,27666,1,8,0:0:0:0:
256,192,27726,1,0,0:0:0:0:
256,192,27964,1,0,0:0:0:0:
256,192,28023,1,8,0:0:0:0:
256,192,28083,1,8,0:0:0:0:
256,192,28142,1,8,0:0:0:0:
256,192,28202,1,0,0:0:0:0:
256,192,28440,1,8,0:0:0:0:
256,192,28559,1,0,0:0:0:0:
256,192,28618,1,0,0:0:0:0:
256,192,28678,1,0,0:0:0:0:
256,192,28916,1,0,0:0:0:0:
256,192,29154,1,8,0:0:0:0:
256,192,29392,1,0,0:0:0:0:
256,192,29630,1,0,0:0:0:0:
256,192,29809,1,0,0:0:0:0:
256,192,29868,1,8,0:0:0:0:
256,192,29987,1,8,0:0:0:0:
256,192,30106,1,0,0:0:0:0:
256,192,30345,1,8,0:0:0:0:
256,192,30404,1,8,0:0:0:0:
256,192,30464,1,8,0:0:0:0:
256,192,30523,1,8,0:0:0:0:
256,192,30583,1,0,0:0:0:0:
256,192,30821,1,0,0:0:0:0:
256,192,30880,1,8,0:0:0:0:
256,192,30940,1,8,0:0:0:0:
256,192,30999,1,8,0:0:0:0:
256,192,31059,1,0,0:0:0:0:
256,192,31297,1,8,0:0:0:0:
256,192,31356,1,8,0:0:0:0:
256,192,31416,1,8,0:0:0:0:
256,192,31476,1,8,0:0:0:0:
256,192,31535,1,0,0:0:0:0:
256,192,31773,1,0,0:0:0:0:
256,192,32011,1,8,0:0:0:0:
256,192,32071,1,8,0:0:0:0:
256,192,32130,1,8,0:0:0:0:
256,192,32190,1,8,0:0:0:0:
256,192,32249,1,8,0:0:0:0:
256,192,32309,1,8,0:0:0:0:
256,192,32368,1,8,0:0:0:0:
256,192,32428,1,8,0:0:0:0:
256,192,32487,1,0,0:0:0:0:
256,192,32845,1,0,0:0:0:0:
256,192,32904,1,0,0:0:0:0:
256,192,32964,1,8,0:0:0:0:
256,192,33202,1,0,0:0:0:0:
256,192,33321,1,8,0:0:0:0:
256,192,33440,1,0,0:0:0:0:
256,192,33797,1,0,0:0:0:0:
256,192,33856,1,0,0:0:0:0:
256,192,33916,1,8,0:0:0:0:
256,192,34154,1,8,0:0:0:0:
256,192,34214,1,8,0:0:0:0:
256,192,34273,1,8,0:0:0:0:
256,192,34333,1,8,0:0:0:0:
256,192,34392,1,0,0:0:0:0:
256,192,34511,1,0,0:0:0:0:
256,192,34630,1,8,0:0:0:0:
256,192,34868,1,0,0:0:0:0:
256,192,35106,1,8,0:0:0:0:
256,192,35166,1,8,0:0:0:0:
256,192,35226,1,8,0:0:0:0:
256,192,35285,1,8,0:0:0:0:
256,192,35345,1,0,0:0:0:0:
256,192,35464,1,0,0:0:0:0:
256,192,35583,1,8,0:0:0:0:
256,192,35821,1,0,0:0:0:0:
256,192,36059,1,8,0:0:0:0:
256,192,36178,1,8,0:0:0:0:
256,192,36237,1,8,0:0:0:0:
256,192,36297,1,0,0:0:0:0:
256,192,36535,1,8,0:0:0:0:
256,192,36654,1,0,0:0:0:0:
256,192,36773,1,0,0:0:0:0:
256,192,37011,1,0,0:0:0:0:
256,192,37130,1,8,0:0:0:0:
256,192,37190,1,8,0:0:0:0:
256,192,37249,1,0,0:0:0:0:
256,192,37309,1,0,0:0:0:0:
256,192,37368,1,8,0:0:0:0:
256,192,37428,1,8,0:0:0:0:
256,192,37487,1,0,0:0:0:0:
256,192,37606,1,8,0:0:0:0:
256,192,37726,1,0,0:0:0:0:
256,192,37964,1,8,0:0:0:0:
256,192,38023,1,8,0:0:0:0:
256,192,38083,1,8,0:0:0:0:
256,192,38142,1,8,0:0:0:0:
256,192,38202,1,0,0:0:0:0:
256,192,38440,1,8,0:0:0:0:
256,192,38678,1,0,0:0:0:0:
256,192,38916,1,8,0:0:0:0:
256,192,38976,1,8,0:0:0:0:
256,192,39035,1,8,0:0:0:0:
256,192,39095,1,8,0:0:0:0:
256,192,39154,1,0,0:0:0:0:
256,192,39392,1,0,0:0:0:0:
256,192,39630,1,8,0:0:0:0:
256,192,39690,1,8,0:0:0:0:
256,192,39749,1,8,0:0:0:0:
256,192,39809,1,8,0:0:0:0:
256,192,39868,1,8,0:0:0:0:
256,192,39928,1,8,0:0:0:0:
256,192,39987,1,8,0:0:0:0:
256,192,40106,1,4,0:0:0:0:
256,192,41059,1,8,0:0:0:0:
256,192,41535,1,8,0:0:0:0:
256,192,42011,1,0,0:0:0:0:
256,192,42964,1,8,0:0:0:0:
256,192,43440,1,0,0:0:0:0:
256,192,43916,1,0,0:0:0:0:
256,192,43995,1,8,0:0:0:0:
256,192,44075,1,0,0:0:0:0:
256,192,44154,1,8,0:0:0:0:
256,192,44233,1,0,0:0:0:0:
256,192,44313,1,8,0:0:0:0:
256,192,44392,1,0,0:0:0:0:
256,192,44471,1,8,0:0:0:0:
256,192,44551,1,0,0:0:0:0:
256,192,44630,1,8,0:0:0:0:
256,192,44709,1,0,0:0:0:0:
256,192,44789,1,8,0:0:0:0:
256,192,44868,1,0,0:0:0:0:
256,192,44947,1,8,0:0:0:0:
256,192,45027,1,0,0:0:0:0:
256,192,45106,1,8,0:0:0:0:
256,192,45185,1,0,0:0:0:0:
256,192,45265,1,8,0:0:0:0:
256,192,45345,1,0,0:0:0:0:
256,192,45424,1,8,0:0:0:0:
256,192,45504,1,0,0:0:0:0:
256,192,45583,1,8,0:0:0:0:
256,192,45662,1,0,0:0:0:0:
256,192,45742,1,8,0:0:0:0:
256,192,45821,1,0,0:0:0:0:
256,192,45940,1,0,0:0:0:0:
256,192,46059,1,8,0:0:0:0:
256,192,46178,1,0,0:0:0:0:
256,192,46297,1,8,0:0:0:0:
256,192,46773,1,8,0:0:0:0:
256,192,47249,1,8,0:0:0:0:
256,192,47726,1,4,0:0:0:0:
256,192,47845,1,8,0:0:0:0:
256,192,47904,1,8,0:0:0:0:
256,192,47964,1,0,0:0:0:0:
256,192,48083,1,8,0:0:0:0:
256,192,48202,1,0,0:0:0:0:
256,192,48321,1,0,0:0:0:0:
256,192,48440,1,8,0:0:0:0:
256,192,48559,1,8,0:0:0:0:
256,192,48678,1,0,0:0:0:0:
256,192,48797,1,8,0:0:0:0:
256,192,48916,1,8,0:0:0:0:
256,192,49154,1,0,0:0:0:0:
256,192,49392,1,8,0:0:0:0:
256,192,49452,1,8,0:0:0:0:
256,192,49511,1,8,0:0:0:0:
256,192,49571,1,8,0:0:0:0:
256,192,49630,1,0,0:0:0:0:
256,192,49868,1,0,0:0:0:0:
256,192,49987,1,0,0:0:0:0:
256,192,50106,1,8,0:0:0:0:
256,192,50345,1,0,0:0:0:0:
256,192,50464,1,8,0:0:0:0:
256,192,50523,1,8,0:0:0:0:
256,192,50583,1,0,0:0:0:0:
256,192,50702,1,0,0:0:0:0:
256,192,50821,1,8,0:0:0:0:
256,192,50880,1,8,0:0:0:0:
256,192,50940,1,8,0:0:0:0:
256,192,50999,1,8,0:0:0:0:
256,192,51059,1,0,0:0:0:0:
256,192,51178,1,0,0:0:0:0:
256,192,51297,1,8,0:0:0:0:
256,192,51356,1,8,0:0:0:0:
256,192,51416,1,8,0:0:0:0:
256,192,51535,1,0,0:0:0:0:
256,192,51654,1,0,0:0:0:0:
256,192,51773,1,8,0:0:0:0:
256,192,51892,1,8,0:0:0:0:
256,192,52011,1,0,0:0:0:0:
256,192,52249,1,8,0:0:0:0:
256,192,52487,1,0,0:0:0:0:
256,192,52606,1,8,0:0:0:0:
256,192,52666,1,0,0:0:0:0:
256,192,52785,1,0,0:0:0:0:
256,192,52845,1,8,0:0:0:0:
256,192,52964,1,0,0:0:0:0:
256,192,53202,1,8,0:0:0:0:
256,192,53261,1,8,0:0:0:0:
256,192,53321,1,8,0:0:0:0:
256,192,53380,1,8,0:0:0:0:
256,192,53440,1,0,0:0:0:0:
256,192,53559,1,0,0:0:0:0:
256,192,53678,1,8,0:0:0:0:
256,192,53737,1,8,0:0:0:0:
256,192,53797,1,8,0:0:0:0:
256,192,53856,1,0,0:0:0:0:
256,192,53916,1,0,0:0:0:0:
256,192,54035,1,0,0:0:0:0:
256,192,54154,1,8,0:0:0:0:
256,192,54214,1,8,0:0:0:0:
256,192,54273,1,0,0:0:0:0:
256,192,54333,1,0,0:0:0:0:
256,192,54392,1,0,0:0:0:0:
256,192,54511,1,8,0:0:0:0:
256,192,54571,1,0,0:0:0:0:
256,192,54690,1,0,0:0:0:0:
256,192,54749,1,8,0:0:0:0:
256,192,54868,1,0,0:0:0:0:
256,192,54928,1,0,0:0:0:0:
256,192,54987,1,8,0:0:0:0:
256,192,55047,1,0,0:0:0:0:
256,192,55106,1,8,0:0:0:0:
256,192,55226,1,0,0:0:0:0:
256,192,55345,1,8,0:0:0:0:
256,192,55583,1,0,0:0:0:0:
256,192,55702,1,0,0:0:0:0:
256,192,55761,1,0,0:0:0:0:
256,192,55821,1,8,0:0:0:0:
256,192,55940,1,0,0:0:0:0:
256,192,56178,1,0,0:0:0:0:
256,192,56297,1,8,0:0:0:0:
256,192,56535,1,0,0:0:0:0:
256,192,56654,1,0,0:0:0:0:
256,192,56714,1,0,0:0:0:0:
256,192,56773,1,8,0:0:0:0:
256,192,57011,1,8,0:0:0:0:
256,192,57071,1,8,0:0:0:0:
256,192,57130,1,8,0:0:0:0:
256,192,57190,1,8,0:0:0:0:
256,192,57249,1,0,0:0:0:0:
256,192,57368,1,0,0:0:0:0:
256,192,57487,1,8,0:0:0:0:
256,192,57606,1,0,0:0:0:0:
256,192,57666,1,0,0:0:0:0:
256,192,57726,1,8,0:0:0:0:
256,192,57845,1,8,0:0:0:0:
256,192,57964,1,0,0:0:0:0:
256,192,58083,1,0,0:0:0:0:
256,192,58202,1,8,0:0:0:0:
256,192,58321,1,0,0:0:0:0:
256,192,58380,1,8,0:0:0:0:
256,192,58440,1,0,0:0:0:0:
256,192,58559,1,8,0:0:0:0:
256,192,58618,1,8,0:0:0:0:
256,192,58678,1,0,0:0:0:0:
256,192,58797,1,0,0:0:0:0:
256,192,58916,1,8,0:0:0:0:
256,192,58976,1,8,0:0:0:0:
256,192,59035,1,8,0:0:0:0:
256,192,59154,1,0,0:0:0:0:
256,192,59333,1,0,0:0:0:0:
256,192,59392,1,8,0:0:0:0:
256,192,59511,1,0,0:0:0:0:
256,192,59571,1,0,0:0:0:0:
256,192,59630,1,8,0:0:0:0:
256,192,59749,1,0,0:0:0:0:
256,192,59987,1,0,0:0:0:0:
256,192,60106,1,8,0:0:0:0:
256,192,60166,1,8,0:0:0:0:
256,192,60226,1,8,0:0:0:0:
256,192,60285,1,8,0:0:0:0:
256,192,60345,1,0,0:0:0:0:
256,192,60464,1,0,0:0:0:0:
256,192,60583,1,8,0:0:0:0:
256,192,60702,1,0,0:0:0:0:
256,192,60761,1,0,0:0:0:0:
256,192,60821,1,8,0:0:0:0:
256,192,60940,1,0,0:0:0:0:
256,192,61059,1,0,0:0:0:0:
256,192,61218,1,8,0:0:0:0:
256,192,61297,1,0,0:0:0:0:
256,192,61376,1,8,0:0:0:0:
256,192,61535,1,0,0:0:0:0:
256,192,61694,1,8,0:0:0:0:
256,192,61773,1,8,0:0:0:0:
256,192,61852,1,0,0:0:0:0:
256,192,62011,1,0,0:0:0:0:
256,192,62130,1,0,0:0:0:0:
256,192,62249,1,8,0:0:0:0:
256,192,62368,1,0,0:0:0:0:
256,192,62487,1,8,0:0:0:0:
256,192,62606,1,0,0:0:0:0:
256,192,62726,1,8,0:0:0:0:
256,192,62785,1,8,0:0:0:0:
256,192,62845,1,8,0:0:0:0:
256,192,62964,1,4,0:0:0:0:
256,192,63142,1,8,0:0:0:0:
256,192,63202,1,0,0:0:0:0:
256,192,63321,1,8,0:0:0:0:
256,192,63440,1,0,0:0:0:0:
256,192,63559,1,0,0:0:0:0:
256,192,63618,1,0,0:0:0:0:
256,192,63678,1,8,0:0:0:0:
256,192,63797,1,0,0:0:0:0:
256,192,63916,1,0,0:0:0:0:
256,192,64154,1,0,0:0:0:0:
256,192,64273,1,0,0:0:0:0:
256,192,64392,1,8,0:0:0:0:
256,192,64452,1,8,0:0:0:0:
256,192,64511,1,0,0:0:0:0:
256,192,64571,1,0,0:0:0:0:
256,192,64630,1,0,0:0:0:0:
256,192,64749,1,0,0:0:0:0:
256,192,64868,1,8,0:0:0:0:
256,192,65106,1,0,0:0:0:0:
256,192,65166,1,0,0:0:0:0:
256,192,65226,1,0,0:0:0:0:
256,192,65345,1,8,0:0:0:0:
256,192,65464,1,8,0:0:0:0:
256,192,65583,1,0,0:0:0:0:
256,192,65702,1,0,0:0:0:0:
256,192,65821,1,8,0:0:0:0:
256,192,65940,1,0,0:0:0:0:
256,192,65999,1,0,0:0:0:0:
256,192,66059,1,0,0:0:0:0:
256,192,66178,1,8,0:0:0:0:
256,192,66297,1,0,0:0:0:0:
256,192,66416,1,8,0:0:0:0:
256,192,66476,1,8,0:0:0:0:
256,192,66535,1,0,0:0:0:0:
256,192,66654,1,8,0:0:0:0:
256,192,66773,1,0,0:0:0:0:
256,192,66852,1,8,0:0:0:0:
256,192,66932,1,0,0:0:0:0:
256,192,67011,1,8,0:0:0:0:
256,192,67091,1,0,0:0:0:0:
256,192,67170,1,8,0:0:0:0:
256,192,67249,1,0,0:0:0:0:
256,192,67328,1,8,0:0:0:0:
256,192,67408,1,0,0:0:0:0:
256,192,67487,1,8,0:0:0:0:
256,192,67567,1,0,0:0:0:0:
256,192,67646,1,8,0:0:0:0:
256,192,67726,1,0,0:0:0:0:
256,192,67805,1,8,0:0:0:0:
256,192,67885,1,0,0:0:0:0:
256,192,67964,1,8,0:0:0:0:
256,192,68044,1,0,0:0:0:0:
256,192,68123,1,8,0:0:0:0:
256,192,68202,1,0,0:0:0:0:
256,192,68281,1,8,0:0:0:0:
256,192,68361,1,0,0:0:0:0:
256,192,68440,1,8,0:0:0:0:
256,192,68520,1,0,0:0:0:0:
256,192,68599,1,8,0:0:0:0:
256,192,68678,1,0,0:0:0:0:
256,192,68797,1,0,0:0:0:0:
256,192,68856,1,0,0:0:0:0:
256,192,68916,1,8,0:0:0:0:
256,192,69035,1,0,0:0:0:0:
256,192,69154,1,12,0:0:0:0:
256,192,69392,1,0,0:0:0:0:
256,192,69511,1,0,0:0:0:0:
256,192,69630,1,12,0:0:0:0:
256,192,69749,1,0,0:0:0:0:
256,192,69809,1,0,0:0:0:0:
256,192,69868,1,0,0:0:0:0:
256,192,69987,1,0,0:0:0:0:
256,192,70106,1,12,0:0:0:0:
256,192,70226,1,0,0:0:0:0:
256,192,70285,1,8,0:0:0:0:
256,192,70345,1,0,0:0:0:0:
256,192,70464,1,0,0:0:0:0:
256,192,70583,1,12,0:0:0:0:
256,192,71059,1,8,0:0:0:0:
256,192,71535,1,0,0:0:0:0:
256,192,72011,1,8,0:0:0:0:
256,192,72170,1,8,0:0:0:0:
256,192,72329,1,8,0:0:0:0:
256,192,72487,1,0,0:0:0:0:
256,192,72964,1,8,0:0:0:0:
256,192,73440,1,0,0:0:0:0:
256,192,73916,1,8,0:0:0:0:
256,192,74075,1,8,0:0:0:0:
256,192,74233,1,0,0:0:0:0:
256,192,74392,2,0,L|32:192,1,186.666666666667
256,192,75106,1,8,0:0:0:0:
256,192,75345,2,0,L|448:192,1,186.666666666667
256,192,76059,1,8,0:0:0:0:
256,192,76297,1,0,0:0:0:0:
256,192,76773,1,8,0:0:0:0:
256,192,77249,1,0,0:0:0:0:
256,192,77487,1,0,0:0:0:0:
256,192,77606,1,0,0:0:0:0:
256,192,77726,1,8,0:0:0:0:
256,192,77845,1,8,0:0:0:0:
256,192,77964,1,0,0:0:0:0:
256,192,78202,1,4,0:0:0:0:
256,192,78440,1,0,0:0:0:0:
256,192,78559,1,8,0:0:0:0:
256,192,78618,1,8,0:0:0:0:
256,192,78678,1,0,0:0:0:0:
256,192,78797,1,0,0:0:0:0:
256,192,78916,1,8,0:0:0:0:
256,192,79035,1,8,0:0:0:0:
256,192,79154,1,0,0:0:0:0:
256,192,79273,1,8,0:0:0:0:
256,192,79511,1,0,0:0:0:0:
256,192,79571,1,0,0:0:0:0:
256,192,79630,1,8,0:0:0:0:
256,192,79749,1,0,0:0:0:0:
256,192,79868,1,8,0:0:0:0:
256,192,79987,1,8,0:0:0:0:
256,192,80107,1,0,0:0:0:0:
256,192,80226,1,0,0:0:0:0:
256,192,80345,1,8,0:0:0:0:
256,192,80404,1,8,0:0:0:0:
256,192,80464,1,8,0:0:0:0:
256,192,80523,1,8,0:0:0:0:
256,192,80583,1,0,0:0:0:0:
256,192,80702,1,0,0:0:0:0:
256,192,80821,1,8,0:0:0:0:
256,192,81059,1,0,0:0:0:0:
256,192,81178,1,8,0:0:0:0:
256,192,81297,1,0,0:0:0:0:
256,192,81416,1,0,0:0:0:0:
256,192,81535,1,8,0:0:0:0:
256,192,81654,1,0,0:0:0:0:
256,192,81773,1,8,0:0:0:0:
256,192,81892,1,8,0:0:0:0:
256,192,82011,1,0,0:0:0:0:
256,192,82130,1,8,0:0:0:0:
256,192,82170,1,8,0:0:0:0:
256,192,82249,1,0,0:0:0:0:
256,192,82329,1,8,0:0:0:0:
256,192,82368,1,8,0:0:0:0:
256,192,82487,1,0,0:0:0:0:
256,192,82607,1,8,0:0:0:0:
256,192,82646,1,8,0:0:0:0:
256,192,82726,1,0,0:0:0:0:
256,192,82805,1,8,0:0:0:0:
256,192,82845,1,8,0:0:0:0:
256,192,82964,1,0,0:0:0:0:
256,192,83083,1,8,0:0:0:0:
256,192,83122,1,8,0:0:0:0:
256,192,83202,1,0,0:0:0:0:
256,192,83281,1,8,0:0:0:0:
256,192,83321,1,8,0:0:0:0:
256,192,83440,1,0,0:0:0:0:
256,192,83559,1,8,0:0:0:0:
256,192,83678,1,0,0:0:0:0:
256,192,83797,1,0,0:0:0:0:
256,192,83916,1,8,0:0:0:0:
256,192,84154,1,0,0:0:0:0:
256,192,84273,1,0,0:0:0:0:
256,192,84392,1,8,0:0:0:0:
256,192,84452,1,0,0:0:0:0:
256,192,84511,1,8,0:0:0:0:
256,192,84630,1,0,0:0:0:0:
256,192,84749,1,0,0:0:0:0:
256,192,84868,1,8,0:0:0:0:
256,192,84987,1,0,0:0:0:0:
256,192,85107,1,8,0:0:0:0:
256,192,85166,1,8,0:0:0:0:
256,192,85226,1,8,0:0:0:0:
256,192,85285,1,8,0:0:0:0:
256,192,85345,1,0,0:0:0:0:
256,192,85464,1,0,0:0:0:0:
256,192,85583,1,8,0:0:0:0:
256,192,85702,1,0,0:0:0:0:
256,192,85821,1,8,0:0:0:0:
256,192,85880,1,8,0:0:0:0:
256,192,85940,1,8,0:0:0:0:
256,192,85999,1,8,0:0:0:0:
256,192,86059,1,0,0:0:0:0:
256,192,86237,1,0,0:0:0:0:
256,192,86297,1,8,0:0:0:0:
256,192,86416,1,0,0:0:0:0:
256,192,86476,1,8,0:0:0:0:
256,192,86595,1,8,0:0:0:0:
256,192,86654,1,0,0:0:0:0:
256,192,86773,1,8,0:0:0:0:
256,192,86892,1,0,0:0:0:0:
256,192,86952,1,0,0:0:0:0:
256,192,87011,1,8,0:0:0:0:
256,192,87130,1,0,0:0:0:0:
256,192,87249,1,8,0:0:0:0:
256,192,87368,1,0,0:0:0:0:
256,192,87428,1,0,0:0:0:0:
256,192,87487,1,0,0:0:0:0:
256,192,87607,1,0,0:0:0:0:
256,192,87726,1,8,0:0:0:0:
256,192,87884,1,0,0:0:0:0:
256,192,87964,1,0,0:0:0:0:
256,192,88043,1,8,0:0:0:0:
256,192,88202,1,0,0:0:0:0:
256,192,88281,1,8,0:0:0:0:
256,192,88360,1,0,0:0:0:0:
256,192,88440,1,0,0:0:0:0:
256,192,88519,1,8,0:0:0:0:
256,192,88678,1,0,0:0:0:0:
256,192,88797,1,8,0:0:0:0:
256,192,88857,1,0,0:0:0:0:
256,192,88916,1,0,0:0:0:0:
256,192,88976,1,8,0:0:0:0:
256,192,89035,1,0,0:0:0:0:
256,192,89095,1,0,0:0:0:0:
256,192,89154,1,8,0:0:0:0:
256,192,89273,1,0,0:0:0:0:
256,192,89333,1,0,0:0:0:0:
256,192,89392,1,8,0:0:0:0:
256,192,89511,1,0,0:0:0:0:
256,192,89630,1,0,0:0:0:0:
256,192,89749,1,8,0:0:0:0:
256,192,89809,1,8,0:0:0:0:
256,192,89868,1,0,0:0:0:0:
256,192,89928,1,0,0:0:0:0:
256,192,89987,1,8,0:0:0:0:
256,192,90226,1,0,0:0:0:0:
256,192,90285,1,0,0:0:0:0:
256,192,90345,1,8,0:0:0:0:
256,192,90464,1,0,0:0:0:0:
256,192,90583,1,0,0:0:0:0:
256,192,90702,1,0,0:0:0:0:
256,192,90761,1,0,0:0:0:0:
256,192,90821,1,8,0:0:0:0:
256,192,90940,1,0,0:0:0:0:
256,192,91059,1,8,0:0:0:0:
256,192,91178,1,0,0:0:0:0:
256,192,91237,1,0,0:0:0:0:
256,192,91297,1,8,0:0:0:0:
256,192,91357,1,8,0:0:0:0:
256,192,91416,1,8,0:0:0:0:
256,192,91535,1,4,0:0:0:0:
256,192,92011,1,8,0:0:0:0:
256,192,92249,1,8,0:0:0:0:
256,192,92487,1,0,0:0:0:0:
256,192,92567,1,0,0:0:0:0:
256,192,92646,1,0,0:0:0:0:
256,192,92726,1,0,0:0:0:0:
256,192,92805,1,0,0:0:0:0:
256,192,92884,1,0,0:0:0:0:
256,192,92964,1,8,0:0:0:0:
256,192,93043,1,8,0:0:0:0:
256,192,93122,1,8,0:0:0:0:
256,192,93202,1,8,0:0:0:0:
256,192,93281,1,8,0:0:0:0:
256,192,93360,1,8,0:0:0:0:
256,192,93440,12,0,100821,0:0:0:0:
256,192,101297,5,12,0:0:0:0:
256,192,101376,1,12,0:0:0:0:
256,192,101535,1,12,0:0:0:0:
256,192,101694,1,12,0:0:0:0:
256,192,101852,1,4,0:0:0:0:
256,192,102011,1,4,0:0:0:0:
256,192,102249,1,12,0:0:0:0:
256,192,102329,1,12,0:0:0:0:
256,192,102487,1,12,0:0:0:0:
256,192,102646,1,12,0:0:0:0:
256,192,102805,1,4,0:0:0:0:
256,192,103202,1,12,0:0:0:0:
256,192,103281,1,12,0:0:0:0:
256,192,103440,1,12,0:0:0:0:
256,192,103599,1,12,0:0:0:0:
256,192,103757,1,4,0:0:0:0:
256,192,103916,1,4,0:0:0:0:
256,192,104154,1,12,0:0:0:0:
256,192,104233,1,12,0:0:0:0:
256,192,104392,1,12,0:0:0:0:
256,192,104551,1,12,0:0:0:0:
256,192,104710,1,4,0:0:0:0:
256,192,105265,1,12,0:0:0:0:
256,192,105344,1,12,0:0:0:0:
256,192,106218,1,12,0:0:0:0:
256,192,106297,1,12,0:0:0:0:
256,192,106932,1,4,0:0:0:0:
256,192,107091,1,4,0:0:0:0:
256,192,107249,1,12,0:0:0:0:
256,192,107408,1,12,0:0:0:0:
256,192,107567,1,4,0:0:0:0:
256,192,107726,1,12,0:0:0:0:
256,192,107904,1,12,0:0:0:0:
256,192,108083,1,12,0:0:0:0:
256,192,108202,1,4,0:0:0:0:
256,192,108380,1,4,0:0:0:0:
256,192,108559,1,4,0:0:0:0:
256,192,108678,1,4,0:0:0:0:
256,192,108916,1,8,0:0:0:0:
256,192,109392,1,8,0:0:0:0:
256,192,109868,1,8,0:0:0:0:
256,192,110226,1,8,0:0:0:0:
256,192,110285,1,8,0:0:0:0:
256,192,110345,1,8,0:0:0:0:
256,192,110464,1,8,0:0:0:0:
256,192,110821,1,8,0:0:0:0:
256,192,111297,1,8,0:0:0:0:
256,192,111773,1,8,0:0:0:0:
256,192,112249,1,0,0:0:0:0:
256,192,112309,1,0,0:0:0:0:
256,192,112368,1,0,0:0:0:0:
256,192,112428,1,0,0:0:0:0:
256,192,112487,1,0,0:0:0:0:
256,192,112606,1,8,0:0:0:0:
256,192,112646,1,8,0:0:0:0:
256,192,112726,1,0,0:0:0:0:
256,192,112805,1,8,0:0:0:0:
256,192,112845,1,8,0:0:0:0:
256,192,112964,1,0,0:0:0:0:
256,192,113083,1,8,0:0:0:0:
256,192,113123,1,8,0:0:0:0:
256,192,113202,1,0,0:0:0:0:
256,192,113282,1,8,0:0:0:0:
256,192,113322,1,8,0:0:0:0:
256,192,113440,1,0,0:0:0:0:
256,192,113559,1,8,0:0:0:0:
256,192,113599,1,8,0:0:0:0:
256,192,113679,1,0,0:0:0:0:
256,192,113758,1,8,0:0:0:0:
256,192,113798,1,8,0:0:0:0:
256,192,113916,1,0,0:0:0:0:
256,192,114035,1,8,0:0:0:0:
256,192,114154,1,0,0:0:0:0:
256,192,114392,1,0,0:0:0:0:
256,192,114749,1,0,0:0:0:0:
256,192,114809,1,0,0:0:0:0:
256,192,114868,1,8,0:0:0:0:
256,192,115047,1,0,0:0:0:0:
256,192,115226,1,8,0:0:0:0:
256,192,115345,1,0,0:0:0:0:
256,192,115583,1,12,0:0:0:0:
256,192,115821,1,12,0:0:0:0:
256,192,116059,1,12,0:0:0:0:
256,192,116297,1,4,0:0:0:0:
256,192,116416,1,0,0:0:0:0:
256,192,116476,1,0,0:0:0:0:
256,192,116535,1,8,0:0:0:0:
256,192,116654,1,0,0:0:0:0:
256,192,116773,1,8,0:0:0:0:
256,192,116892,1,8,0:0:0:0:
256,192,117011,1,0,0:0:0:0:
256,192,117130,1,8,0:0:0:0:
256,192,117249,1,0,0:0:0:0:
256,192,117368,1,8,0:0:0:0:
256,192,117428,1,8,0:0:0:0:
256,192,117487,1,8,0:0:0:0:
256,192,117606,1,0,0:0:0:0:
256,192,117726,1,8,0:0:0:0:
256,192,117845,1,8,0:0:0:0:
256,192,117904,1,8,0:0:0:0:
256,192,117964,1,8,0:0:0:0:
256,192,118083,1,0,0:0:0:0:
256,192,118202,1,8,0:0:0:0:
256,192,118261,1,8,0:0:0:0:
256,192,118321,1,8,0:0:0:0:
256,192,118380,1,8,0:0:0:0:
256,192,118440,1,0,0:0:0:0:
256,192,118559,1,0,0:0:0:0:
256,192,118678,1,0,0:0:0:0:
256,192,118797,1,8,0:0:0:0:
256,192,118856,1,0,0:0:0:0:
256,192,118976,1,0,0:0:0:0:
256,192,119035,1,8,0:0:0:0:
256,192,119154,1,0,0:0:0:0:
256,192,119273,1,0,0:0:0:0:
256,192,119333,1,8,0:0:0:0:
256,192,119452,1,8,0:0:0:0:
256,192,119511,1,0,0:0:0:0:
256,192,119630,1,0,0:0:0:0:
256,192,119749,1,0,0:0:0:0:
256,192,119809,1,0,0:0:0:0:
256,192,119868,1,8,0:0:0:0:
256,192,119987,1,0,0:0:0:0:
256,192,120106,1,0,0:0:0:0:
256,192,120226,1,8,0:0:0:0:
256,192,120285,1,8,0:0:0:0:
256,192,120345,1,0,0:0:0:0:
256,192,120464,1,8,0:0:0:0:
256,192,120583,1,0,0:0:0:0:
256,192,120821,1,8,0:0:0:0:
256,192,120940,1,8,0:0:0:0:
256,192,121059,1,0,0:0:0:0:
256,192,121138,1,8,0:0:0:0:
256,192,121218,1,0,0:0:0:0:
256,192,121297,1,8,0:0:0:0:
256,192,121416,1,0,0:0:0:0:
256,192,121535,1,8,0:0:0:0:
256,192,121654,1,8,0:0:0:0:
256,192,121773,1,0,0:0:0:0:
256,192,121892,1,8,0:0:0:0:
256,192,122011,1,0,0:0:0:0:
256,192,122130,1,0,0:0:0:0:
256,192,122190,1,0,0:0:0:0:
256,192,122249,1,8,0:0:0:0:
256,192,122487,1,8,0:0:0:0:
256,192,122547,1,8,0:0:0:0:
256,192,122606,1,8,0:0:0:0:
256,192,122666,1,8,0:0:0:0:
256,192,122726,1,0,0:0:0:0:
256,192,122845,1,0,0:0:0:0:
256,192,122964,1,0,0:0:0:0:
256,192,123043,1,0,0:0:0:0:
256,192,123122,1,0,0:0:0:0:
256,192,123202,1,0,0:0:0:0:
256,192,123281,1,0,0:0:0:0:
256,192,123360,1,0,0:0:0:0:
256,192,123440,1,8,0:0:0:0:
256,192,123519,1,8,0:0:0:0:
256,192,123599,1,8,0:0:0:0:
256,192,123678,1,8,0:0:0:0:
256,192,123757,1,8,0:0:0:0:
256,192,123837,1,8,0:0:0:0:
256,192,123916,1,4,0:0:0:0:
256,192,124035,1,0,0:0:0:0:
256,192,124095,1,0,0:0:0:0:
256,192,124154,1,8,0:0:0:0:
256,192,124273,1,0,0:0:0:0:
256,192,124392,1,8,0:0:0:0:
256,192,124452,1,8,0:0:0:0:
256,192,124511,1,0,0:0:0:0:
256,192,124571,1,0,0:0:0:0:
256,192,124630,1,8,0:0:0:0:
256,192,124749,1,0,0:0:0:0:
256,192,124868,1,0,0:0:0:0:
256,192,124987,1,8,0:0:0:0:
256,192,125047,1,8,0:0:0:0:
256,192,125106,1,0,0:0:0:0:
256,192,125226,1,8,0:0:0:0:
256,192,125345,1,0,0:0:0:0:
256,192,125404,1,8,0:0:0:0:
256,192,125464,1,0,0:0:0:0:
256,192,125523,1,0,0:0:0:0:
256,192,125583,1,8,0:0:0:0:
256,192,125702,1,8,0:0:0:0:
256,192,125821,1,0,0:0:0:0:
256,192,125940,1,0,0:0:0:0:
256,192,125999,1,0,0:0:0:0:
256,192,126059,1,8,0:0:0:0:
256,192,126178,1,8,0:0:0:0:
256,192,126297,1,0,0:0:0:0:
256,192,126416,1,8,0:0:0:0:
256,192,126476,1,0,0:0:0:0:
256,192,126535,1,8,0:0:0:0:
256,192,126654,1,0,0:0:0:0:
256,192,126773,1,8,0:0:0:0:
256,192,126833,1,8,0:0:0:0:
256,192,126892,1,0,0:0:0:0:
256,192,126952,1,0,0:0:0:0:
256,192,127011,1,8,0:0:0:0:
256,192,127130,1,0,0:0:0:0:
256,192,127249,1,8,0:0:0:0:
256,192,127368,1,8,0:0:0:0:
256,192,127428,1,8,0:0:0:0:
256,192,127487,1,0,0:0:0:0:
256,192,127606,1,8,0:0:0:0:
256,192,127726,1,0,0:0:0:0:
256,192,128083,1,0,0:0:0:0:
256,192,128202,1,8,0:0:0:0:
256,192,128440,1,0,0:0:0:0:
256,192,128499,1,0,0:0:0:0:
256,192,128559,1,0,0:0:0:0:
256,192,128618,1,0,0:0:0:0:
256,192,128678,1,8,0:0:0:0:
256,192,128797,1,0,0:0:0:0:
256,192,128916,1,0,0:0:0:0:
256,192,128976,1,0,0:0:0:0:
256,192,129035,1,8,0:0:0:0:
256,192,129095,1,0,0:0:0:0:
256,192,129154,1,8,0:0:0:0:
256,192,129273,1,0,0:0:0:0:
256,192,129333,1,0,0:0:0:0:
256,192,129392,1,8,0:0:0:0:
256,192,129511,1,0,0:0:0:0:
256,192,129630,1,0,0:0:0:0:
256,192,129749,1,0,0:0:0:0:
256,192,129809,1,0,0:0:0:0:
256,192,129868,1,8,0:0:0:0:
256,192,129987,1,0,0:0:0:0:
256,192,130106,1,8,0:0:0:0:
256,192,130166,1,0,0:0:0:0:
256,192,130226,1,8,0:0:0:0:
256,192,130285,1,8,0:0:0:0:
256,192,130345,1,0,0:0:0:0:
256,192,130464,1,0,0:0:0:0:
256,192,130583,1,0,0:0:0:0:
256,192,130642,1,0,0:0:0:0:
256,192,130702,1,8,0:0:0:0:
256,192,130761,1,0,0:0:0:0:
256,192,130821,1,8,0:0:0:0:
256,192,130880,1,8,0:0:0:0:
256,192,130940,1,0,0:0:0:0:
256,192,130999,1,8,0:0:0:0:
256,192,131059,1,0,0:0:0:0:
256,192,131118,1,8,0:0:0:0:
256,192,131178,1,8,0:0:0:0:
256,192,131237,1,0,0:0:0:0:
256,192,131297,1,8,0:0:0:0:
256,192,131356,1,8,0:0:0:0:
256,192,131416,1,0,0:0:0:0:
256,192,131476,1,8,0:0:0:0:
256,192,131535,1,0,0:0:0:0:
256,192,131654,1,0,0:0:0:0:
256,192,131714,1,0,0:0:0:0:
256,192,131773,1,8,0:0:0:0:
256,192,131892,1,0,0:0:0:0:
256,192,132011,1,8,0:0:0:0:
256,192,132071,1,0,0:0:0:0:
256,192,132130,1,8,0:0:0:0:
256,192,132249,1,0,0:0:0:0:
256,192,132368,1,8,0:0:0:0:
256,192,132487,1,0,0:0:0:0:
256,192,132606,1,8,0:0:0:0:
256,192,132666,1,8,0:0:0:0:
256,192,132726,1,8,0:0:0:0:
256,192,132845,1,0,0:0:0:0:
256,192,132964,1,8,0:0:0:0:
256,192,133023,1,8,0:0:0:0:
256,192,133083,1,8,0:0:0:0:
256,192,133142,1,8,0:0:0:0:
256,192,133202,1,0,0:0:0:0:
256,192,133321,1,8,0:0:0:0:
256,192,133440,1,0,0:0:0:0:
256,192,133559,1,0,0:0:0:0:
256,192,133618,1,0,0:0:0:0:
256,192,133678,1,8,0:0:0:0:
256,192,133797,1,0,0:0:0:0:
256,192,133916,1,8,0:0:0:0:
256,192,133976,1,0,0:0:0:0:
256,192,134035,1,8,0:0:0:0:
256,192,134095,1,8,0:0:0:0:
256,192,134154,1,0,0:0:0:0:
256,192,134273,1,0,0:0:0:0:
256,192,134392,1,0,0:0:0:0:
256,192,134452,1,0,0:0:0:0:
256,192,134511,1,8,0:0:0:0:
256,192,134571,1,8,0:0:0:0:
256,192,134630,1,0,0:0:0:0:
256,192,134690,1,8,0:0:0:0:
256,192,134749,1,0,0:0:0:0:
256,192,134809,1,0,0:0:0:0:
256,192,134868,1,8,0:0:0:0:
256,192,134987,1,0,0:0:0:0:
256,192,135047,1,0,0:0:0:0:
256,192,135106,1,8,0:0:0:0:
256,192,135226,1,0,0:0:0:0:
256,192,135345,1,0,0:0:0:0:
256,192,135583,1,0,0:0:0:0:
256,192,135662,1,0,0:0:0:0:
256,192,135741,1,0,0:0:0:0:
256,192,135821,1,8,0:0:0:0:
256,192,136059,1,0,0:0:0:0:
256,192,136138,1,0,0:0:0:0:
256,192,136218,1,8,0:0:0:0:
256,192,136297,1,8,0:0:0:0:
256,192,136535,1,0,0:0:0:0:
256,192,136614,1,8,0:0:0:0:
256,192,136694,1,8,0:0:0:0:
256,192,136773,1,8,0:0:0:0:
256,192,136852,1,0,0:0:0:0:
256,192,136932,1,0,0:0:0:0:
256,192,137011,1,8,0:0:0:0:
256,192,137091,1,0,0:0:0:0:
256,192,137170,1,8,0:0:0:0:
256,192,137249,1,0,0:0:0:0:
256,192,137309,1,0,0:0:0:0:
256,192,137368,1,8,0:0:0:0:
256,192,137428,1,0,0:0:0:0:
256,192,137487,1,8,0:0:0:0:
256,192,137547,1,8,0:0:0:0:
256,192,137606,1,0,0:0:0:0:
256,192,137666,1,8,0:0:0:0:
256,192,137726,1,0,0:0:0:0:
256,192,137785,1,0,0:0:0:0:
256,192,137845,1,8,0:0:0:0:
256,192,137904,1,0,0:0:0:0:
256,192,137964,1,8,0:0:0:0:
256,192,138023,1,8,0:0:0:0:
256,192,138083,1,0,0:0:0:0:
256,192,138142,1,8,0:0:0:0:
256,192,138202,1,0,0:0:0:0:
256,192,138261,1,8,0:0:0:0:
256,192,138321,1,8,0:0:0:0:
256,192,138380,1,0,0:0:0:0:
256,192,138440,1,8,0:0:0:0:
256,192,138499,1,8,0:0:0:0:
256,192,138559,1,0,0:0:0:0:
256,192,138618,1,8,0:0:0:0:
256,192,138678,1,0,0:0:0:0:
256,192,138737,1,8,0:0:0:0:
256,192,138797,1,8,0:0:0:0:
256,192,138856,1,0,0:0:0:0:
256,192,138916,1,8,0:0:0:0:
256,192,138976,1,8,0:0:0:0:
256,192,139035,1,0,0:0:0:0:
256,192,139154,1,4,0:0:0:0:
