osu file format v14

[General]
AudioFilename: audio.mp3
AudioLeadIn: 0
PreviewTime: 77963
Countdown: 0
SampleSet: Normal
StackLeniency: 0.7
Mode: 1
LetterboxInBreaks: 0
WidescreenStoryboard: 0

[Editor]
Bookmarks: 1892,24749,47606,70463,93320,116177,148082
DistanceSpacing: 1.3
BeatDivisor: 4
GridSize: 32
TimelineZoom: 2.2

[Metadata]
Title:eth ken
TitleUnicode:eth剣
Artist:tarolabo
ArtistUnicode:tarolabo
Creator:_DUSK_
Version:kantan
Source:
Tags:electronic instrumental genjuro video game team pink BOKKEN FUSION 浪漫映像制作倶楽部 DODOME MAGENTA the bms of fighters the evolution of war
BeatmapID:2177019
BeatmapSetID:1041596

[Difficulty]
HPDrainRate:8
CircleSize:5
OverallDifficulty:3
ApproachRate:9
SliderMultiplier:1.4
SliderTickRate:1

[Events]
//Background and Video events
0,0,"BG.jpg",0,25
//Break Periods
//Storyboard Layer 0 (Background)
//Storyboard Layer 1 (Fail)
//Storyboard Layer 2 (Pass)
//Storyboard Layer 3 (Foreground)
//Storyboard Layer 4 (Overlay)
//Storyboard Sound Samples

[TimingPoints]
1892,476.190476190476,4,1,0,80,1,0
1892,-83.3333333333333,4,1,0,80,0,0
5701,-80,4,1,0,80,0,0
24749,-83.3333333333333,4,1,0,80,0,0
41891,-90.9090909090909,4,1,0,80,0,0
47606,-83.3333333333333,4,1,0,80,0,0
72368,-90.9090909090909,4,1,0,80,0,0
77844,-86.9565217391304,4,1,0,80,0,0
78082,-83.3333333333333,4,1,0,90,0,1
91415,-83.3333333333333,4,1,0,90,0,0
93380,-100,4,1,0,20,0,0
100880,-90.9090909090909,4,1,0,60,0,0
108558,-86.9565217391304,4,1,0,70,0,0
112368,-83.3333333333333,4,1,0,80,0,0
116177,-80,4,1,0,80,0,0
123796,-76.9230769230769,4,1,0,80,0,1
139034,-76.9230769230769,4,1,0,80,0,0

[HitObjects]
256,192,1892,5,12,0:0:0:0:
256,192,2368,1,8,0:0:0:0:
256,192,2844,1,0,0:0:0:0:
256,192,3320,1,0,0:0:0:0:
256,192,3796,1,0,0:0:0:0:
256,192,4749,1,0,0:0:0:0:
256,192,5225,1,0,0:0:0:0:
256,192,5701,1,12,0:0:0:0:
256,192,6653,1,8,0:0:0:0:
256,192,7606,1,0,0:0:0:0:
256,192,8082,1,0,0:0:0:0:
256,192,8558,1,8,0:0:0:0:
256,192,9511,1,0,0:0:0:0:
256,192,9987,1,8,0:0:0:0:
256,192,10463,1,0,0:0:0:0:
256,192,10939,1,0,0:0:0:0:
256,192,11415,1,8,0:0:0:0:
256,192,12368,1,0,0:0:0:0:
256,192,12844,1,8,0:0:0:0:
256,192,13320,1,0,0:0:0:0:
256,192,14272,1,8,0:0:0:0:
256,192,15701,1,0,0:0:0:0:
256,192,16177,1,8,0:0:0:0:
256,192,16653,1,8,0:0:0:0:
256,192,17130,1,0,0:0:0:0:
256,192,18082,1,8,0:0:0:0:
256,192,19034,1,0,0:0:0:0:
256,192,19511,1,8,0:0:0:0:
256,192,19987,1,0,0:0:0:0:
256,192,20463,1,0,0:0:0:0:
256,192,20939,1,12,0:0:0:0:
256,192,21891,1,8,0:0:0:0:
256,192,22368,1,8,0:0:0:0:
256,192,22844,1,0,0:0:0:0:
256,192,23320,1,0,0:0:0:0:
256,192,23796,1,0,0:0:0:0:
256,192,24749,1,12,0:0:0:0:
256,192,25225,1,8,0:0:0:0:
256,192,25701,1,0,0:0:0:0:
256,192,26177,1,8,0:0:0:0:
256,192,26653,1,0,0:0:0:0:
256,192,27606,1,8,0:0:0:0:
256,192,28558,1,0,0:0:0:0:
256,192,29034,1,0,0:0:0:0:
256,192,29511,1,8,0:0:0:0:
256,192,29987,1,8,0:0:0:0:
256,192,30463,1,0,0:0:0:0:
256,192,31415,1,0,0:0:0:0:
256,192,31891,1,0,0:0:0:0:
256,192,32368,1,8,0:0:0:0:
256,192,33320,1,8,0:0:0:0:
256,192,34272,1,0,0:0:0:0:
256,192,34749,1,8,0:0:0:0:
256,192,35225,1,0,0:0:0:0:
256,192,35701,1,8,0:0:0:0:
256,192,36177,1,0,0:0:0:0:
256,192,37130,1,8,0:0:0:0:
256,192,38082,1,0,0:0:0:0:
256,192,38558,1,8,0:0:0:0:
256,192,39034,1,0,0:0:0:0:
256,192,39511,1,0,0:0:0:0:
256,192,39987,1,12,0:0:0:0:
256,192,41891,1,8,0:0:0:0:
256,192,43796,12,0,45701,0:0:0:0:
256,192,46177,5,8,0:0:0:0:
256,192,47130,1,8,0:0:0:0:
256,192,47606,1,4,0:0:0:0:
256,192,48558,1,0,0:0:0:0:
256,192,49034,1,8,0:0:0:0:
256,192,49511,1,0,0:0:0:0:
256,192,49987,1,0,0:0:0:0:
256,192,50463,1,8,0:0:0:0:
256,192,51415,1,0,0:0:0:0:
256,192,51891,1,0,0:0:0:0:
256,192,52368,1,8,0:0:0:0:
256,192,52844,1,8,0:0:0:0:
256,192,53320,1,0,0:0:0:0:
256,192,54749,1,0,0:0:0:0:
256,192,55225,1,8,0:0:0:0:
256,192,55701,1,0,0:0:0:0:
256,192,56177,1,8,0:0:0:0:
256,192,57130,1,8,0:0:0:0:
256,192,57606,1,0,0:0:0:0:
256,192,58082,1,8,0:0:0:0:
256,192,58558,1,8,0:0:0:0:
256,192,59034,1,0,0:0:0:0:
256,192,59987,1,8,0:0:0:0:
256,192,60939,1,8,0:0:0:0:
256,192,61415,1,0,0:0:0:0:
256,192,61891,1,8,0:0:0:0:
256,192,62368,1,8,0:0:0:0:
256,192,62844,1,12,0:0:0:0:
256,192,64272,1,8,0:0:0:0:
256,192,64749,1,0,0:0:0:0:
256,192,65701,1,8,0:0:0:0:
256,192,66177,1,0,0:0:0:0:
256,192,66653,1,0,0:0:0:0:
256,192,67130,1,8,0:0:0:0:
256,192,68082,1,8,0:0:0:0:
256,192,68558,1,0,0:0:0:0:
256,192,69034,1,8,0:0:0:0:
256,192,69511,1,8,0:0:0:0:
256,192,69987,1,8,0:0:0:0:
256,192,70463,1,12,0:0:0:0:
256,192,72368,1,0,0:0:0:0:
256,192,74272,1,0,0:0:0:0:
256,192,76177,1,0,0:0:0:0:
256,192,77130,1,0,0:0:0:0:
256,192,77606,1,0,0:0:0:0:
256,192,78082,1,12,0:0:0:0:
256,192,79034,1,8,0:0:0:0:
256,192,79511,1,0,0:0:0:0:
256,192,79987,1,0,0:0:0:0:
256,192,80463,1,8,0:0:0:0:
256,192,80939,1,0,0:0:0:0:
256,192,81415,1,8,0:0:0:0:
256,192,81891,1,8,0:0:0:0:
256,192,82844,1,0,0:0:0:0:
256,192,83796,1,8,0:0:0:0:
256,192,84272,1,8,0:0:0:0:
256,192,84749,1,0,0:0:0:0:
256,192,85225,1,8,0:0:0:0:
256,192,85701,1,0,0:0:0:0:
256,192,87130,1,0,0:0:0:0:
256,192,87606,1,8,0:0:0:0:
256,192,88082,1,8,0:0:0:0:
256,192,88558,1,0,0:0:0:0:
256,192,89034,1,0,0:0:0:0:
256,192,89511,1,8,0:0:0:0:
256,192,90463,1,0,0:0:0:0:
256,192,90939,1,0,0:0:0:0:
256,192,91415,1,12,0:0:0:0:
256,192,92368,1,8,0:0:0:0:
256,192,92844,1,0,0:0:0:0:
256,192,93320,1,8,0:0:0:0:
256,192,95225,1,0,0:0:0:0:
256,192,97130,1,0,0:0:0:0:
256,192,98082,1,0,0:0:0:0:
256,192,99034,1,0,0:0:0:0:
256,192,100939,1,0,0:0:0:0:
256,192,101415,1,8,0:0:0:0:
256,192,102368,1,0,0:0:0:0:
256,192,103320,1,8,0:0:0:0:
256,192,104272,1,0,0:0:0:0:
256,192,104749,1,0,0:0:0:0:
256,192,105225,1,8,0:0:0:0:
256,192,106177,1,8,0:0:0:0:
256,192,107130,1,8,0:0:0:0:
256,192,107606,1,8,0:0:0:0:
256,192,108082,1,0,0:0:0:0:
256,192,108558,1,12,0:0:0:0:
256,192,109511,1,8,0:0:0:0:
256,192,109987,1,0,0:0:0:0:
256,192,110463,1,8,0:0:0:0:
256,192,110939,1,8,0:0:0:0:
256,192,111415,1,0,0:0:0:0:
256,192,112368,1,12,0:0:0:0:
256,192,112844,1,0,0:0:0:0:
256,192,113320,1,0,0:0:0:0:
256,192,114272,1,8,0:0:0:0:
256,192,114749,1,8,0:0:0:0:
256,192,115225,1,0,0:0:0:0:
256,192,115701,1,0,0:0:0:0:
256,192,116177,1,12,0:0:0:0:
256,192,117130,1,0,0:0:0:0:
256,192,117606,1,0,0:0:0:0:
256,192,118082,1,8,0:0:0:0:
256,192,118558,1,0,0:0:0:0:
256,192,119034,1,8,0:0:0:0:
256,192,119511,1,8,0:0:0:0:
256,192,119987,1,0,0:0:0:0:
256,192,121415,1,0,0:0:0:0:
256,192,121891,1,8,0:0:0:0:
256,192,122368,1,8,0:0:0:0:
256,192,122844,1,0,0:0:0:0:
256,192,123796,1,12,0:0:0:0:
256,192,124272,1,8,0:0:0:0:
256,192,124749,1,0,0:0:0:0:
256,192,125701,1,0,0:0:0:0:
256,192,126177,1,8,0:0:0:0:
256,192,126653,1,0,0:0:0:0:
256,192,127130,1,0,0:0:0:0:
256,192,127606,1,8,0:0:0:0:
256,192,128558,1,0,0:0:0:0:
256,192,129034,1,0,0:0:0:0:
256,192,129511,1,8,0:0:0:0:
256,192,129987,1,8,0:0:0:0:
256,192,130463,1,0,0:0:0:0:
256,192,130939,1,8,0:0:0:0:
256,192,131415,1,0,0:0:0:0:
256,192,132368,1,0,0:0:0:0:
256,192,133320,1,8,0:0:0:0:
256,192,133796,1,8,0:0:0:0:
256,192,134272,1,0,0:0:0:0:
256,192,134749,1,0,0:0:0:0:
256,192,135225,1,8,0:0:0:0:
256,192,136177,1,0,0:0:0:0:
256,192,136653,1,0,0:0:0:0:
256,192,137130,1,12,0:0:0:0:
256,192,138082,1,8,0:0:0:0:
256,192,138558,1,8,0:0:0:0:
256,192,139034,1,0,0:0:0:0:
