osu file format v14

[General]
AudioFilename: audio.mp3
AudioLeadIn: 0
PreviewTime: 77963
Countdown: 0
SampleSet: Normal
StackLeniency: 0.2
Mode: 1
LetterboxInBreaks: 0
WidescreenStoryboard: 0

[Editor]
DistanceSpacing: 1.3
BeatDivisor: 4
GridSize: 32
TimelineZoom: 3.499998

[Metadata]
Title:eth ken
TitleUnicode:eth剣
Artist:tarolabo
ArtistUnicode:tarolabo
Creator:_DUSK_
Version:genjuro's inner oni
Source:
Tags:electronic instrumental genjuro video game team pink BOKKEN FUSION 浪漫映像制作倶楽部 DODOME MAGENTA the bms of fighters the evolution of war
BeatmapID:2295465
BeatmapSetID:1041596

[Difficulty]
HPDrainRate:5
CircleSize:2
OverallDifficulty:6
ApproachRate:10
SliderMultiplier:1.4
SliderTickRate:3

[Events]
//Background and Video events
0,0,"BG.jpg",0,25
//Break Periods
//Storyboard Layer 0 (Background)
//Storyboard Layer 1 (Fail)
//Storyboard Layer 2 (Pass)
//Storyboard Layer 3 (Foreground)
//Storyboard Layer 4 (Overlay)
//Storyboard Sound Samples

[TimingPoints]
1892,476.190476190476,4,1,0,100,1,0
1892,-66.6666666666667,4,1,0,100,0,0
40106,-66.6666666666667,4,1,0,75,0,0
47487,-66.6666666666667,4,1,0,100,0,0
70582,-66.6666666666667,4,1,0,75,0,0
77487,-66.6666666666667,4,1,0,100,0,0
78082,-66.6666666666667,4,1,0,100,0,1
91415,-66.6666666666667,4,1,0,100,0,0
93439,-66.6666666666667,4,1,0,75,0,0
100820,-66.6666666666667,4,1,0,100,0,0
123796,-66.6666666666667,4,1,0,100,0,1
139034,-66.6666666666667,4,1,0,100,0,0
139153,-66.6666666666667,4,1,0,50,0,0
140820,-66.6666666666667,4,1,0,45,0,0
142725,-66.6666666666667,4,1,0,40,0,0
144630,-66.6666666666667,4,1,0,35,0,0
146534,-66.6666666666667,4,1,0,30,0,0

[HitObjects]
256,192,1892,5,4,0:0:0:0:
256,192,2368,1,0,0:0:0:0:
256,192,2526,1,8,0:0:0:0:
256,192,2685,1,8,0:0:0:0:
256,192,2844,1,0,0:0:0:0:
256,192,3320,1,0,0:0:0:0:
256,192,3399,1,8,0:0:0:0:
256,192,3558,1,8,0:0:0:0:
256,192,3638,1,8,0:0:0:0:
256,192,3717,1,8,0:0:0:0:
256,192,3796,1,0,0:0:0:0:
256,192,3915,1,8,0:0:0:0:
256,192,4034,1,8,0:0:0:0:
256,192,4094,1,8,0:0:0:0:
256,192,4272,1,0,0:0:0:0:
256,192,4391,1,8,0:0:0:0:
256,192,4511,1,8,0:0:0:0:
256,192,4630,1,8,0:0:0:0:
256,192,4689,1,8,0:0:0:0:
256,192,4749,1,8,0:0:0:0:
256,192,4987,1,0,0:0:0:0:
256,192,5225,1,0,0:0:0:0:
256,192,5463,1,8,0:0:0:0:
256,192,5701,1,4,0:0:0:0:
256,192,6058,1,8,0:0:0:0:
256,192,6177,1,0,0:0:0:0:
256,192,6415,1,8,0:0:0:0:
256,192,6534,1,8,0:0:0:0:
256,192,6653,1,0,0:0:0:0:
256,192,6772,1,8,0:0:0:0:
256,192,7011,1,8,0:0:0:0:
256,192,7070,1,8,0:0:0:0:
256,192,7130,1,0,0:0:0:0:
256,192,7368,1,0,0:0:0:0:
256,192,7487,1,8,0:0:0:0:
256,192,7606,1,0,0:0:0:0:
256,192,7903,1,0,0:0:0:0:
256,192,7963,1,8,0:0:0:0:
256,192,8022,1,8,0:0:0:0:
256,192,8082,1,0,0:0:0:0:
256,192,8320,1,8,0:0:0:0:
256,192,8558,1,0,0:0:0:0:
256,192,8677,1,8,0:0:0:0:
256,192,8915,1,8,0:0:0:0:
256,192,9034,1,0,0:0:0:0:
256,192,9272,1,8,0:0:0:0:
256,192,9511,1,0,0:0:0:0:
256,192,9630,1,8,0:0:0:0:
256,192,9689,1,8,0:0:0:0:
256,192,9749,1,8,0:0:0:0:
256,192,9868,1,8,0:0:0:0:
256,192,9987,1,8,0:0:0:0:
256,192,10106,1,8,0:0:0:0:
256,192,10225,1,8,0:0:0:0:
256,192,10284,1,8,0:0:0:0:
256,192,10344,1,8,0:0:0:0:
256,192,10463,1,8,0:0:0:0:
256,192,10582,1,8,0:0:0:0:
256,192,10641,1,8,0:0:0:0:
256,192,10701,1,8,0:0:0:0:
256,192,10820,1,8,0:0:0:0:
256,192,10939,1,8,0:0:0:0:
256,192,11058,1,8,0:0:0:0:
256,192,11177,1,0,0:0:0:0:
256,192,11415,1,8,0:0:0:0:
256,192,11653,1,8,0:0:0:0:
256,192,11891,1,0,0:0:0:0:
256,192,12011,1,8,0:0:0:0:
256,192,12249,1,8,0:0:0:0:
256,192,12368,1,0,0:0:0:0:
256,192,12606,1,8,0:0:0:0:
256,192,12665,1,0,0:0:0:0:
256,192,12725,1,8,0:0:0:0:
256,192,12784,1,0,0:0:0:0:
256,192,12844,1,8,0:0:0:0:
256,192,13082,1,8,0:0:0:0:
256,192,13320,1,0,0:0:0:0:
256,192,13677,1,8,0:0:0:0:
256,192,13796,1,0,0:0:0:0:
256,192,14034,1,8,0:0:0:0:
256,192,14272,1,0,0:0:0:0:
256,192,14391,1,8,0:0:0:0:
256,192,14630,1,8,0:0:0:0:
256,192,14749,1,0,0:0:0:0:
256,192,14987,1,0,0:0:0:0:
256,192,15106,1,8,0:0:0:0:
256,192,15225,1,0,0:0:0:0:
256,192,15403,1,8,0:0:0:0:
256,192,15582,1,8,0:0:0:0:
256,192,15701,1,0,0:0:0:0:
256,192,15880,1,0,0:0:0:0:
256,192,16058,1,8,0:0:0:0:
256,192,16177,1,0,0:0:0:0:
256,192,16296,1,8,0:0:0:0:
256,192,16534,1,0,0:0:0:0:
256,192,16653,1,0,0:0:0:0:
256,192,16891,1,8,0:0:0:0:
256,192,17130,1,0,0:0:0:0:
256,192,17249,1,8,0:0:0:0:
256,192,17368,1,0,0:0:0:0:
256,192,17487,1,8,0:0:0:0:
256,192,17606,1,0,0:0:0:0:
256,192,17844,1,8,0:0:0:0:
256,192,18082,1,0,0:0:0:0:
256,192,18201,1,8,0:0:0:0:
256,192,18439,1,8,0:0:0:0:
256,192,18558,1,0,0:0:0:0:
256,192,18677,1,0,0:0:0:0:
256,192,18796,1,8,0:0:0:0:
256,192,18856,1,8,0:0:0:0:
256,192,18915,1,8,0:0:0:0:
256,192,18975,1,8,0:0:0:0:
256,192,19034,1,0,0:0:0:0:
256,192,19391,1,8,0:0:0:0:
256,192,19511,1,0,0:0:0:0:
256,192,19630,1,8,0:0:0:0:
256,192,19689,1,8,0:0:0:0:
256,192,19749,1,0,0:0:0:0:
256,192,19868,1,0,0:0:0:0:
256,192,19987,1,8,0:0:0:0:
256,192,20165,1,8,0:0:0:0:
256,192,20344,1,8,0:0:0:0:
256,192,20463,1,0,0:0:0:0:
256,192,20701,1,8,0:0:0:0:
256,192,20939,1,4,0:0:0:0:
256,192,21415,1,0,0:0:0:0:
256,192,21574,1,8,0:0:0:0:
256,192,21733,1,8,0:0:0:0:
256,192,21891,1,0,0:0:0:0:
256,192,22011,1,8,0:0:0:0:
256,192,22070,1,8,0:0:0:0:
256,192,22368,1,0,0:0:0:0:
256,192,22447,1,8,0:0:0:0:
256,192,22526,1,0,0:0:0:0:
256,192,22606,1,8,0:0:0:0:
256,192,22685,1,8,0:0:0:0:
256,192,22765,1,8,0:0:0:0:
256,192,22844,1,0,0:0:0:0:
256,192,23320,1,8,0:0:0:0:
256,192,23558,1,8,0:0:0:0:
256,192,23796,1,0,0:0:0:0:
256,192,24272,1,8,0:0:0:0:
256,192,24749,1,4,0:0:0:0:
256,192,26415,1,8,0:0:0:0:
256,192,26475,1,8,0:0:0:0:
256,192,26534,1,8,0:0:0:0:
256,192,26594,1,8,0:0:0:0:
256,192,26653,1,0,0:0:0:0:
256,192,27130,1,0,0:0:0:0:
256,192,27368,1,8,0:0:0:0:
256,192,27427,1,8,0:0:0:0:
256,192,27487,1,8,0:0:0:0:
256,192,27546,1,8,0:0:0:0:
256,192,27606,1,0,0:0:0:0:
256,192,27725,1,8,0:0:0:0:
256,192,27844,1,8,0:0:0:0:
256,192,28082,1,0,0:0:0:0:
256,192,28320,1,8,0:0:0:0:
256,192,28439,1,8,0:0:0:0:
256,192,28499,1,8,0:0:0:0:
256,192,28558,1,0,0:0:0:0:
256,192,28677,1,0,0:0:0:0:
256,192,28796,1,8,0:0:0:0:
256,192,28915,1,8,0:0:0:0:
256,192,29034,1,0,0:0:0:0:
256,192,29272,1,8,0:0:0:0:
256,192,29511,1,0,0:0:0:0:
256,192,29689,1,8,0:0:0:0:
256,192,29868,1,8,0:0:0:0:
256,192,29987,1,0,0:0:0:0:
256,192,30225,1,8,0:0:0:0:
256,192,30284,1,8,0:0:0:0:
256,192,30344,1,8,0:0:0:0:
256,192,30403,1,8,0:0:0:0:
256,192,30463,1,0,0:0:0:0:
256,192,30701,1,8,0:0:0:0:
256,192,30761,1,8,0:0:0:0:
256,192,30820,1,8,0:0:0:0:
256,192,30880,1,0,0:0:0:0:
256,192,30939,1,0,0:0:0:0:
256,192,31177,1,8,0:0:0:0:
256,192,31237,1,8,0:0:0:0:
256,192,31296,1,0,0:0:0:0:
256,192,31356,1,0,0:0:0:0:
256,192,31415,1,0,0:0:0:0:
256,192,31534,1,8,0:0:0:0:
256,192,31653,1,0,0:0:0:0:
256,192,31772,1,0,0:0:0:0:
256,192,31891,1,8,0:0:0:0:
256,192,32011,1,0,0:0:0:0:
256,192,32070,1,8,0:0:0:0:
256,192,32130,1,8,0:0:0:0:
256,192,32189,1,8,0:0:0:0:
256,192,32249,1,8,0:0:0:0:
256,192,32308,1,8,0:0:0:0:
256,192,32368,1,0,0:0:0:0:
256,192,32725,1,8,0:0:0:0:
256,192,32784,1,8,0:0:0:0:
256,192,32844,1,0,0:0:0:0:
256,192,33201,1,0,0:0:0:0:
256,192,33320,1,8,0:0:0:0:
256,192,33677,1,8,0:0:0:0:
256,192,33796,1,0,0:0:0:0:
256,192,34034,1,0,0:0:0:0:
256,192,34153,1,8,0:0:0:0:
256,192,34213,1,8,0:0:0:0:
256,192,34272,1,0,0:0:0:0:
256,192,34391,1,8,0:0:0:0:
256,192,34511,1,8,0:0:0:0:
256,192,34689,1,0,0:0:0:0:
256,192,34749,1,8,0:0:0:0:
256,192,34868,1,0,0:0:0:0:
256,192,34987,1,8,0:0:0:0:
256,192,35046,1,8,0:0:0:0:
256,192,35106,1,8,0:0:0:0:
256,192,35165,1,8,0:0:0:0:
256,192,35225,1,0,0:0:0:0:
256,192,35344,1,8,0:0:0:0:
256,192,35463,1,8,0:0:0:0:
256,192,35701,1,0,0:0:0:0:
256,192,35939,1,8,0:0:0:0:
256,192,36058,1,8,0:0:0:0:
256,192,36118,1,8,0:0:0:0:
256,192,36177,1,0,0:0:0:0:
256,192,36534,1,8,0:0:0:0:
256,192,36653,1,0,0:0:0:0:
256,192,37011,1,0,0:0:0:0:
256,192,37130,1,8,0:0:0:0:
256,192,37249,1,0,0:0:0:0:
256,192,37308,1,0,0:0:0:0:
256,192,37368,1,0,0:0:0:0:
256,192,37487,1,8,0:0:0:0:
256,192,37606,1,0,0:0:0:0:
256,192,37844,1,8,0:0:0:0:
256,192,37903,1,8,0:0:0:0:
256,192,37963,1,8,0:0:0:0:
256,192,38022,1,8,0:0:0:0:
256,192,38082,1,0,0:0:0:0:
256,192,38241,1,8,0:0:0:0:
256,192,38399,1,8,0:0:0:0:
256,192,38558,1,0,0:0:0:0:
256,192,38677,1,0,0:0:0:0:
256,192,38796,1,8,0:0:0:0:
256,192,38856,1,8,0:0:0:0:
256,192,38915,1,8,0:0:0:0:
256,192,38975,1,8,0:0:0:0:
256,192,39034,1,0,0:0:0:0:
256,192,39193,1,8,0:0:0:0:
256,192,39352,1,0,0:0:0:0:
256,192,39511,1,8,0:0:0:0:
256,192,39630,1,0,0:0:0:0:
256,192,39689,1,8,0:0:0:0:
256,192,39749,1,8,0:0:0:0:
256,192,39808,1,8,0:0:0:0:
256,192,39868,1,8,0:0:0:0:
256,192,39927,1,8,0:0:0:0:
256,192,39987,1,0,0:0:0:0:
256,192,41891,1,0,0:0:0:0:
256,192,42844,1,8,0:0:0:0:
256,192,43320,1,8,0:0:0:0:
256,192,43796,2,0,L|312:192,24,35.0000013351441
256,192,46177,1,2,0:0:0:0:
256,192,46653,1,2,0:0:0:0:
256,192,47130,1,2,0:0:0:0:
256,192,47606,1,6,0:0:0:0:
256,192,47844,1,8,0:0:0:0:
256,192,48082,1,0,0:0:0:0:
256,192,48201,1,8,0:0:0:0:
256,192,48320,1,8,0:0:0:0:
256,192,48439,1,0,0:0:0:0:
256,192,48558,1,8,0:0:0:0:
256,192,48677,1,0,0:0:0:0:
256,192,48915,1,8,0:0:0:0:
256,192,49034,1,0,0:0:0:0:
256,192,49272,1,8,0:0:0:0:
256,192,49391,1,0,0:0:0:0:
256,192,49511,1,0,0:0:0:0:
256,192,49749,1,8,0:0:0:0:
256,192,49868,1,0,0:0:0:0:
256,192,49987,1,0,0:0:0:0:
256,192,50106,1,8,0:0:0:0:
256,192,50344,1,0,0:0:0:0:
256,192,50463,1,8,0:0:0:0:
256,192,50582,1,0,0:0:0:0:
256,192,50641,1,8,0:0:0:0:
256,192,50701,1,8,0:0:0:0:
256,192,50820,1,8,0:0:0:0:
256,192,50939,1,0,0:0:0:0:
256,192,51177,1,8,0:0:0:0:
256,192,51237,1,8,0:0:0:0:
256,192,51415,1,0,0:0:0:0:
256,192,51534,1,8,0:0:0:0:
256,192,51653,1,8,0:0:0:0:
256,192,51772,1,8,0:0:0:0:
256,192,51891,1,0,0:0:0:0:
256,192,52130,1,8,0:0:0:0:
256,192,52368,1,0,0:0:0:0:
256,192,52546,1,8,0:0:0:0:
256,192,52725,1,8,0:0:0:0:
256,192,52844,1,0,0:0:0:0:
256,192,53082,1,8,0:0:0:0:
256,192,53141,1,8,0:0:0:0:
256,192,53201,1,8,0:0:0:0:
256,192,53261,1,8,0:0:0:0:
256,192,53320,1,0,0:0:0:0:
256,192,53558,1,8,0:0:0:0:
256,192,53618,1,8,0:0:0:0:
256,192,53677,1,8,0:0:0:0:
256,192,53737,1,0,0:0:0:0:
256,192,53796,1,0,0:0:0:0:
256,192,54034,1,8,0:0:0:0:
256,192,54094,1,8,0:0:0:0:
256,192,54153,1,0,0:0:0:0:
256,192,54213,1,0,0:0:0:0:
256,192,54272,1,8,0:0:0:0:
256,192,54391,1,0,0:0:0:0:
256,192,54451,1,8,0:0:0:0:
256,192,54511,1,0,0:0:0:0:
256,192,54630,1,8,0:0:0:0:
256,192,54749,1,0,0:0:0:0:
256,192,54868,1,0,0:0:0:0:
256,192,54987,1,8,0:0:0:0:
256,192,55066,1,8,0:0:0:0:
256,192,55145,1,8,0:0:0:0:
256,192,55225,1,0,0:0:0:0:
256,192,55463,1,8,0:0:0:0:
256,192,55582,1,0,0:0:0:0:
256,192,55820,1,8,0:0:0:0:
256,192,56058,1,0,0:0:0:0:
256,192,56177,1,8,0:0:0:0:
256,192,56415,1,0,0:0:0:0:
256,192,56534,1,8,0:0:0:0:
256,192,56653,1,0,0:0:0:0:
256,192,56772,1,0,0:0:0:0:
256,192,56891,1,8,0:0:0:0:
256,192,57130,1,0,0:0:0:0:
256,192,57368,1,8,0:0:0:0:
256,192,57487,1,8,0:0:0:0:
256,192,57606,1,0,0:0:0:0:
256,192,57725,1,8,0:0:0:0:
256,192,57844,1,0,0:0:0:0:
256,192,57963,1,0,0:0:0:0:
256,192,58082,1,8,0:0:0:0:
256,192,58201,1,0,0:0:0:0:
256,192,58261,1,8,0:0:0:0:
256,192,58320,1,8,0:0:0:0:
256,192,58439,1,8,0:0:0:0:
256,192,58558,1,0,0:0:0:0:
256,192,58796,1,8,0:0:0:0:
256,192,58856,1,8,0:0:0:0:
256,192,59034,1,0,0:0:0:0:
256,192,59272,1,8,0:0:0:0:
256,192,59391,1,0,0:0:0:0:
256,192,59511,1,0,0:0:0:0:
256,192,59630,1,8,0:0:0:0:
256,192,59868,1,0,0:0:0:0:
256,192,59987,1,8,0:0:0:0:
256,192,60106,1,0,0:0:0:0:
256,192,60344,1,8,0:0:0:0:
256,192,60463,1,0,0:0:0:0:
256,192,60701,1,8,0:0:0:0:
256,192,60939,1,0,0:0:0:0:
256,192,61098,1,8,0:0:0:0:
256,192,61257,1,8,0:0:0:0:
256,192,61415,1,0,0:0:0:0:
256,192,61534,1,8,0:0:0:0:
256,192,61772,1,8,0:0:0:0:
256,192,61891,1,0,0:0:0:0:
256,192,62050,1,8,0:0:0:0:
256,192,62209,1,8,0:0:0:0:
256,192,62368,1,0,0:0:0:0:
256,192,62606,1,8,0:0:0:0:
256,192,62844,1,4,0:0:0:0:
256,192,63082,1,8,0:0:0:0:
256,192,63201,1,8,0:0:0:0:
256,192,63320,1,0,0:0:0:0:
256,192,63439,1,8,0:0:0:0:
256,192,63677,1,0,0:0:0:0:
256,192,63796,1,8,0:0:0:0:
256,192,64034,1,0,0:0:0:0:
256,192,64153,1,0,0:0:0:0:
256,192,64272,1,8,0:0:0:0:
256,192,64391,1,0,0:0:0:0:
256,192,64511,1,8,0:0:0:0:
256,192,64630,1,8,0:0:0:0:
256,192,64749,1,0,0:0:0:0:
256,192,64987,1,8,0:0:0:0:
256,192,65106,1,0,0:0:0:0:
256,192,65165,1,0,0:0:0:0:
256,192,65225,1,0,0:0:0:0:
256,192,65344,1,8,0:0:0:0:
256,192,65582,1,0,0:0:0:0:
256,192,65701,1,8,0:0:0:0:
256,192,65820,1,0,0:0:0:0:
256,192,65939,1,8,0:0:0:0:
256,192,66058,1,8,0:0:0:0:
256,192,66177,1,0,0:0:0:0:
256,192,66415,1,8,0:0:0:0:
256,192,66475,1,8,0:0:0:0:
256,192,66653,1,0,0:0:0:0:
256,192,66733,1,8,0:0:0:0:
256,192,66812,1,0,0:0:0:0:
256,192,66891,1,8,0:0:0:0:
256,192,66971,1,0,0:0:0:0:
256,192,67050,1,8,0:0:0:0:
256,192,67130,1,0,0:0:0:0:
256,192,67209,1,8,0:0:0:0:
256,192,67288,1,0,0:0:0:0:
256,192,67368,1,8,0:0:0:0:
256,192,67447,1,0,0:0:0:0:
256,192,67526,1,8,0:0:0:0:
256,192,67606,1,0,0:0:0:0:
256,192,67685,1,8,0:0:0:0:
256,192,67765,1,0,0:0:0:0:
256,192,67844,1,8,0:0:0:0:
256,192,67923,1,0,0:0:0:0:
256,192,68003,1,8,0:0:0:0:
256,192,68082,1,0,0:0:0:0:
256,192,68161,1,8,0:0:0:0:
256,192,68241,1,0,0:0:0:0:
256,192,68320,1,8,0:0:0:0:
256,192,68399,1,0,0:0:0:0:
256,192,68479,1,8,0:0:0:0:
256,192,68558,1,0,0:0:0:0:
256,192,68796,1,0,0:0:0:0:
256,192,68915,1,0,0:0:0:0:
256,192,69034,1,2,0:0:0:0:
256,192,69153,1,0,0:0:0:0:
256,192,69391,1,0,0:0:0:0:
256,192,69511,1,2,0:0:0:0:
256,192,69630,1,0,0:0:0:0:
256,192,69689,1,8,0:0:0:0:
256,192,69749,1,8,0:0:0:0:
256,192,69868,1,0,0:0:0:0:
256,192,69987,1,2,0:0:0:0:
256,192,70145,1,0,0:0:0:0:
256,192,70225,1,0,0:0:0:0:
256,192,70304,1,8,0:0:0:0:
256,192,70463,1,4,0:0:0:0:
256,192,72368,1,0,0:0:0:0:
256,192,73320,1,8,0:0:0:0:
256,192,73796,1,8,0:0:0:0:
256,192,74272,2,0,L|312:192,6,35.0000013351441
256,192,75225,2,0,L|312:192,6,35.0000013351441
256,192,76177,1,0,0:0:0:0:
256,192,77130,1,0,0:0:0:0:
256,192,77606,1,8,0:0:0:0:
256,192,77725,1,8,0:0:0:0:
256,192,77844,1,0,0:0:0:0:
256,192,78082,1,4,0:0:0:0:
256,192,78439,1,8,0:0:0:0:
256,192,78558,1,0,0:0:0:0:
256,192,78796,1,8,0:0:0:0:
256,192,78915,1,8,0:0:0:0:
256,192,79034,1,0,0:0:0:0:
256,192,79153,1,8,0:0:0:0:
256,192,79391,1,8,0:0:0:0:
256,192,79451,1,8,0:0:0:0:
256,192,79511,1,0,0:0:0:0:
256,192,79749,1,0,0:0:0:0:
256,192,79868,1,8,0:0:0:0:
256,192,79987,1,0,0:0:0:0:
256,192,80284,1,0,0:0:0:0:
256,192,80344,1,8,0:0:0:0:
256,192,80403,1,8,0:0:0:0:
256,192,80463,1,0,0:0:0:0:
256,192,80582,1,0,0:0:0:0:
256,192,80701,1,8,0:0:0:0:
256,192,80939,1,0,0:0:0:0:
256,192,81058,1,8,0:0:0:0:
256,192,81296,1,8,0:0:0:0:
256,192,81415,1,0,0:0:0:0:
256,192,81534,1,0,0:0:0:0:
256,192,81653,1,8,0:0:0:0:
256,192,81891,1,0,0:0:0:0:
256,192,82011,1,8,0:0:0:0:
256,192,82070,1,8,0:0:0:0:
256,192,82130,1,8,0:0:0:0:
256,192,82189,1,8,0:0:0:0:
256,192,82249,1,8,0:0:0:0:
256,192,82368,1,8,0:0:0:0:
256,192,82487,1,8,0:0:0:0:
256,192,82606,1,8,0:0:0:0:
256,192,82665,1,8,0:0:0:0:
256,192,82725,1,8,0:0:0:0:
256,192,82844,1,8,0:0:0:0:
256,192,82963,1,8,0:0:0:0:
256,192,83022,1,8,0:0:0:0:
256,192,83082,1,8,0:0:0:0:
256,192,83141,1,8,0:0:0:0:
256,192,83201,1,8,0:0:0:0:
256,192,83320,1,8,0:0:0:0:
256,192,83439,1,8,0:0:0:0:
256,192,83558,1,0,0:0:0:0:
256,192,83796,1,8,0:0:0:0:
256,192,84034,1,8,0:0:0:0:
256,192,84153,1,0,0:0:0:0:
256,192,84272,1,0,0:0:0:0:
256,192,84391,1,8,0:0:0:0:
256,192,84630,1,8,0:0:0:0:
256,192,84749,1,0,0:0:0:0:
256,192,84987,1,8,0:0:0:0:
256,192,85046,1,0,0:0:0:0:
256,192,85106,1,8,0:0:0:0:
256,192,85165,1,0,0:0:0:0:
256,192,85225,1,8,0:0:0:0:
256,192,85463,1,8,0:0:0:0:
256,192,85701,1,0,0:0:0:0:
256,192,86058,1,8,0:0:0:0:
256,192,86177,1,0,0:0:0:0:
256,192,86415,1,8,0:0:0:0:
256,192,86653,1,0,0:0:0:0:
256,192,86772,1,8,0:0:0:0:
256,192,87011,1,8,0:0:0:0:
256,192,87130,1,0,0:0:0:0:
256,192,87249,1,8,0:0:0:0:
256,192,87368,1,0,0:0:0:0:
256,192,87606,1,0,0:0:0:0:
256,192,87784,1,8,0:0:0:0:
256,192,87963,1,8,0:0:0:0:
256,192,88082,1,0,0:0:0:0:
256,192,88261,1,0,0:0:0:0:
256,192,88439,1,8,0:0:0:0:
256,192,88558,1,0,0:0:0:0:
256,192,88677,1,8,0:0:0:0:
256,192,88915,1,8,0:0:0:0:
256,192,89034,1,0,0:0:0:0:
256,192,89272,1,0,0:0:0:0:
256,192,89391,1,8,0:0:0:0:
256,192,89511,1,0,0:0:0:0:
256,192,89868,1,8,0:0:0:0:
256,192,89987,1,0,0:0:0:0:
256,192,90225,1,8,0:0:0:0:
256,192,90463,1,0,0:0:0:0:
256,192,90582,1,0,0:0:0:0:
256,192,90701,1,0,0:0:0:0:
256,192,90820,1,8,0:0:0:0:
256,192,90939,1,8,0:0:0:0:
256,192,91058,1,8,0:0:0:0:
256,192,91177,1,0,0:0:0:0:
256,192,91415,1,12,0:0:0:0:
256,192,91891,1,8,0:0:0:0:
256,192,92011,1,0,0:0:0:0:
256,192,92249,1,8,0:0:0:0:
256,192,92368,1,0,0:0:0:0:
256,192,92606,1,8,0:0:0:0:
256,192,92844,1,8,0:0:0:0:
256,192,93082,1,8,0:0:0:0:
256,192,93320,1,4,0:0:0:0:
256,192,95225,1,0,0:0:0:0:
256,192,97130,1,0,0:0:0:0:
256,192,98082,1,8,0:0:0:0:
256,192,99034,1,0,0:0:0:0:
256,192,100939,1,0,0:0:0:0:
256,192,101177,1,8,0:0:0:0:
256,192,101257,1,8,0:0:0:0:
256,192,101415,1,8,0:0:0:0:
256,192,101574,1,8,0:0:0:0:
256,192,101733,1,8,0:0:0:0:
256,192,101891,1,0,0:0:0:0:
256,192,102130,1,8,0:0:0:0:
256,192,102209,1,8,0:0:0:0:
256,192,102368,1,8,0:0:0:0:
256,192,102526,1,8,0:0:0:0:
256,192,102685,1,8,0:0:0:0:
256,192,102844,1,0,0:0:0:0:
256,192,103082,1,8,0:0:0:0:
256,192,103161,1,8,0:0:0:0:
256,192,103320,1,8,0:0:0:0:
256,192,103479,1,8,0:0:0:0:
256,192,103638,1,8,0:0:0:0:
256,192,103796,1,0,0:0:0:0:
256,192,104034,1,8,0:0:0:0:
256,192,104114,1,8,0:0:0:0:
256,192,104272,1,0,0:0:0:0:
256,192,104431,1,8,0:0:0:0:
256,192,104590,1,8,0:0:0:0:
256,192,104749,1,0,0:0:0:0:
256,192,105145,1,8,0:0:0:0:
256,192,105225,1,8,0:0:0:0:
256,192,105701,1,0,0:0:0:0:
256,192,106098,1,8,0:0:0:0:
256,192,106177,1,8,0:0:0:0:
256,192,106653,1,0,0:0:0:0:
256,192,106812,1,8,0:0:0:0:
256,192,106971,1,8,0:0:0:0:
256,192,107130,1,8,0:0:0:0:
256,192,107288,1,8,0:0:0:0:
256,192,107447,1,8,0:0:0:0:
256,192,107606,1,0,0:0:0:0:
256,192,107784,1,8,0:0:0:0:
256,192,107963,1,8,0:0:0:0:
256,192,108082,1,0,0:0:0:0:
256,192,108261,1,8,0:0:0:0:
256,192,108439,1,8,0:0:0:0:
256,192,108558,1,0,0:0:0:0:
256,192,109272,1,8,0:0:0:0:
256,192,109391,1,8,0:0:0:0:
256,192,109511,1,0,0:0:0:0:
256,192,109630,1,8,0:0:0:0:
256,192,109868,1,8,0:0:0:0:
256,192,109927,1,8,0:0:0:0:
256,192,109987,1,0,0:0:0:0:
256,192,110225,1,0,0:0:0:0:
256,192,110463,1,8,0:0:0:0:
256,192,110761,1,0,0:0:0:0:
256,192,110820,1,8,0:0:0:0:
256,192,110880,1,8,0:0:0:0:
256,192,110939,1,0,0:0:0:0:
256,192,111177,1,8,0:0:0:0:
256,192,111415,1,0,0:0:0:0:
256,192,112368,1,0,0:0:0:0:
256,192,112487,1,8,0:0:0:0:
256,192,112546,1,8,0:0:0:0:
256,192,112606,1,8,0:0:0:0:
256,192,112725,1,8,0:0:0:0:
256,192,112844,1,0,0:0:0:0:
256,192,113082,1,8,0:0:0:0:
256,192,113141,1,8,0:0:0:0:
256,192,113201,1,8,0:0:0:0:
256,192,113320,1,0,0:0:0:0:
256,192,113439,1,8,0:0:0:0:
256,192,113499,1,8,0:0:0:0:
256,192,113558,1,8,0:0:0:0:
256,192,113677,1,8,0:0:0:0:
256,192,113796,1,0,0:0:0:0:
256,192,114272,1,0,0:0:0:0:
256,192,114749,1,2,0:0:0:0:
256,192,115225,1,2,0:0:0:0:
256,192,115463,1,0,0:0:0:0:
256,192,115701,1,0,0:0:0:0:
256,192,115939,1,0,0:0:0:0:
256,192,116177,1,6,0:0:0:0:
256,192,116534,1,8,0:0:0:0:
256,192,116653,1,0,0:0:0:0:
256,192,116891,1,8,0:0:0:0:
256,192,117130,1,0,0:0:0:0:
256,192,117249,1,8,0:0:0:0:
256,192,117487,1,8,0:0:0:0:
256,192,117606,1,0,0:0:0:0:
256,192,117725,1,0,0:0:0:0:
256,192,117844,1,8,0:0:0:0:
256,192,117963,1,8,0:0:0:0:
256,192,118082,1,0,0:0:0:0:
256,192,118261,1,8,0:0:0:0:
256,192,118439,1,8,0:0:0:0:
256,192,118558,1,0,0:0:0:0:
256,192,118737,1,0,0:0:0:0:
256,192,118915,1,8,0:0:0:0:
256,192,119034,1,0,0:0:0:0:
256,192,119153,1,8,0:0:0:0:
256,192,119391,1,0,0:0:0:0:
256,192,119511,1,0,0:0:0:0:
256,192,119749,1,8,0:0:0:0:
256,192,119987,1,8,0:0:0:0:
256,192,120046,1,8,0:0:0:0:
256,192,120106,1,8,0:0:0:0:
256,192,120225,1,0,0:0:0:0:
256,192,120344,1,8,0:0:0:0:
256,192,120463,1,0,0:0:0:0:
256,192,120701,1,8,0:0:0:0:
256,192,120939,1,0,0:0:0:0:
256,192,120999,1,0,0:0:0:0:
256,192,121058,1,0,0:0:0:0:
256,192,121177,1,8,0:0:0:0:
256,192,121296,1,8,0:0:0:0:
256,192,121415,1,0,0:0:0:0:
256,192,121475,1,0,0:0:0:0:
256,192,121534,1,0,0:0:0:0:
256,192,121653,1,8,0:0:0:0:
256,192,121891,1,0,0:0:0:0:
256,192,122249,1,8,0:0:0:0:
256,192,122368,1,0,0:0:0:0:
256,192,122606,1,0,0:0:0:0:
256,192,122844,1,8,0:0:0:0:
256,192,123022,1,8,0:0:0:0:
256,192,123201,1,8,0:0:0:0:
256,192,123320,1,0,0:0:0:0:
256,192,123558,1,8,0:0:0:0:
256,192,123796,1,4,0:0:0:0:
256,192,124034,1,8,0:0:0:0:
256,192,124153,1,0,0:0:0:0:
256,192,124272,1,8,0:0:0:0:
256,192,124391,1,8,0:0:0:0:
256,192,124749,1,0,0:0:0:0:
256,192,124987,1,8,0:0:0:0:
256,192,125225,1,0,0:0:0:0:
256,192,125344,1,8,0:0:0:0:
256,192,125463,1,0,0:0:0:0:
256,192,125701,1,8,0:0:0:0:
256,192,125939,1,0,0:0:0:0:
256,192,126177,1,8,0:0:0:0:
256,192,126296,1,8,0:0:0:0:
256,192,126653,1,0,0:0:0:0:
256,192,126772,1,8,0:0:0:0:
256,192,127011,1,8,0:0:0:0:
256,192,127130,1,0,0:0:0:0:
256,192,127368,1,8,0:0:0:0:
256,192,127606,1,0,0:0:0:0:
256,192,127963,1,8,0:0:0:0:
256,192,128082,1,0,0:0:0:0:
256,192,128320,1,0,0:0:0:0:
256,192,128558,1,8,0:0:0:0:
256,192,128677,1,8,0:0:0:0:
256,192,128796,1,0,0:0:0:0:
256,192,128915,1,0,0:0:0:0:
256,192,129034,1,8,0:0:0:0:
256,192,129153,1,0,0:0:0:0:
256,192,129272,1,8,0:0:0:0:
256,192,129511,1,8,0:0:0:0:
256,192,129749,1,8,0:0:0:0:
256,192,129868,1,0,0:0:0:0:
256,192,129987,1,8,0:0:0:0:
256,192,130106,1,8,0:0:0:0:
256,192,130225,1,0,0:0:0:0:
256,192,130344,1,8,0:0:0:0:
256,192,130463,1,0,0:0:0:0:
256,192,130701,1,8,0:0:0:0:
256,192,130761,1,8,0:0:0:0:
256,192,130820,1,8,0:0:0:0:
256,192,130880,1,8,0:0:0:0:
256,192,130939,1,0,0:0:0:0:
256,192,131058,1,8,0:0:0:0:
256,192,131177,1,0,0:0:0:0:
256,192,131237,1,0,0:0:0:0:
256,192,131296,1,8,0:0:0:0:
256,192,131356,1,8,0:0:0:0:
256,192,131415,1,0,0:0:0:0:
256,192,131653,1,8,0:0:0:0:
256,192,131772,1,0,0:0:0:0:
256,192,131891,1,8,0:0:0:0:
256,192,132011,1,8,0:0:0:0:
256,192,132368,1,0,0:0:0:0:
256,192,132487,1,8,0:0:0:0:
256,192,132606,1,0,0:0:0:0:
256,192,132725,1,0,0:0:0:0:
256,192,132844,1,8,0:0:0:0:
256,192,133082,1,0,0:0:0:0:
256,192,133320,1,8,0:0:0:0:
256,192,133439,1,8,0:0:0:0:
256,192,133558,1,0,0:0:0:0:
256,192,133796,1,8,0:0:0:0:
256,192,133915,1,8,0:0:0:0:
256,192,134272,1,0,0:0:0:0:
256,192,134431,1,8,0:0:0:0:
256,192,134590,1,8,0:0:0:0:
256,192,134749,1,0,0:0:0:0:
256,192,134987,1,8,0:0:0:0:
256,192,135225,1,0,0:0:0:0:
256,192,135463,1,8,0:0:0:0:
256,192,135582,1,8,0:0:0:0:
256,192,135701,1,0,0:0:0:0:
256,192,135939,1,8,0:0:0:0:
256,192,135999,1,8,0:0:0:0:
256,192,136058,1,8,0:0:0:0:
256,192,136118,1,8,0:0:0:0:
256,192,136177,1,0,0:0:0:0:
256,192,136415,1,8,0:0:0:0:
256,192,136534,1,8,0:0:0:0:
256,192,136653,1,0,0:0:0:0:
256,192,136713,1,0,0:0:0:0:
256,192,136772,1,0,0:0:0:0:
256,192,136891,1,8,0:0:0:0:
256,192,137130,1,8,0:0:0:0:
256,192,137189,1,0,0:0:0:0:
256,192,137249,1,8,0:0:0:0:
256,192,137308,1,0,0:0:0:0:
256,192,137368,1,8,0:0:0:0:
256,192,137427,1,0,0:0:0:0:
256,192,137487,1,8,0:0:0:0:
256,192,137546,1,0,0:0:0:0:
256,192,137606,1,8,0:0:0:0:
256,192,137844,1,0,0:0:0:0:
256,192,137963,1,8,0:0:0:0:
256,192,138082,1,0,0:0:0:0:
256,192,138320,1,0,0:0:0:0:
256,192,138380,1,8,0:0:0:0:
256,192,138439,1,8,0:0:0:0:
256,192,138499,1,8,0:0:0:0:
256,192,138558,1,8,0:0:0:0:
256,192,138618,1,8,0:0:0:0:
256,192,138677,1,8,0:0:0:0:
256,192,138737,1,8,0:0:0:0:
256,192,138796,1,8,0:0:0:0:
256,192,138856,1,8,0:0:0:0:
256,192,138915,1,8,0:0:0:0:
256,192,138975,1,8,0:0:0:0:
256,192,139034,1,0,0:0:0:0:
256,192,139272,1,0,0:0:0:0:
256,192,139511,1,8,0:0:0:0:
256,192,139630,1,8,0:0:0:0:
256,192,139987,1,0,0:0:0:0:
256,192,140463,1,0,0:0:0:0:
256,192,140701,1,0,0:0:0:0:
256,192,140939,1,8,0:0:0:0:
256,192,141177,1,0,0:0:0:0:
256,192,141415,1,8,0:0:0:0:
256,192,141534,1,8,0:0:0:0:
256,192,141891,1,0,0:0:0:0:
256,192,142368,1,8,0:0:0:0:
256,192,142606,1,0,0:0:0:0:
256,192,142844,1,8,0:0:0:0:
256,192,143320,1,0,0:0:0:0:
256,192,143558,1,0,0:0:0:0:
256,192,143796,1,8,0:0:0:0:
256,192,144034,1,0,0:0:0:0:
256,192,144272,1,0,0:0:0:0:
256,192,144511,1,8,0:0:0:0:
256,192,144749,1,8,0:0:0:0:
256,192,144987,1,0,0:0:0:0:
256,192,145225,1,0,0:0:0:0:
256,192,145344,1,8,0:0:0:0:
256,192,145701,1,8,0:0:0:0:
256,192,145939,1,0,0:0:0:0:
256,192,146177,1,0,0:0:0:0:
256,192,146296,1,8,0:0:0:0:
256,192,146653,1,0,0:0:0:0:
