osu file format v14

[General]
AudioFilename: audio.mp3
AudioLeadIn: 0
PreviewTime: 77963
Countdown: 0
SampleSet: Normal
StackLeniency: 0.7
Mode: 1
LetterboxInBreaks: 0
WidescreenStoryboard: 0

[Editor]
Bookmarks: 1892,24749,47606,70463,93320,116177,148082
DistanceSpacing: 1.3
BeatDivisor: 8
GridSize: 32
TimelineZoom: 3.499998

[Metadata]
Title:eth ken
TitleUnicode:eth剣
Artist:tarolabo
ArtistUnicode:tarolabo
Creator:_DUSK_
Version:blossom
Source:
Tags:electronic instrumental genjuro video game team pink BOKKEN FUSION 浪漫映像制作倶楽部 DODOME MAGENTA the bms of fighters the evolution of war
BeatmapID:2176932
BeatmapSetID:1041596

[Difficulty]
HPDrainRate:6
CircleSize:5
OverallDifficulty:6.5
ApproachRate:9
SliderMultiplier:1.4
SliderTickRate:1

[Events]
//Background and Video events
0,0,"BG.jpg",0,25
//Break Periods
//Storyboard Layer 0 (Background)
//Storyboard Layer 1 (Fail)
//Storyboard Layer 2 (Pass)
//Storyboard Layer 3 (Foreground)
//Storyboard Layer 4 (Overlay)
//Storyboard Sound Samples

[TimingPoints]
1892,476.190476190476,4,1,0,80,1,0
1892,-63.2911392405063,4,1,0,80,0,0
1971,-63.6942675159236,4,1,0,80,0,0
2050,-64.1025641025641,4,1,0,80,0,0
2288,-64.5161290322581,4,1,0,80,0,0
2368,-64.9350649350649,4,1,0,80,0,0
2526,-65.359477124183,4,1,0,80,0,0
2685,-65.7894736842105,4,1,0,80,0,0
2844,-66.2251655629139,4,1,0,80,0,0
3082,-66.6666666666667,4,1,0,80,0,0
4987,-65.7894736842105,4,1,0,80,0,0
5225,-64.9350649350649,4,1,0,80,0,0
5463,-64.1025641025641,4,1,0,80,0,0
5701,-61.7283950617284,4,1,0,80,0,0
19987,-61.3496932515337,4,1,0,80,0,0
20046,-60.9756097560976,4,1,0,80,0,0
20165,-60.6060606060606,4,1,0,80,0,0
20225,-60.2409638554217,4,1,0,80,0,0
20304,-59.8802395209581,4,1,0,80,0,0
20384,-59.5238095238095,4,1,0,80,0,0
20463,-59.1715976331361,4,1,0,80,0,0
20622,-58.8235294117647,4,1,0,80,0,0
20701,-58.4795321637427,4,1,0,80,0,0
20761,-58.1395348837209,4,1,0,80,0,0
20820,-57.8034682080925,4,1,0,80,0,0
20880,-57.4712643678161,4,1,0,80,0,0
21018,-57.8034682080925,4,1,0,80,0,0
21098,-58.1395348837209,4,1,0,80,0,0
21336,-58.4795321637427,4,1,0,80,0,0
21415,-58.8235294117647,4,1,0,80,0,0
21574,-59.1715976331361,4,1,0,80,0,0
21812,-59.5238095238095,4,1,0,80,0,0
21891,-59.8802395209581,4,1,0,80,0,0
22070,-60.2409638554217,4,1,0,80,0,0
22447,-60.6060606060606,4,1,0,80,0,0
22685,-60.9756097560976,4,1,0,80,0,0
22765,-61.3496932515337,4,1,0,80,0,0
22844,-61.7283950617284,4,1,0,80,0,0
23082,-62.111801242236,4,1,0,80,0,0
23320,-62.5,4,1,0,80,0,0
23439,-62.8930817610063,4,1,0,80,0,0
23558,-63.2911392405063,4,1,0,80,0,0
23796,-63.6942675159236,4,1,0,80,0,0
24272,-66.6666666666667,4,1,0,80,0,0
24749,-68.9655172413793,4,1,0,80,0,0
39034,-68.4931506849315,4,1,0,80,0,0
39193,-68.0272108843537,4,1,0,80,0,0
39352,-67.5675675675676,4,1,0,80,0,0
39511,-67.1140939597315,4,1,0,80,0,0
39570,-66.6666666666667,4,1,0,80,0,0
39630,-66.2251655629139,4,1,0,80,0,0
39689,-65.7894736842105,4,1,0,80,0,0
39749,-65.359477124183,4,1,0,80,0,0
39808,-64.9350649350649,4,1,0,80,0,0
39868,-64.5161290322581,4,1,0,80,0,0
39927,-64.1025641025641,4,1,0,80,0,0
39987,-63.6942675159236,4,1,0,80,0,0
40046,-83.3333333333333,4,1,0,80,0,0
47606,-62.5,4,1,0,80,0,0
61891,-62.111801242236,4,1,0,80,0,0
62050,-61.7283950617284,4,1,0,80,0,0
62209,-61.3496932515337,4,1,0,80,0,0
62368,-60.9756097560976,4,1,0,80,0,0
62487,-60.6060606060606,4,1,0,80,0,0
62606,-60.2409638554217,4,1,0,80,0,0
62685,-59.8802395209581,4,1,0,80,0,0
62765,-59.5238095238095,4,1,0,80,0,0
62844,-59.1715976331361,4,1,0,80,0,0
70860,-83.3333333333333,4,1,0,80,0,0
72447,-90.9090909090909,4,1,0,80,0,0
74272,-95.2380952380952,4,1,0,80,0,0
76177,-100,4,1,0,80,0,0
77606,-95.2380952380952,4,1,0,80,0,0
77725,-90.9090909090909,4,1,0,80,0,0
77844,-86.9565217391304,4,1,0,80,0,0
78082,-58.8235294117647,4,1,0,90,0,1
91415,-58.8235294117647,4,1,0,90,0,0
92725,-58.4795321637427,4,1,0,90,0,0
92784,-58.1395348837209,4,1,0,90,0,0
92844,-57.8034682080925,4,1,0,90,0,0
92903,-57.4712643678161,4,1,0,90,0,0
92963,-57.1428571428571,4,1,0,90,0,0
93082,-56.8181818181818,4,1,0,90,0,0
93141,-56.4971751412429,4,1,0,90,0,0
93201,-56.1797752808989,4,1,0,90,0,0
93261,-55.8659217877095,4,1,0,90,0,0
93320,-55.5555555555556,4,1,0,90,0,0
93380,-100,4,1,0,20,0,0
100880,-83.3333333333333,4,1,0,60,0,0
107963,-81.9672131147541,4,1,0,60,0,0
108082,-80.6451612903226,4,1,0,60,0,0
108261,-79.3650793650794,4,1,0,60,0,0
108439,-78.125,4,1,0,60,0,0
108558,-76.9230769230769,4,1,0,70,0,0
111653,-75.187969924812,4,1,0,70,0,0
111772,-73.5294117647059,4,1,0,70,0,0
111891,-71.9424460431655,4,1,0,70,0,0
112130,-70.4225352112676,4,1,0,70,0,0
112249,-68.9655172413793,4,1,0,70,0,0
112368,-67.5675675675676,4,1,0,80,0,0
115463,-65.7894736842105,4,1,0,80,0,0
115701,-62.5,4,1,0,80,0,0
115939,-60.2409638554217,4,1,0,80,0,0
116177,-57.4712643678161,4,1,0,80,0,0
122844,-57.1428571428571,4,1,0,80,0,0
122923,-56.8181818181818,4,1,0,80,0,0
123022,-56.4971751412429,4,1,0,80,0,0
123082,-56.1797752808989,4,1,0,80,0,0
123201,-55.8659217877095,4,1,0,80,0,0
123320,-55.5555555555556,4,1,0,80,0,0
123399,-55.2486187845304,4,1,0,80,0,0
123479,-54.9450549450549,4,1,0,80,0,0
123558,-54.6448087431694,4,1,0,80,0,0
123618,-54.3478260869565,4,1,0,80,0,0
123677,-54.054054054054,4,1,0,80,0,0
123737,-53.763440860215,4,1,0,80,0,0
123796,-53.1914893617021,4,1,0,80,0,1
136653,-52.6315789473684,4,1,0,80,0,1
136772,-52.0833333333333,4,1,0,80,0,1
136891,-51.5463917525773,4,1,0,80,0,1
137011,-51.0204081632653,4,1,0,80,0,1
137130,-50.5050505050505,4,1,0,80,0,1
139034,-50.5050505050505,4,1,0,80,0,0

[HitObjects]
256,192,1892,5,8,0:0:0:0:
256,192,1971,1,0,0:0:0:0:
256,192,2050,1,0,0:0:0:0:
256,192,2209,1,0,0:0:0:0:
256,192,2288,1,0,0:0:0:0:
256,192,2368,1,0,0:0:0:0:
256,192,2526,1,8,0:0:0:0:
256,192,2685,1,8,0:0:0:0:
256,192,2844,1,0,0:0:0:0:
256,192,3082,1,8,0:0:0:0:
256,192,3320,1,0,0:0:0:0:
256,192,3399,1,8,0:0:0:0:
256,192,3558,1,8,0:0:0:0:
256,192,3638,1,0,0:0:0:0:
256,192,3717,1,8,0:0:0:0:
256,192,3796,1,0,0:0:0:0:
256,192,3915,1,8,0:0:0:0:
256,192,4034,1,8,0:0:0:0:
256,192,4094,1,0,0:0:0:0:
256,192,4213,1,0,0:0:0:0:
256,192,4272,1,0,0:0:0:0:
256,192,4391,1,8,0:0:0:0:
256,192,4511,1,8,0:0:0:0:
256,192,4630,1,8,0:0:0:0:
256,192,4689,1,8,0:0:0:0:
256,192,4749,1,8,0:0:0:0:
256,192,4987,1,0,0:0:0:0:
256,192,5225,1,8,0:0:0:0:
256,192,5463,1,0,0:0:0:0:
256,192,5701,1,12,0:0:0:0:
256,192,6058,1,8,0:0:0:0:
256,192,6177,1,0,0:0:0:0:
256,192,6415,1,8,0:0:0:0:
256,192,6534,1,8,0:0:0:0:
256,192,6653,1,0,0:0:0:0:
256,192,6772,1,8,0:0:0:0:
256,192,7011,1,0,0:0:0:0:
256,192,7070,1,0,0:0:0:0:
256,192,7130,1,8,0:0:0:0:
256,192,7368,1,8,0:0:0:0:
256,192,7487,1,0,0:0:0:0:
256,192,7606,1,8,0:0:0:0:
256,192,7903,1,0,0:0:0:0:
256,192,7963,1,8,0:0:0:0:
256,192,8022,1,8,0:0:0:0:
256,192,8082,1,0,0:0:0:0:
256,192,8320,1,8,0:0:0:0:
256,192,8439,1,8,0:0:0:0:
256,192,8558,1,0,0:0:0:0:
256,192,8677,1,8,0:0:0:0:
256,192,8796,1,0,0:0:0:0:
256,192,8915,1,0,0:0:0:0:
256,192,8975,1,8,0:0:0:0:
256,192,9034,1,8,0:0:0:0:
256,192,9153,1,0,0:0:0:0:
256,192,9272,1,0,0:0:0:0:
256,192,9511,1,0,0:0:0:0:
256,192,9630,1,8,0:0:0:0:
256,192,9669,1,8,0:0:0:0:
256,192,9749,1,0,0:0:0:0:
256,192,9828,1,8,0:0:0:0:
256,192,9868,1,8,0:0:0:0:
256,192,9987,1,0,0:0:0:0:
256,192,10106,1,8,0:0:0:0:
256,192,10145,1,8,0:0:0:0:
256,192,10225,1,0,0:0:0:0:
256,192,10304,1,8,0:0:0:0:
256,192,10344,1,8,0:0:0:0:
256,192,10463,1,0,0:0:0:0:
256,192,10582,1,8,0:0:0:0:
256,192,10622,1,8,0:0:0:0:
256,192,10701,1,0,0:0:0:0:
256,192,10780,1,8,0:0:0:0:
256,192,10820,1,8,0:0:0:0:
256,192,10939,1,0,0:0:0:0:
256,192,11058,1,0,0:0:0:0:
256,192,11177,1,8,0:0:0:0:
256,192,11415,1,8,0:0:0:0:
256,192,11653,1,0,0:0:0:0:
256,192,11772,1,8,0:0:0:0:
256,192,11891,1,8,0:0:0:0:
256,192,12011,1,0,0:0:0:0:
256,192,12249,1,0,0:0:0:0:
256,192,12368,1,8,0:0:0:0:
256,192,12487,1,0,0:0:0:0:
256,192,12606,1,8,0:0:0:0:
256,192,12665,1,0,0:0:0:0:
256,192,12725,1,8,0:0:0:0:
256,192,12784,1,0,0:0:0:0:
256,192,12844,1,8,0:0:0:0:
256,192,12963,1,0,0:0:0:0:
256,192,13082,1,8,0:0:0:0:
256,192,13201,1,8,0:0:0:0:
256,192,13320,1,0,0:0:0:0:
256,192,13380,1,8,0:0:0:0:
256,192,13439,1,0,0:0:0:0:
256,192,13499,1,8,0:0:0:0:
256,192,13558,1,0,0:0:0:0:
256,192,13677,1,0,0:0:0:0:
256,192,13796,1,8,0:0:0:0:
256,192,13955,1,8,0:0:0:0:
256,192,14034,1,0,0:0:0:0:
256,192,14272,1,8,0:0:0:0:
256,192,14391,1,0,0:0:0:0:
256,192,14511,1,8,0:0:0:0:
256,192,14630,1,0,0:0:0:0:
256,192,14749,1,8,0:0:0:0:
256,192,14808,1,0,0:0:0:0:
256,192,14868,1,8,0:0:0:0:
256,192,14987,1,8,0:0:0:0:
256,192,15046,1,0,0:0:0:0:
256,192,15106,1,8,0:0:0:0:
256,192,15225,1,0,0:0:0:0:
256,192,15403,1,0,0:0:0:0:
256,192,15582,1,0,0:0:0:0:
256,192,15701,1,8,0:0:0:0:
256,192,15880,1,8,0:0:0:0:
256,192,16058,1,0,0:0:0:0:
256,192,16177,1,8,0:0:0:0:
256,192,16336,1,8,0:0:0:0:
256,192,16534,1,8,0:0:0:0:
256,192,16653,1,0,0:0:0:0:
256,192,16891,1,8,0:0:0:0:
256,192,17130,1,0,0:0:0:0:
256,192,17249,1,0,0:0:0:0:
256,192,17368,1,8,0:0:0:0:
256,192,17487,1,8,0:0:0:0:
256,192,17606,1,0,0:0:0:0:
256,192,17844,1,8,0:0:0:0:
256,192,17963,1,8,0:0:0:0:
256,192,18082,1,0,0:0:0:0:
256,192,18141,1,8,0:0:0:0:
256,192,18201,1,0,0:0:0:0:
256,192,18261,1,8,0:0:0:0:
256,192,18320,1,0,0:0:0:0:
256,192,18439,1,0,0:0:0:0:
256,192,18558,1,8,0:0:0:0:
256,192,18796,1,8,0:0:0:0:
256,192,18876,1,8,0:0:0:0:
256,192,18955,1,8,0:0:0:0:
256,192,19034,1,0,0:0:0:0:
256,192,19153,1,0,0:0:0:0:
256,192,19213,1,0,0:0:0:0:
256,192,19272,1,8,0:0:0:0:
256,192,19332,1,0,0:0:0:0:
256,192,19391,1,8,0:0:0:0:
256,192,19511,1,0,0:0:0:0:
256,192,19630,1,0,0:0:0:0:
256,192,19689,1,0,0:0:0:0:
256,192,19749,1,8,0:0:0:0:
256,192,19868,1,8,0:0:0:0:
256,192,19987,1,0,0:0:0:0:
256,192,20046,1,0,0:0:0:0:
256,192,20165,1,8,0:0:0:0:
256,192,20225,1,0,0:0:0:0:
256,192,20304,1,0,0:0:0:0:
256,192,20384,1,8,0:0:0:0:
256,192,20463,1,8,0:0:0:0:
256,192,20622,1,0,0:0:0:0:
256,192,20701,1,8,0:0:0:0:
256,192,20761,1,8,0:0:0:0:
256,192,20820,1,0,0:0:0:0:
256,192,20880,1,0,0:0:0:0:
256,192,20939,1,8,0:0:0:0:
256,192,21018,1,0,0:0:0:0:
256,192,21098,1,0,0:0:0:0:
256,192,21257,1,0,0:0:0:0:
256,192,21336,1,0,0:0:0:0:
256,192,21415,1,0,0:0:0:0:
256,192,21574,1,8,0:0:0:0:
256,192,21733,1,8,0:0:0:0:
256,192,21812,1,0,0:0:0:0:
256,192,21891,1,0,0:0:0:0:
256,192,22011,1,8,0:0:0:0:
256,192,22070,1,8,0:0:0:0:
256,192,22368,1,0,0:0:0:0:
256,192,22447,1,8,0:0:0:0:
256,192,22606,1,8,0:0:0:0:
256,192,22685,1,8,0:0:0:0:
256,192,22765,1,8,0:0:0:0:
256,192,22844,1,0,0:0:0:0:
256,192,23082,1,0,0:0:0:0:
256,192,23320,1,8,0:0:0:0:
256,192,23439,1,0,0:0:0:0:
256,192,23558,1,8,0:0:0:0:
256,192,23796,1,8,0:0:0:0:
256,192,24272,1,0,0:0:0:0:
256,192,24749,1,12,0:0:0:0:
256,192,24987,1,0,0:0:0:0:
256,192,25106,1,8,0:0:0:0:
256,192,25225,1,0,0:0:0:0:
256,192,25344,1,0,0:0:0:0:
256,192,25463,1,8,0:0:0:0:
256,192,25582,1,8,0:0:0:0:
256,192,25701,1,0,0:0:0:0:
256,192,25939,1,8,0:0:0:0:
256,192,26177,1,8,0:0:0:0:
256,192,26415,1,0,0:0:0:0:
256,192,26475,1,0,0:0:0:0:
256,192,26534,1,0,0:0:0:0:
256,192,26594,1,0,0:0:0:0:
256,192,26653,1,8,0:0:0:0:
256,192,26891,1,8,0:0:0:0:
256,192,27130,1,0,0:0:0:0:
256,192,27368,1,8,0:0:0:0:
256,192,27487,1,0,0:0:0:0:
256,192,27546,1,0,0:0:0:0:
256,192,27606,1,8,0:0:0:0:
256,192,27725,1,8,0:0:0:0:
256,192,27844,1,0,0:0:0:0:
256,192,27903,1,8,0:0:0:0:
256,192,27963,1,0,0:0:0:0:
256,192,28022,1,0,0:0:0:0:
256,192,28082,1,8,0:0:0:0:
256,192,28320,1,8,0:0:0:0:
256,192,28439,1,8,0:0:0:0:
256,192,28499,1,8,0:0:0:0:
256,192,28558,1,0,0:0:0:0:
256,192,28796,1,8,0:0:0:0:
256,192,28915,1,8,0:0:0:0:
256,192,29034,1,0,0:0:0:0:
256,192,29272,1,8,0:0:0:0:
256,192,29511,1,0,0:0:0:0:
256,192,29689,1,8,0:0:0:0:
256,192,29868,1,8,0:0:0:0:
256,192,29987,1,0,0:0:0:0:
256,192,30225,1,0,0:0:0:0:
256,192,30284,1,8,0:0:0:0:
256,192,30344,1,0,0:0:0:0:
256,192,30403,1,8,0:0:0:0:
256,192,30463,1,0,0:0:0:0:
256,192,30701,1,8,0:0:0:0:
256,192,30761,1,8,0:0:0:0:
256,192,30820,1,0,0:0:0:0:
256,192,30880,1,0,0:0:0:0:
256,192,30939,1,0,0:0:0:0:
256,192,31177,1,0,0:0:0:0:
256,192,31237,1,8,0:0:0:0:
256,192,31296,1,0,0:0:0:0:
256,192,31356,1,0,0:0:0:0:
256,192,31415,1,8,0:0:0:0:
256,192,31534,1,0,0:0:0:0:
256,192,31653,1,8,0:0:0:0:
256,192,31891,1,8,0:0:0:0:
256,192,32011,1,0,0:0:0:0:
256,192,32070,1,0,0:0:0:0:
256,192,32130,1,8,0:0:0:0:
256,192,32189,1,0,0:0:0:0:
256,192,32249,1,8,0:0:0:0:
256,192,32308,1,8,0:0:0:0:
256,192,32368,1,0,0:0:0:0:
256,192,32606,1,8,0:0:0:0:
256,192,32725,1,0,0:0:0:0:
256,192,32784,1,0,0:0:0:0:
256,192,32844,1,8,0:0:0:0:
256,192,33082,1,8,0:0:0:0:
256,192,33201,1,8,0:0:0:0:
256,192,33320,1,0,0:0:0:0:
256,192,33558,1,8,0:0:0:0:
256,192,33677,1,0,0:0:0:0:
256,192,33737,1,8,0:0:0:0:
256,192,33796,1,8,0:0:0:0:
256,192,33915,1,0,0:0:0:0:
256,192,34034,1,0,0:0:0:0:
256,192,34094,1,0,0:0:0:0:
256,192,34153,1,8,0:0:0:0:
256,192,34213,1,8,0:0:0:0:
256,192,34272,1,0,0:0:0:0:
256,192,34391,1,0,0:0:0:0:
256,192,34511,1,8,0:0:0:0:
256,192,34689,1,0,0:0:0:0:
256,192,34749,1,8,0:0:0:0:
256,192,34868,1,8,0:0:0:0:
256,192,34927,1,0,0:0:0:0:
256,192,34987,1,8,0:0:0:0:
256,192,35046,1,8,0:0:0:0:
256,192,35106,1,0,0:0:0:0:
256,192,35165,1,0,0:0:0:0:
256,192,35225,1,8,0:0:0:0:
256,192,35344,1,8,0:0:0:0:
256,192,35463,1,0,0:0:0:0:
256,192,35701,1,0,0:0:0:0:
256,192,35939,1,8,0:0:0:0:
256,192,36058,1,8,0:0:0:0:
256,192,36118,1,8,0:0:0:0:
256,192,36177,1,0,0:0:0:0:
256,192,36415,1,8,0:0:0:0:
256,192,36534,1,0,0:0:0:0:
256,192,36594,1,8,0:0:0:0:
256,192,36653,1,0,0:0:0:0:
256,192,36772,1,0,0:0:0:0:
256,192,36891,1,8,0:0:0:0:
256,192,37011,1,8,0:0:0:0:
256,192,37130,1,0,0:0:0:0:
256,192,37249,1,8,0:0:0:0:
256,192,37308,1,8,0:0:0:0:
256,192,37368,1,0,0:0:0:0:
256,192,37487,1,0,0:0:0:0:
256,192,37546,1,0,0:0:0:0:
256,192,37606,1,8,0:0:0:0:
256,192,37725,1,0,0:0:0:0:
256,192,37844,1,8,0:0:0:0:
256,192,37903,1,0,0:0:0:0:
256,192,37963,1,8,0:0:0:0:
256,192,38022,1,8,0:0:0:0:
256,192,38082,1,0,0:0:0:0:
256,192,38241,1,8,0:0:0:0:
256,192,38399,1,8,0:0:0:0:
256,192,38558,1,0,0:0:0:0:
256,192,38717,1,0,0:0:0:0:
256,192,38876,1,0,0:0:0:0:
256,192,39034,1,8,0:0:0:0:
256,192,39193,1,8,0:0:0:0:
256,192,39352,1,8,0:0:0:0:
256,192,39511,1,0,0:0:0:0:
256,192,39570,1,0,0:0:0:0:
256,192,39630,1,0,0:0:0:0:
256,192,39689,1,0,0:0:0:0:
256,192,39749,1,8,0:0:0:0:
256,192,39808,1,8,0:0:0:0:
256,192,39868,1,8,0:0:0:0:
256,192,39927,1,8,0:0:0:0:
256,192,39987,1,0,0:0:0:0:
256,192,41891,1,0,0:0:0:0:
256,192,42844,1,8,0:0:0:0:
256,192,43320,1,8,0:0:0:0:
256,192,43796,1,0,0:0:0:0:
256,192,43876,1,8,0:0:0:0:
256,192,43955,1,0,0:0:0:0:
256,192,44034,1,8,0:0:0:0:
256,192,44114,1,0,0:0:0:0:
256,192,44193,1,8,0:0:0:0:
256,192,44272,1,0,0:0:0:0:
256,192,44352,1,8,0:0:0:0:
256,192,44431,1,0,0:0:0:0:
256,192,44511,1,8,0:0:0:0:
256,192,44590,1,0,0:0:0:0:
256,192,44669,1,8,0:0:0:0:
256,192,44749,1,0,0:0:0:0:
256,192,44828,1,8,0:0:0:0:
256,192,44907,1,0,0:0:0:0:
256,192,44987,1,8,0:0:0:0:
256,192,45066,1,0,0:0:0:0:
256,192,45145,1,8,0:0:0:0:
256,192,45225,1,0,0:0:0:0:
256,192,45304,1,8,0:0:0:0:
256,192,45384,1,0,0:0:0:0:
256,192,45463,1,8,0:0:0:0:
256,192,45542,1,0,0:0:0:0:
256,192,45622,1,8,0:0:0:0:
256,192,45701,1,0,0:0:0:0:
256,192,45820,1,0,0:0:0:0:
256,192,45939,1,8,0:0:0:0:
256,192,46058,1,0,0:0:0:0:
256,192,46177,1,8,0:0:0:0:
256,192,46653,1,8,0:0:0:0:
256,192,47130,1,8,0:0:0:0:
256,192,47606,1,4,0:0:0:0:
256,192,47844,1,8,0:0:0:0:
256,192,47963,1,8,0:0:0:0:
256,192,48082,1,8,0:0:0:0:
256,192,48201,1,0,0:0:0:0:
256,192,48320,1,8,0:0:0:0:
256,192,48439,1,8,0:0:0:0:
256,192,48558,1,0,0:0:0:0:
256,192,48796,1,8,0:0:0:0:
256,192,48915,1,0,0:0:0:0:
256,192,49034,1,8,0:0:0:0:
256,192,49272,1,8,0:0:0:0:
256,192,49391,1,0,0:0:0:0:
256,192,49511,1,0,0:0:0:0:
256,192,49689,1,0,0:0:0:0:
256,192,49749,1,8,0:0:0:0:
256,192,49868,1,0,0:0:0:0:
256,192,49927,1,0,0:0:0:0:
256,192,49987,1,8,0:0:0:0:
256,192,50106,1,0,0:0:0:0:
256,192,50344,1,8,0:0:0:0:
256,192,50403,1,8,0:0:0:0:
256,192,50463,1,0,0:0:0:0:
256,192,50582,1,0,0:0:0:0:
256,192,50641,1,0,0:0:0:0:
256,192,50701,1,8,0:0:0:0:
256,192,50761,1,0,0:0:0:0:
256,192,50820,1,8,0:0:0:0:
256,192,50880,1,8,0:0:0:0:
256,192,50939,1,0,0:0:0:0:
256,192,51058,1,8,0:0:0:0:
256,192,51177,1,8,0:0:0:0:
256,192,51237,1,0,0:0:0:0:
256,192,51415,1,0,0:0:0:0:
256,192,51534,1,0,0:0:0:0:
256,192,51653,1,8,0:0:0:0:
256,192,51713,1,0,0:0:0:0:
256,192,51772,1,8,0:0:0:0:
256,192,51891,1,8,0:0:0:0:
256,192,52130,1,0,0:0:0:0:
256,192,52368,1,8,0:0:0:0:
256,192,52546,1,8,0:0:0:0:
256,192,52606,1,0,0:0:0:0:
256,192,52725,1,8,0:0:0:0:
256,192,52844,1,0,0:0:0:0:
256,192,53082,1,0,0:0:0:0:
256,192,53141,1,8,0:0:0:0:
256,192,53201,1,0,0:0:0:0:
256,192,53261,1,8,0:0:0:0:
256,192,53320,1,8,0:0:0:0:
256,192,53558,1,8,0:0:0:0:
256,192,53618,1,0,0:0:0:0:
256,192,53677,1,8,0:0:0:0:
256,192,53737,1,8,0:0:0:0:
256,192,53796,1,0,0:0:0:0:
256,192,53915,1,8,0:0:0:0:
256,192,54034,1,0,0:0:0:0:
256,192,54094,1,8,0:0:0:0:
256,192,54153,1,0,0:0:0:0:
256,192,54213,1,0,0:0:0:0:
256,192,54272,1,8,0:0:0:0:
256,192,54451,1,0,0:0:0:0:
256,192,54511,1,8,0:0:0:0:
256,192,54630,1,8,0:0:0:0:
256,192,54749,1,0,0:0:0:0:
256,192,54868,1,8,0:0:0:0:
256,192,54927,1,8,0:0:0:0:
256,192,54987,1,0,0:0:0:0:
256,192,55066,1,8,0:0:0:0:
256,192,55145,1,8,0:0:0:0:
256,192,55225,1,0,0:0:0:0:
256,192,55463,1,8,0:0:0:0:
256,192,55582,1,0,0:0:0:0:
256,192,55641,1,0,0:0:0:0:
256,192,55701,1,8,0:0:0:0:
256,192,55820,1,0,0:0:0:0:
256,192,55939,1,8,0:0:0:0:
256,192,55999,1,0,0:0:0:0:
256,192,56058,1,8,0:0:0:0:
256,192,56177,1,0,0:0:0:0:
256,192,56415,1,0,0:0:0:0:
256,192,56534,1,8,0:0:0:0:
256,192,56653,1,0,0:0:0:0:
256,192,56891,1,8,0:0:0:0:
256,192,57011,1,0,0:0:0:0:
256,192,57070,1,0,0:0:0:0:
256,192,57130,1,8,0:0:0:0:
256,192,57249,1,0,0:0:0:0:
256,192,57368,1,8,0:0:0:0:
256,192,57546,1,8,0:0:0:0:
256,192,57606,1,0,0:0:0:0:
256,192,57725,1,0,0:0:0:0:
256,192,57784,1,8,0:0:0:0:
256,192,57844,1,0,0:0:0:0:
256,192,57963,1,8,0:0:0:0:
256,192,58082,1,0,0:0:0:0:
256,192,58201,1,8,0:0:0:0:
256,192,58261,1,0,0:0:0:0:
256,192,58320,1,0,0:0:0:0:
256,192,58439,1,8,0:0:0:0:
256,192,58558,1,0,0:0:0:0:
256,192,58677,1,8,0:0:0:0:
256,192,58796,1,0,0:0:0:0:
256,192,58856,1,0,0:0:0:0:
256,192,58915,1,8,0:0:0:0:
256,192,59034,1,0,0:0:0:0:
256,192,59213,1,8,0:0:0:0:
256,192,59272,1,0,0:0:0:0:
256,192,59391,1,8,0:0:0:0:
256,192,59511,1,0,0:0:0:0:
256,192,59630,1,0,0:0:0:0:
256,192,59689,1,8,0:0:0:0:
256,192,59749,1,0,0:0:0:0:
256,192,59808,1,0,0:0:0:0:
256,192,59868,1,8,0:0:0:0:
256,192,59987,1,0,0:0:0:0:
256,192,60106,1,8,0:0:0:0:
256,192,60165,1,8,0:0:0:0:
256,192,60225,1,0,0:0:0:0:
256,192,60344,1,0,0:0:0:0:
256,192,60463,1,8,0:0:0:0:
256,192,60582,1,0,0:0:0:0:
256,192,60701,1,8,0:0:0:0:
256,192,60820,1,0,0:0:0:0:
256,192,60939,1,0,0:0:0:0:
256,192,61098,1,8,0:0:0:0:
256,192,61257,1,8,0:0:0:0:
256,192,61415,1,0,0:0:0:0:
256,192,61574,1,0,0:0:0:0:
256,192,61733,1,0,0:0:0:0:
256,192,61891,1,8,0:0:0:0:
256,192,62050,1,8,0:0:0:0:
256,192,62209,1,0,0:0:0:0:
256,192,62368,1,8,0:0:0:0:
256,192,62487,1,0,0:0:0:0:
256,192,62606,1,8,0:0:0:0:
256,192,62685,1,8,0:0:0:0:
256,192,62765,1,8,0:0:0:0:
256,192,62844,1,0,0:0:0:0:
256,192,63082,1,0,0:0:0:0:
256,192,63201,1,0,0:0:0:0:
256,192,63320,1,8,0:0:0:0:
256,192,63558,1,0,0:0:0:0:
256,192,63677,1,8,0:0:0:0:
256,192,63796,1,8,0:0:0:0:
256,192,63915,1,0,0:0:0:0:
256,192,64153,1,0,0:0:0:0:
256,192,64272,1,8,0:0:0:0:
256,192,64391,1,0,0:0:0:0:
256,192,64630,1,0,0:0:0:0:
256,192,64749,1,8,0:0:0:0:
256,192,64987,1,0,0:0:0:0:
256,192,65106,1,0,0:0:0:0:
256,192,65165,1,0,0:0:0:0:
256,192,65225,1,8,0:0:0:0:
256,192,65344,1,8,0:0:0:0:
256,192,65463,1,0,0:0:0:0:
256,192,65701,1,8,0:0:0:0:
256,192,65820,1,0,0:0:0:0:
256,192,65939,1,0,0:0:0:0:
256,192,66058,1,8,0:0:0:0:
256,192,66177,1,8,0:0:0:0:
256,192,66296,1,0,0:0:0:0:
256,192,66415,1,8,0:0:0:0:
256,192,66534,1,8,0:0:0:0:
256,192,66653,1,0,0:0:0:0:
256,192,66733,1,8,0:0:0:0:
256,192,66812,1,0,0:0:0:0:
256,192,66891,1,8,0:0:0:0:
256,192,66971,1,0,0:0:0:0:
256,192,67050,1,8,0:0:0:0:
256,192,67130,1,0,0:0:0:0:
256,192,67209,1,8,0:0:0:0:
256,192,67288,1,0,0:0:0:0:
256,192,67368,1,8,0:0:0:0:
256,192,67447,1,0,0:0:0:0:
256,192,67526,1,8,0:0:0:0:
256,192,67606,1,0,0:0:0:0:
256,192,67685,1,8,0:0:0:0:
256,192,67765,1,0,0:0:0:0:
256,192,67844,1,8,0:0:0:0:
256,192,67923,1,0,0:0:0:0:
256,192,68003,1,8,0:0:0:0:
256,192,68082,1,0,0:0:0:0:
256,192,68161,1,8,0:0:0:0:
256,192,68241,1,0,0:0:0:0:
256,192,68320,1,8,0:0:0:0:
256,192,68399,1,0,0:0:0:0:
256,192,68479,1,8,0:0:0:0:
256,192,68558,1,0,0:0:0:0:
256,192,68677,1,0,0:0:0:0:
256,192,68796,1,8,0:0:0:0:
256,192,68915,1,8,0:0:0:0:
256,192,69034,1,0,0:0:0:0:
256,192,69153,1,8,0:0:0:0:
256,192,69391,1,0,0:0:0:0:
256,192,69451,1,0,0:0:0:0:
256,192,69511,1,8,0:0:0:0:
256,192,69630,1,0,0:0:0:0:
256,192,69689,1,0,0:0:0:0:
256,192,69868,1,0,0:0:0:0:
256,192,69987,1,8,0:0:0:0:
256,192,70145,1,0,0:0:0:0:
256,192,70225,1,8,0:0:0:0:
256,192,70304,1,8,0:0:0:0:
256,192,70463,1,12,0:0:0:0:
256,192,72368,1,8,0:0:0:0:
256,192,74272,1,0,0:0:0:0:
256,192,76177,1,0,0:0:0:0:
256,192,77130,1,0,0:0:0:0:
256,192,77606,1,8,0:0:0:0:
256,192,77725,1,8,0:0:0:0:
256,192,77844,1,0,0:0:0:0:
256,192,78082,1,12,0:0:0:0:
256,192,78201,1,0,0:0:0:0:
256,192,78320,1,8,0:0:0:0:
256,192,78439,1,8,0:0:0:0:
256,192,78558,1,0,0:0:0:0:
256,192,78717,1,8,0:0:0:0:
256,192,78796,1,8,0:0:0:0:
256,192,78915,1,8,0:0:0:0:
256,192,79034,1,0,0:0:0:0:
256,192,79153,1,8,0:0:0:0:
256,192,79391,1,0,0:0:0:0:
256,192,79451,1,0,0:0:0:0:
256,192,79511,1,8,0:0:0:0:
256,192,79749,1,8,0:0:0:0:
256,192,79868,1,0,0:0:0:0:
256,192,79987,1,8,0:0:0:0:
256,192,80284,1,0,0:0:0:0:
256,192,80344,1,8,0:0:0:0:
256,192,80403,1,8,0:0:0:0:
256,192,80463,1,0,0:0:0:0:
256,192,80582,1,0,0:0:0:0:
256,192,80701,1,8,0:0:0:0:
256,192,80820,1,8,0:0:0:0:
256,192,80939,1,0,0:0:0:0:
256,192,81058,1,8,0:0:0:0:
256,192,81296,1,0,0:0:0:0:
256,192,81415,1,8,0:0:0:0:
256,192,81534,1,0,0:0:0:0:
256,192,81653,1,8,0:0:0:0:
256,192,81891,1,0,0:0:0:0:
256,192,82011,1,8,0:0:0:0:
256,192,82050,1,8,0:0:0:0:
256,192,82130,1,0,0:0:0:0:
256,192,82209,1,8,0:0:0:0:
256,192,82249,1,8,0:0:0:0:
256,192,82368,1,0,0:0:0:0:
256,192,82487,1,8,0:0:0:0:
256,192,82526,1,8,0:0:0:0:
256,192,82606,1,0,0:0:0:0:
256,192,82685,1,8,0:0:0:0:
256,192,82725,1,8,0:0:0:0:
256,192,82844,1,0,0:0:0:0:
256,192,82963,1,8,0:0:0:0:
256,192,83003,1,8,0:0:0:0:
256,192,83082,1,0,0:0:0:0:
256,192,83161,1,8,0:0:0:0:
256,192,83201,1,8,0:0:0:0:
256,192,83320,1,0,0:0:0:0:
256,192,83439,1,0,0:0:0:0:
256,192,83558,1,8,0:0:0:0:
256,192,83796,1,8,0:0:0:0:
256,192,83915,1,0,0:0:0:0:
256,192,84034,1,0,0:0:0:0:
256,192,84153,1,8,0:0:0:0:
256,192,84272,1,0,0:0:0:0:
256,192,84391,1,8,0:0:0:0:
256,192,84451,1,0,0:0:0:0:
256,192,84511,1,8,0:0:0:0:
256,192,84630,1,8,0:0:0:0:
256,192,84749,1,0,0:0:0:0:
256,192,84907,1,0,0:0:0:0:
256,192,84987,1,8,0:0:0:0:
256,192,85046,1,0,0:0:0:0:
256,192,85106,1,8,0:0:0:0:
256,192,85165,1,0,0:0:0:0:
256,192,85225,1,8,0:0:0:0:
256,192,85344,1,8,0:0:0:0:
256,192,85463,1,0,0:0:0:0:
256,192,85582,1,0,0:0:0:0:
256,192,85701,1,8,0:0:0:0:
256,192,85761,1,0,0:0:0:0:
256,192,85820,1,8,0:0:0:0:
256,192,85880,1,8,0:0:0:0:
256,192,85939,1,0,0:0:0:0:
256,192,86058,1,8,0:0:0:0:
256,192,86177,1,0,0:0:0:0:
256,192,86296,1,8,0:0:0:0:
256,192,86356,1,0,0:0:0:0:
256,192,86415,1,0,0:0:0:0:
256,192,86534,1,8,0:0:0:0:
256,192,86653,1,0,0:0:0:0:
256,192,86772,1,8,0:0:0:0:
256,192,86832,1,0,0:0:0:0:
256,192,86891,1,8,0:0:0:0:
256,192,87011,1,8,0:0:0:0:
256,192,87130,1,0,0:0:0:0:
256,192,87249,1,8,0:0:0:0:
256,192,87368,1,8,0:0:0:0:
256,192,87487,1,8,0:0:0:0:
256,192,87606,1,0,0:0:0:0:
256,192,87784,1,0,0:0:0:0:
256,192,87963,1,0,0:0:0:0:
256,192,88082,1,8,0:0:0:0:
256,192,88261,1,8,0:0:0:0:
256,192,88558,1,8,0:0:0:0:
256,192,88737,1,8,0:0:0:0:
256,192,88915,1,8,0:0:0:0:
256,192,89034,1,0,0:0:0:0:
256,192,89272,1,8,0:0:0:0:
256,192,89511,1,0,0:0:0:0:
256,192,89630,1,0,0:0:0:0:
256,192,89749,1,8,0:0:0:0:
256,192,89868,1,8,0:0:0:0:
256,192,89987,1,0,0:0:0:0:
256,192,90106,1,8,0:0:0:0:
256,192,90225,1,0,0:0:0:0:
256,192,90284,1,8,0:0:0:0:
256,192,90344,1,0,0:0:0:0:
256,192,90463,1,0,0:0:0:0:
256,192,90582,1,8,0:0:0:0:
256,192,90701,1,8,0:0:0:0:
256,192,90820,1,0,0:0:0:0:
256,192,90880,1,0,0:0:0:0:
256,192,90939,1,8,0:0:0:0:
256,192,91058,1,8,0:0:0:0:
256,192,91177,1,0,0:0:0:0:
256,192,91237,1,8,0:0:0:0:
256,192,91296,1,0,0:0:0:0:
256,192,91356,1,0,0:0:0:0:
256,192,91415,1,8,0:0:0:0:
256,192,91891,1,8,0:0:0:0:
256,192,92130,1,8,0:0:0:0:
256,192,92249,1,0,0:0:0:0:
256,192,92368,1,8,0:0:0:0:
256,192,92487,1,0,0:0:0:0:
256,192,92606,1,8,0:0:0:0:
256,192,92725,1,0,0:0:0:0:
256,192,92784,1,8,0:0:0:0:
256,192,92844,1,0,0:0:0:0:
256,192,92903,1,0,0:0:0:0:
256,192,92963,1,8,0:0:0:0:
256,192,93082,1,0,0:0:0:0:
256,192,93141,1,0,0:0:0:0:
256,192,93201,1,8,0:0:0:0:
256,192,93261,1,8,0:0:0:0:
256,192,93320,1,0,0:0:0:0:
256,192,95225,1,0,0:0:0:0:
256,192,97130,1,0,0:0:0:0:
256,192,98082,1,0,0:0:0:0:
256,192,99034,1,0,0:0:0:0:
256,192,101177,1,8,0:0:0:0:
256,192,101257,1,8,0:0:0:0:
256,192,101415,1,8,0:0:0:0:
256,192,101574,1,8,0:0:0:0:
256,192,101733,1,0,0:0:0:0:
256,192,101891,1,0,0:0:0:0:
256,192,102130,1,0,0:0:0:0:
256,192,102209,1,0,0:0:0:0:
256,192,102368,1,8,0:0:0:0:
256,192,102526,1,8,0:0:0:0:
256,192,102685,1,0,0:0:0:0:
256,192,103082,1,8,0:0:0:0:
256,192,103161,1,8,0:0:0:0:
256,192,103320,1,8,0:0:0:0:
256,192,103479,1,8,0:0:0:0:
256,192,103638,1,0,0:0:0:0:
256,192,103796,1,0,0:0:0:0:
256,192,104034,1,8,0:0:0:0:
256,192,104114,1,8,0:0:0:0:
256,192,104272,1,8,0:0:0:0:
256,192,104431,1,8,0:0:0:0:
256,192,104590,1,0,0:0:0:0:
256,192,104749,1,0,0:0:0:0:
256,192,105145,1,8,0:0:0:0:
256,192,105225,1,8,0:0:0:0:
256,192,105701,1,0,0:0:0:0:
256,192,106098,1,8,0:0:0:0:
256,192,106177,1,8,0:0:0:0:
256,192,106653,1,0,0:0:0:0:
256,192,106812,1,8,0:0:0:0:
256,192,106971,1,8,0:0:0:0:
256,192,107130,1,0,0:0:0:0:
256,192,107288,1,0,0:0:0:0:
256,192,107447,1,0,0:0:0:0:
256,192,107606,1,8,0:0:0:0:
256,192,107784,1,8,0:0:0:0:
256,192,107963,1,8,0:0:0:0:
256,192,108082,1,0,0:0:0:0:
256,192,108261,1,0,0:0:0:0:
256,192,108439,1,0,0:0:0:0:
256,192,108558,1,8,0:0:0:0:
256,192,108677,1,8,0:0:0:0:
256,192,108796,1,8,0:0:0:0:
256,192,108915,1,0,0:0:0:0:
256,192,109153,1,0,0:0:0:0:
256,192,109272,1,8,0:0:0:0:
256,192,109391,1,8,0:0:0:0:
256,192,109511,1,0,0:0:0:0:
256,192,109630,1,8,0:0:0:0:
256,192,109868,1,0,0:0:0:0:
256,192,109927,1,0,0:0:0:0:
256,192,109987,1,8,0:0:0:0:
256,192,110225,1,8,0:0:0:0:
256,192,110463,1,8,0:0:0:0:
256,192,110761,1,0,0:0:0:0:
256,192,110820,1,8,0:0:0:0:
256,192,110880,1,8,0:0:0:0:
256,192,110939,1,0,0:0:0:0:
256,192,111058,1,8,0:0:0:0:
256,192,111177,1,0,0:0:0:0:
256,192,111296,1,8,0:0:0:0:
256,192,111356,1,8,0:0:0:0:
256,192,111415,1,0,0:0:0:0:
256,192,111475,1,0,0:0:0:0:
256,192,111534,1,8,0:0:0:0:
256,192,111653,1,0,0:0:0:0:
256,192,111772,1,0,0:0:0:0:
256,192,111891,1,8,0:0:0:0:
256,192,112130,1,8,0:0:0:0:
256,192,112249,1,8,0:0:0:0:
256,192,112368,1,0,0:0:0:0:
256,192,112725,1,8,0:0:0:0:
256,192,112844,1,0,0:0:0:0:
256,192,113082,1,8,0:0:0:0:
256,192,113320,1,0,0:0:0:0:
256,192,113439,1,8,0:0:0:0:
256,192,113677,1,8,0:0:0:0:
256,192,113796,1,0,0:0:0:0:
256,192,113915,1,0,0:0:0:0:
256,192,114034,1,8,0:0:0:0:
256,192,114272,1,0,0:0:0:0:
256,192,114630,1,8,0:0:0:0:
256,192,114749,1,0,0:0:0:0:
256,192,114907,1,0,0:0:0:0:
256,192,115066,1,0,0:0:0:0:
256,192,115225,1,8,0:0:0:0:
256,192,115463,1,0,0:0:0:0:
256,192,115701,1,0,0:0:0:0:
256,192,115939,1,0,0:0:0:0:
256,192,116177,1,12,0:0:0:0:
256,192,116415,1,8,0:0:0:0:
256,192,116534,1,8,0:0:0:0:
256,192,116653,1,0,0:0:0:0:
256,192,116772,1,0,0:0:0:0:
256,192,116891,1,8,0:0:0:0:
256,192,117130,1,0,0:0:0:0:
256,192,117249,1,8,0:0:0:0:
256,192,117368,1,8,0:0:0:0:
256,192,117487,1,0,0:0:0:0:
256,192,117606,1,0,0:0:0:0:
256,192,117725,1,8,0:0:0:0:
256,192,117844,1,8,0:0:0:0:
256,192,117963,1,8,0:0:0:0:
256,192,118082,1,0,0:0:0:0:
256,192,118141,1,8,0:0:0:0:
256,192,118201,1,0,0:0:0:0:
256,192,118261,1,8,0:0:0:0:
256,192,118320,1,0,0:0:0:0:
256,192,118439,1,0,0:0:0:0:
256,192,118558,1,8,0:0:0:0:
256,192,118677,1,0,0:0:0:0:
256,192,118737,1,8,0:0:0:0:
256,192,118796,1,0,0:0:0:0:
256,192,118915,1,8,0:0:0:0:
256,192,119034,1,0,0:0:0:0:
256,192,119153,1,8,0:0:0:0:
256,192,119272,1,8,0:0:0:0:
256,192,119332,1,8,0:0:0:0:
256,192,119391,1,0,0:0:0:0:
256,192,119511,1,8,0:0:0:0:
256,192,119630,1,8,0:0:0:0:
256,192,119749,1,0,0:0:0:0:
256,192,119868,1,8,0:0:0:0:
256,192,119987,1,0,0:0:0:0:
256,192,120046,1,8,0:0:0:0:
256,192,120106,1,0,0:0:0:0:
256,192,120165,1,0,0:0:0:0:
256,192,120225,1,8,0:0:0:0:
256,192,120344,1,8,0:0:0:0:
256,192,120463,1,0,0:0:0:0:
256,192,120701,1,8,0:0:0:0:
256,192,120820,1,0,0:0:0:0:
256,192,120939,1,8,0:0:0:0:
256,192,120999,1,8,0:0:0:0:
256,192,121058,1,0,0:0:0:0:
256,192,121177,1,0,0:0:0:0:
256,192,121296,1,8,0:0:0:0:
256,192,121415,1,0,0:0:0:0:
256,192,121475,1,0,0:0:0:0:
256,192,121534,1,8,0:0:0:0:
256,192,121653,1,8,0:0:0:0:
256,192,121772,1,0,0:0:0:0:
256,192,121891,1,0,0:0:0:0:
256,192,122249,1,8,0:0:0:0:
256,192,122368,1,0,0:0:0:0:
256,192,122487,1,8,0:0:0:0:
256,192,122546,1,8,0:0:0:0:
256,192,122606,1,0,0:0:0:0:
256,192,122725,1,0,0:0:0:0:
256,192,122844,1,8,0:0:0:0:
256,192,122923,1,0,0:0:0:0:
256,192,123022,1,8,0:0:0:0:
256,192,123082,1,8,0:0:0:0:
256,192,123201,1,8,0:0:0:0:
256,192,123320,1,0,0:0:0:0:
256,192,123399,1,8,0:0:0:0:
256,192,123479,1,8,0:0:0:0:
256,192,123558,1,0,0:0:0:0:
256,192,123618,1,0,0:0:0:0:
256,192,123677,1,8,0:0:0:0:
256,192,123737,1,8,0:0:0:0:
256,192,123796,1,0,0:0:0:0:
256,192,124034,1,8,0:0:0:0:
256,192,124153,1,8,0:0:0:0:
256,192,124272,1,0,0:0:0:0:
256,192,124391,1,8,0:0:0:0:
256,192,124630,1,8,0:0:0:0:
256,192,124749,1,0,0:0:0:0:
256,192,124987,1,8,0:0:0:0:
256,192,125106,1,8,0:0:0:0:
256,192,125225,1,0,0:0:0:0:
256,192,125344,1,0,0:0:0:0:
256,192,125403,1,0,0:0:0:0:
256,192,125463,1,8,0:0:0:0:
256,192,125701,1,0,0:0:0:0:
256,192,125939,1,8,0:0:0:0:
256,192,126058,1,8,0:0:0:0:
256,192,126177,1,0,0:0:0:0:
256,192,126296,1,0,0:0:0:0:
256,192,126415,1,8,0:0:0:0:
256,192,126534,1,8,0:0:0:0:
256,192,126594,1,8,0:0:0:0:
256,192,126653,1,0,0:0:0:0:
256,192,126772,1,8,0:0:0:0:
256,192,127011,1,8,0:0:0:0:
256,192,127130,1,0,0:0:0:0:
256,192,127249,1,0,0:0:0:0:
256,192,127368,1,8,0:0:0:0:
256,192,127606,1,0,0:0:0:0:
256,192,127844,1,0,0:0:0:0:
256,192,127963,1,8,0:0:0:0:
256,192,128082,1,0,0:0:0:0:
256,192,128201,1,0,0:0:0:0:
256,192,128320,1,8,0:0:0:0:
256,192,128558,1,8,0:0:0:0:
256,192,128677,1,0,0:0:0:0:
256,192,128796,1,0,0:0:0:0:
256,192,128915,1,8,0:0:0:0:
256,192,128975,1,0,0:0:0:0:
256,192,129034,1,8,0:0:0:0:
256,192,129272,1,8,0:0:0:0:
256,192,129391,1,0,0:0:0:0:
256,192,129511,1,0,0:0:0:0:
256,192,129749,1,8,0:0:0:0:
256,192,129808,1,0,0:0:0:0:
256,192,129868,1,8,0:0:0:0:
256,192,129927,1,8,0:0:0:0:
256,192,129987,1,0,0:0:0:0:
256,192,130106,1,0,0:0:0:0:
256,192,130225,1,8,0:0:0:0:
256,192,130284,1,8,0:0:0:0:
256,192,130344,1,0,0:0:0:0:
256,192,130403,1,0,0:0:0:0:
256,192,130463,1,8,0:0:0:0:
256,192,130582,1,0,0:0:0:0:
256,192,130641,1,0,0:0:0:0:
256,192,130701,1,8,0:0:0:0:
256,192,130761,1,0,0:0:0:0:
256,192,130820,1,8,0:0:0:0:
256,192,130880,1,8,0:0:0:0:
256,192,130939,1,0,0:0:0:0:
256,192,130999,1,8,0:0:0:0:
256,192,131058,1,0,0:0:0:0:
256,192,131118,1,0,0:0:0:0:
256,192,131177,1,8,0:0:0:0:
256,192,131237,1,0,0:0:0:0:
256,192,131296,1,8,0:0:0:0:
256,192,131415,1,0,0:0:0:0:
256,192,131653,1,8,0:0:0:0:
256,192,131772,1,8,0:0:0:0:
256,192,131891,1,0,0:0:0:0:
256,192,132011,1,8,0:0:0:0:
256,192,132249,1,8,0:0:0:0:
256,192,132368,1,0,0:0:0:0:
256,192,132427,1,0,0:0:0:0:
256,192,132487,1,8,0:0:0:0:
256,192,132665,1,0,0:0:0:0:
256,192,132765,1,0,0:0:0:0:
256,192,132844,1,8,0:0:0:0:
256,192,133082,1,8,0:0:0:0:
256,192,133201,1,8,0:0:0:0:
256,192,133320,1,0,0:0:0:0:
256,192,133558,1,8,0:0:0:0:
256,192,133677,1,0,0:0:0:0:
256,192,133796,1,0,0:0:0:0:
256,192,133915,1,8,0:0:0:0:
256,192,134153,1,0,0:0:0:0:
256,192,134272,1,8,0:0:0:0:
256,192,134431,1,8,0:0:0:0:
256,192,134590,1,8,0:0:0:0:
256,192,134749,1,0,0:0:0:0:
256,192,134987,1,0,0:0:0:0:
256,192,135225,1,8,0:0:0:0:
256,192,135463,1,8,0:0:0:0:
256,192,135582,1,8,0:0:0:0:
256,192,135701,1,0,0:0:0:0:
256,192,135939,1,0,0:0:0:0:
256,192,135999,1,0,0:0:0:0:
256,192,136058,1,8,0:0:0:0:
256,192,136118,1,8,0:0:0:0:
256,192,136177,1,0,0:0:0:0:
256,192,136296,1,0,0:0:0:0:
256,192,136415,1,0,0:0:0:0:
256,192,136534,1,8,0:0:0:0:
256,192,136653,1,8,0:0:0:0:
256,192,136772,1,0,0:0:0:0:
256,192,136891,1,8,0:0:0:0:
256,192,137011,1,0,0:0:0:0:
256,192,137130,1,8,0:0:0:0:
256,192,137189,1,0,0:0:0:0:
256,192,137249,1,8,0:0:0:0:
256,192,137308,1,8,0:0:0:0:
256,192,137368,1,0,0:0:0:0:
256,192,137427,1,8,0:0:0:0:
256,192,137487,1,0,0:0:0:0:
256,192,137546,1,0,0:0:0:0:
256,192,137606,1,8,0:0:0:0:
256,192,137665,1,0,0:0:0:0:
256,192,137725,1,8,0:0:0:0:
256,192,137784,1,8,0:0:0:0:
256,192,137844,1,0,0:0:0:0:
256,192,137903,1,8,0:0:0:0:
256,192,137963,1,0,0:0:0:0:
256,192,138022,1,0,0:0:0:0:
256,192,138082,1,8,0:0:0:0:
256,192,138201,1,0,0:0:0:0:
256,192,138261,1,0,0:0:0:0:
256,192,138320,1,8,0:0:0:0:
256,192,138380,1,8,0:0:0:0:
256,192,138439,1,8,0:0:0:0:
256,192,138499,1,8,0:0:0:0:
256,192,138558,1,0,0:0:0:0:
256,192,138618,1,0,0:0:0:0:
256,192,138677,1,0,0:0:0:0:
256,192,138737,1,0,0:0:0:0:
256,192,138796,1,8,0:0:0:0:
256,192,138856,1,8,0:0:0:0:
256,192,138915,1,8,0:0:0:0:
256,192,138975,1,8,0:0:0:0:
256,192,139034,1,0,0:0:0:0:
