osu file format v14

[General]
AudioFilename: audio.mp3
AudioLeadIn: 0
PreviewTime: 108637
Countdown: 0
SampleSet: Soft
StackLeniency: 0.4
Mode: 0
LetterboxInBreaks: 0
WidescreenStoryboard: 1

[Editor]
DistanceSpacing: 1
BeatDivisor: 8
GridSize: 32
TimelineZoom: 2.799999

[Metadata]
Title:eth ken
TitleUnicode:eth剣
Artist:tarolabo
ArtistUnicode:tarolabo
Creator:DeviousPanda
Version:hard
Source:THE BMS OF FIGHTERS 2010 -THE EVOLUTION OF WAR-
Tags:electronic instrumental video game team pink BOKKEN FUSION 浪漫映像制作倶楽部 DODOME MAGENTA ktgster iljaaz keqing down zetera sala-
BeatmapID:3616100
BeatmapSetID:1765453

[Difficulty]
HPDrainRate:3.4
CircleSize:3.6
OverallDifficulty:6.5
ApproachRate:8
SliderMultiplier:1.4
SliderTickRate:1

[Events]
//Background and Video events
0,0,"chrome_2022-05-16_18-04-45.jpg",0,0
//Break Periods
2,40306,43165
2,70782,73641
2,93639,100308
2,108877,111737
//Storyboard Layer 0 (Background)
//Storyboard Layer 1 (Fail)
//Storyboard Layer 2 (Pass)
//Storyboard Layer 3 (Foreground)
//Storyboard Layer 4 (Overlay)
//Storyboard Sound Samples

[TimingPoints]
2011,476.190476190476,4,2,1,70,1,0
2011,-83.3333333333333,4,2,1,70,0,0
5820,-71.4285714285714,4,2,1,70,0,0
23915,-71.4285714285714,4,2,1,60,0,0
40106,-71.4285714285714,4,2,1,50,0,0
47725,-71.4285714285714,4,2,1,70,0,0
70582,-71.4285714285714,4,2,1,50,0,0
78201,-66.6666666666667,4,2,1,85,0,1
91534,-66.6666666666667,4,2,1,65,0,1
93439,-71.4285714285714,4,2,1,55,0,0
112487,-71.4285714285714,4,2,1,80,0,0
116296,-66.6666666666667,4,2,1,85,0,1
122963,-71.4285714285714,4,2,1,80,0,0
123915,-62.5,4,2,1,90,0,1
139153,-71.4285714285714,4,2,1,50,0,0

[Colours]
Combo1 : 179,209,247
Combo2 : 247,155,203

[HitObjects]
111,141,2011,6,0,L|101:185,5,27.9999991455078,6|8|8|4|8|4,1:0|1:3|1:3|1:3|1:3|1:3,0:0:0:0:
132,196,2487,2,0,P|159:195|189:181,1,55.9999982910157,4|8,3:0|1:0,0:0:0:0:
203,132,2804,1,8,1:0:0:0:
203,132,2963,1,6,1:0:0:0:
373,219,3439,6,0,P|333:231|308:273,1,83.9999974365235,6|8,1:2|1:0,0:0:0:0:
284,294,3757,2,0,L|291:334,2,27.9999991455078,8|8|6,3:1|1:0|1:2,0:0:0:0:
248,271,4034,1,8,1:0:0:0:
207,281,4153,1,8,3:1:0:0:
68,170,4391,5,6,1:0:0:0:
15,152,4550,1,2,3:2:0:0:
6,95,4709,1,2,3:2:0:0:
41,53,4868,5,10,1:0:0:0:
130,99,5106,1,6,1:2:0:0:
65,173,5344,1,6,1:0:0:0:
147,222,5582,1,6,1:2:0:0:
78,376,5820,6,2,P|156:353|260:340,1,146.999995513916,6|8,1:0|1:0,0:1:0:0:
254,307,6296,2,0,L|334:325,1,48.9999985046387,4|2,1:3|3:2,0:0:0:0:
358,373,6534,5,2,1:2:0:0:
406,371,6653,1,2,3:0:0:0:
429,327,6772,1,6,1:2:0:0:
405,284,6891,2,0,L|256:313,1,146.999995513916,10|4,1:2|1:3,0:0:0:0:
171,271,7487,1,2,1:2:0:0:
246,208,7725,6,0,B|295:217|279:238|340:252,1,97.9999970092774,6|0,1:2|3:0,0:0:0:0:
351,233,8082,2,0,L|342:192,2,24.4999992523194,8|4|6,1:0|3:3|1:2,0:0:0:0:
414,279,8439,5,8,1:2:0:0:
456,190,8677,2,0,P|459:121|465:88,1,97.9999970092774,6|2,1:2|1:2,0:0:0:0:
498,58,9034,1,8,3:2:0:0:
498,58,9153,1,2,1:3:0:0:
418,0,9391,2,0,L|355:12,1,48.9999985046387,8|0,1:0|0:0,0:0:0:0:
311,61,9630,5,6,1:2:0:0:
280,29,9749,2,0,L|286:5,2,24.4999992523194,2|0|2,1:2|3:0|1:2,0:0:0:0:
229,85,9987,2,0,L|235:109,2,24.4999992523194,8|0|6,1:0|3:0|1:2,0:0:0:0:
181,23,10225,2,0,P|145:31|98:76,1,97.9999970092774,2|2,1:2|1:2,0:0:0:0:
111,85,10582,2,0,L|147:94,2,24.4999992523194,6|0|2,1:2|3:0|1:2,0:0:0:0:
49,134,10820,2,0,L|15:140,2,24.4999992523194,2|0|8,1:2|3:0|1:0,0:0:0:0:
108,187,11058,1,6,1:2:0:0:
119,219,11177,1,6,3:0:0:0:
106,255,11296,1,8,1:0:0:0:
154,328,11534,6,0,P|202:316|227:271,1,97.9999970092774,6|2,1:2|3:2,0:0:0:0:
211,242,11891,1,8,1:0:0:0:
211,242,12010,1,4,1:3:0:0:
291,182,12249,1,4,1:3:0:0:
345,267,12487,2,0,B|405:283|363:295|437:319,1,97.9999970092774,6|2,1:2|1:2,0:0:0:0:
446,303,12844,2,0,L|437:266,2,24.4999992523194,8|2|2,1:0|3:2|1:0,0:0:0:0:
464,188,13201,5,8,1:0:0:0:
394,121,13439,2,0,L|402:83,4,24.4999992523194,6|2|2|2|2,1:2|3:2|3:2|3:2|3:2,0:0:0:0:
263,225,13915,6,0,B|172:243|209:275|121:289,1,146.999995513916,0|0,1:0|0:0,0:0:0:0:
94,261,14391,1,6,1:2:0:0:
145,170,14630,1,10,3:0:0:0:
57,80,14868,2,0,P|22:119|20:184,1,97.9999970092774,4|8,1:3|1:3,0:0:0:0:
48,190,15225,1,0,1:0:0:0:
48,190,15344,1,6,1:2:0:0:
142,167,15582,1,2,1:3:0:0:
236,142,15820,1,6,1:2:0:0:
325,116,16058,1,8,1:0:0:0:
435,149,16296,6,0,P|465:189|455:270,1,130.666662679037,6|0,1:2|1:2,0:0:0:0:
475,294,16772,2,0,P|428:308|393:353,1,97.9999970092775,6|8,1:2|1:0,0:0:0:0:
360,261,17249,6,0,L|375:196,2,48.9999985046387,6|2|10,1:2|1:2|3:2,0:0:0:0:
331,284,17606,1,8,1:0:0:0:
331,284,17725,2,2,P|259:265|202:199,1,146.999995513916,6|2,1:2|3:0,0:1:0:0:
174,207,18201,2,0,P|177:164|189:144,1,48.9999985046387,6|0,1:2|3:0,0:0:0:0:
251,133,18439,1,2,1:2:0:0:
275,109,18558,1,8,1:0:0:0:
272,71,18677,1,0,1:0:0:0:
176,31,18915,6,0,L|138:40,4,24.4999992523194,8|2|2|2|6,1:0|3:2|3:2|3:2|1:2,0:0:0:0:
55,98,19391,2,0,L|78:103,4,24.4999992523194,2|0|8|2|2,3:0|3:0|1:0|3:2|1:3,0:0:0:0:
19,123,19749,1,8,1:3:0:0:
19,123,19868,1,4,1:3:0:0:
108,186,20106,2,0,P|134:224|150:326,1,146.999995513916,8|8,1:0|1:0,0:0:0:0:
164,338,20582,2,0,L|156:378,8,24.4999992523194,2|2|2|2|8|2|2|2|14,1:0|0:0|0:0|0:0|1:0|3:2|3:2|3:2|1:1,0:0:0:0:
25,202,21534,6,0,B|81:213|111:177|105:169|132:123|199:133,2,195.999994018555,6|6|6,1:2|1:2|1:2,0:0:0:0:
25,202,22963,1,6,1:2:0:0:
304,194,23439,5,2,3:2:0:0:
282,266,23677,1,2,3:2:0:0:
340,316,23915,2,0,B|396:304|426:340|420:348|447:394|514:384,2,195.999994018555,6|2|6,1:2|3:2|1:0,0:0:0:0:
190,377,25106,5,2,0:0:0:0:
145,315,25344,2,0,P|151:278|166:252,2,48.9999985046387,2|2|2,3:2|0:0|0:0,0:0:0:0:
111,336,25701,1,2,0:0:0:0:
111,336,25820,2,0,P|31:324|30:223,1,195.999994018555,2|2,3:2|3:2,0:0:0:0:
152,178,26534,6,0,L|186:172,4,24.4999992523194,8|2|8|2|6,1:0|3:0|3:2|3:0|1:2,0:0:0:0:
89,74,27249,5,6,1:2:0:0:
25,114,27487,2,0,L|0:109,4,24.4999992523194,8|8|2|10|6,1:2|0:0|3:0|1:2|1:2,0:0:0:0:
93,78,27963,2,0,L|117:73,4,24.4999992523194,8|0|0|0|6,1:0|3:0|3:0|3:0|1:2,0:0:0:0:
34,25,28439,1,2,3:0:0:0:
175,0,28677,6,0,B|227:11|207:26|266:39,1,97.9999970092774,6|2,1:2|3:0,0:0:0:0:
287,73,29034,1,2,3:0:0:0:
287,73,29153,1,6,1:2:0:0:
368,15,29391,1,2,3:2:0:0:
439,124,29630,2,0,B|457:157|457:157|440:200,2,73.4999977569581,14|0|0,1:2|3:0|3:0,0:0:0:0:
419,121,30106,1,14,1:2:0:0:
323,199,30344,6,0,L|282:193,4,24.4999992523194,10|10|10|10|6,1:2|3:2|3:2|3:2|1:2,0:0:0:0:
427,282,30820,2,0,L|468:276,4,24.4999992523194,2|2|2|2|6,3:2|3:3|1:2|1:3|1:2,0:0:0:0:
284,366,31296,2,0,L|243:360,4,24.4999992523194,8|10|10|10|6,1:2|3:2|3:2|3:2|1:2,0:0:0:0:
365,384,31653,1,2,3:0:0:0:
365,384,31772,2,0,L|354:314,1,48.9999985046387,8|2,1:2|3:0,0:0:0:0:
340,305,32010,2,0,L|347:275,6,24.4999992523194,8|10|10|10|10|10|10,1:0|3:2|3:2|3:2|3:2|3:2|3:2,0:0:0:0:
405,221,32487,6,0,P|396:178|371:128,1,97.9999970092774,6|0,1:2|3:0,0:0:0:0:
373,87,32844,1,2,3:0:0:0:
373,87,32963,2,0,B|314:96|350:121|278:139,1,97.9999970092774,6|2,1:2|3:0,0:0:0:0:
254,123,33320,1,2,3:2:0:0:
254,123,33439,1,6,1:2:0:0:
177,194,33677,2,0,P|169:160|158:140,1,48.9999985046387,0|8,3:0|3:0,0:0:0:0:
121,127,33915,1,6,1:2:0:0:
167,45,34153,2,0,L|208:35,2,24.4999992523194,8|8|8,3:2|0:0|3:2,0:0:0:0:
129,26,34391,6,0,P|94:21|74:11,1,48.9999985046387,6|2,1:2|3:2,0:0:0:0:
47,39,34630,1,2,3:0:0:0:
0,129,34868,2,0,P|14:176|18:238,1,97.9999970092774,6|10,1:2|3:2,0:0:0:0:
38,248,35225,2,0,L|30:289,2,24.4999992523194,10|10|6,3:2|3:2|1:2,0:0:0:0:
128,214,35582,1,8,1:2:0:0:
183,291,35820,2,0,P|235:303|282:334,1,97.9999970092774,6|2,1:2|3:0,0:0:0:0:
318,310,36177,1,8,3:2:0:0:
318,310,36296,1,14,1:2:0:0:
421,368,36653,5,8,3:0:0:0:
421,368,36772,2,0,P|446:323|435:264,1,97.9999970092774,6|2,1:2|3:0,0:0:0:0:
419,258,37130,1,2,3:2:0:0:
419,258,37249,2,0,L|375:248,4,24.4999992523194,6|2|2|2|2,1:2|0:0|3:2|3:2|3:0,0:0:0:0:
490,219,37606,5,8,3:3:0:0:
490,219,37725,2,0,P|493:171|510:121,1,97.9999970092774,6|10,1:2|3:2,0:0:0:0:
491,94,38082,5,10,3:2:0:0:
491,94,38201,2,0,P|442:103|426:124,1,65.3333313395183,14|2,1:2|3:2,0:0:0:0:
368,157,38518,2,0,P|336:142|318:115,1,65.3333313395183,2|6,3:2|1:2,0:0:0:0:
255,75,38836,2,0,P|271:34|295:19,1,65.3333313395183,2|2,3:2|3:2,0:0:0:0:
364,33,39153,1,14,1:2:0:0:
205,152,39630,1,14,1:2:0:0:
37,49,40106,1,6,1:0:0:0:
256,192,43915,12,2,46296,0:1:0:0:
256,192,46772,5,2,0:1:0:0:
256,192,47249,5,2,0:1:0:0:
256,192,47725,6,2,P|329:163|362:163,1,97.9999970092774,6|0,1:0|3:0,0:1:0:0:
379,124,48082,1,0,1:0:0:0:
379,124,48201,2,0,P|403:142|433:149,1,48.9999985046387,2|4,1:2|3:0,0:0:0:0:
468,208,48439,1,8,1:3:0:0:
482,254,48558,1,2,1:2:0:0:
447,289,48677,1,6,1:2:0:0:
356,258,48915,1,2,3:0:0:0:
274,326,49153,2,0,B|220:311|247:292|182:281,1,97.9999970092774,6|8,1:2|1:2,0:0:0:0:
157,256,49510,5,8,0:0:0:0:
157,256,49630,2,0,P|126:300|119:361,1,97.9999970092774,6|8,1:2|3:2,0:0:0:0:
39,227,50106,2,0,P|28:179|0:140,1,97.9999970092774,6|2,1:2|3:0,0:0:0:0:
7,125,50463,2,0,L|47:134,2,24.4999992523194,0|8|6,3:0|0:0|1:2,0:0:0:0:
82,64,50820,2,0,L|105:58,4,24.4999992523194,10|2|8|2|6,3:2|3:2|1:2|3:2|1:2,0:0:0:0:
167,124,51296,1,8,1:2:0:0:
230,50,51534,5,6,1:2:0:0:
262,38,51653,1,2,3:2:0:0:
301,48,51772,2,0,P|314:86|308:150,1,97.9999970092774,8|6,3:2|1:2,0:0:0:0:
233,196,52249,1,0,1:0:0:0:
302,257,52487,6,0,L|380:238,1,65.3333313395183,6|2,1:2|3:2,0:0:0:0:
413,181,52804,1,2,1:2:0:0:
478,220,52963,1,6,1:2:0:0:
398,283,53201,6,0,L|364:276,4,24.4999992523194,10|2|2|2|6,3:2|3:2|1:2|3:2|1:2,0:0:0:0:
489,374,53677,2,0,L|512:369,4,24.4999992523194,10|2|2|2|6,3:2|3:2|1:2|3:2|1:2,0:0:0:0:
501,280,54153,6,0,L|508:246,4,24.4999992523194,2|2|2|2|6,3:0|3:2|1:2|3:2|1:2,0:0:0:0:
400,370,54630,1,2,3:2:0:0:
368,373,54749,1,10,3:2:0:0:
339,358,54868,1,6,1:2:0:0:
280,271,55106,1,8,1:3:0:0:
190,322,55344,6,0,B|125:332|158:347|91:355,1,97.9999970092775,6|8,1:2|1:2,0:0:0:0:
63,337,55701,1,10,3:0:0:0:
63,337,55820,2,0,P|53:272|79:244,1,97.9999970092774,6|0,1:2|3:0,0:0:0:0:
111,240,56177,1,2,3:0:0:0:
111,240,56296,1,6,1:2:0:0:
166,154,56534,2,0,L|155:92,1,48.9999985046387,2|10,3:0|3:2,0:0:0:0:
124,85,56772,2,0,P|81:89|50:141,1,97.9999970092774,6|10,1:2|1:2,0:0:0:0:
61,146,57130,2,0,L|92:154,2,24.4999992523194,2|2|6,3:0|3:2|1:2,0:0:0:0:
195,234,57487,6,0,P|239:220|297:212,1,97.9999970092774,8|6,3:2|1:2,0:0:0:0:
319,180,57844,1,10,3:2:0:0:
319,180,57963,1,4,3:0:0:0:
388,250,58201,1,14,1:2:0:0:
424,248,58320,1,2,3:0:0:0:
443,220,58439,2,0,P|445:173|422:113,2,97.9999970092774,2|6|10,1:2|1:2|3:2,0:0:0:0:
361,323,59153,6,0,B|305:330|325:355|263:361,1,97.9999970092774,6|10,1:2|3:2,0:0:0:0:
235,335,59510,1,10,3:2:0:0:
235,335,59630,2,0,P|224:291|241:240,1,97.9999970092774,6|10,1:2|3:2,0:0:0:0:
272,233,59987,1,4,3:0:0:0:
272,233,60106,2,0,L|309:239,4,24.4999992523194,6|2|2|2|8,1:2|3:2|3:2|3:2|3:2,0:0:0:0:
187,175,60582,2,0,L|82:195,1,97.9999970092774,6|8,1:2|1:2,0:0:0:0:
60,167,60939,5,2,1:2:0:0:
60,167,61058,2,0,P|68:125|101:99,1,65.3333313395183,6|0,1:2|1:0,0:0:0:0:
95,32,61376,1,0,1:0:0:0:
142,50,61534,2,0,P|180:40|208:12,1,65.3333313395183,6|2,1:2|1:2,0:0:0:0:
279,30,61852,1,2,3:0:0:0:
304,68,62010,2,0,L|290:152,2,65.3333313395183,6|8|2,1:2|0:0|1:2,0:0:0:0:
372,31,62487,2,0,P|414:34|445:88,1,97.9999970092774,6|8,1:2|3:2,0:0:0:0:
432,89,62844,2,0,L|398:96,2,24.4999992523194,2|0|6,1:2|1:0|1:0,0:0:0:0:
483,153,63122,6,0,P|486:191|454:224,1,65.3333313395183,2|2,3:2|1:2,0:0:0:0:
458,290,63439,2,0,P|405:277|390:256,1,65.3333313395183,2|2,3:2|3:2,0:0:0:0:
352,205,63757,1,0,1:0:0:0:
315,189,63915,2,0,P|272:210|256:270,1,97.9999970092775,8|2,1:2|1:2,0:0:0:0:
177,286,64272,5,2,1:2:0:0:
177,286,64391,2,0,P|175:243|156:180,1,97.9999970092774,2|8,1:2|0:0,0:0:0:0:
126,177,64749,1,2,3:2:0:0:
100,196,64868,1,6,1:2:0:0:
12,132,65106,1,2,1:2:0:0:
92,65,65344,2,0,B|145:54|120:38|182:22,1,97.9999970092774,2|2,1:2|1:2,0:0:0:0:
213,49,65701,1,2,3:2:0:0:
213,49,65820,1,6,1:2:0:0:
297,15,66058,1,2,3:0:0:0:
322,38,66177,1,8,0:0:0:0:
321,73,66296,2,0,P|307:109|299:175,1,97.9999970092774,6|0,1:2|1:0,0:0:0:0:
408,245,66772,6,0,P|433:235|445:222,5,32.6666656697591,6|2|2|2|2|2,1:2|3:2|3:2|1:2|3:2|3:2,0:0:0:0:
387,287,67249,2,0,P|372:309|370:327,5,32.6666656697591,2|2|2|2|2|8,1:2|3:2|3:2|1:2|3:2|3:0,0:0:0:0:
379,240,67725,2,0,P|377:213|368:197,5,32.6666656697591,14|2|2|2|2|2,1:2|0:0|3:2|0:0|1:2|0:0,0:0:0:0:
412,272,68201,2,0,P|429:292|445:300,5,32.6666656697591,2|2|2|2|2|2,1:2|0:0|1:2|0:0|3:2|3:2,0:0:0:0:
365,266,68677,6,0,P|338:259|308:261,1,48.9999985046387,6|2,1:2|3:2,0:0:0:0:
283,229,68915,2,0,P|251:240|218:242,1,48.9999985046387,10|8,3:2|3:0,0:0:0:0:
171,292,69153,5,2,1:0:0:0:
171,292,69630,1,2,1:0:0:0:
171,292,70106,1,2,1:0:0:0:
109,212,70582,5,6,1:0:0:0:
256,192,74391,12,8,77725,1:0:0:0:
327,343,78201,6,0,P|325:273|302:227,1,105.000004005432,6|2,1:0|1:2,0:0:0:0:
314,204,78558,1,8,3:0:0:0:
314,204,78677,1,6,1:2:0:0:
233,149,78915,1,2,1:2:0:0:
214,162,79034,1,2,3:2:0:0:
203,184,79153,1,6,1:2:0:0:
205,213,79272,1,2,3:2:0:0:
312,241,79510,6,0,L|355:225,2,26.2500010013581,8|4|6,1:0|1:3|1:2,0:0:0:0:
211,326,79868,1,2,3:2:0:0:
211,326,79987,1,8,1:0:0:0:
211,326,80106,2,0,P|166:295|95:297,1,105.000004005432,6|2,1:2|1:2,0:0:0:0:
63,350,80463,2,0,P|57:360|57:382,2,26.2500010013581,8|4|4,1:3|3:0|1:3,0:0:0:0:
37,276,80701,5,2,1:2:0:0:
37,276,80820,2,0,P|36:241|26:211,1,52.5000020027161,8|8,1:0|3:2,0:0:0:0:
66,153,81058,2,0,B|144:131|144:131|214:185,1,157.500006008148,6|0,1:2|0:0,0:0:0:0:
234,162,81534,2,0,L|248:41,1,105.000004005432,0|8,1:0|1:0,0:0:0:0:
381,10,82010,5,6,1:0:0:0:
421,45,82130,2,0,L|455:38,2,26.2500010013581,2|0|2,1:2|1:0|1:2,0:0:0:0:
357,94,82368,5,8,1:0:0:0:
410,151,82487,1,6,1:2:0:0:
370,178,82606,2,0,L|336:171,2,26.2500010013581,2|0|8,1:2|1:0|1:2,0:0:0:0:
430,229,82844,5,2,1:2:0:0:
377,286,82963,1,6,1:2:0:0:
417,313,83082,2,0,L|451:306,2,26.2500010013581,2|0|2,1:2|1:0|1:2,0:0:0:0:
332,371,83439,5,8,1:0:0:0:
332,371,83558,1,2,1:2:0:0:
332,371,83677,2,0,P|300:354|267:344,1,52.5000020027161,6|0,1:2|0:0,0:0:0:0:
284,310,83915,2,2,P|220:348|180:352,1,105.000004005432,6|2,1:0|3:0,0:1:0:0:
134,296,84272,1,8,3:2:0:0:
120,278,84391,2,0,P|123:230|140:197,2,78.7500030040742,0|8|2,1:0|3:0|1:2,0:0:0:0:
114,384,84868,5,8,1:0:0:0:
25,339,85106,2,0,L|-5:344,4,26.2500010013581,6|0|8|0|2,1:2|1:0|1:0|1:0|1:1,0:0:0:0:
46,311,85463,1,8,3:0:0:0:
46,311,85582,1,8,1:0:0:0:
138,209,85820,6,0,L|168:214,4,26.2500010013581,6|2|2|2|2,1:2|3:2|3:2|3:2|3:2,0:0:0:0:
116,185,86177,1,10,3:2:0:0:
116,185,86296,2,0,P|108:132|141:82,1,105.000004005432,6|8,1:2|1:3,0:0:0:0:
209,66,86653,1,2,1:2:0:0:
209,66,86772,1,6,1:2:0:0:
256,153,87010,1,2,1:2:0:0:
355,135,87249,2,0,P|371:89|377:29,1,105.000004005432,6|8,1:2|1:3,0:0:0:0:
418,3,87606,1,2,1:2:0:0:
418,3,87725,1,6,1:2:0:0:
488,43,87884,6,0,P|506:76|501:112,1,70.0000026702882,2|2,3:2|3:2,0:0:0:0:
506,186,88201,2,0,P|476:209|443:210,1,70.0000026702882,2|2,1:2|3:2,0:0:0:0:
374,249,88518,1,2,1:2:0:0:
336,262,88677,2,0,P|309:294|306:330,2,70.0000026702882,6|2|2,1:0|1:2|3:2,0:0:0:0:
450,298,89153,5,6,1:2:0:0:
450,298,89391,1,2,3:0:0:0:
361,180,89630,6,2,P|359:128|329:52,1,105.000004005432,6|2,1:0|3:0,0:1:0:0:
276,46,89987,1,8,1:0:0:0:
276,46,90106,1,6,1:0:0:0:
209,121,90344,1,8,1:0:0:0:
115,85,90582,2,0,B|58:103|79:127|23:141,1,105.000004005432,6|8,1:2|3:0,0:0:0:0:
5,174,90939,1,8,1:0:0:0:
5,174,91058,1,8,1:3:0:0:
77,240,91296,1,8,1:0:0:0:
6,318,91534,6,0,B|-12:349|-12:349|3:391,2,70.0000026702882,6|2|2,1:0|3:2|3:2,0:0:0:0:
80,348,92010,2,0,B|105:342|105:342|138:298|138:298|185:286,2,105.000004005432,2|2|2,0:1|0:1|0:1,0:0:0:0:
218,237,92725,2,0,B|241:243|241:243|274:287|274:287|299:294,2,105.000004005432,2|2|2,0:1|0:1|0:1,0:0:0:0:
169,160,93439,5,6,0:2:0:0:
255,193,101058,5,6,1:2:0:0:
341,101,101296,6,0,L|357:62,1,32.6666656697591,2|2,3:2|3:2,0:0:0:0:
312,3,101534,2,0,L|247:23,1,65.3333313395183,2|2,3:2|3:2,0:0:0:0:
188,73,101852,2,0,L|103:46,1,65.3333313395183,2|6,3:2|3:2,0:0:0:0:
172,166,102249,6,0,L|183:210,1,32.6666656697591,2|2,3:2|3:2,0:0:0:0:
148,268,102487,2,0,B|115:274|115:274|83:243,2,65.3333313395183,2|2|2,3:2|3:2|3:2,0:0:0:0:
255,193,102963,5,6,3:2:0:0:
340,249,103201,6,0,L|386:240,1,32.6666656697591,2|2,3:2|3:2,0:0:0:0:
442,279,103439,2,0,L|468:204,1,65.3333313395183,2|2,3:2|3:2,0:0:0:0:
510,155,103757,2,0,L|478:83,1,65.3333313395183,2|6,3:2|3:2,0:0:0:0:
327,6,104153,6,0,L|318:58,1,32.6666656697591,2|2,3:2|3:2,0:0:0:0:
272,99,104391,2,0,P|284:135|290:177,2,65.3333313395183,2|2|2,3:2|3:2|3:2,0:0:0:0:
245,23,104868,5,6,3:2:0:0:
253,288,105264,6,0,L|258:249,1,32.6666656697591,2|2,3:2|3:2,0:0:0:0:
275,96,105820,5,4,3:2:0:0:
263,324,106217,6,0,L|258:285,1,32.6666656697591,2|2,3:2|3:2,0:0:0:0:
237,169,106772,5,4,3:2:0:0:
309,198,106931,2,0,P|348:185|366:164,1,65.3333313395183,2|2,3:2|3:2,0:0:0:0:
442,155,107249,2,0,P|447:114|424:84,2,65.3333313395183,2|2|2,3:2|3:2|3:2,0:0:0:0:
441,236,107725,6,0,L|529:255,2,73.4999977569581,6|2|2,1:2|3:2|3:2,0:0:0:0:
412,269,108201,2,0,L|324:288,2,73.4999977569581,6|2|2,1:2|3:2|3:2,0:0:0:0:
459,332,108677,5,6,1:2:0:0:
87,94,112487,6,0,P|117:68|194:68,1,97.9999970092774,6|2,1:0|1:2,0:0:0:0:
197,88,112844,1,4,1:3:0:0:
197,88,112963,1,8,1:0:0:0:
375,201,113439,6,0,P|345:175|268:175,1,97.9999970092774,2|2,1:0|1:2,0:0:0:0:
265,195,113796,1,2,1:2:0:0:
265,195,113915,1,8,1:0:0:0:
298,281,114153,1,6,3:2:0:0:
209,335,114391,6,0,B|151:325|176:307|114:290,1,97.9999970092774,6|2,1:0|3:0,0:0:0:0:
81,304,114749,1,0,1:0:0:0:
81,304,114868,2,0,P|64:273|65:227,1,65.3333313395183,2|2,1:0|1:2,0:0:0:0:
23,174,115185,1,2,1:2:0:0:
96,149,115344,1,2,1:0:0:0:
42,58,115582,6,0,L|38:28,4,24.4999992523194,0|2|2|2|8,1:0|1:2|1:2|1:2|1:0,0:0:0:0:
98,122,115939,1,2,1:2:0:0:
98,122,116058,2,0,L|89:161,2,24.4999992523194,8|2|2,1:0|1:2|1:2,0:0:0:0:
158,48,116296,6,2,P|209:47|422:198,1,315.000012016297,6|10,1:0|0:2,0:1:0:0:
486,236,117130,1,2,3:2:0:0:
486,236,117249,2,0,P|469:264|465:291,1,52.5000020027161,6|0,1:2|1:2,0:0:0:0:
436,324,117487,2,0,P|427:286|412:264,1,52.5000020027161,4|8,3:0|1:0,0:0:0:0:
346,257,117725,1,2,1:2:0:0:
294,337,117963,1,2,1:2:0:0:
226,266,118201,6,0,L|232:236,4,26.2500010013581,6|2|2|2|2,1:2|3:2|3:2|3:2|3:2,0:0:0:0:
169,321,118558,1,8,1:0:0:0:
169,321,118677,2,0,P|123:325|104:307,1,70.0000026702882,2|2,1:2|3:2,0:0:0:0:
28,308,118995,2,0,P|21:259|45:231,1,70.0000026702882,2|6,3:2|1:2,0:0:0:0:
119,225,119272,5,0,3:2:0:0:
138,204,119391,1,2,1:2:0:0:
142,175,119510,1,2,3:2:0:0:
126,148,119630,2,0,L|72:134,1,52.5000020027161,8|2,1:2|1:2,0:0:0:0:
3,166,119868,2,0,L|61:154,1,52.5000020027161,8|2,1:0|3:2,0:0:0:0:
28,25,120106,6,0,L|35:-3,4,26.2500010013581,6|2|2|2|0,1:2|1:2|1:2|1:2|1:0,0:0:0:0:
101,63,120463,1,8,1:0:0:0:
101,63,120582,2,0,P|147:39|206:29,1,105.000004005432,6|8,1:0|1:0,0:0:0:0:
242,99,120939,1,2,3:0:0:0:
242,99,121058,2,0,L|245:134,2,26.2500010013581,6|2|2,1:2|3:2|3:0,0:0:0:0:
297,37,121296,5,2,3:0:0:0:
338,42,121415,1,2,1:2:0:0:
355,74,121534,2,0,P|350:108|327:144,1,52.5000020027161,6|2,1:2|3:2,0:0:0:0:
375,194,121772,2,0,P|357:222|349:247,1,52.5000020027161,8|2,1:0|3:2,0:0:0:0:
397,315,122010,6,0,P|448:307|487:261,1,105.000004005432,6|0,1:2|1:0,0:0:0:0:
475,226,122368,1,8,1:0:0:0:
475,226,122487,1,2,1:2:0:0:
511,138,122725,1,2,1:2:0:0:
447,62,122963,6,0,L|457:20,5,32.6666656697591,6|2|2|2|2|2,1:0|1:2|1:2|1:2|1:2|1:2,0:0:0:0:
375,103,123439,6,0,L|365:134,6,24.4999992523194,2|2|2|2|8|4|8,1:2|3:2|3:2|3:2|1:0|1:3|1:3,0:0:0:0:
337,21,123915,6,0,P|289:9|230:39,1,112,6|2,1:0|1:2,0:0:0:0:
229,116,124272,1,2,1:2:0:0:
229,116,124391,2,0,P|239:144|240:195,1,56,8|2,1:0|3:2,0:0:0:0:
174,212,124630,2,0,P|141:185|125:162,1,56,2|0,1:3|1:0,0:0:0:0:
128,56,124868,5,6,1:2:0:0:
44,151,125106,1,8,1:0:0:0:
44,151,125225,1,2,3:0:0:0:
44,151,125344,2,0,L|56:264,1,112,6|2,1:2|1:2,0:0:0:0:
98,330,125701,1,2,3:2:0:0:
98,330,125820,2,0,B|127:338|127:338|164:312,1,56,6|8,1:2|3:0,0:0:0:0:
206,271,126058,2,0,B|235:263|235:263|272:289,1,56,8|0,1:0|0:0,0:0:0:0:
310,358,126296,5,6,1:2:0:0:
310,358,126415,2,0,P|367:344|396:291,1,112,2|8,3:2|3:0,0:0:0:0:
367,230,126772,2,0,P|351:193|350:158,1,56,6|8,1:2|1:0,0:0:0:0:
422,147,127010,2,0,L|451:156,2,28,2|2|2,3:0|3:2|3:2,0:0:0:0:
335,54,127249,5,6,1:2:0:0:
335,54,127487,1,6,1:2:0:0:
236,120,127725,6,0,B|177:104|204:78|134:62,1,112,6|0,1:0|0:0,0:0:0:0:
78,110,128082,1,8,1:2:0:0:
78,110,128201,2,0,P|70:146|77:166,1,56,2|2,1:2|3:2,0:0:0:0:
136,211,128439,2,0,P|149:246|145:273,1,56,6|0,1:2|0:0,0:2:0:0:
115,355,128677,6,0,L|227:332,1,112,6|2,1:2|1:2,0:0:0:0:
282,283,129034,1,8,1:0:0:0:
282,283,129153,2,0,L|291:245,4,28,6|2|2|2|8,1:2|3:2|3:2|3:2|1:0,0:0:0:0:
338,351,129510,5,2,1:2:0:0:
338,351,129630,2,0,P|372:346|396:324,1,56,6|8,1:0|1:3,0:0:0:0:
463,313,129868,2,0,P|474:277|462:240,1,56,2|8,1:2|1:0,0:0:0:0:
412,214,130106,1,6,1:2:0:0:
412,214,130225,2,0,L|353:200,1,56,2|8,1:2|1:3,0:0:0:0:
313,141,130463,1,2,1:2:0:0:
313,141,130582,1,2,1:2:0:0:
387,39,130820,6,0,L|396:11,10,28,6|0|0|0|0|0|6|2|2|2|8,1:0|1:3|1:3|1:0|1:0|1:0|1:2|1:2|1:2|1:2|1:0,0:0:0:0:
308,51,131534,6,0,P|265:43|239:25,1,56,6|0,1:0|0:0,0:0:0:0:
180,61,131772,2,0,P|139:68|114:83,1,56,0|8,1:2|1:0,0:0:0:0:
93,148,132010,1,2,1:2:0:0:
93,148,132130,2,0,L|110:263,1,112,2|8,3:0|3:0,0:0:0:0:
34,285,132487,6,0,B|96:297|70:326|131:341,1,112,6|2,1:2|3:0,0:0:0:0:
197,384,132844,1,8,1:0:0:0:
197,384,132963,2,0,L|255:366,1,56,6|0,1:2|0:0,0:0:0:0:
288,297,133201,2,0,L|219:280,1,56,0|8,1:0|1:0,0:0:0:0:
206,209,133439,6,0,P|205:177|220:153,1,56,6|0,1:2|0:0,0:0:0:0:
274,104,133677,2,0,P|283:81|283:68,2,28,8|2|8,1:2|3:2|1:0,0:0:0:0:
326,172,133915,1,0,1:0:0:0:
326,172,134034,2,0,P|380:178|448:206,1,112,2|2,1:2|1:2,0:0:0:0:
512,151,134391,5,6,1:0:0:0:
499,75,134550,1,2,1:2:0:0:
425,48,134709,1,2,3:2:0:0:
357,93,134868,5,6,1:2:0:0:
357,93,135106,1,8,1:0:0:0:
433,197,135344,6,0,P|448:248|440:308,1,112,6|2,1:0|3:2,0:0:0:0:
486,372,135701,2,0,L|523:386,2,28,0|0|6,1:2|1:0|1:2,0:0:0:0:
408,381,135939,1,2,1:2:0:0:
378,362,136058,2,0,L|351:371,2,28,8|2|2,1:0|1:2|1:2,0:0:0:0:
440,305,136296,2,0,P|448:250|433:197,1,112,6|2,1:2|1:2,0:0:0:0:
368,154,136653,1,2,1:2:0:0:
306,198,136772,2,0,L|297:244,2,28,6|0|0,1:2|1:0|1:0,0:0:0:0:
262,133,137010,2,0,L|253:87,2,28,8|2|10,1:0|1:2|1:2,0:0:0:0:
173,223,137249,6,0,L|141:232,14,28,6|0|2|0|2|0|2|0|2|0|6|2|2|2|2,1:0|1:0|1:2|1:0|1:2|1:0|1:2|1:0|1:2|1:0|1:2|1:2|1:2|1:2|1:2,0:0:0:0:
266,137,138201,2,0,L|286:110,2,28,6|0|2,1:0|1:0|1:2,0:0:0:0:
241,261,138439,2,0,L|239:294,2,28,2|2|2,1:2|1:2|1:2,0:0:0:0:
188,145,138677,2,0,L|169:117,2,28,2|2|2,1:2|1:2|1:2,0:0:0:0:
299,207,138915,2,0,L|330:218,4,28,2|2|8|4|4,1:2|1:2|1:3|1:3|1:0,0:0:0:0:
