osu file format v14

[General]
AudioFilename: x1.mp3
AudioLeadIn: -1900
PreviewTime: 76920
Countdown: 0
SampleSet: Normal
StackLeniency: 0.7
Mode: 1
LetterboxInBreaks: 0
WidescreenStoryboard: 0

[Editor]
DistanceSpacing: 0.5
BeatDivisor: 3
GridSize: 32
TimelineZoom: 2

[Metadata]
Title:NijiBishox1HadairoSenjoSenjo
TitleUnicode:虹微笑x1肌色扇情扇情
Artist:tarolabo
ArtistUnicode:tarolabo
Creator:Nyan
Version:Kantan
Source:BMS
Tags:
BeatmapID:730607
BeatmapSetID:328741

[Difficulty]
HPDrainRate:7
CircleSize:2
OverallDifficulty:3
ApproachRate:0
SliderMultiplier:1.4
SliderTickRate:1

[Events]
//Background and Video events
0,0,"sample_38c446d7ed776ccf859af529ae2dd5d05f8eef2c.jpg",0,0
//Break Periods
2,47649,52111
//Storyboard Layer 0 (Background)
//Storyboard Layer 1 (Fail)
//Storyboard Layer 2 (Pass)
//Storyboard Layer 3 (Foreground)
//Storyboard Sound Samples

[TimingPoints]
7296,461.538461538462,4,1,0,70,1,0
53911,230.769230769231,4,1,0,100,1,0
53911,-200,4,1,0,100,0,0
54834,-200,4,1,0,100,0,1
68218,208.333333333333,4,1,0,100,1,0
68426,245.901639344262,4,1,0,100,1,0
68671,294.117647058824,4,1,0,100,1,0
68965,312.5,4,1,0,100,1,0
69277,340.909090909091,4,1,0,100,1,0
69617,375,4,1,0,100,1,0
69992,461.538461538462,4,1,0,100,1,0
70915,461.538461538462,4,1,0,100,1,0
76689,461.538461538462,4,1,0,85,1,0
76920,461.538461538462,4,1,0,85,1,0
84299,230.769230769231,4,1,0,100,1,1
84299,-200,4,1,0,97,0,1
106452,-200,4,1,0,97,0,0
112027,461.538461538462,4,1,0,80,1,0

[HitObjects]
256,192,7296,5,0,0:0:0:0:
256,192,8219,1,0,0:0:0:0:
256,192,9142,1,0,0:0:0:0:
256,192,9603,1,2,0:0:0:0:
256,192,10065,1,0,0:0:0:0:
256,192,10988,1,2,0:0:0:0:
256,192,11911,1,2,0:0:0:0:
256,192,12834,1,2,0:0:0:0:
256,192,13757,1,2,0:0:0:0:
256,192,14680,1,0,0:0:0:0:
256,192,15603,1,0,0:0:0:0:
256,192,16526,1,0,0:0:0:0:
256,192,16988,1,0,0:0:0:0:
256,192,17449,1,0,0:0:0:0:
256,192,18372,1,2,0:0:0:0:
256,192,19296,1,2,0:0:0:0:
256,192,20219,1,0,0:0:0:0:
256,192,20680,1,2,0:0:0:0:
256,192,21142,1,0,0:0:0:0:
256,192,21603,1,2,0:0:0:0:
256,192,22065,1,0,0:0:0:0:
256,192,22988,1,0,0:0:0:0:
256,192,23911,1,0,0:0:0:0:
256,192,24834,1,2,0:0:0:0:
256,192,25757,1,0,0:0:0:0:
256,192,26680,1,0,0:0:0:0:
256,192,27603,1,2,0:0:0:0:
256,192,28065,1,2,0:0:0:0:
256,192,28526,1,2,0:0:0:0:
256,192,29449,1,0,0:0:0:0:
256,192,30372,1,0,0:0:0:0:
256,192,31296,1,2,0:0:0:0:
256,192,32219,1,0,0:0:0:0:
256,192,33142,1,2,0:0:0:0:
256,192,34065,1,2,0:0:0:0:
256,192,34988,1,0,0:0:0:0:
256,192,35449,1,2,0:0:0:0:
256,192,35911,1,0,0:0:0:0:
256,192,36372,1,2,0:0:0:0:
256,192,36834,1,0,0:0:0:0:
256,192,37757,1,0,0:0:0:0:
256,192,38680,1,0,0:0:0:0:
256,192,39142,1,2,0:0:0:0:
256,192,39603,1,0,0:0:0:0:
256,192,40526,1,2,0:0:0:0:
256,192,41449,1,2,0:0:0:0:
256,192,42372,1,0,0:0:0:0:
256,192,43296,1,2,0:0:0:0:
256,192,44218,1,0,0:0:0:0:
256,192,45142,1,0,0:0:0:0:
256,192,46065,1,0,0:0:0:0:
256,192,46526,1,0,0:0:0:0:
256,192,46988,1,0,0:0:0:0:
256,192,47449,1,6,0:0:0:0:
256,192,53911,5,6,0:0:0:0:
256,192,54834,1,0,0:0:0:0:
256,192,55295,1,0,0:0:0:0:
256,192,55757,1,0,0:0:0:0:
256,192,56680,1,2,0:0:0:0:
256,192,57141,1,2,0:0:0:0:
256,192,57603,1,2,0:0:0:0:
256,192,58526,1,0,0:0:0:0:
256,192,58987,1,0,0:0:0:0:
256,192,59449,1,0,0:0:0:0:
256,192,60372,1,0,0:0:0:0:
256,192,60834,1,2,0:0:0:0:
256,192,61295,1,0,0:0:0:0:
256,192,62218,1,0,0:0:0:0:
256,192,62680,1,0,0:0:0:0:
256,192,63141,1,2,0:0:0:0:
256,192,64064,1,0,0:0:0:0:
256,192,64526,1,2,0:0:0:0:
256,192,64987,1,0,0:0:0:0:
256,192,65911,1,0,0:0:0:0:
256,192,66372,1,0,0:0:0:0:
256,192,66834,1,2,0:0:0:0:
256,192,67757,1,2,0:0:0:0:
256,192,70915,1,0,0:0:0:0:
256,192,71376,1,2,0:0:0:0:
256,192,71838,1,0,0:0:0:0:
256,192,72761,1,0,0:0:0:0:
256,192,73222,1,2,0:0:0:0:
256,192,73684,1,0,0:0:0:0:
256,192,74607,1,0,0:0:0:0:
256,192,75530,1,0,0:0:0:0:
256,192,75991,1,0,0:0:0:0:
256,192,76453,1,2,0:0:0:0:
256,192,76920,1,4,0:0:0:0:
256,192,78766,1,0,0:0:0:0:
256,192,79227,1,2,0:0:0:0:
256,192,79689,1,0,0:0:0:0:
256,192,80150,1,2,0:0:0:0:
256,192,80612,1,0,0:0:0:0:
256,192,82458,1,2,0:0:0:0:
256,192,82920,1,2,0:0:0:0:
256,192,83381,1,2,0:0:0:0:
256,192,83843,1,2,0:0:0:0:
256,192,84299,1,4,0:0:0:0:
256,192,85222,1,0,0:0:0:0:
256,192,85683,1,2,0:0:0:0:
256,192,86145,1,0,0:0:0:0:
256,192,86606,1,2,0:0:0:0:
256,192,87068,1,0,0:0:0:0:
256,192,87991,1,0,0:0:0:0:
256,192,88914,1,0,0:0:0:0:
256,192,89376,1,2,0:0:0:0:
256,192,89837,1,0,0:0:0:0:
256,192,90299,1,2,0:0:0:0:
256,192,90760,1,0,0:0:0:0:
256,192,91683,1,0,0:0:0:0:
256,192,92145,1,2,0:0:0:0:
256,192,92606,1,0,0:0:0:0:
256,192,93068,1,2,0:0:0:0:
256,192,93530,1,0,0:0:0:0:
256,192,94453,1,2,0:0:0:0:
256,192,95376,1,0,0:0:0:0:
256,192,95837,1,2,0:0:0:0:
256,192,96299,1,0,0:0:0:0:
256,192,97222,1,2,0:0:0:0:
256,192,97683,1,2,0:0:0:0:
256,192,98145,1,2,0:0:0:0:
256,192,99068,1,0,0:0:0:0:
256,192,99530,1,2,0:0:0:0:
256,192,99991,1,0,0:0:0:0:
256,192,100453,1,2,0:0:0:0:
256,192,100914,1,0,0:0:0:0:
256,192,101376,1,0,0:0:0:0:
256,192,101837,1,2,0:0:0:0:
256,192,102760,1,0,0:0:0:0:
256,192,103222,1,2,0:0:0:0:
256,192,103683,1,0,0:0:0:0:
256,192,104145,1,2,0:0:0:0:
256,192,104606,1,2,0:0:0:0:
256,192,105068,1,2,0:0:0:0:
256,192,105530,1,2,0:0:0:0:
288,192,106914,1,0,0:0:0:0:
288,192,107376,1,2,0:0:0:0:
288,192,107837,1,0,0:0:0:0:
288,192,108760,1,0,0:0:0:0:
288,192,109222,1,0,0:0:0:0:
288,192,110145,1,0,0:0:0:0:
320,192,110606,1,0,0:0:0:0:
320,192,111530,1,0,0:0:0:0:
320,192,112027,1,0,0:0:0:0:
320,192,112950,1,0,0:0:0:0:
320,192,113873,1,2,0:0:0:0:
320,192,114334,1,2,0:0:0:0:
320,192,114796,1,0,0:0:0:0:
320,192,115257,1,2,0:0:0:0:
320,192,115719,1,0,0:0:0:0:
320,192,116642,1,2,0:0:0:0:
320,192,117565,1,0,0:0:0:0:
320,192,118027,1,2,0:0:0:0:
320,192,118719,2,0,L|224:192,1,70
256,192,121719,12,0,126642,0:0:0:0:
