osu file format v14

[General]
AudioFilename: audio.mp3
AudioLeadIn: 0
PreviewTime: -1
Countdown: 1
SampleSet: Normal
StackLeniency: 0.7
Mode: 1
LetterboxInBreaks: 0
WidescreenStoryboard: 0

[Editor]
DistanceSpacing: 0.8
BeatDivisor: 4
GridSize: 32
TimelineZoom: 2.599999

[Metadata]
Title:Kanon
TitleUnicode:κανων
Artist:tarolabo
ArtistUnicode:tarolabo
Creator:jyake
Version:Hell Oni
Source:
Tags:
BeatmapID:1884834
BeatmapSetID:902810

[Difficulty]
HPDrainRate:5
CircleSize:5
OverallDifficulty:7.5
ApproachRate:5
SliderMultiplier:1.4
SliderTickRate:1

[Events]
//Background and Video events
0,0,"Kanon.jpg",0,0
//Break Periods
2,2458,6544
//Storyboard Layer 0 (Background)
//Storyboard Layer 1 (Fail)
//Storyboard Layer 2 (Pass)
//Storyboard Layer 3 (Foreground)
//Storyboard Sound Samples

[TimingPoints]
887,342.857142857143,4,1,0,100,1,0
46144,-86.9565217391304,4,1,0,100,0,0
57115,-100,4,1,0,100,0,0
68087,-80,4,1,0,100,0,1
90029,-80,4,1,0,100,0,0
91401,-90.9090909090909,4,1,0,100,0,1
113344,-100,4,1,0,100,0,0

[HitObjects]
259,187,2258,5,12,0:0:0:0:
256,192,7744,5,8,0:0:0:0:
256,192,11858,1,8,0:0:0:0:
256,192,13229,1,4,0:0:0:0:
256,192,13572,1,8,0:0:0:0:
256,192,13744,1,0,0:0:0:0:
256,192,14087,1,0,0:0:0:0:
256,192,14258,1,0,0:0:0:0:
256,192,14429,1,8,0:0:0:0:
256,192,14772,1,8,0:0:0:0:
256,192,15115,1,0,0:0:0:0:
256,192,15629,1,8,0:0:0:0:
256,192,15972,1,0,0:0:0:0:
256,192,16144,1,0,0:0:0:0:
256,192,16315,1,8,0:0:0:0:
256,192,16487,1,0,0:0:0:0:
256,192,16829,1,0,0:0:0:0:
256,192,17001,1,8,0:0:0:0:
256,192,17172,1,0,0:0:0:0:
256,192,17515,1,8,0:0:0:0:
256,192,17687,1,0,0:0:0:0:
256,192,17858,1,0,0:0:0:0:
256,192,18029,1,8,0:0:0:0:
256,192,18372,1,0,0:0:0:0:
256,192,18715,1,0,0:0:0:0:
256,192,18887,1,0,0:0:0:0:
256,192,19058,1,8,0:0:0:0:
256,192,19229,1,0,0:0:0:0:
256,192,19401,1,0,0:0:0:0:
256,192,19572,1,8,0:0:0:0:
256,192,19744,1,0,0:0:0:0:
256,192,19915,1,0,0:0:0:0:
256,192,20258,1,8,0:0:0:0:
256,192,20429,1,8,0:0:0:0:
256,192,20601,1,0,0:0:0:0:
256,192,20772,1,8,0:0:0:0:
256,192,21115,1,0,0:0:0:0:
256,192,21172,1,8,0:0:0:0:
256,192,21458,1,0,0:0:0:0:
256,192,21801,1,8,0:0:0:0:
256,192,22144,1,0,0:0:0:0:
256,192,22487,1,0,0:0:0:0:
256,192,22829,1,8,0:0:0:0:
256,192,23172,1,8,0:0:0:0:
256,192,23344,1,0,0:0:0:0:
256,192,23515,1,8,0:0:0:0:
256,192,23858,1,0,0:0:0:0:
256,192,23915,1,0,0:0:0:0:
256,192,23972,1,0,0:0:0:0:
256,192,24029,1,8,0:0:0:0:
256,192,24087,1,8,0:0:0:0:
256,192,24144,1,8,0:0:0:0:
256,192,24201,1,0,0:0:0:0:
256,192,24372,1,0,0:0:0:0:
256,192,24458,1,0,0:0:0:0:
256,192,24544,1,8,0:0:0:0:
256,192,24629,1,0,0:0:0:0:
256,192,24801,1,8,0:0:0:0:
256,192,24887,1,0,0:0:0:0:
256,192,24972,1,8,0:0:0:0:
256,192,25058,1,0,0:0:0:0:
256,192,25144,1,0,0:0:0:0:
256,192,25229,1,8,0:0:0:0:
256,192,25401,1,0,0:0:0:0:
256,192,25487,1,8,0:0:0:0:
256,192,25572,1,0,0:0:0:0:
256,192,25744,1,0,0:0:0:0:
256,192,25829,1,0,0:0:0:0:
256,192,25915,1,8,0:0:0:0:
256,192,26001,1,0,0:0:0:0:
256,192,26172,1,8,0:0:0:0:
256,192,26258,1,0,0:0:0:0:
256,192,26344,1,8,0:0:0:0:
256,192,26429,1,0,0:0:0:0:
256,192,26515,1,0,0:0:0:0:
256,192,26601,1,8,0:0:0:0:
256,192,26772,1,8,0:0:0:0:
256,192,26858,1,0,0:0:0:0:
256,192,26944,1,0,0:0:0:0:
256,192,27115,1,0,0:0:0:0:
256,192,27201,1,0,0:0:0:0:
256,192,27287,1,8,0:0:0:0:
256,192,27372,1,0,0:0:0:0:
256,192,27544,1,8,0:0:0:0:
256,192,27629,1,0,0:0:0:0:
256,192,27715,1,8,0:0:0:0:
256,192,27801,1,0,0:0:0:0:
256,192,27887,1,0,0:0:0:0:
256,192,27972,1,8,0:0:0:0:
256,192,28144,1,0,0:0:0:0:
256,192,28229,1,8,0:0:0:0:
256,192,28315,1,0,0:0:0:0:
256,192,28487,1,0,0:0:0:0:
256,192,28572,1,0,0:0:0:0:
256,192,28658,1,8,0:0:0:0:
256,192,28744,1,0,0:0:0:0:
256,192,28915,1,8,0:0:0:0:
256,192,29001,1,0,0:0:0:0:
256,192,29087,1,8,0:0:0:0:
256,192,29172,1,0,0:0:0:0:
256,192,29258,1,8,0:0:0:0:
256,192,29429,1,0,0:0:0:0:
256,192,29515,1,8,0:0:0:0:
256,192,29601,1,8,0:0:0:0:
256,192,29687,1,0,0:0:0:0:
256,192,29858,1,0,0:0:0:0:
256,192,29944,1,0,0:0:0:0:
256,192,30029,1,8,0:0:0:0:
256,192,30115,1,0,0:0:0:0:
256,192,30287,1,8,0:0:0:0:
256,192,30372,1,0,0:0:0:0:
256,192,30458,1,8,0:0:0:0:
256,192,30544,1,0,0:0:0:0:
256,192,30629,1,0,0:0:0:0:
256,192,30715,1,8,0:0:0:0:
256,192,30887,1,0,0:0:0:0:
256,192,30972,1,8,0:0:0:0:
256,192,31058,1,0,0:0:0:0:
256,192,31229,1,0,0:0:0:0:
256,192,31315,1,0,0:0:0:0:
256,192,31401,1,8,0:0:0:0:
256,192,31487,1,0,0:0:0:0:
256,192,31658,1,8,0:0:0:0:
256,192,31744,1,0,0:0:0:0:
256,192,31829,1,8,0:0:0:0:
256,192,31915,1,0,0:0:0:0:
256,192,32001,1,0,0:0:0:0:
256,192,32087,1,8,0:0:0:0:
256,192,32258,1,8,0:0:0:0:
256,192,32344,1,0,0:0:0:0:
256,192,32429,1,0,0:0:0:0:
256,192,32601,1,0,0:0:0:0:
256,192,32687,1,0,0:0:0:0:
256,192,32772,1,8,0:0:0:0:
256,192,32858,1,0,0:0:0:0:
256,192,33029,1,8,0:0:0:0:
256,192,33115,1,0,0:0:0:0:
256,192,33201,1,8,0:0:0:0:
256,192,33287,1,0,0:0:0:0:
256,192,33372,1,0,0:0:0:0:
256,192,33458,1,8,0:0:0:0:
256,192,33629,1,0,0:0:0:0:
256,192,33715,1,8,0:0:0:0:
256,192,33801,1,0,0:0:0:0:
256,192,33972,1,0,0:0:0:0:
256,192,34058,1,0,0:0:0:0:
256,192,34144,1,8,0:0:0:0:
256,192,34229,1,0,0:0:0:0:
256,192,34401,1,8,0:0:0:0:
256,192,34487,1,0,0:0:0:0:
256,192,34572,1,8,0:0:0:0:
256,192,34658,1,0,0:0:0:0:
256,192,34744,1,8,0:0:0:0:
256,192,34829,1,8,0:0:0:0:
256,192,34915,1,8,0:0:0:0:
256,192,35001,1,0,0:0:0:0:
256,192,35087,1,8,0:0:0:0:
256,192,35172,1,0,0:0:0:0:
256,192,35344,1,0,0:0:0:0:
256,192,35430,1,0,0:0:0:0:
256,192,35516,1,8,0:0:0:0:
256,192,35601,1,0,0:0:0:0:
256,192,35773,1,8,0:0:0:0:
256,192,35859,1,0,0:0:0:0:
256,192,35944,1,8,0:0:0:0:
256,192,36030,1,0,0:0:0:0:
256,192,36116,1,0,0:0:0:0:
256,192,36201,1,8,0:0:0:0:
256,192,36373,1,0,0:0:0:0:
256,192,36459,1,8,0:0:0:0:
256,192,36544,1,0,0:0:0:0:
256,192,36716,1,0,0:0:0:0:
256,192,36801,1,0,0:0:0:0:
256,192,36887,1,8,0:0:0:0:
256,192,36973,1,0,0:0:0:0:
256,192,37144,1,8,0:0:0:0:
256,192,37230,1,0,0:0:0:0:
256,192,37316,1,8,0:0:0:0:
256,192,37401,1,0,0:0:0:0:
256,192,37487,1,0,0:0:0:0:
256,192,37573,1,8,0:0:0:0:
256,192,37744,1,8,0:0:0:0:
256,192,37830,1,0,0:0:0:0:
256,192,37916,1,0,0:0:0:0:
256,192,38087,1,0,0:0:0:0:
256,192,38173,1,0,0:0:0:0:
256,192,38259,1,8,0:0:0:0:
256,192,38344,1,0,0:0:0:0:
256,192,38516,1,8,0:0:0:0:
256,192,38601,1,0,0:0:0:0:
256,192,38687,1,8,0:0:0:0:
256,192,38773,1,0,0:0:0:0:
256,192,38859,1,0,0:0:0:0:
256,192,38944,1,8,0:0:0:0:
256,192,39116,1,0,0:0:0:0:
256,192,39201,1,8,0:0:0:0:
256,192,39287,1,0,0:0:0:0:
256,192,39459,1,0,0:0:0:0:
256,192,39544,1,0,0:0:0:0:
256,192,39630,1,8,0:0:0:0:
256,192,39716,1,0,0:0:0:0:
256,192,39887,1,8,0:0:0:0:
256,192,39973,1,0,0:0:0:0:
256,192,40059,1,8,0:0:0:0:
256,192,40144,1,0,0:0:0:0:
256,192,40230,1,8,0:0:0:0:
256,192,40401,1,0,0:0:0:0:
256,192,40487,1,8,0:0:0:0:
256,192,40573,1,8,0:0:0:0:
256,192,40659,1,0,0:0:0:0:
256,192,40830,1,0,0:0:0:0:
256,192,40916,1,0,0:0:0:0:
256,192,41001,1,8,0:0:0:0:
256,192,41087,1,0,0:0:0:0:
256,192,41259,1,8,0:0:0:0:
256,192,41344,1,0,0:0:0:0:
256,192,41430,1,8,0:0:0:0:
256,192,41516,1,0,0:0:0:0:
256,192,41601,1,0,0:0:0:0:
256,192,41687,1,8,0:0:0:0:
256,192,41859,1,0,0:0:0:0:
256,192,41944,1,8,0:0:0:0:
256,192,42030,1,0,0:0:0:0:
256,192,42201,1,0,0:0:0:0:
256,192,42287,1,0,0:0:0:0:
256,192,42373,1,8,0:0:0:0:
256,192,42459,1,0,0:0:0:0:
256,192,42630,1,8,0:0:0:0:
256,192,42716,1,0,0:0:0:0:
256,192,42801,1,8,0:0:0:0:
256,192,42887,1,0,0:0:0:0:
256,192,42973,1,0,0:0:0:0:
256,192,43059,1,8,0:0:0:0:
256,192,43230,1,8,0:0:0:0:
256,192,43316,1,0,0:0:0:0:
256,192,43401,1,0,0:0:0:0:
256,192,43573,1,0,0:0:0:0:
256,192,43659,1,0,0:0:0:0:
256,192,43744,1,8,0:0:0:0:
256,192,43830,1,0,0:0:0:0:
256,192,44001,1,8,0:0:0:0:
256,192,44087,1,0,0:0:0:0:
256,192,44173,1,8,0:0:0:0:
256,192,44259,1,0,0:0:0:0:
256,192,44344,1,0,0:0:0:0:
256,192,44430,1,8,0:0:0:0:
256,192,44601,1,0,0:0:0:0:
256,192,44687,1,8,0:0:0:0:
256,192,44773,1,0,0:0:0:0:
256,192,44944,1,0,0:0:0:0:
256,192,45030,1,0,0:0:0:0:
256,192,45116,1,8,0:0:0:0:
256,192,45201,1,0,0:0:0:0:
256,192,45373,1,8,0:0:0:0:
256,192,45459,1,0,0:0:0:0:
256,192,45544,1,8,0:0:0:0:
256,192,45630,1,0,0:0:0:0:
256,192,45716,1,8,0:0:0:0:
256,192,45801,1,8,0:0:0:0:
256,192,45887,1,0,0:0:0:0:
256,192,45972,1,8,0:0:0:0:
256,192,46029,1,8,0:0:0:0:
256,192,46144,1,0,0:0:0:0:
256,192,46258,1,8,0:0:0:0:
256,192,46315,1,0,0:0:0:0:
256,192,46429,1,0,0:0:0:0:
256,192,46487,1,8,0:0:0:0:
256,192,46601,1,8,0:0:0:0:
256,192,46658,1,0,0:0:0:0:
256,192,46829,1,8,0:0:0:0:
256,192,46944,1,0,0:0:0:0:
256,192,47001,1,8,0:0:0:0:
256,192,47087,1,8,0:0:0:0:
256,192,47172,1,0,0:0:0:0:
256,192,47287,1,8,0:0:0:0:
256,192,47344,1,0,0:0:0:0:
256,192,47429,1,8,0:0:0:0:
256,192,47515,1,0,0:0:0:0:
256,192,47687,1,0,0:0:0:0:
256,192,47772,1,0,0:0:0:0:
256,192,47887,1,0,0:0:0:0:
256,192,47944,1,8,0:0:0:0:
256,192,48029,1,8,0:0:0:0:
256,192,48115,1,0,0:0:0:0:
256,192,48201,1,8,0:0:0:0:
256,192,48315,1,0,0:0:0:0:
256,192,48372,1,8,0:0:0:0:
256,192,48544,1,0,0:0:0:0:
256,192,48629,1,0,0:0:0:0:
256,192,48715,1,8,0:0:0:0:
256,192,48801,1,8,0:0:0:0:
256,192,48887,1,0,0:0:0:0:
256,192,49001,1,0,0:0:0:0:
256,192,49058,1,8,0:0:0:0:
256,192,49172,1,8,0:0:0:0:
256,192,49229,1,0,0:0:0:0:
256,192,49344,1,0,0:0:0:0:
256,192,49401,1,8,0:0:0:0:
256,192,49487,1,0,0:0:0:0:
256,192,49572,1,8,0:0:0:0:
256,192,49658,1,0,0:0:0:0:
256,192,49744,1,0,0:0:0:0:
256,192,49829,1,0,0:0:0:0:
256,192,49915,1,8,0:0:0:0:
256,192,50029,1,0,0:0:0:0:
256,192,50087,1,8,0:0:0:0:
256,192,50172,1,8,0:0:0:0:
256,192,50258,1,0,0:0:0:0:
256,192,50344,1,8,0:0:0:0:
256,192,50515,1,8,0:0:0:0:
256,192,50601,1,0,0:0:0:0:
256,192,50687,1,0,0:0:0:0:
256,192,50772,1,8,0:0:0:0:
256,192,50858,1,0,0:0:0:0:
256,192,50944,1,8,0:0:0:0:
256,192,51029,1,8,0:0:0:0:
256,192,51115,1,0,0:0:0:0:
256,192,51201,1,8,0:0:0:0:
256,192,51287,1,0,0:0:0:0:
256,192,51401,1,0,0:0:0:0:
256,192,51458,1,8,0:0:0:0:
256,192,51572,1,8,0:0:0:0:
256,192,51629,1,0,0:0:0:0:
256,192,51744,1,8,0:0:0:0:
256,192,51801,1,0,0:0:0:0:
256,192,51887,1,0,0:0:0:0:
256,192,51972,1,8,0:0:0:0:
256,192,52087,1,8,0:0:0:0:
256,192,52144,1,0,0:0:0:0:
256,192,52315,1,8,0:0:0:0:
256,192,52401,1,0,0:0:0:0:
256,192,52487,1,0,0:0:0:0:
256,192,52572,1,8,0:0:0:0:
256,192,52658,1,0,0:0:0:0:
256,192,52715,1,8,0:0:0:0:
256,192,52829,1,0,0:0:0:0:
256,192,53001,1,8,0:0:0:0:
256,192,53115,1,0,0:0:0:0:
256,192,53172,1,8,0:0:0:0:
256,192,53287,1,8,0:0:0:0:
256,192,53344,1,0,0:0:0:0:
256,192,53458,1,8,0:0:0:0:
256,192,53515,1,0,0:0:0:0:
256,192,53601,1,8,0:0:0:0:
256,192,53687,1,8,0:0:0:0:
256,192,53772,1,0,0:0:0:0:
256,192,53944,1,8,0:0:0:0:
256,192,54029,1,0,0:0:0:0:
256,192,54201,1,8,0:0:0:0:
256,192,54258,1,8,0:0:0:0:
256,192,54372,1,0,0:0:0:0:
256,192,54458,1,8,0:0:0:0:
256,192,54544,1,0,0:0:0:0:
256,192,54629,1,0,0:0:0:0:
256,192,54715,1,8,0:0:0:0:
256,192,54829,1,8,0:0:0:0:
256,192,54887,1,0,0:0:0:0:
256,192,55001,1,0,0:0:0:0:
256,192,55058,1,8,0:0:0:0:
256,192,55172,1,0,0:0:0:0:
256,192,55229,1,8,0:0:0:0:
256,192,55315,1,8,0:0:0:0:
256,192,55401,1,0,0:0:0:0:
256,192,55515,1,8,0:0:0:0:
256,192,55572,1,0,0:0:0:0:
256,192,55687,1,8,0:0:0:0:
256,192,55744,1,0,0:0:0:0:
256,192,55829,1,8,0:0:0:0:
256,192,55915,1,0,0:0:0:0:
256,192,56001,1,0,0:0:0:0:
256,192,56087,1,8,0:0:0:0:
256,192,56201,1,0,0:0:0:0:
256,192,56259,1,8,0:0:0:0:
256,192,56429,1,0,0:0:0:0:
256,192,56487,1,8,0:0:0:0:
256,192,56601,1,0,0:0:0:0:
256,192,56687,1,0,0:0:0:0:
256,192,56772,1,8,0:0:0:0:
256,192,56858,1,0,0:0:0:0:
256,192,56944,1,8,0:0:0:0:
256,192,57029,1,8,0:0:0:0:
256,192,57115,1,0,0:0:0:0:
256,192,57287,1,0,0:0:0:0:
256,192,57372,1,0,0:0:0:0:
256,192,57458,1,8,0:0:0:0:
256,192,57544,1,0,0:0:0:0:
256,192,57715,1,8,0:0:0:0:
256,192,57801,1,0,0:0:0:0:
256,192,57887,1,8,0:0:0:0:
256,192,57972,1,0,0:0:0:0:
256,192,58058,1,0,0:0:0:0:
256,192,58144,1,8,0:0:0:0:
256,192,58315,1,0,0:0:0:0:
256,192,58401,1,8,0:0:0:0:
256,192,58487,1,0,0:0:0:0:
256,192,58572,1,8,0:0:0:0:
256,192,58658,1,0,0:0:0:0:
256,192,58744,1,0,0:0:0:0:
256,192,58829,1,8,0:0:0:0:
256,192,58915,1,0,0:0:0:0:
256,192,59087,1,8,0:0:0:0:
256,192,59172,1,0,0:0:0:0:
256,192,59258,1,8,0:0:0:0:
256,192,59344,1,0,0:0:0:0:
256,192,59429,1,0,0:0:0:0:
256,192,59515,1,8,0:0:0:0:
256,192,59687,1,8,0:0:0:0:
256,192,59772,1,0,0:0:0:0:
256,192,59858,1,0,0:0:0:0:
256,192,59944,1,8,0:0:0:0:
256,192,60029,1,0,0:0:0:0:
256,192,60115,1,0,0:0:0:0:
256,192,60201,1,8,0:0:0:0:
256,192,60287,1,0,0:0:0:0:
256,192,60458,1,8,0:0:0:0:
256,192,60544,1,0,0:0:0:0:
256,192,60629,1,8,0:0:0:0:
256,192,60715,1,0,0:0:0:0:
256,192,60801,1,0,0:0:0:0:
256,192,60887,1,8,0:0:0:0:
256,192,61058,1,0,0:0:0:0:
256,192,61229,1,0,0:0:0:0:
256,192,61315,1,0,0:0:0:0:
256,192,61401,1,0,0:0:0:0:
256,192,61487,1,0,0:0:0:0:
256,192,61572,1,8,0:0:0:0:
256,192,61744,1,0,0:0:0:0:
256,192,61829,1,0,0:0:0:0:
256,192,61915,1,0,0:0:0:0:
256,192,62001,1,0,0:0:0:0:
256,192,62087,1,8,0:0:0:0:
256,192,62258,1,8,0:0:0:0:
256,192,62344,1,8,0:0:0:0:
256,192,62429,1,0,0:0:0:0:
256,192,62515,1,8,0:0:0:0:
256,192,62601,1,0,0:0:0:0:
256,192,62772,1,0,0:0:0:0:
256,192,62858,1,0,0:0:0:0:
256,192,62944,1,8,0:0:0:0:
256,192,63029,1,0,0:0:0:0:
256,192,63201,1,8,0:0:0:0:
256,192,63287,1,0,0:0:0:0:
256,192,63372,1,8,0:0:0:0:
256,192,63458,1,0,0:0:0:0:
256,192,63544,1,0,0:0:0:0:
256,192,63629,1,8,0:0:0:0:
256,192,63801,1,8,0:0:0:0:
256,192,63887,1,8,0:0:0:0:
256,192,63972,1,0,0:0:0:0:
256,192,64058,1,8,0:0:0:0:
256,192,64144,1,0,0:0:0:0:
256,192,64229,1,0,0:0:0:0:
256,192,64315,1,8,0:0:0:0:
256,192,64401,1,0,0:0:0:0:
256,192,64572,1,8,0:0:0:0:
256,192,64658,1,0,0:0:0:0:
256,192,64744,1,8,0:0:0:0:
256,192,64829,1,0,0:0:0:0:
256,192,64915,1,0,0:0:0:0:
256,192,65001,1,8,0:0:0:0:
256,192,65172,1,8,0:0:0:0:
256,192,65258,1,0,0:0:0:0:
256,192,65344,1,0,0:0:0:0:
256,192,65429,1,8,0:0:0:0:
256,192,65515,1,0,0:0:0:0:
256,192,65601,1,0,0:0:0:0:
256,192,65687,1,8,0:0:0:0:
256,192,65772,1,0,0:0:0:0:
256,192,65944,1,8,0:0:0:0:
256,192,66029,1,0,0:0:0:0:
256,192,66115,1,8,0:0:0:0:
256,192,66201,1,0,0:0:0:0:
256,192,66287,1,0,0:0:0:0:
256,192,66372,1,8,0:0:0:0:
256,192,66458,1,8,0:0:0:0:
256,192,66544,1,0,0:0:0:0:
256,192,66715,1,0,0:0:0:0:
256,192,66801,1,0,0:0:0:0:
256,192,66887,1,0,0:0:0:0:
256,192,66972,1,0,0:0:0:0:
256,192,67058,1,8,0:0:0:0:
256,192,67229,1,0,0:0:0:0:
256,192,67315,1,0,0:0:0:0:
256,192,67401,1,0,0:0:0:0:
256,192,67487,1,0,0:0:0:0:
256,192,67572,1,8,0:0:0:0:
256,192,67658,1,0,0:0:0:0:
256,192,67744,1,8,0:0:0:0:
256,192,67829,1,8,0:0:0:0:
256,192,67915,1,0,0:0:0:0:
256,192,68001,1,8,0:0:0:0:
256,192,68087,1,0,0:0:0:0:
256,192,68201,1,8,0:0:0:0:
256,192,68258,1,0,0:0:0:0:
256,192,68372,1,0,0:0:0:0:
256,192,68430,1,8,0:0:0:0:
256,192,68544,1,8,0:0:0:0:
256,192,68601,1,0,0:0:0:0:
256,192,68687,1,0,0:0:0:0:
256,192,68772,1,8,0:0:0:0:
256,192,68887,1,0,0:0:0:0:
256,192,68944,1,8,0:0:0:0:
256,192,69030,1,8,0:0:0:0:
256,192,69115,1,0,0:0:0:0:
256,192,69230,1,8,0:0:0:0:
256,192,69287,1,0,0:0:0:0:
256,192,69372,1,8,0:0:0:0:
256,192,69458,1,0,0:0:0:0:
256,192,69544,1,8,0:0:0:0:
256,192,69630,1,0,0:0:0:0:
256,192,69715,1,0,0:0:0:0:
256,192,69830,1,0,0:0:0:0:
256,192,69887,1,8,0:0:0:0:
256,192,69972,1,8,0:0:0:0:
256,192,70058,1,0,0:0:0:0:
256,192,70144,1,8,0:0:0:0:
256,192,70258,1,0,0:0:0:0:
256,192,70315,1,8,0:0:0:0:
256,192,70487,1,0,0:0:0:0:
256,192,70572,1,0,0:0:0:0:
256,192,70658,1,8,0:0:0:0:
256,192,70744,1,8,0:0:0:0:
256,192,70830,1,0,0:0:0:0:
256,192,70944,1,0,0:0:0:0:
256,192,71001,1,8,0:0:0:0:
256,192,71115,1,8,0:0:0:0:
256,192,71172,1,0,0:0:0:0:
256,192,71287,1,0,0:0:0:0:
256,192,71344,1,8,0:0:0:0:
256,192,71430,1,0,0:0:0:0:
256,192,71515,1,8,0:0:0:0:
256,192,71601,1,0,0:0:0:0:
256,192,71687,1,0,0:0:0:0:
256,192,71772,1,0,0:0:0:0:
256,192,71858,1,8,0:0:0:0:
256,192,71972,1,0,0:0:0:0:
256,192,72030,1,8,0:0:0:0:
256,192,72115,1,8,0:0:0:0:
256,192,72201,1,0,0:0:0:0:
256,192,72287,1,8,0:0:0:0:
256,192,72372,1,0,0:0:0:0:
256,192,72458,1,8,0:0:0:0:
256,192,72544,1,0,0:0:0:0:
256,192,72630,1,0,0:0:0:0:
256,192,72715,1,8,0:0:0:0:
256,192,72801,1,0,0:0:0:0:
256,192,72887,1,8,0:0:0:0:
256,192,72972,1,8,0:0:0:0:
256,192,73058,1,0,0:0:0:0:
256,192,73144,1,8,0:0:0:0:
256,192,73230,1,0,0:0:0:0:
256,192,73344,1,0,0:0:0:0:
256,192,73401,1,8,0:0:0:0:
256,192,73515,1,8,0:0:0:0:
256,192,73572,1,0,0:0:0:0:
256,192,73687,1,8,0:0:0:0:
256,192,73744,1,0,0:0:0:0:
256,192,73830,1,0,0:0:0:0:
256,192,73915,1,8,0:0:0:0:
256,192,74030,1,8,0:0:0:0:
256,192,74087,1,0,0:0:0:0:
256,192,74258,1,8,0:0:0:0:
256,192,74344,1,0,0:0:0:0:
256,192,74430,1,0,0:0:0:0:
256,192,74515,1,8,0:0:0:0:
256,192,74601,1,0,0:0:0:0:
256,192,74658,1,8,0:0:0:0:
256,192,74772,1,0,0:0:0:0:
256,192,74944,1,8,0:0:0:0:
256,192,75058,1,0,0:0:0:0:
256,192,75115,1,8,0:0:0:0:
256,192,75230,1,8,0:0:0:0:
256,192,75287,1,0,0:0:0:0:
256,192,75401,1,8,0:0:0:0:
256,192,75458,1,0,0:0:0:0:
256,192,75544,1,8,0:0:0:0:
256,192,75630,1,8,0:0:0:0:
256,192,75715,1,0,0:0:0:0:
256,192,75801,1,0,0:0:0:0:
256,192,75887,1,8,0:0:0:0:
256,192,75972,1,0,0:0:0:0:
256,192,76058,1,0,0:0:0:0:
256,192,76144,1,8,0:0:0:0:
256,192,76201,1,8,0:0:0:0:
256,192,76315,1,0,0:0:0:0:
256,192,76401,1,8,0:0:0:0:
256,192,76487,1,0,0:0:0:0:
256,192,76572,1,0,0:0:0:0:
256,192,76658,1,8,0:0:0:0:
256,192,76772,1,8,0:0:0:0:
256,192,76830,1,0,0:0:0:0:
256,192,76944,1,0,0:0:0:0:
256,192,77001,1,8,0:0:0:0:
256,192,77115,1,0,0:0:0:0:
256,192,77172,1,8,0:0:0:0:
256,192,77258,1,8,0:0:0:0:
256,192,77344,1,0,0:0:0:0:
256,192,77458,1,8,0:0:0:0:
256,192,77515,1,0,0:0:0:0:
256,192,77630,1,8,0:0:0:0:
256,192,77687,1,0,0:0:0:0:
256,192,77772,1,8,0:0:0:0:
256,192,77858,1,0,0:0:0:0:
256,192,77944,1,0,0:0:0:0:
256,192,78030,1,8,0:0:0:0:
256,192,78115,1,0,0:0:0:0:
256,192,78201,1,0,0:0:0:0:
256,192,78287,1,8,0:0:0:0:
256,192,78372,1,0,0:0:0:0:
256,192,78430,1,8,0:0:0:0:
256,192,78544,1,0,0:0:0:0:
256,192,78630,1,0,0:0:0:0:
256,192,78715,1,8,0:0:0:0:
256,192,78801,1,0,0:0:0:0:
256,192,78887,1,8,0:0:0:0:
256,192,78972,1,8,0:0:0:0:
256,192,79058,1,0,0:0:0:0:
256,192,79229,1,0,0:0:0:0:
256,192,79315,1,0,0:0:0:0:
256,192,79401,1,8,0:0:0:0:
256,192,79487,1,8,0:0:0:0:
256,192,79572,1,0,0:0:0:0:
256,192,79744,1,8,0:0:0:0:
256,192,79915,1,8,0:0:0:0:
256,192,80087,1,0,0:0:0:0:
256,192,80172,1,0,0:0:0:0:
256,192,80258,1,8,0:0:0:0:
256,192,80429,1,0,0:0:0:0:
256,192,80515,1,8,0:0:0:0:
256,192,80601,1,0,0:0:0:0:
256,192,80687,1,0,0:0:0:0:
256,192,80772,1,8,0:0:0:0:
256,192,80944,1,0,0:0:0:0:
256,192,81115,1,8,0:0:0:0:
256,192,81201,1,8,0:0:0:0:
256,192,81287,1,0,0:0:0:0:
256,192,81458,1,8,0:0:0:0:
256,192,81629,1,0,0:0:0:0:
256,192,81801,1,0,0:0:0:0:
256,192,81844,1,0,0:0:0:0:
256,192,81887,1,0,0:0:0:0:
256,192,82058,1,8,0:0:0:0:
256,192,82144,1,8,0:0:0:0:
256,192,82401,1,0,0:0:0:0:
256,192,82444,1,0,0:0:0:0:
256,192,82487,1,0,0:0:0:0:
256,192,82744,1,8,0:0:0:0:
256,192,82829,1,8,0:0:0:0:
256,192,83087,1,0,0:0:0:0:
256,192,83129,1,0,0:0:0:0:
256,192,83172,1,0,0:0:0:0:
256,192,83258,1,0,0:0:0:0:
256,192,83344,1,8,0:0:0:0:
256,192,83429,1,8,0:0:0:0:
256,192,83515,1,0,0:0:0:0:
256,192,83601,1,8,0:0:0:0:
256,192,83687,1,8,0:0:0:0:
256,192,83772,1,0,0:0:0:0:
256,192,83858,1,8,0:0:0:0:
256,192,83972,1,0,0:0:0:0:
256,192,84029,1,0,0:0:0:0:
256,192,84087,1,0,0:0:0:0:
256,192,84144,1,8,0:0:0:0:
256,192,84201,1,8,0:0:0:0:
256,192,84287,1,0,0:0:0:0:
256,192,84372,1,8,0:0:0:0:
256,192,84429,1,0,0:0:0:0:
256,192,84544,1,0,0:0:0:0:
256,192,84601,1,8,0:0:0:0:
256,192,84715,1,8,0:0:0:0:
256,192,84801,1,0,0:0:0:0:
256,192,84887,1,8,0:0:0:0:
256,192,84944,1,8,0:0:0:0:
256,192,85058,1,8,0:0:0:0:
256,192,85144,1,0,0:0:0:0:
256,192,85229,1,8,0:0:0:0:
256,192,85287,1,8,0:0:0:0:
256,192,85401,1,8,0:0:0:0:
256,192,85487,1,0,0:0:0:0:
256,192,85572,1,8,0:0:0:0:
256,192,85658,1,8,0:0:0:0:
256,192,85715,1,8,0:0:0:0:
256,192,85829,1,8,0:0:0:0:
256,192,85915,1,8,0:0:0:0:
256,192,86001,1,0,0:0:0:0:
256,192,86087,1,8,0:0:0:0:
256,192,86172,1,8,0:0:0:0:
256,192,86258,1,0,0:0:0:0:
256,192,86315,1,8,0:0:0:0:
256,192,86429,1,0,0:0:0:0:
256,192,86515,1,8,0:0:0:0:
256,192,86601,1,8,0:0:0:0:
256,192,86687,1,0,0:0:0:0:
256,192,86772,1,0,0:0:0:0:
256,192,86858,1,8,0:0:0:0:
256,192,86944,1,8,0:0:0:0:
256,192,87029,1,0,0:0:0:0:
256,192,87115,1,0,0:0:0:0:
256,192,87201,1,8,0:0:0:0:
256,192,87287,1,0,0:0:0:0:
256,192,87401,1,0,0:0:0:0:
256,192,87515,1,8,0:0:0:0:
256,192,87572,1,8,0:0:0:0:
256,192,87629,1,0,0:0:0:0:
256,192,87715,1,0,0:0:0:0:
256,192,87801,1,8,0:0:0:0:
256,192,87887,1,0,0:0:0:0:
256,192,87972,1,8,0:0:0:0:
256,192,88029,1,8,0:0:0:0:
256,192,88087,1,0,0:0:0:0:
256,192,88172,1,0,0:0:0:0:
256,192,88258,1,8,0:0:0:0:
256,192,88315,1,0,0:0:0:0:
256,192,88401,1,8,0:0:0:0:
256,192,88487,1,0,0:0:0:0:
256,192,88572,1,0,0:0:0:0:
256,192,88658,1,8,0:0:0:0:
256,192,88715,1,8,0:0:0:0:
256,192,88829,1,0,0:0:0:0:
256,192,88915,1,0,0:0:0:0:
256,192,89001,1,8,0:0:0:0:
256,192,89058,1,0,0:0:0:0:
256,192,89172,1,8,0:0:0:0:
256,192,89258,1,0,0:0:0:0:
256,192,89344,1,0,0:0:0:0:
256,192,89429,1,8,0:0:0:0:
256,192,89515,1,8,0:0:0:0:
256,192,89601,1,0,0:0:0:0:
256,192,89687,1,8,0:0:0:0:
256,192,89772,1,8,0:0:0:0:
256,192,89858,1,0,0:0:0:0:
256,192,89944,1,0,0:0:0:0:
256,192,90029,1,0,0:0:0:0:
256,192,91401,1,0,0:0:0:0:
256,192,91487,1,8,0:0:0:0:
256,192,91572,1,8,0:0:0:0:
256,192,91658,1,8,0:0:0:0:
256,192,91744,1,0,0:0:0:0:
256,192,91915,1,8,0:0:0:0:
256,192,92001,1,0,0:0:0:0:
256,192,92172,1,8,0:0:0:0:
256,192,92258,1,0,0:0:0:0:
256,192,92429,1,8,0:0:0:0:
256,192,92601,1,0,0:0:0:0:
256,192,92687,1,8,0:0:0:0:
256,192,92772,1,0,0:0:0:0:
256,192,92858,1,0,0:0:0:0:
256,192,92944,1,8,0:0:0:0:
256,192,93115,1,8,0:0:0:0:
256,192,93172,1,8,0:0:0:0:
256,192,93229,1,8,0:0:0:0:
256,192,93372,1,8,0:0:0:0:
256,192,93458,1,0,0:0:0:0:
256,192,93629,1,0,0:0:0:0:
256,192,93672,1,0,0:0:0:0:
256,192,93801,1,8,0:0:0:0:
256,192,93972,1,8,0:0:0:0:
256,192,94058,1,8,0:0:0:0:
256,192,94144,1,0,0:0:0:0:
256,192,94201,1,0,0:0:0:0:
256,192,94258,1,0,0:0:0:0:
256,192,94315,1,0,0:0:0:0:
256,192,94372,1,0,0:0:0:0:
256,192,94429,1,0,0:0:0:0:
256,192,94487,1,8,0:0:0:0:
256,192,94601,1,0,0:0:0:0:
256,192,94658,1,8,0:0:0:0:
256,192,94829,1,0,0:0:0:0:
256,192,94915,1,8,0:0:0:0:
256,192,94958,1,8,0:0:0:0:
256,192,95001,1,8,0:0:0:0:
256,192,95087,1,0,0:0:0:0:
256,192,95172,1,8,0:0:0:0:
256,192,95344,1,0,0:0:0:0:
256,192,95429,1,8,0:0:0:0:
256,192,95515,1,8,0:0:0:0:
256,192,95687,1,8,0:0:0:0:
256,192,95729,1,8,0:0:0:0:
256,192,95772,1,8,0:0:0:0:
256,192,95858,1,0,0:0:0:0:
256,192,96029,1,0,0:0:0:0:
256,192,96087,1,8,0:0:0:0:
256,192,96172,1,0,0:0:0:0:
256,192,96229,1,8,0:0:0:0:
256,192,96372,1,0,0:0:0:0:
256,192,96458,1,8,0:0:0:0:
256,192,96544,1,0,0:0:0:0:
256,192,96715,1,8,0:0:0:0:
256,192,96801,1,8,0:0:0:0:
256,192,96887,1,0,0:0:0:0:
256,192,97001,1,0,0:0:0:0:
256,192,97115,1,0,0:0:0:0:
256,192,97229,1,8,0:0:0:0:
256,192,97315,1,0,0:0:0:0:
256,192,97358,1,8,0:0:0:0:
256,192,97572,1,0,0:0:0:0:
256,192,97629,1,8,0:0:0:0:
256,192,97744,1,8,0:0:0:0:
256,192,97915,1,0,0:0:0:0:
256,192,97958,1,0,0:0:0:0:
256,192,98001,1,0,0:0:0:0:
256,192,98087,1,8,0:0:0:0:
256,192,98129,1,8,0:0:0:0:
256,192,98172,1,8,0:0:0:0:
256,192,98258,1,0,0:0:0:0:
256,192,98429,1,0,0:0:0:0:
256,192,98515,1,0,0:0:0:0:
256,192,98601,1,8,0:0:0:0:
256,192,98687,1,8,0:0:0:0:
256,192,98858,1,0,0:0:0:0:
256,192,98944,1,0,0:0:0:0:
256,192,99087,1,8,0:0:0:0:
256,192,99287,1,8,0:0:0:0:
256,192,99315,1,0,0:0:0:0:
256,192,99458,1,8,0:0:0:0:
256,192,99629,1,8,0:0:0:0:
256,192,99672,1,8,0:0:0:0:
256,192,99715,1,8,0:0:0:0:
256,192,99758,1,8,0:0:0:0:
256,192,99801,1,0,0:0:0:0:
256,192,99887,1,0,0:0:0:0:
256,192,99972,1,8,0:0:0:0:
256,192,100087,1,8,0:0:0:0:
256,192,100201,1,8,0:0:0:0:
256,192,100401,1,8,0:0:0:0:
256,192,100487,1,8,0:0:0:0:
256,192,100658,1,0,0:0:0:0:
256,192,100829,1,8,0:0:0:0:
256,192,100872,1,8,0:0:0:0:
256,192,100915,1,8,0:0:0:0:
256,192,101001,1,0,0:0:0:0:
256,192,101172,1,0,0:0:0:0:
256,192,101344,1,8,0:0:0:0:
256,192,101387,1,8,0:0:0:0:
256,192,101515,1,0,0:0:0:0:
256,192,101572,1,8,0:0:0:0:
256,192,101629,1,8,0:0:0:0:
256,192,101772,1,8,0:0:0:0:
256,192,101858,1,0,0:0:0:0:
256,192,102029,1,8,0:0:0:0:
256,192,102115,1,0,0:0:0:0:
256,192,102201,1,0,0:0:0:0:
256,192,102287,1,8,0:0:0:0:
256,192,102372,1,0,0:0:0:0:
256,192,102458,1,8,0:0:0:0:
256,192,102544,1,8,0:0:0:0:
256,192,102629,1,8,0:0:0:0:
256,192,102801,1,0,0:0:0:0:
256,192,102887,1,0,0:0:0:0:
256,192,103058,1,0,0:0:0:0:
256,192,103101,1,0,0:0:0:0:
256,192,103144,1,0,0:0:0:0:
256,192,103229,1,8,0:0:0:0:
256,192,103272,1,8,0:0:0:0:
256,192,103315,1,8,0:0:0:0:
256,192,103401,1,0,0:0:0:0:
256,192,103572,1,0,0:0:0:0:
256,192,103615,1,0,0:0:0:0:
256,192,103658,1,8,0:0:0:0:
256,192,103744,1,0,0:0:0:0:
256,192,103829,1,0,0:0:0:0:
256,192,103872,1,0,0:0:0:0:
256,192,103915,1,8,0:0:0:0:
256,192,104087,1,0,0:0:0:0:
256,192,104172,1,8,0:0:0:0:
256,192,104258,1,0,0:0:0:0:
256,192,104344,1,0,0:0:0:0:
256,192,104429,1,0,0:0:0:0:
256,192,104601,1,8,0:0:0:0:
256,192,104644,1,8,0:0:0:0:
256,192,104772,1,0,0:0:0:0:
256,192,104858,1,0,0:0:0:0:
256,192,104944,1,0,0:0:0:0:
256,192,105029,1,0,0:0:0:0:
256,192,105115,1,8,0:0:0:0:
256,192,105287,1,0,0:0:0:0:
256,192,105315,1,8,0:0:0:0:
256,192,105458,1,0,0:0:0:0:
256,192,105572,1,0,0:0:0:0:
256,192,105629,1,8,0:0:0:0:
256,192,105672,1,8,0:0:0:0:
256,192,105715,1,8,0:0:0:0:
256,192,105887,1,8,0:0:0:0:
256,192,105972,1,8,0:0:0:0:
256,192,106015,1,8,0:0:0:0:
256,192,106058,1,8,0:0:0:0:
256,192,106229,1,8,0:0:0:0:
256,192,106315,1,0,0:0:0:0:
256,192,106401,1,0,0:0:0:0:
256,192,106487,1,0,0:0:0:0:
256,192,106658,1,0,0:0:0:0:
256,192,106701,1,0,0:0:0:0:
256,192,106744,1,0,0:0:0:0:
256,192,106829,1,8,0:0:0:0:
256,192,107001,1,0,0:0:0:0:
256,192,107087,1,8,0:0:0:0:
256,192,107172,1,0,0:0:0:0:
256,192,107258,1,8,0:0:0:0:
256,192,107344,1,0,0:0:0:0:
256,192,107429,1,0,0:0:0:0:
256,192,107515,1,0,0:0:0:0:
256,192,107558,1,0,0:0:0:0:
256,192,107601,1,0,0:0:0:0:
256,192,107644,1,0,0:0:0:0:
256,192,107687,1,8,0:0:0:0:
256,192,107772,1,8,0:0:0:0:
256,192,107858,1,0,0:0:0:0:
256,192,107972,1,0,0:0:0:0:
256,192,108087,1,0,0:0:0:0:
256,192,108201,1,8,0:0:0:0:
256,192,108244,1,8,0:0:0:0:
256,192,108629,1,0,0:0:0:0:
256,192,108801,1,0,0:0:0:0:
256,192,108887,1,8,0:0:0:0:
256,192,108929,1,8,0:0:0:0:
256,192,108972,1,8,0:0:0:0:
256,192,109058,1,0,0:0:0:0:
256,192,109229,1,0,0:0:0:0:
256,192,109401,1,0,0:0:0:0:
256,192,109487,1,0,0:0:0:0:
256,192,109572,1,8,0:0:0:0:
256,192,109615,1,8,0:0:0:0:
256,192,109658,1,8,0:0:0:0:
256,192,109701,1,8,0:0:0:0:
256,192,109872,1,8,0:0:0:0:
256,192,110001,1,0,0:0:0:0:
256,192,110129,1,0,0:0:0:0:
256,192,110172,1,8,0:0:0:0:
256,192,110215,1,8,0:0:0:0:
256,192,110344,1,0,0:0:0:0:
256,192,110429,1,0,0:0:0:0:
256,192,110515,1,0,0:0:0:0:
256,192,110601,1,8,0:0:0:0:
256,192,110715,1,0,0:0:0:0:
256,192,110829,1,0,0:0:0:0:
256,192,110944,1,8,0:0:0:0:
256,192,111058,1,0,0:0:0:0:
256,192,111172,1,8,0:0:0:0:
256,192,111229,1,8,0:0:0:0:
256,192,111287,1,0,0:0:0:0:
256,192,111458,1,0,0:0:0:0:
256,192,111544,1,8,0:0:0:0:
256,192,111629,1,0,0:0:0:0:
256,192,111715,1,0,0:0:0:0:
256,192,111801,1,8,0:0:0:0:
256,192,111844,1,8,0:0:0:0:
256,192,111887,1,8,0:0:0:0:
256,192,111929,1,8,0:0:0:0:
256,192,111972,1,0,0:0:0:0:
256,192,112144,1,0,0:0:0:0:
256,192,112315,1,0,0:0:0:0:
256,192,112372,1,0,0:0:0:0:
256,192,112429,1,0,0:0:0:0:
256,192,112487,1,8,0:0:0:0:
256,192,112544,1,0,0:0:0:0:
256,192,112658,1,0,0:0:0:0:
256,192,112829,1,0,0:0:0:0:
256,192,112915,1,0,0:0:0:0:
256,192,113001,1,0,0:0:0:0:
256,192,113058,1,0,0:0:0:0:
256,192,113115,1,0,0:0:0:0:
256,192,113172,1,8,0:0:0:0:
256,192,113344,1,0,0:0:0:0:
256,192,113515,1,8,0:0:0:0:
256,192,113687,1,8,0:0:0:0:
256,192,113858,1,8,0:0:0:0:
256,192,114029,1,8,0:0:0:0:
256,192,114201,1,0,0:0:0:0:
256,192,114544,1,8,0:0:0:0:
256,192,114887,1,8,0:0:0:0:
256,192,115058,1,0,0:0:0:0:
256,192,116601,1,0,0:0:0:0:
256,192,116772,1,8,0:0:0:0:
256,192,116944,1,8,0:0:0:0:
256,192,117115,1,8,0:0:0:0:
256,192,117287,1,8,0:0:0:0:
256,192,117629,1,0,0:0:0:0:
256,192,117801,1,8,0:0:0:0:
256,192,118315,1,0,0:0:0:0:
256,192,118401,1,0,0:0:0:0:
256,192,118487,1,8,0:0:0:0:
256,192,118572,1,0,0:0:0:0:
256,192,118658,1,8,0:0:0:0:
256,192,118744,1,8,0:0:0:0:
256,192,118829,1,0,0:0:0:0:
256,192,119001,1,0,0:0:0:0:
256,192,119087,1,0,0:0:0:0:
256,192,119172,1,8,0:0:0:0:
256,192,119344,1,0,0:0:0:0:
256,192,119429,1,0,0:0:0:0:
256,192,119515,1,0,0:0:0:0:
256,192,119687,1,0,0:0:0:0:
256,192,119772,1,0,0:0:0:0:
256,192,119858,1,8,0:0:0:0:
256,192,119944,1,0,0:0:0:0:
256,192,120029,1,8,0:0:0:0:
256,192,120115,1,8,0:0:0:0:
256,192,120201,1,0,0:0:0:0:
256,192,120372,1,0,0:0:0:0:
256,192,120458,1,8,0:0:0:0:
256,192,120544,1,8,0:0:0:0:
256,192,120629,1,0,0:0:0:0:
256,192,120715,1,8,0:0:0:0:
256,192,120801,1,8,0:0:0:0:
256,192,120887,1,0,0:0:0:0:
256,192,121058,1,0,0:0:0:0:
256,192,121144,1,0,0:0:0:0:
256,192,121229,1,8,0:0:0:0:
256,192,121315,1,0,0:0:0:0:
256,192,121401,1,8,0:0:0:0:
256,192,121487,1,8,0:0:0:0:
256,192,121572,1,0,0:0:0:0:
256,192,121744,1,0,0:0:0:0:
256,192,121829,1,0,0:0:0:0:
256,192,121915,1,8,0:0:0:0:
256,192,122087,1,0,0:0:0:0:
256,192,122172,1,0,0:0:0:0:
256,192,122258,1,0,0:0:0:0:
256,192,122429,1,0,0:0:0:0:
256,192,122515,1,0,0:0:0:0:
256,192,122601,1,8,0:0:0:0:
256,192,122687,1,0,0:0:0:0:
256,192,122772,1,8,0:0:0:0:
256,192,122858,1,8,0:0:0:0:
256,192,122944,1,0,0:0:0:0:
256,192,123115,1,0,0:0:0:0:
256,192,123201,1,8,0:0:0:0:
256,192,123287,1,8,0:0:0:0:
256,192,123372,1,0,0:0:0:0:
256,192,123458,1,8,0:0:0:0:
256,192,123544,1,8,0:0:0:0:
256,192,123629,1,0,0:0:0:0:
256,192,123801,1,0,0:0:0:0:
256,192,123887,1,0,0:0:0:0:
256,192,123972,1,8,0:0:0:0:
256,192,124058,1,8,0:0:0:0:
256,192,124144,1,8,0:0:0:0:
256,192,124229,1,8,0:0:0:0:
256,192,124315,1,0,0:0:0:0:
256,192,124487,1,0,0:0:0:0:
256,192,124572,1,0,0:0:0:0:
256,192,124658,1,8,0:0:0:0:
256,192,124829,1,0,0:0:0:0:
256,192,124915,1,0,0:0:0:0:
256,192,125001,1,0,0:0:0:0:
256,192,125172,1,0,0:0:0:0:
256,192,125258,1,0,0:0:0:0:
256,192,125344,1,8,0:0:0:0:
256,192,125429,1,0,0:0:0:0:
256,192,125515,1,8,0:0:0:0:
256,192,125601,1,8,0:0:0:0:
256,192,125687,1,0,0:0:0:0:
256,192,125858,1,0,0:0:0:0:
256,192,125944,1,8,0:0:0:0:
256,192,126029,1,8,0:0:0:0:
256,192,126115,1,0,0:0:0:0:
256,192,126201,1,8,0:0:0:0:
256,192,126287,1,0,0:0:0:0:
256,192,126372,1,8,0:0:0:0:
256,192,126458,1,8,0:0:0:0:
256,192,126544,1,0,0:0:0:0:
256,192,126629,1,8,0:0:0:0:
256,192,126715,1,0,0:0:0:0:
256,192,126801,1,8,0:0:0:0:
256,192,126887,1,8,0:0:0:0:
256,192,126972,1,8,0:0:0:0:
256,192,127401,1,4,0:0:0:0:
256,192,127744,1,12,0:0:0:0:
256,192,128001,1,4,0:0:0:0:
256,192,128258,1,12,0:0:0:0:
256,192,128515,1,12,0:0:0:0:
256,192,128772,1,4,0:0:0:0:
256,192,129029,1,4,0:0:0:0:
256,192,129201,1,0,0:0:0:0:
256,192,129287,1,8,0:0:0:0:
256,192,129458,1,0,0:0:0:0:
256,192,129629,1,8,0:0:0:0:
256,192,129715,1,0,0:0:0:0:
256,192,129801,1,0,0:0:0:0:
256,192,129887,1,0,0:0:0:0:
256,192,129972,1,8,0:0:0:0:
256,192,130058,1,8,0:0:0:0:
256,192,130144,1,0,0:0:0:0:
256,192,130229,1,8,0:0:0:0:
256,192,130315,1,0,0:0:0:0:
256,192,130401,1,0,0:0:0:0:
256,192,130487,1,8,0:0:0:0:
256,192,130572,1,0,0:0:0:0:
256,192,130658,1,0,0:0:0:0:
256,192,130744,1,0,0:0:0:0:
256,192,130829,1,8,0:0:0:0:
256,192,131001,1,0,0:0:0:0:
256,192,131172,1,0,0:0:0:0:
256,192,131287,1,8,0:0:0:0:
256,192,131401,1,8,0:0:0:0:
256,192,131515,1,8,0:0:0:0:
256,192,131629,1,8,0:0:0:0:
256,192,131744,1,8,0:0:0:0:
256,192,131858,1,0,0:0:0:0:
256,192,131944,1,0,0:0:0:0:
256,192,132115,1,0,0:0:0:0:
256,192,132201,1,8,0:0:0:0:
256,192,132329,1,0,0:0:0:0:
256,192,132372,1,8,0:0:0:0:
256,192,132415,1,8,0:0:0:0:
256,192,132458,1,8,0:0:0:0:
256,192,132501,1,8,0:0:0:0:
256,192,132544,1,0,0:0:0:0:
256,192,132715,1,0,0:0:0:0:
256,192,132887,1,8,0:0:0:0:
256,192,133058,1,0,0:0:0:0:
256,192,133144,1,8,0:0:0:0:
256,192,133229,1,0,0:0:0:0:
256,192,133401,1,0,0:0:0:0:
256,192,133572,1,8,0:0:0:0:
256,192,133744,1,0,0:0:0:0:
256,192,133829,1,8,0:0:0:0:
256,192,133915,1,0,0:0:0:0:
256,192,134087,1,0,0:0:0:0:
256,192,134258,1,8,0:0:0:0:
256,192,134344,1,0,0:0:0:0:
256,192,134429,1,8,0:0:0:0:
256,192,134515,1,8,0:0:0:0:
256,192,134601,1,0,0:0:0:0:
256,192,134658,1,0,0:0:0:0:
256,192,134715,1,0,0:0:0:0:
256,192,134772,1,0,0:0:0:0:
256,192,134815,1,0,0:0:0:0:
256,192,134858,1,0,0:0:0:0:
256,192,134901,1,0,0:0:0:0:
256,192,134944,1,8,0:0:0:0:
256,192,135115,1,0,0:0:0:0:
256,192,135158,1,8,0:0:0:0:
256,192,135287,1,4,0:0:0:0:
256,192,135801,1,12,0:0:0:0:
256,192,136487,1,4,0:0:0:0:
256,192,136829,1,4,0:0:0:0:
256,192,137344,1,12,0:0:0:0:
256,192,137858,1,4,0:0:0:0:
256,192,138029,1,12,0:0:0:0:
256,192,140772,1,8,0:0:0:0:
