osu file format v14

[General]
AudioFilename: audio.mp3
AudioLeadIn: 0
PreviewTime: 13485
Countdown: 0
SampleSet: Normal
StackLeniency: 0.7
Mode: 1
LetterboxInBreaks: 0
WidescreenStoryboard: 1

[Editor]
DistanceSpacing: 0.9
BeatDivisor: 4
GridSize: 32
TimelineZoom: 2.1

[Metadata]
Title:B a r o q u e
TitleUnicode:◆ B a r o q u e ◆
Artist:tarolabo
ArtistUnicode:tarolabo
Creator:ZTH
Version:Kantan
Source:
Tags:electronic instrumental bms baroque b.i.n. bin ProgressiveJack プログレッシブャック
BeatmapID:2636847
BeatmapSetID:1247605

[Difficulty]
HPDrainRate:7.5
CircleSize:5
OverallDifficulty:3
ApproachRate:5
SliderMultiplier:1.4
SliderTickRate:1

[Events]
//Background and Video events
0,0,"callum-denby-bht-1.jpg",0,0
//Break Periods
//Storyboard Layer 0 (Background)
//Storyboard Layer 1 (Fail)
//Storyboard Layer 2 (Pass)
//Storyboard Layer 3 (Foreground)
//Storyboard Layer 4 (Overlay)
//Storyboard Sound Samples

[TimingPoints]
1485,375,4,1,0,40,1,0
12500,-100,4,1,0,46,0,0
13063,-100,4,1,0,52,0,0
13438,-100,4,1,0,55,0,0
25440,-100,4,1,0,45,0,0
26565,-100,4,1,0,55,0,0
28440,-100,4,1,0,45,0,0
29565,-100,4,1,0,55,0,0
31440,-100,4,1,0,45,0,0
32940,-100,4,1,0,55,0,0
34440,-100,4,1,0,45,0,0
35940,-100,4,1,0,55,0,0
46533,-100,4,1,0,45,0,0
49440,-100,4,1,0,55,0,0
59938,-100,4,1,0,35,0,0
60312,-100,4,1,0,33,0,0
60688,-100,4,1,0,37,0,0
61063,-100,4,1,0,41,0,0
61438,-100,4,1,0,45,0,0
73436,-100,4,1,0,55,0,0
80963,-100,4,1,0,45,0,0
85440,-100,4,1,0,47,0,0
86940,-100,4,1,0,55,0,0
86985,-100,4,1,0,55,0,1
97440,-100,4,1,0,45,0,1
97485,-100,4,1,0,45,0,0
98190,-100,4,1,0,39,0,0
98565,-100,4,1,0,47,0,0
98940,-100,4,1,0,55,0,0
98985,-100,4,1,0,55,0,1
110985,-100,4,1,0,55,0,0
111080,-100,4,1,0,45,0,0

[HitObjects]
206,217,1485,5,0,0:0:0:0:
209,195,2047,1,0,0:0:0:0:
209,195,2610,1,0,0:0:0:0:
219,232,3172,1,0,0:0:0:0:
241,228,3735,1,0,0:0:0:0:
235,260,4110,1,8,0:0:0:0:
206,217,4485,5,0,0:0:0:0:
242,216,5047,1,0,0:0:0:0:
241,228,5610,1,0,0:0:0:0:
257,261,6172,1,0,0:0:0:0:
227,230,6735,1,0,0:0:0:0:
243,238,7485,1,8,0:0:0:0:
269,245,8047,1,8,0:0:0:0:
248,233,8610,1,8,0:0:0:0:
245,223,8985,1,8,0:0:0:0:
246,223,9547,1,8,0:0:0:0:
246,223,10485,1,8,0:0:0:0:
263,261,11047,1,8,0:0:0:0:
254,239,11610,1,8,0:0:0:0:
268,219,11985,1,8,0:0:0:0:
265,232,12547,1,8,0:0:0:0:
265,232,13110,1,8,0:0:0:0:
265,232,13485,1,4,0:0:0:0:
264,249,14610,1,8,0:0:0:0:
302,272,14985,1,0,0:0:0:0:
275,268,15735,1,0,0:0:0:0:
255,213,16110,1,8,0:0:0:0:
265,232,16485,1,0,0:0:0:0:
280,247,17610,1,8,0:0:0:0:
302,272,17985,1,0,0:0:0:0:
311,281,18360,1,0,0:0:0:0:
320,256,18735,1,8,0:0:0:0:
243,250,19110,1,8,0:0:0:0:
265,232,19485,1,0,0:0:0:0:
253,219,20610,1,8,0:0:0:0:
302,272,20985,1,0,0:0:0:0:
137,211,21735,1,0,0:0:0:0:
317,267,22110,1,8,0:0:0:0:
265,232,22485,1,0,0:0:0:0:
292,247,23610,1,8,0:0:0:0:
286,265,23985,1,0,0:0:0:0:
299,265,24360,5,0,0:0:0:0:
299,265,24735,1,8,0:0:0:0:
257,251,25110,1,8,0:0:0:0:
313,283,25485,1,8,0:0:0:0:
268,217,26047,1,0,0:0:0:0:
281,245,26985,1,0,0:0:0:0:
281,245,27735,1,0,0:0:0:0:
291,222,28110,1,8,0:0:0:0:
261,207,28485,5,8,0:0:0:0:
268,217,29047,1,0,0:0:0:0:
279,235,29985,1,0,0:0:0:0:
286,255,30735,1,0,0:0:0:0:
282,216,31110,1,8,0:0:0:0:
279,230,31485,1,8,0:0:0:0:
330,265,32047,1,8,0:0:0:0:
282,243,32985,1,0,0:0:0:0:
290,246,33360,1,8,0:0:0:0:
273,244,33735,1,0,0:0:0:0:
279,248,34110,1,8,0:0:0:0:
279,230,34485,1,8,0:0:0:0:
284,258,35047,1,8,0:0:0:0:
295,241,35985,1,0,0:0:0:0:
286,270,36360,1,8,0:0:0:0:
273,244,36735,1,0,0:0:0:0:
286,270,37110,1,8,0:0:0:0:
265,232,37485,1,4,0:0:0:0:
264,252,38610,1,8,0:0:0:0:
302,272,38985,1,0,0:0:0:0:
302,272,39360,1,8,0:0:0:0:
276,239,39735,1,0,0:0:0:0:
317,267,40110,1,8,0:0:0:0:
265,232,40485,1,0,0:0:0:0:
274,260,41610,1,8,0:0:0:0:
302,272,41985,1,0,0:0:0:0:
299,265,42360,1,0,0:0:0:0:
277,248,42735,1,8,0:0:0:0:
277,265,43110,1,8,0:0:0:0:
265,232,43485,1,0,0:0:0:0:
289,255,44610,1,8,0:0:0:0:
302,272,44985,1,0,0:0:0:0:
299,265,45360,1,8,0:0:0:0:
276,239,45735,1,0,0:0:0:0:
308,254,46110,1,8,0:0:0:0:
265,232,46485,1,4,0:0:0:0:
241,287,49485,1,4,0:0:0:0:
254,280,50610,1,8,0:0:0:0:
271,276,50985,1,0,0:0:0:0:
284,286,51735,1,8,0:0:0:0:
263,295,52110,1,8,0:0:0:0:
268,278,52485,1,0,0:0:0:0:
273,284,53235,1,8,0:0:0:0:
273,284,53610,1,8,0:0:0:0:
273,284,53985,1,0,0:0:0:0:
275,307,54360,1,8,0:0:0:0:
260,254,54735,1,0,0:0:0:0:
260,254,55110,1,8,0:0:0:0:
241,287,55485,1,0,0:0:0:0:
254,280,56610,1,8,0:0:0:0:
271,276,56985,1,0,0:0:0:0:
274,307,57735,1,8,0:0:0:0:
263,295,58110,1,8,0:0:0:0:
268,278,58485,1,0,0:0:0:0:
273,284,59047,1,0,0:0:0:0:
278,303,59985,1,0,0:0:0:0:
262,279,60360,1,0,0:0:0:0:
268,249,60735,5,8,0:0:0:0:
263,286,61110,1,8,0:0:0:0:
253,234,61485,5,8,0:0:0:0:
255,248,62985,1,8,0:0:0:0:
255,248,64485,1,8,0:0:0:0:
255,248,65985,1,0,0:0:0:0:
255,248,67485,1,8,0:0:0:0:
255,248,68985,1,8,0:0:0:0:
255,248,70485,1,8,0:0:0:0:
255,248,71985,1,0,0:0:0:0:
255,248,73485,1,0,0:0:0:0:
272,230,73860,1,8,0:0:0:0:
258,198,74610,1,8,0:0:0:0:
226,226,74985,1,0,0:0:0:0:
254,210,75360,1,8,0:0:0:0:
240,226,75922,1,0,0:0:0:0:
276,244,76485,1,8,0:0:0:0:
240,226,76860,1,0,0:0:0:0:
265,236,77235,1,8,0:0:0:0:
249,225,77985,1,8,0:0:0:0:
255,230,78360,1,0,0:0:0:0:
248,224,78735,1,8,0:0:0:0:
189,185,79110,1,8,0:0:0:0:
246,190,79485,5,0,0:0:0:0:
233,231,80985,1,0,0:0:0:0:
254,210,81360,1,8,0:0:0:0:
226,224,81922,1,0,0:0:0:0:
276,244,82485,1,8,0:0:0:0:
212,239,82860,1,0,0:0:0:0:
265,236,83235,1,8,0:0:0:0:
249,225,83985,1,8,0:0:0:0:
255,230,84360,1,0,0:0:0:0:
248,224,84735,1,8,0:0:0:0:
246,224,85110,1,8,0:0:0:0:
246,190,85485,5,0,0:0:0:0:
241,214,86985,1,4,0:0:0:0:
256,254,87735,1,8,0:0:0:0:
257,274,88110,1,0,0:0:0:0:
264,256,88485,1,12,0:0:0:0:
230,204,89235,1,0,0:0:0:0:
286,264,89610,1,8,0:0:0:0:
266,261,89985,1,0,0:0:0:0:
238,233,90735,1,0,0:0:0:0:
256,288,91110,1,8,0:0:0:0:
256,288,91485,1,0,0:0:0:0:
185,243,91860,1,8,0:0:0:0:
241,214,92985,1,4,0:0:0:0:
256,268,93735,1,8,0:0:0:0:
262,256,94110,1,0,0:0:0:0:
264,256,94485,1,12,0:0:0:0:
294,272,95235,1,0,0:0:0:0:
289,296,95610,1,8,0:0:0:0:
266,261,95985,1,0,0:0:0:0:
280,268,96735,1,0,0:0:0:0:
256,288,97110,1,8,0:0:0:0:
241,214,97485,5,4,0:0:0:0:
250,251,98235,1,0,0:0:0:0:
256,229,98610,1,8,0:0:0:0:
241,214,98985,1,4,0:0:0:0:
224,213,99735,1,0,0:0:0:0:
237,227,100110,1,0,0:0:0:0:
237,220,100485,1,8,0:0:0:0:
272,240,100860,1,0,0:0:0:0:
224,220,101235,1,8,0:0:0:0:
269,235,101610,1,8,0:0:0:0:
256,234,101985,1,0,0:0:0:0:
248,226,103110,1,0,0:0:0:0:
249,225,103485,5,8,0:0:0:0:
255,230,103860,1,0,0:0:0:0:
248,224,104235,1,8,0:0:0:0:
242,233,104610,1,8,0:0:0:0:
241,214,104985,1,4,0:0:0:0:
264,256,105735,1,8,0:0:0:0:
254,235,106110,1,0,0:0:0:0:
264,256,106485,1,12,0:0:0:0:
261,267,107235,1,0,0:0:0:0:
235,250,107610,1,8,0:0:0:0:
266,261,107985,1,0,0:0:0:0:
265,268,108735,1,0,0:0:0:0:
256,288,109110,1,8,0:0:0:0:
256,288,109485,1,0,0:0:0:0:
288,288,109860,1,8,0:0:0:0:
273,296,110985,1,4,0:0:0:0:
309,277,112110,5,8,0:0:0:0:
286,270,112485,1,0,0:0:0:0:
339,189,112860,1,0,0:0:0:0:
275,225,113235,1,8,0:0:0:0:
262,274,113985,1,0,0:0:0:0:
294,269,114735,1,8,0:0:0:0:
296,282,115110,1,8,0:0:0:0:
311,283,115860,5,0,0:0:0:0:
312,283,116235,1,8,0:0:0:0:
312,283,116985,1,0,0:0:0:0:
304,292,117547,1,0,0:0:0:0:
305,293,118110,1,8,0:0:0:0:
232,255,118860,1,8,0:0:0:0:
311,313,119235,1,0,0:0:0:0:
302,293,119985,1,0,0:0:0:0:
300,314,120735,1,0,0:0:0:0:
320,290,121110,1,8,0:0:0:0:
311,314,121485,1,0,0:0:0:0:
311,299,121860,1,8,0:0:0:0:
316,319,122235,1,0,0:0:0:0:
256,192,122680,12,0,122820,0:0:0:0:
