osu file format v14

[General]
AudioFilename: audio.mp3
AudioLeadIn: 0
PreviewTime: 13485
Countdown: 0
SampleSet: Normal
StackLeniency: 0.7
Mode: 1
LetterboxInBreaks: 0
WidescreenStoryboard: 0

[Editor]
DistanceSpacing: 0.9
BeatDivisor: 16
GridSize: 32
TimelineZoom: 3.4

[Metadata]
Title:B a r o q u e
TitleUnicode:◆ B a r o q u e ◆
Artist:tarolabo
ArtistUnicode:tarolabo
Creator:ZTH
Version:Inner Oni
Source:
Tags:electronic instrumental bms baroque b.i.n. bin ProgressiveJack プログレッシブャック
BeatmapID:2601603
BeatmapSetID:1247605

[Difficulty]
HPDrainRate:5.5
CircleSize:5
OverallDifficulty:6
ApproachRate:5
SliderMultiplier:1.4
SliderTickRate:1

[Events]
//Background and Video events
0,0,"callum-denby-bht-1.jpg",0,0
//Break Periods
//Storyboard Layer 0 (Background)
//Storyboard Layer 1 (Fail)
//Storyboard Layer 2 (Pass)
//Storyboard Layer 3 (Foreground)
//Storyboard Layer 4 (Overlay)
//Storyboard Sound Samples

[TimingPoints]
1485,375,4,1,0,40,1,0
12031,-98.4693917742609,4,1,0,41,0,0
12125,-96.9849324208991,4,1,0,42,0,0
12219,-95.5445658072751,4,1,0,43,0,0
12313,-94.1463561594312,4,1,0,44,0,0
12500,-91.4692151209589,4,1,0,46,0,0
12594,-90.1869394881711,4,1,0,47,0,0
12688,-88.9401183970856,4,1,0,48,0,0
12781,-87.7273014380259,4,1,0,49,0,0
12875,-86.5471162500865,4,1,0,50,0,0
13063,-84.2795113136816,4,1,0,52,0,0
13156,-83.1896232591532,4,1,0,53,0,0
13250,-82.1276312666462,4,1,0,54,0,0
13438,-80.082965952727,4,1,0,55,0,0
25440,-80,4,1,0,45,0,0
26565,-80,4,1,0,55,0,0
28440,-80,4,1,0,45,0,0
29565,-80,4,1,0,55,0,0
31440,-80,4,1,0,45,0,0
32940,-80,4,1,0,55,0,0
34440,-80,4,1,0,45,0,0
35940,-80,4,1,0,55,0,0
46533,-100,4,1,0,45,0,0
49440,-80,4,1,0,55,0,0
59094,-80,4,1,0,53,0,0
59281,-81.2964507595527,4,1,0,49,0,0
59375,-81.96049504139,4,1,0,47,0,0
59563,-83.3218071500109,4,1,0,43,0,0
59656,-84.0195631150757,4,1,0,41,0,0
59844,-85.4506582264203,4,1,0,37,0,0
59938,-86.1846817070428,4,1,0,35,0,0
60125,-87.6912216702547,4,1,0,31,0,0
60219,-88.4643386981057,4,1,0,32,0,0
60312,-89.2512887886101,4,1,0,33,0,0
60500,-90.8679525087733,4,1,0,35,0,0
60688,-92.544178277105,4,1,0,37,0,0
60781,-93.4057414641163,4,1,0,38,0,0
60875,-94.2834972766212,4,1,0,39,0,0
60969,-95.17790654291,4,1,0,40,0,0
61063,-96.089355413386,4,1,0,41,0,0
61156,-97.018523746739,4,1,0,42,0,0
61250,-97.9658373531982,4,1,0,43,0,0
61438,-99.916968998762,4,1,0,45,0,0
73436,-76.9230769230769,4,1,0,55,0,0
79650,-77.4803993959628,4,1,0,45,0,0
79744,-77.7620698396702,4,1,0,45,0,0
79838,-78.0457957120079,4,1,0,45,0,0
80119,-78.909595643559,4,1,0,45,0,0
80213,-79.2018355817414,4,1,0,45,0,0
80306,-79.4961849780829,4,1,0,45,0,0
80353,-79.6442133700334,4,1,0,45,0,0
80400,-79.7927304035039,4,1,0,45,0,0
80494,-80.0915606721604,4,1,0,45,0,0
80681,-80.6958565098558,4,1,0,45,0,0
80775,-81.0015025778728,4,1,0,45,0,0
80963,-81.6196605438318,4,1,0,45,0,0
81056,-81.9323582836482,4,1,0,45,0,0
81150,-82.2473935800975,4,1,0,45,0,0
81244,-82.5648608905941,4,1,0,45,0,0
81338,-82.8847884863083,4,1,0,45,0,0
81525,-83.5322096023616,4,1,0,45,0,0
81619,-83.8596926709983,4,1,0,45,0,0
81713,-84.1898244810539,4,1,0,45,0,0
81759,-84.3557958758451,4,1,0,45,0,0
81806,-84.5224943940456,4,1,0,45,0,0
81900,-84.8578037782089,4,1,0,45,0,0
82088,-85.5365407825396,4,1,0,45,0,0
82181,-85.8799604265142,4,1,0,45,0,0
82275,-86.2262231189749,4,1,0,45,0,0
82463,-86.9270421335373,4,1,0,45,0,0
85440,-86.9565217391304,4,1,0,47,0,0
85815,-85.1158000459625,4,1,0,49,0,0
86190,-83.3513233272848,4,1,0,51,0,0
86565,-81.6585838278441,4,1,0,53,0,0
86940,-80.0331657438843,4,1,0,55,0,0
86985,-80.0331657438843,4,1,0,55,0,1
97440,-80.0331657438843,4,1,0,45,0,1
97485,-80.0331657438843,4,1,0,45,0,0
97627,-90.9090909090909,4,1,0,27,0,0
97721,-89.7504130762762,4,1,0,29,0,0
97815,-88.6208992894376,4,1,0,31,0,0
97908,-87.519385543898,4,1,0,33,0,0
98002,-86.4449928898993,4,1,0,35,0,0
98096,-85.3966589411156,4,1,0,37,0,0
98190,-84.3734470012411,4,1,0,39,0,0
98283,-83.3744647359364,4,1,0,41,0,0
98377,-82.3988615773284,4,1,0,43,0,0
98565,-80.5145199885347,4,1,0,47,0,0
98658,-79.6043346152285,4,1,0,49,0,0
98752,-78.7144977936326,4,1,0,51,0,0
98940,-76.9931406810967,4,1,0,55,0,0
98985,-76.9931406810967,4,1,0,55,0,1
110985,-76.9931406810967,4,1,0,55,0,0
111080,-100,4,1,0,45,0,0

[HitObjects]
206,217,1485,5,0,0:0:0:0:
230,211,1578,1,0,0:0:0:0:
230,211,1672,1,8,0:0:0:0:
230,211,1860,1,0,0:0:0:0:
230,211,1953,1,8,0:0:0:0:
230,211,2047,1,0,0:0:0:0:
230,211,2141,1,0,0:0:0:0:
230,211,2235,1,8,0:0:0:0:
241,228,2422,1,0,0:0:0:0:
241,228,2516,1,8,0:0:0:0:
241,228,2610,1,0,0:0:0:0:
241,228,2797,1,8,0:0:0:0:
241,228,2985,1,0,0:0:0:0:
241,228,3078,1,8,0:0:0:0:
241,228,3172,1,0,0:0:0:0:
241,228,3266,1,0,0:0:0:0:
241,228,3360,1,8,0:0:0:0:
241,228,3547,1,0,0:0:0:0:
241,228,3641,1,8,0:0:0:0:
241,228,3735,1,0,0:0:0:0:
241,228,3922,1,8,0:0:0:0:
241,228,4016,1,8,0:0:0:0:
241,228,4110,1,0,0:0:0:0:
206,217,4485,5,0,0:0:0:0:
230,211,4578,1,0,0:0:0:0:
230,211,4672,1,8,0:0:0:0:
230,211,4860,1,0,0:0:0:0:
230,211,4953,1,8,0:0:0:0:
230,211,5047,1,0,0:0:0:0:
230,211,5141,1,0,0:0:0:0:
230,211,5235,1,8,0:0:0:0:
241,228,5422,1,0,0:0:0:0:
241,228,5516,1,8,0:0:0:0:
241,228,5610,1,0,0:0:0:0:
241,228,5797,1,8,0:0:0:0:
241,228,5985,1,0,0:0:0:0:
241,228,6078,1,8,0:0:0:0:
241,228,6172,1,0,0:0:0:0:
241,228,6266,1,0,0:0:0:0:
241,228,6360,1,8,0:0:0:0:
241,228,6547,1,0,0:0:0:0:
241,228,6641,1,8,0:0:0:0:
241,228,6735,1,0,0:0:0:0:
241,228,6922,1,0,0:0:0:0:
241,228,7016,1,8,0:0:0:0:
222,228,7203,1,8,0:0:0:0:
222,228,7297,1,8,0:0:0:0:
243,238,7485,1,8,0:0:0:0:
250,242,7672,1,0,0:0:0:0:
247,220,7766,1,8,0:0:0:0:
257,241,7953,1,0,0:0:0:0:
257,241,8047,1,8,0:0:0:0:
248,214,8235,1,0,0:0:0:0:
247,233,8328,1,8,0:0:0:0:
248,233,8516,1,0,0:0:0:0:
248,233,8610,1,8,0:0:0:0:
251,227,8797,1,8,0:0:0:0:
245,223,8985,1,8,0:0:0:0:
246,223,9172,1,0,0:0:0:0:
246,223,9266,1,8,0:0:0:0:
246,223,9453,1,0,0:0:0:0:
246,223,9547,1,8,0:0:0:0:
251,227,9735,1,8,0:0:0:0:
249,226,9922,1,0,0:0:0:0:
249,226,10016,1,8,0:0:0:0:
246,223,10203,1,8,0:0:0:0:
246,223,10297,1,8,0:0:0:0:
246,223,10485,1,8,0:0:0:0:
251,227,10672,1,0,0:0:0:0:
249,226,10766,1,8,0:0:0:0:
254,240,10953,1,0,0:0:0:0:
254,240,11047,1,8,0:0:0:0:
254,239,11235,1,0,0:0:0:0:
254,239,11328,1,8,0:0:0:0:
254,239,11516,1,0,0:0:0:0:
254,239,11610,1,8,0:0:0:0:
254,239,11797,1,8,0:0:0:0:
268,219,11985,1,8,0:0:0:0:
265,232,12078,1,0,0:0:0:0:
265,232,12172,1,8,0:0:0:0:
265,232,12266,1,8,0:0:0:0:
265,232,12360,1,0,0:0:0:0:
265,232,12547,1,8,0:0:0:0:
288,240,12641,1,0,0:0:0:0:
265,232,12735,1,8,0:0:0:0:
292,245,12828,1,8,0:0:0:0:
265,232,12922,1,0,0:0:0:0:
265,232,13110,1,8,0:0:0:0:
265,232,13203,1,0,0:0:0:0:
265,232,13297,1,8,0:0:0:0:
265,232,13485,1,4,0:0:0:0:
267,246,13672,1,0,0:0:0:0:
267,246,13766,1,8,0:0:0:0:
267,246,13860,1,0,0:0:0:0:
292,250,13953,1,0,0:0:0:0:
267,246,14047,1,8,0:0:0:0:
267,246,14235,1,0,0:0:0:0:
292,250,14422,1,8,0:0:0:0:
280,252,14516,1,0,0:0:0:0:
280,252,14610,1,8,0:0:0:0:
286,265,14797,1,8,0:0:0:0:
302,272,14985,1,0,0:0:0:0:
299,265,15172,1,8,0:0:0:0:
299,265,15266,1,8,0:0:0:0:
299,265,15360,1,0,0:0:0:0:
299,265,15547,1,8,0:0:0:0:
299,265,15735,1,0,0:0:0:0:
299,265,15922,1,8,0:0:0:0:
317,267,16016,1,0,0:0:0:0:
317,267,16110,1,8,0:0:0:0:
308,270,16203,1,0,0:0:0:0:
267,258,16297,1,8,0:0:0:0:
265,232,16485,1,0,0:0:0:0:
267,246,16672,1,0,0:0:0:0:
267,246,16766,1,8,0:0:0:0:
267,246,16860,1,0,0:0:0:0:
267,258,16953,1,0,0:0:0:0:
267,246,17047,1,8,0:0:0:0:
267,246,17235,1,0,0:0:0:0:
292,250,17422,1,8,0:0:0:0:
280,252,17516,1,0,0:0:0:0:
280,252,17610,1,8,0:0:0:0:
286,265,17797,1,8,0:0:0:0:
302,272,17985,1,0,0:0:0:0:
299,265,18172,1,8,0:0:0:0:
294,264,18266,1,0,0:0:0:0:
299,265,18360,1,8,0:0:0:0:
299,265,18547,1,8,0:0:0:0:
299,265,18641,1,8,0:0:0:0:
299,265,18735,1,0,0:0:0:0:
299,265,18922,1,8,0:0:0:0:
317,267,19016,1,0,0:0:0:0:
317,267,19110,1,8,0:0:0:0:
308,270,19203,1,0,0:0:0:0:
267,258,19297,1,8,0:0:0:0:
265,232,19485,1,0,0:0:0:0:
267,246,19672,1,0,0:0:0:0:
267,246,19766,1,8,0:0:0:0:
267,246,19860,1,0,0:0:0:0:
292,250,19953,5,0,0:0:0:0:
267,246,20047,1,8,0:0:0:0:
267,246,20235,1,0,0:0:0:0:
292,250,20422,1,8,0:0:0:0:
280,252,20516,1,0,0:0:0:0:
280,252,20610,1,8,0:0:0:0:
286,265,20797,1,8,0:0:0:0:
302,272,20985,1,0,0:0:0:0:
299,265,21172,1,8,0:0:0:0:
299,265,21266,1,8,0:0:0:0:
299,265,21360,1,0,0:0:0:0:
299,265,21547,1,8,0:0:0:0:
299,265,21735,1,0,0:0:0:0:
299,265,21922,1,8,0:0:0:0:
317,267,22016,1,0,0:0:0:0:
317,267,22110,1,8,0:0:0:0:
308,270,22203,1,0,0:0:0:0:
267,258,22297,1,8,0:0:0:0:
265,232,22485,1,0,0:0:0:0:
267,246,22672,1,0,0:0:0:0:
267,246,22766,1,8,0:0:0:0:
267,246,22860,1,0,0:0:0:0:
267,258,22953,1,0,0:0:0:0:
267,246,23047,1,8,0:0:0:0:
267,246,23235,1,0,0:0:0:0:
292,250,23422,1,8,0:0:0:0:
280,252,23516,1,0,0:0:0:0:
280,252,23610,1,8,0:0:0:0:
286,265,23797,1,8,0:0:0:0:
286,265,23985,1,0,0:0:0:0:
299,265,24172,1,8,0:0:0:0:
294,264,24266,1,0,0:0:0:0:
299,265,24360,5,8,0:0:0:0:
299,265,24547,1,8,0:0:0:0:
299,265,24641,1,8,0:0:0:0:
299,265,24735,1,0,0:0:0:0:
299,265,24922,1,8,0:0:0:0:
315,268,25015,1,0,0:0:0:0:
317,267,25110,1,8,0:0:0:0:
308,270,25203,1,0,0:0:0:0:
267,258,25297,1,8,0:0:0:0:
313,283,25485,1,8,0:0:0:0:
268,217,25656,1,8,0:0:0:0:
268,217,25719,1,8,0:0:0:0:
268,217,25781,1,0,0:0:0:0:
220,193,25844,1,0,0:0:0:0:
268,217,25969,1,0,0:0:0:0:
268,217,26031,1,8,0:0:0:0:
268,217,26094,1,8,0:0:0:0:
268,217,26156,1,8,0:0:0:0:
281,209,26219,1,0,0:0:0:0:
287,182,26328,1,0,0:0:0:0:
283,227,26610,1,8,0:0:0:0:
278,206,26703,1,8,0:0:0:0:
278,206,26797,1,0,0:0:0:0:
289,220,26891,1,8,0:0:0:0:
289,220,26985,1,0,0:0:0:0:
290,223,27172,1,8,0:0:0:0:
290,223,27266,1,0,0:0:0:0:
290,223,27360,1,8,0:0:0:0:
290,223,27453,1,8,0:0:0:0:
290,223,27547,1,0,0:0:0:0:
290,223,27735,1,0,0:0:0:0:
289,220,27922,1,8,0:0:0:0:
289,220,28016,1,0,0:0:0:0:
290,223,28110,1,8,0:0:0:0:
290,223,28203,1,0,0:0:0:0:
290,223,28297,1,8,0:0:0:0:
261,207,28485,5,8,0:0:0:0:
251,208,28656,1,8,0:0:0:0:
268,217,28719,1,8,0:0:0:0:
268,217,28781,1,8,0:0:0:0:
289,220,28844,1,0,0:0:0:0:
268,217,28969,1,0,0:0:0:0:
268,217,29031,1,0,0:0:0:0:
268,217,29094,1,8,0:0:0:0:
268,217,29156,1,8,0:0:0:0:
268,217,29219,1,0,0:0:0:0:
287,182,29328,1,0,0:0:0:0:
273,236,29610,1,8,0:0:0:0:
279,235,29703,1,8,0:0:0:0:
279,235,29797,1,0,0:0:0:0:
291,243,29891,1,8,0:0:0:0:
279,235,29985,1,0,0:0:0:0:
261,216,30172,1,8,0:0:0:0:
261,216,30266,1,0,0:0:0:0:
261,216,30360,1,8,0:0:0:0:
264,222,30453,1,8,0:0:0:0:
264,222,30547,1,0,0:0:0:0:
268,221,30735,1,0,0:0:0:0:
275,231,30922,1,8,0:0:0:0:
268,221,31016,1,0,0:0:0:0:
268,221,31110,1,8,0:0:0:0:
268,221,31203,1,0,0:0:0:0:
268,221,31297,1,8,0:0:0:0:
279,230,31485,1,8,0:0:0:0:
265,229,31656,1,8,0:0:0:0:
265,229,31719,1,8,0:0:0:0:
213,222,31781,1,0,0:0:0:0:
265,229,31844,1,0,0:0:0:0:
274,245,31938,1,8,0:0:0:0:
279,230,31988,1,0,0:0:0:0:
284,254,32035,1,0,0:0:0:0:
256,250,32129,1,8,0:0:0:0:
278,232,32453,1,0,0:0:0:0:
282,249,32594,1,0,0:0:0:0:
282,249,32656,1,0,0:0:0:0:
282,249,32719,1,8,0:0:0:0:
282,248,32781,1,0,0:0:0:0:
282,243,32985,1,0,0:0:0:0:
280,233,33172,1,8,0:0:0:0:
280,233,33266,1,0,0:0:0:0:
283,234,33360,1,8,0:0:0:0:
278,232,33453,1,8,0:0:0:0:
281,231,33547,1,0,0:0:0:0:
261,248,33735,1,0,0:0:0:0:
279,248,33922,1,8,0:0:0:0:
279,248,34016,1,0,0:0:0:0:
279,248,34110,1,8,0:0:0:0:
279,248,34203,1,0,0:0:0:0:
279,248,34297,1,8,0:0:0:0:
279,230,34484,1,8,0:0:0:0:
265,229,34656,1,8,0:0:0:0:
265,229,34719,1,8,0:0:0:0:
269,229,34781,1,8,0:0:0:0:
265,229,34844,1,0,0:0:0:0:
274,245,34938,1,8,0:0:0:0:
279,230,34988,1,0,0:0:0:0:
284,254,35035,1,0,0:0:0:0:
256,250,35129,1,8,0:0:0:0:
278,232,35453,1,0,0:0:0:0:
282,249,35594,1,0,0:0:0:0:
282,249,35656,1,8,0:0:0:0:
282,249,35719,1,8,0:0:0:0:
282,248,35781,1,0,0:0:0:0:
295,241,35985,1,0,0:0:0:0:
306,254,36172,1,8,0:0:0:0:
306,253,36266,1,0,0:0:0:0:
290,256,36360,1,8,0:0:0:0:
290,256,36453,1,8,0:0:0:0:
290,256,36547,1,0,0:0:0:0:
290,256,36735,1,0,0:0:0:0:
290,256,36922,1,8,0:0:0:0:
290,256,37016,1,0,0:0:0:0:
290,256,37110,1,8,0:0:0:0:
290,256,37203,1,0,0:0:0:0:
290,256,37297,1,8,0:0:0:0:
265,232,37485,1,4,0:0:0:0:
267,246,37672,1,0,0:0:0:0:
267,246,37766,1,8,0:0:0:0:
267,246,37860,1,0,0:0:0:0:
305,250,37953,1,0,0:0:0:0:
267,246,38047,1,8,0:0:0:0:
267,246,38235,1,0,0:0:0:0:
292,250,38422,1,8,0:0:0:0:
280,252,38516,1,0,0:0:0:0:
280,252,38610,1,8,0:0:0:0:
286,265,38797,1,8,0:0:0:0:
302,272,38985,1,0,0:0:0:0:
299,265,39172,1,0,0:0:0:0:
299,265,39266,1,8,0:0:0:0:
299,265,39360,1,8,0:0:0:0:
260,234,39453,1,0,0:0:0:0:
299,265,39547,1,8,0:0:0:0:
299,265,39735,1,0,0:0:0:0:
299,265,39922,1,8,0:0:0:0:
317,267,40016,1,0,0:0:0:0:
317,267,40110,1,8,0:0:0:0:
274,249,40156,1,8,0:0:0:0:
308,270,40203,1,0,0:0:0:0:
267,258,40297,1,8,0:0:0:0:
265,232,40485,1,0,0:0:0:0:
267,246,40672,1,0,0:0:0:0:
267,246,40766,1,8,0:0:0:0:
267,246,40860,1,0,0:0:0:0:
274,249,40953,1,0,0:0:0:0:
267,246,41047,1,8,0:0:0:0:
267,246,41235,1,0,0:0:0:0:
292,250,41422,1,8,0:0:0:0:
280,252,41516,1,0,0:0:0:0:
280,252,41610,1,8,0:0:0:0:
286,265,41797,1,8,0:0:0:0:
302,272,41985,1,0,0:0:0:0:
294,264,42078,1,8,0:0:0:0:
299,265,42172,1,0,0:0:0:0:
280,252,42266,1,0,0:0:0:0:
299,265,42360,1,8,0:0:0:0:
299,265,42547,1,8,0:0:0:0:
299,265,42641,1,8,0:0:0:0:
299,265,42735,1,0,0:0:0:0:
299,265,42922,1,8,0:0:0:0:
317,267,43016,1,0,0:0:0:0:
317,267,43110,1,8,0:0:0:0:
253,239,43156,1,8,0:0:0:0:
308,270,43203,1,0,0:0:0:0:
267,258,43297,1,8,0:0:0:0:
265,232,43485,1,0,0:0:0:0:
267,246,43672,1,0,0:0:0:0:
267,246,43766,1,8,0:0:0:0:
267,246,43860,1,0,0:0:0:0:
292,250,43953,5,0,0:0:0:0:
267,246,44047,1,8,0:0:0:0:
267,246,44235,1,0,0:0:0:0:
292,250,44422,1,8,0:0:0:0:
280,252,44516,1,0,0:0:0:0:
280,252,44610,1,8,0:0:0:0:
286,265,44797,1,8,0:0:0:0:
302,272,44985,1,0,0:0:0:0:
299,265,45172,1,0,0:0:0:0:
299,265,45266,1,8,0:0:0:0:
299,265,45360,1,8,0:0:0:0:
260,234,45453,1,0,0:0:0:0:
299,265,45547,1,8,0:0:0:0:
299,265,45735,1,0,0:0:0:0:
299,265,45922,1,8,0:0:0:0:
317,267,46016,1,0,0:0:0:0:
317,267,46110,1,8,0:0:0:0:
274,249,46156,1,8,0:0:0:0:
308,270,46203,1,0,0:0:0:0:
267,258,46297,1,8,0:0:0:0:
265,232,46485,1,4,0:0:0:0:
255,277,47610,1,8,0:0:0:0:
255,278,47797,1,0,0:0:0:0:
256,285,48172,5,0,0:0:0:0:
251,257,48266,1,0,0:0:0:0:
255,277,48453,1,8,0:0:0:0:
253,265,48641,1,8,0:0:0:0:
253,265,48735,1,0,0:0:0:0:
263,266,48922,1,0,0:0:0:0:
227,257,49016,1,8,0:0:0:0:
282,267,49063,1,8,0:0:0:0:
234,260,49110,1,0,0:0:0:0:
233,272,49203,1,8,0:0:0:0:
241,287,49485,1,0,0:0:0:0:
224,275,49578,1,8,0:0:0:0:
254,280,49672,1,0,0:0:0:0:
254,280,49766,1,8,0:0:0:0:
254,280,49860,1,0,0:0:0:0:
254,280,50047,1,8,0:0:0:0:
254,280,50235,1,8,0:0:0:0:
254,280,50328,1,0,0:0:0:0:
254,280,50422,1,0,0:0:0:0:
254,280,50516,1,8,0:0:0:0:
254,280,50610,1,8,0:0:0:0:
254,280,50703,1,0,0:0:0:0:
254,280,50797,1,8,0:0:0:0:
271,276,50985,1,0,0:0:0:0:
268,277,51172,1,0,0:0:0:0:
268,277,51266,1,8,0:0:0:0:
268,277,51360,1,8,0:0:0:0:
268,278,51453,1,0,0:0:0:0:
268,278,51547,1,8,0:0:0:0:
276,289,51735,1,8,0:0:0:0:
281,295,51922,1,8,0:0:0:0:
271,276,52016,1,0,0:0:0:0:
268,277,52110,1,8,0:0:0:0:
268,277,52203,1,0,0:0:0:0:
268,277,52297,1,8,0:0:0:0:
268,278,52485,1,0,0:0:0:0:
273,284,52578,1,8,0:0:0:0:
273,284,52672,1,0,0:0:0:0:
273,284,52766,1,8,0:0:0:0:
273,284,52860,1,0,0:0:0:0:
273,284,53047,1,8,0:0:0:0:
273,284,53235,1,8,0:0:0:0:
272,281,53328,1,8,0:0:0:0:
272,281,53422,1,0,0:0:0:0:
263,282,53516,1,8,0:0:0:0:
273,284,53610,1,0,0:0:0:0:
280,298,53703,1,0,0:0:0:0:
273,284,53797,1,8,0:0:0:0:
273,284,53985,1,0,0:0:0:0:
283,300,54078,1,0,0:0:0:0:
292,302,54172,1,8,0:0:0:0:
292,302,54266,1,0,0:0:0:0:
292,302,54360,1,8,0:0:0:0:
292,302,54547,1,8,0:0:0:0:
292,302,54641,1,8,0:0:0:0:
292,302,54735,1,0,0:0:0:0:
292,302,54922,1,8,0:0:0:0:
292,302,55016,1,0,0:0:0:0:
292,302,55110,1,8,0:0:0:0:
292,302,55203,1,0,0:0:0:0:
292,302,55297,1,8,0:0:0:0:
241,287,55485,1,0,0:0:0:0:
184,262,55578,1,8,0:0:0:0:
254,280,55672,1,0,0:0:0:0:
254,280,55766,1,8,0:0:0:0:
254,280,55860,1,0,0:0:0:0:
254,280,56047,1,8,0:0:0:0:
254,280,56235,1,8,0:0:0:0:
254,280,56328,1,0,0:0:0:0:
254,280,56422,1,0,0:0:0:0:
254,280,56516,1,8,0:0:0:0:
254,280,56610,1,8,0:0:0:0:
254,280,56703,1,0,0:0:0:0:
254,280,56797,1,8,0:0:0:0:
271,276,56985,1,0,0:0:0:0:
268,277,57172,1,0,0:0:0:0:
268,277,57266,1,8,0:0:0:0:
268,277,57360,1,8,0:0:0:0:
268,278,57453,1,0,0:0:0:0:
268,278,57547,1,8,0:0:0:0:
276,289,57735,1,8,0:0:0:0:
281,295,57922,1,8,0:0:0:0:
271,276,58016,1,0,0:0:0:0:
268,277,58110,1,8,0:0:0:0:
268,277,58203,1,0,0:0:0:0:
268,277,58297,1,8,0:0:0:0:
268,278,58485,1,0,0:0:0:0:
268,278,58578,1,8,0:0:0:0:
273,284,58672,1,8,0:0:0:0:
273,284,58766,1,0,0:0:0:0:
273,284,58860,1,8,0:0:0:0:
273,284,59047,1,0,0:0:0:0:
273,284,59141,1,8,0:0:0:0:
273,284,59328,1,0,0:0:0:0:
272,281,59422,1,8,0:0:0:0:
272,281,59610,1,0,0:0:0:0:
280,298,59703,1,8,0:0:0:0:
264,274,59891,1,0,0:0:0:0:
260,291,59985,1,8,0:0:0:0:
261,291,60172,1,0,0:0:0:0:
272,281,60266,1,8,0:0:0:0:
262,279,60359,1,0,0:0:0:0:
263,286,60547,1,8,0:0:0:0:
263,286,60735,1,8,0:0:0:0:
248,252,60828,1,8,0:0:0:0:
263,286,60922,1,0,0:0:0:0:
263,286,61016,1,8,0:0:0:0:
263,286,61110,1,0,0:0:0:0:
263,286,61203,1,0,0:0:0:0:
259,243,61297,1,8,0:0:0:0:
253,234,61485,5,8,0:0:0:0:
253,234,61860,1,8,0:0:0:0:
253,234,62235,1,8,0:0:0:0:
255,248,62610,1,8,0:0:0:0:
255,248,62985,1,8,0:0:0:0:
255,248,63360,1,8,0:0:0:0:
255,248,63735,1,0,0:0:0:0:
255,248,64110,1,0,0:0:0:0:
255,248,64485,1,8,0:0:0:0:
255,248,64860,1,8,0:0:0:0:
255,248,65235,1,8,0:0:0:0:
255,248,65610,1,8,0:0:0:0:
255,248,65985,1,8,0:0:0:0:
255,248,66360,1,0,0:0:0:0:
255,248,66735,1,8,0:0:0:0:
255,248,67110,1,8,0:0:0:0:
255,248,67485,1,8,0:0:0:0:
255,248,67860,1,8,0:0:0:0:
255,248,68235,1,8,0:0:0:0:
255,248,68610,1,8,0:0:0:0:
255,248,68985,1,8,0:0:0:0:
255,248,69360,1,8,0:0:0:0:
255,248,69735,1,0,0:0:0:0:
255,248,70110,1,0,0:0:0:0:
255,248,70485,1,8,0:0:0:0:
255,248,70860,1,8,0:0:0:0:
255,248,71235,1,8,0:0:0:0:
255,248,71610,1,8,0:0:0:0:
255,248,71985,1,8,0:0:0:0:
255,248,72360,5,0,0:0:0:0:
255,248,72735,1,8,0:0:0:0:
255,248,73110,1,8,0:0:0:0:
246,190,73485,5,0,0:0:0:0:
290,213,73578,1,8,0:0:0:0:
263,205,73672,1,8,0:0:0:0:
263,206,73766,1,0,0:0:0:0:
264,217,73860,1,8,0:0:0:0:
293,219,74047,1,0,0:0:0:0:
288,227,74141,1,8,0:0:0:0:
275,227,74328,1,8,0:0:0:0:
281,246,74375,1,8,0:0:0:0:
258,198,74422,1,8,0:0:0:0:
275,227,74516,1,0,0:0:0:0:
258,198,74610,1,8,0:0:0:0:
297,230,74703,1,0,0:0:0:0:
268,219,74797,1,8,0:0:0:0:
253,209,74985,1,0,0:0:0:0:
262,223,75078,1,8,0:0:0:0:
254,210,75172,1,8,0:0:0:0:
173,226,75266,1,0,0:0:0:0:
254,210,75360,1,8,0:0:0:0:
259,225,75547,1,0,0:0:0:0:
262,223,75641,1,8,0:0:0:0:
262,214,75735,1,0,0:0:0:0:
221,231,75781,1,0,0:0:0:0:
212,282,75828,1,0,0:0:0:0:
265,220,75922,1,8,0:0:0:0:
259,251,76110,1,8,0:0:0:0:
253,240,76203,1,0,0:0:0:0:
253,240,76297,1,8,0:0:0:0:
276,244,76485,1,8,0:0:0:0:
259,251,76578,1,0,0:0:0:0:
267,254,76672,1,8,0:0:0:0:
257,235,76766,1,0,0:0:0:0:
266,254,76860,1,8,0:0:0:0:
274,236,76906,1,8,0:0:0:0:
268,244,76953,1,0,0:0:0:0:
249,225,77047,1,8,0:0:0:0:
265,236,77235,1,8,0:0:0:0:
265,236,77328,1,0,0:0:0:0:
265,236,77422,1,8,0:0:0:0:
262,237,77516,1,0,0:0:0:0:
265,236,77610,1,8,0:0:0:0:
243,233,77656,1,8,0:0:0:0:
265,236,77703,1,0,0:0:0:0:
265,236,77797,1,8,0:0:0:0:
249,225,77985,1,8,0:0:0:0:
255,241,78031,1,0,0:0:0:0:
243,235,78078,1,0,0:0:0:0:
255,230,78172,1,8,0:0:0:0:
265,236,78266,1,0,0:0:0:0:
255,230,78360,1,8,0:0:0:0:
255,230,78406,1,8,0:0:0:0:
243,226,78453,5,0,0:0:0:0:
243,226,78547,1,8,0:0:0:0:
248,224,78735,1,8,0:0:0:0:
243,226,78781,1,0,0:0:0:0:
249,225,78828,1,0,0:0:0:0:
244,230,78922,1,8,0:0:0:0:
262,237,79016,1,0,0:0:0:0:
246,224,79110,1,8,0:0:0:0:
246,224,79156,1,8,0:0:0:0:
246,224,79203,1,0,0:0:0:0:
251,243,79250,1,0,0:0:0:0:
241,225,79297,1,8,0:0:0:0:
249,238,79391,1,8,0:0:0:0:
246,190,79485,5,0,0:0:0:0:
263,205,79672,1,8,0:0:0:0:
263,206,79766,1,0,0:0:0:0:
264,217,79860,1,8,0:0:0:0:
288,227,80141,1,8,0:0:0:0:
275,227,80235,1,0,0:0:0:0:
291,227,80328,1,8,0:0:0:0:
281,244,80375,1,8,0:0:0:0:
258,198,80422,1,8,0:0:0:0:
258,198,80516,1,0,0:0:0:0:
297,230,80703,1,0,0:0:0:0:
268,219,80797,1,8,0:0:0:0:
253,209,80985,1,0,0:0:0:0:
262,223,81078,1,8,0:0:0:0:
254,210,81172,1,8,0:0:0:0:
254,210,81266,1,0,0:0:0:0:
254,210,81360,1,8,0:0:0:0:
259,225,81547,1,0,0:0:0:0:
262,223,81641,1,8,0:0:0:0:
262,214,81735,1,0,0:0:0:0:
254,222,81781,1,0,0:0:0:0:
234,205,81828,1,0,0:0:0:0:
265,220,81922,1,8,0:0:0:0:
259,251,82110,1,8,0:0:0:0:
253,240,82203,1,0,0:0:0:0:
253,240,82297,1,8,0:0:0:0:
276,244,82485,1,8,0:0:0:0:
259,251,82578,1,0,0:0:0:0:
267,254,82672,1,8,0:0:0:0:
263,237,82766,1,0,0:0:0:0:
266,254,82860,1,8,0:0:0:0:
268,244,82906,1,8,0:0:0:0:
268,244,82953,1,0,0:0:0:0:
249,225,83047,1,8,0:0:0:0:
265,236,83235,1,8,0:0:0:0:
265,236,83328,1,0,0:0:0:0:
265,236,83422,1,8,0:0:0:0:
263,237,83516,1,0,0:0:0:0:
265,236,83610,1,8,0:0:0:0:
265,236,83656,1,8,0:0:0:0:
265,236,83703,1,0,0:0:0:0:
265,236,83797,1,8,0:0:0:0:
249,225,83985,1,8,0:0:0:0:
243,235,84078,1,0,0:0:0:0:
255,230,84172,1,8,0:0:0:0:
265,236,84266,1,0,0:0:0:0:
255,230,84360,1,8,0:0:0:0:
255,230,84406,1,8,0:0:0:0:
243,226,84453,5,0,0:0:0:0:
243,226,84547,1,8,0:0:0:0:
248,224,84735,1,8,0:0:0:0:
243,226,84828,1,0,0:0:0:0:
244,230,84922,1,8,0:0:0:0:
264,236,85016,1,0,0:0:0:0:
246,224,85110,1,8,0:0:0:0:
246,224,85156,1,8,0:0:0:0:
246,224,85203,1,0,0:0:0:0:
255,230,85250,1,0,0:0:0:0:
241,225,85297,1,8,0:0:0:0:
249,238,85391,1,8,0:0:0:0:
246,190,85485,5,0,0:0:0:0:
241,214,85860,1,8,0:0:0:0:
241,214,86235,1,8,0:0:0:0:
241,214,86610,1,8,0:0:0:0:
241,214,86985,1,4,0:0:0:0:
252,241,87172,1,8,0:0:0:0:
252,241,87266,1,0,0:0:0:0:
252,241,87360,1,8,0:0:0:0:
252,241,87547,1,0,0:0:0:0:
252,241,87641,1,8,0:0:0:0:
262,256,87735,1,8,0:0:0:0:
256,256,87828,1,8,0:0:0:0:
262,257,87922,1,0,0:0:0:0:
264,256,88110,1,8,0:0:0:0:
264,256,88203,1,0,0:0:0:0:
264,256,88297,1,8,0:0:0:0:
264,256,88485,1,12,0:0:0:0:
265,257,88672,1,0,0:0:0:0:
262,256,88766,1,0,0:0:0:0:
262,257,88860,1,8,0:0:0:0:
280,249,88953,1,8,0:0:0:0:
264,256,89047,1,0,0:0:0:0:
264,256,89141,1,8,0:0:0:0:
264,256,89235,1,0,0:0:0:0:
264,256,89422,1,8,0:0:0:0:
264,256,89516,1,0,0:0:0:0:
265,257,89610,1,8,0:0:0:0:
265,257,89703,1,8,0:0:0:0:
262,256,89797,1,8,0:0:0:0:
266,261,89985,1,0,0:0:0:0:
288,288,90078,1,8,0:0:0:0:
288,288,90172,1,0,0:0:0:0:
288,288,90266,1,8,0:0:0:0:
288,288,90360,1,8,0:0:0:0:
288,288,90547,1,0,0:0:0:0:
256,288,90641,1,8,0:0:0:0:
256,288,90735,1,0,0:0:0:0:
256,288,90922,1,8,0:0:0:0:
256,288,91016,1,0,0:0:0:0:
256,288,91110,1,8,0:0:0:0:
256,288,91203,1,0,0:0:0:0:
256,288,91297,1,8,0:0:0:0:
256,288,91485,1,0,0:0:0:0:
288,288,91578,1,0,0:0:0:0:
288,288,91672,1,8,0:0:0:0:
288,288,91766,1,0,0:0:0:0:
288,288,91860,1,8,0:0:0:0:
288,288,92047,1,8,0:0:0:0:
288,288,92141,1,8,0:0:0:0:
288,288,92235,1,0,0:0:0:0:
288,288,92422,1,8,0:0:0:0:
288,288,92516,1,8,0:0:0:0:
288,288,92610,1,8,0:0:0:0:
288,288,92703,1,0,0:0:0:0:
288,288,92797,1,8,0:0:0:0:
241,214,92985,1,4,0:0:0:0:
252,241,93172,1,8,0:0:0:0:
252,241,93266,1,0,0:0:0:0:
252,241,93360,1,8,0:0:0:0:
252,241,93547,1,0,0:0:0:0:
252,241,93641,1,8,0:0:0:0:
262,256,93735,1,8,0:0:0:0:
256,256,93828,1,8,0:0:0:0:
262,257,93922,1,0,0:0:0:0:
264,256,94110,1,8,0:0:0:0:
264,256,94203,1,0,0:0:0:0:
264,256,94297,1,8,0:0:0:0:
264,256,94485,1,12,0:0:0:0:
265,257,94672,1,0,0:0:0:0:
262,256,94766,1,0,0:0:0:0:
262,257,94860,1,8,0:0:0:0:
286,278,94953,1,8,0:0:0:0:
264,256,95047,1,0,0:0:0:0:
264,256,95141,1,8,0:0:0:0:
264,256,95235,1,8,0:0:0:0:
264,256,95422,1,8,0:0:0:0:
264,256,95516,1,0,0:0:0:0:
265,257,95610,1,8,0:0:0:0:
265,257,95703,1,8,0:0:0:0:
262,256,95797,1,8,0:0:0:0:
266,261,95985,1,0,0:0:0:0:
288,288,96078,1,8,0:0:0:0:
288,288,96172,1,0,0:0:0:0:
288,288,96266,1,8,0:0:0:0:
288,288,96360,1,8,0:0:0:0:
288,288,96547,1,0,0:0:0:0:
256,288,96641,1,8,0:0:0:0:
256,288,96735,1,8,0:0:0:0:
256,288,96922,1,8,0:0:0:0:
295,264,97016,1,0,0:0:0:0:
256,288,97110,1,8,0:0:0:0:
256,288,97203,1,0,0:0:0:0:
256,288,97297,1,8,0:0:0:0:
241,214,97485,5,4,0:0:0:0:
241,214,97672,1,0,0:0:0:0:
241,214,97766,1,0,0:0:0:0:
241,214,97860,1,8,0:0:0:0:
241,214,98047,1,8,0:0:0:0:
264,236,98141,1,8,0:0:0:0:
241,214,98235,1,0,0:0:0:0:
241,214,98328,1,8,0:0:0:0:
241,214,98422,1,0,0:0:0:0:
241,214,98610,1,8,0:0:0:0:
241,245,98703,1,0,0:0:0:0:
241,214,98797,1,8,0:0:0:0:
241,214,98985,1,4,0:0:0:0:
237,220,99172,1,8,0:0:0:0:
237,220,99266,1,0,0:0:0:0:
237,220,99360,1,8,0:0:0:0:
237,220,99547,1,0,0:0:0:0:
237,220,99641,1,8,0:0:0:0:
237,220,99735,1,0,0:0:0:0:
254,228,99828,1,0,0:0:0:0:
238,220,99922,1,8,0:0:0:0:
237,220,100110,1,8,0:0:0:0:
237,220,100203,1,0,0:0:0:0:
237,220,100297,1,8,0:0:0:0:
237,220,100485,1,8,0:0:0:0:
252,220,100578,1,0,0:0:0:0:
237,220,100672,1,0,0:0:0:0:
237,220,100766,1,8,0:0:0:0:
238,220,100860,1,8,0:0:0:0:
238,220,100953,1,0,0:0:0:0:
238,220,101047,1,8,0:0:0:0:
250,226,101235,5,8,0:0:0:0:
252,220,101328,1,8,0:0:0:0:
256,234,101422,1,0,0:0:0:0:
256,234,101516,1,8,0:0:0:0:
256,234,101610,1,0,0:0:0:0:
256,234,101703,1,0,0:0:0:0:
256,234,101797,1,8,0:0:0:0:
256,234,101985,1,0,0:0:0:0:
256,234,102172,1,8,0:0:0:0:
256,234,102266,1,0,0:0:0:0:
256,234,102360,5,8,0:0:0:0:
256,234,102547,1,0,0:0:0:0:
256,234,102641,1,8,0:0:0:0:
256,234,102735,1,0,0:0:0:0:
256,234,102828,1,0,0:0:0:0:
256,234,102922,1,8,0:0:0:0:
256,234,103110,1,8,0:0:0:0:
256,234,103203,1,8,0:0:0:0:
256,234,103297,1,0,0:0:0:0:
249,225,103485,5,8,0:0:0:0:
255,241,103531,1,0,0:0:0:0:
243,235,103578,1,0,0:0:0:0:
255,230,103672,1,8,0:0:0:0:
246,246,103766,1,0,0:0:0:0:
255,230,103860,1,8,0:0:0:0:
255,230,103906,1,8,0:0:0:0:
243,226,103953,5,0,0:0:0:0:
243,226,104047,1,8,0:0:0:0:
248,224,104235,1,8,0:0:0:0:
243,226,104281,1,0,0:0:0:0:
243,226,104328,1,0,0:0:0:0:
244,230,104422,1,8,0:0:0:0:
246,246,104516,1,0,0:0:0:0:
246,224,104610,1,8,0:0:0:0:
246,224,104656,1,8,0:0:0:0:
246,224,104703,1,0,0:0:0:0:
244,230,104750,1,0,0:0:0:0:
241,225,104797,1,8,0:0:0:0:
249,238,104891,1,8,0:0:0:0:
251,228,104985,1,4,0:0:0:0:
252,241,105172,1,8,0:0:0:0:
252,241,105266,1,0,0:0:0:0:
252,241,105360,1,8,0:0:0:0:
252,241,105547,1,0,0:0:0:0:
252,241,105641,1,8,0:0:0:0:
262,256,105735,1,8,0:0:0:0:
275,246,105828,1,0,0:0:0:0:
262,257,105922,1,0,0:0:0:0:
264,256,106110,1,8,0:0:0:0:
264,256,106203,1,0,0:0:0:0:
264,256,106297,1,8,0:0:0:0:
264,256,106485,1,12,0:0:0:0:
265,257,106672,1,0,0:0:0:0:
262,256,106766,1,0,0:0:0:0:
262,257,106860,1,8,0:0:0:0:
280,285,106953,1,0,0:0:0:0:
264,256,107047,1,0,0:0:0:0:
264,256,107141,1,8,0:0:0:0:
264,256,107235,1,8,0:0:0:0:
264,256,107422,1,8,0:0:0:0:
279,260,107516,1,0,0:0:0:0:
265,257,107610,1,8,0:0:0:0:
265,257,107703,1,8,0:0:0:0:
262,256,107797,1,8,0:0:0:0:
266,261,107985,1,0,0:0:0:0:
288,288,108078,1,8,0:0:0:0:
288,288,108172,1,0,0:0:0:0:
288,288,108266,1,0,0:0:0:0:
288,288,108360,1,8,0:0:0:0:
288,288,108547,1,8,0:0:0:0:
256,288,108641,1,8,0:0:0:0:
256,288,108735,1,0,0:0:0:0:
256,288,108922,1,8,0:0:0:0:
256,288,109016,1,0,0:0:0:0:
256,288,109110,1,8,0:0:0:0:
256,288,109203,1,0,0:0:0:0:
256,288,109297,1,8,0:0:0:0:
256,288,109485,1,0,0:0:0:0:
288,288,109578,1,0,0:0:0:0:
288,288,109672,1,8,0:0:0:0:
288,288,109860,1,8,0:0:0:0:
288,288,109953,1,0,0:0:0:0:
288,288,110047,1,8,0:0:0:0:
288,288,110141,1,8,0:0:0:0:
288,288,110235,1,0,0:0:0:0:
288,288,110422,1,8,0:0:0:0:
288,288,110516,1,8,0:0:0:0:
288,288,110610,1,8,0:0:0:0:
288,288,110703,1,0,0:0:0:0:
288,288,110797,1,8,0:0:0:0:
288,288,110985,1,4,0:0:0:0:
298,284,111453,1,8,0:0:0:0:
297,285,111641,1,0,0:0:0:0:
312,262,111735,1,0,0:0:0:0:
289,296,112016,1,0,0:0:0:0:
289,296,112110,1,8,0:0:0:0:
289,296,112297,1,8,0:0:0:0:
289,296,112485,1,0,0:0:0:0:
290,265,112578,1,0,0:0:0:0:
290,265,112672,1,8,0:0:0:0:
290,265,112860,1,0,0:0:0:0:
296,282,112953,1,0,0:0:0:0:
296,282,113047,1,8,0:0:0:0:
296,282,113235,1,0,0:0:0:0:
296,282,113328,1,8,0:0:0:0:
296,282,113516,1,8,0:0:0:0:
296,282,113703,1,0,0:0:0:0:
296,282,113797,1,8,0:0:0:0:
296,282,113985,1,0,0:0:0:0:
296,282,114172,1,8,0:0:0:0:
296,282,114266,1,0,0:0:0:0:
302,287,114453,1,8,0:0:0:0:
302,287,114641,1,8,0:0:0:0:
302,269,114735,1,0,0:0:0:0:
296,282,114828,1,0,0:0:0:0:
296,282,114922,1,8,0:0:0:0:
296,282,115110,1,8,0:0:0:0:
309,285,115297,1,0,0:0:0:0:
311,283,115672,5,0,0:0:0:0:
311,283,115766,1,8,0:0:0:0:
295,272,115860,1,0,0:0:0:0:
312,283,115953,1,0,0:0:0:0:
312,283,116047,1,8,0:0:0:0:
309,285,116235,1,0,0:0:0:0:
309,285,116422,1,8,0:0:0:0:
311,283,116516,1,8,0:0:0:0:
312,291,116610,1,0,0:0:0:0:
311,283,116703,1,0,0:0:0:0:
311,283,116797,1,8,0:0:0:0:
312,283,116985,1,0,0:0:0:0:
304,278,117172,1,0,0:0:0:0:
304,278,117266,1,0,0:0:0:0:
304,292,117547,1,0,0:0:0:0:
305,293,118110,1,8,0:0:0:0:
305,293,118297,1,0,0:0:0:0:
308,303,118860,1,8,0:0:0:0:
289,286,118953,1,0,0:0:0:0:
289,286,119047,1,0,0:0:0:0:
308,302,119235,1,0,0:0:0:0:
311,313,119797,1,8,0:0:0:0:
311,313,119891,1,0,0:0:0:0:
311,313,119985,1,0,0:0:0:0:
311,313,120172,1,8,0:0:0:0:
311,313,120266,1,0,0:0:0:0:
300,314,120735,1,8,0:0:0:0:
300,314,120828,1,0,0:0:0:0:
300,314,120922,1,0,0:0:0:0:
300,314,121110,1,8,0:0:0:0:
300,314,121203,1,0,0:0:0:0:
292,325,121297,5,8,0:0:0:0:
311,314,121485,1,0,0:0:0:0:
310,315,121578,1,0,0:0:0:0:
310,315,121672,1,8,0:0:0:0:
310,315,121766,1,0,0:0:0:0:
310,315,121860,1,8,0:0:0:0:
310,315,122047,1,0,0:0:0:0:
310,315,122141,1,8,0:0:0:0:
316,319,122235,1,0,0:0:0:0:
300,278,122680,1,0,0:0:0:0:
300,278,122750,1,0,0:0:0:0:
300,278,122820,1,8,0:0:0:0:
