osu file format v14

[General]
AudioFilename: audio.mp3
AudioLeadIn: 0
PreviewTime: 13485
Countdown: 0
SampleSet: Normal
StackLeniency: 0.7
Mode: 1
LetterboxInBreaks: 0
WidescreenStoryboard: 1

[Editor]
Bookmarks: 55462
DistanceSpacing: 0.9
BeatDivisor: 4
GridSize: 32
TimelineZoom: 2.1

[Metadata]
Title:B a r o q u e
TitleUnicode:◆ B a r o q u e ◆
Artist:tarolabo
ArtistUnicode:tarolabo
Creator:ZTH
Version:Futsuu
Source:
Tags:electronic instrumental bms baroque b.i.n. bin ProgressiveJack プログレッシブャック
BeatmapID:2633312
BeatmapSetID:1247605

[Difficulty]
HPDrainRate:7
CircleSize:5
OverallDifficulty:4
ApproachRate:5
SliderMultiplier:1.4
SliderTickRate:1

[Events]
//Background and Video events
0,0,"callum-denby-bht-1.jpg",0,0
//Break Periods
//Storyboard Layer 0 (Background)
//Storyboard Layer 1 (Fail)
//Storyboard Layer 2 (Pass)
//Storyboard Layer 3 (Foreground)
//Storyboard Layer 4 (Overlay)
//Storyboard Sound Samples

[TimingPoints]
1485,375,4,1,0,40,1,0
12125,-100,4,1,0,42,0,0
12500,-100,4,1,0,46,0,0
12688,-100,4,1,0,48,0,0
12875,-100,4,1,0,50,0,0
13063,-100,4,1,0,52,0,0
13438,-100,4,1,0,55,0,0
25440,-100,4,1,0,45,0,0
26565,-100,4,1,0,55,0,0
28440,-100,4,1,0,45,0,0
29565,-100,4,1,0,55,0,0
31440,-100,4,1,0,45,0,0
32940,-100,4,1,0,55,0,0
34440,-100,4,1,0,45,0,0
35940,-100,4,1,0,55,0,0
46533,-100,4,1,0,45,0,0
49440,-100,4,1,0,55,0,0
59938,-100,4,1,0,35,0,0
60125,-100,4,1,0,31,0,0
60312,-100,4,1,0,33,0,0
60500,-100,4,1,0,35,0,0
60875,-100,4,1,0,39,0,0
61063,-100,4,1,0,41,0,0
61438,-100,4,1,0,45,0,0
73436,-100,4,1,0,55,0,0
80119,-100,4,1,0,45,0,0
85440,-100,4,1,0,47,0,0
86190,-100,4,1,0,51,0,0
86940,-100,4,1,0,55,0,0
86985,-100,4,1,0,55,0,1
97440,-100,4,1,0,45,0,1
97485,-100,4,1,0,45,0,0
97815,-100,4,1,0,31,0,0
98002,-100,4,1,0,35,0,0
98377,-100,4,1,0,43,0,0
98565,-100,4,1,0,47,0,0
98752,-100,4,1,0,51,0,0
98940,-100,4,1,0,55,0,0
98985,-100,4,1,0,55,0,1
110985,-100,4,1,0,55,0,0
111080,-100,4,1,0,45,0,0

[HitObjects]
206,217,1485,5,0,0:0:0:0:
248,222,1672,1,8,0:0:0:0:
231,217,2047,1,0,0:0:0:0:
230,211,2235,1,8,0:0:0:0:
258,236,2610,1,0,0:0:0:0:
241,228,2797,1,8,0:0:0:0:
241,228,3172,1,0,0:0:0:0:
241,228,3360,1,8,0:0:0:0:
241,228,3735,1,0,0:0:0:0:
235,227,3922,1,8,0:0:0:0:
241,228,4110,1,0,0:0:0:0:
206,217,4485,5,0,0:0:0:0:
230,211,4672,1,8,0:0:0:0:
242,216,5047,1,0,0:0:0:0:
230,211,5235,1,8,0:0:0:0:
241,228,5610,1,0,0:0:0:0:
241,228,5797,1,8,0:0:0:0:
241,228,6172,1,0,0:0:0:0:
241,228,6360,1,8,0:0:0:0:
273,218,6735,1,0,0:0:0:0:
243,238,7485,1,8,0:0:0:0:
247,220,7766,1,8,0:0:0:0:
257,241,8047,1,8,0:0:0:0:
247,233,8328,1,8,0:0:0:0:
248,233,8610,1,8,0:0:0:0:
245,223,8985,1,8,0:0:0:0:
246,223,9266,1,8,0:0:0:0:
246,223,9547,1,8,0:0:0:0:
251,227,9735,1,8,0:0:0:0:
246,223,10485,1,8,0:0:0:0:
249,226,10766,1,8,0:0:0:0:
254,240,11047,1,8,0:0:0:0:
254,239,11328,1,8,0:0:0:0:
254,239,11610,1,8,0:0:0:0:
268,219,11985,1,8,0:0:0:0:
270,239,12172,1,8,0:0:0:0:
265,232,12547,1,8,0:0:0:0:
265,232,12735,1,8,0:0:0:0:
265,232,12922,1,0,0:0:0:0:
265,232,13110,1,8,0:0:0:0:
265,232,13485,1,4,0:0:0:0:
310,250,13860,1,8,0:0:0:0:
292,250,14610,1,8,0:0:0:0:
302,272,14985,1,0,0:0:0:0:
299,265,15360,1,8,0:0:0:0:
288,256,15922,1,8,0:0:0:0:
317,267,16110,1,8,0:0:0:0:
267,258,16297,1,8,0:0:0:0:
265,232,16485,1,0,0:0:0:0:
267,246,16860,1,8,0:0:0:0:
310,255,17422,1,0,0:0:0:0:
280,252,17610,1,8,0:0:0:0:
302,272,17985,1,0,0:0:0:0:
320,293,18172,1,8,0:0:0:0:
311,281,18360,1,0,0:0:0:0:
326,293,18547,1,8,0:0:0:0:
320,256,18922,1,0,0:0:0:0:
317,267,19110,1,8,0:0:0:0:
265,232,19485,1,0,0:0:0:0:
267,246,19860,1,8,0:0:0:0:
280,252,20610,1,8,0:0:0:0:
302,272,20985,1,0,0:0:0:0:
299,265,21360,1,8,0:0:0:0:
299,265,21922,1,8,0:0:0:0:
317,267,22110,1,8,0:0:0:0:
267,258,22297,1,8,0:0:0:0:
265,232,22485,1,0,0:0:0:0:
267,246,22860,1,8,0:0:0:0:
262,265,23422,1,0,0:0:0:0:
280,252,23610,1,8,0:0:0:0:
286,265,23985,1,0,0:0:0:0:
299,265,24172,1,8,0:0:0:0:
299,265,24360,5,0,0:0:0:0:
299,265,24547,1,8,0:0:0:0:
299,265,24922,1,0,0:0:0:0:
317,267,25110,1,8,0:0:0:0:
313,283,25485,1,8,0:0:0:0:
268,217,25766,1,0,0:0:0:0:
268,217,26047,1,8,0:0:0:0:
287,182,26328,1,0,0:0:0:0:
289,220,26985,1,0,0:0:0:0:
290,223,27360,1,8,0:0:0:0:
290,223,27547,1,0,0:0:0:0:
289,220,27922,1,0,0:0:0:0:
290,223,28110,1,8,0:0:0:0:
261,207,28485,5,8,0:0:0:0:
268,217,28766,1,0,0:0:0:0:
268,217,29047,1,8,0:0:0:0:
287,182,29328,1,0,0:0:0:0:
279,235,29985,1,0,0:0:0:0:
261,216,30360,1,8,0:0:0:0:
264,222,30547,1,0,0:0:0:0:
275,231,30922,1,8,0:0:0:0:
268,221,31110,1,8,0:0:0:0:
279,230,31485,1,8,0:0:0:0:
248,251,31672,1,0,0:0:0:0:
330,265,31860,1,0,0:0:0:0:
325,231,32047,1,8,0:0:0:0:
282,243,32985,1,0,0:0:0:0:
283,234,33360,1,8,0:0:0:0:
281,231,33547,1,0,0:0:0:0:
279,248,33922,1,0,0:0:0:0:
279,248,34110,1,8,0:0:0:0:
279,230,34485,1,8,0:0:0:0:
265,229,34672,1,0,0:0:0:0:
325,231,34860,1,0,0:0:0:0:
282,249,35047,1,8,0:0:0:0:
295,241,35985,1,0,0:0:0:0:
290,256,36360,1,8,0:0:0:0:
290,256,36547,1,0,0:0:0:0:
290,256,36922,1,8,0:0:0:0:
290,256,37110,1,8,0:0:0:0:
265,232,37485,1,4,0:0:0:0:
267,246,37860,1,8,0:0:0:0:
280,252,38610,1,8,0:0:0:0:
302,272,38985,1,0,0:0:0:0:
299,265,39360,1,8,0:0:0:0:
299,265,39547,1,0,0:0:0:0:
299,265,39922,1,8,0:0:0:0:
317,267,40110,1,8,0:0:0:0:
265,232,40485,1,0,0:0:0:0:
267,246,40860,1,8,0:0:0:0:
258,248,41422,1,0,0:0:0:0:
280,252,41610,1,8,0:0:0:0:
302,272,41985,1,0,0:0:0:0:
299,265,42172,1,0,0:0:0:0:
299,265,42360,1,8,0:0:0:0:
299,265,42547,1,0,0:0:0:0:
299,265,42922,1,8,0:0:0:0:
317,267,43110,1,8,0:0:0:0:
265,232,43485,1,0,0:0:0:0:
267,246,43860,1,8,0:0:0:0:
280,252,44610,1,8,0:0:0:0:
302,272,44985,1,0,0:0:0:0:
299,265,45360,1,8,0:0:0:0:
299,265,45547,1,0,0:0:0:0:
299,265,45922,1,8,0:0:0:0:
274,249,46110,1,8,0:0:0:0:
265,232,46485,1,4,0:0:0:0:
255,277,47610,1,8,0:0:0:0:
255,278,47797,1,0,0:0:0:0:
256,285,48172,5,0,0:0:0:0:
237,255,48453,1,8,0:0:0:0:
233,259,48735,1,0,0:0:0:0:
206,245,49016,1,8,0:0:0:0:
241,287,49485,1,4,0:0:0:0:
254,280,50235,1,0,0:0:0:0:
263,286,50422,1,0,0:0:0:0:
254,280,50610,1,8,0:0:0:0:
271,276,50985,1,0,0:0:0:0:
268,277,51360,1,8,0:0:0:0:
276,268,51547,1,0,0:0:0:0:
271,276,51922,1,8,0:0:0:0:
268,277,52110,1,8,0:0:0:0:
268,277,52297,1,8,0:0:0:0:
268,278,52485,1,0,0:0:0:0:
273,284,53047,1,8,0:0:0:0:
273,284,53235,1,8,0:0:0:0:
272,281,53422,1,0,0:0:0:0:
273,284,53610,1,8,0:0:0:0:
273,284,53985,1,0,0:0:0:0:
292,302,54172,1,8,0:0:0:0:
292,302,54360,1,0,0:0:0:0:
292,302,54547,1,8,0:0:0:0:
292,302,54922,1,8,0:0:0:0:
292,302,55110,1,8,0:0:0:0:
241,287,55485,1,0,0:0:0:0:
254,280,56235,1,0,0:0:0:0:
254,280,56422,1,0,0:0:0:0:
254,280,56610,1,8,0:0:0:0:
271,276,56985,1,0,0:0:0:0:
268,277,57360,1,8,0:0:0:0:
268,278,57547,1,0,0:0:0:0:
281,295,57922,1,8,0:0:0:0:
268,277,58110,1,8,0:0:0:0:
299,287,58297,1,8,0:0:0:0:
268,278,58485,1,0,0:0:0:0:
273,284,58860,1,8,0:0:0:0:
273,284,59047,1,0,0:0:0:0:
278,303,59985,1,0,0:0:0:0:
280,263,60172,1,0,0:0:0:0:
262,279,60360,1,0,0:0:0:0:
263,286,60547,1,8,0:0:0:0:
263,286,60922,1,0,0:0:0:0:
263,286,61110,1,8,0:0:0:0:
253,234,61485,5,8,0:0:0:0:
253,234,62235,1,8,0:0:0:0:
255,248,62985,1,8,0:0:0:0:
255,248,63735,1,0,0:0:0:0:
255,248,64485,1,8,0:0:0:0:
255,248,65235,1,8,0:0:0:0:
255,248,65985,1,0,0:0:0:0:
255,248,66735,1,8,0:0:0:0:
255,248,67485,1,8,0:0:0:0:
255,248,68235,1,8,0:0:0:0:
255,248,68985,1,8,0:0:0:0:
255,248,69735,1,0,0:0:0:0:
255,248,70485,1,8,0:0:0:0:
255,248,71235,1,8,0:0:0:0:
255,248,71985,1,0,0:0:0:0:
255,248,72735,1,8,0:0:0:0:
255,248,73485,1,0,0:0:0:0:
272,230,73860,1,8,0:0:0:0:
263,205,74047,1,0,0:0:0:0:
241,217,74422,1,0,0:0:0:0:
258,198,74610,1,8,0:0:0:0:
226,226,74985,1,0,0:0:0:0:
244,233,75172,1,8,0:0:0:0:
254,210,75360,1,8,0:0:0:0:
259,225,75547,1,0,0:0:0:0:
234,219,75922,1,8,0:0:0:0:
263,227,76110,1,8,0:0:0:0:
276,244,76485,1,8,0:0:0:0:
267,254,76672,1,0,0:0:0:0:
266,254,76860,1,8,0:0:0:0:
265,236,77235,1,8,0:0:0:0:
265,236,77422,1,0,0:0:0:0:
265,236,77610,1,8,0:0:0:0:
249,225,77985,1,8,0:0:0:0:
249,225,78172,1,0,0:0:0:0:
255,230,78360,1,8,0:0:0:0:
243,226,78547,1,8,0:0:0:0:
248,224,78735,1,8,0:0:0:0:
244,230,78922,1,0,0:0:0:0:
246,224,79110,1,8,0:0:0:0:
246,190,79485,5,0,0:0:0:0:
199,230,80141,1,0,0:0:0:0:
208,219,80328,1,8,0:0:0:0:
181,198,80703,1,0,0:0:0:0:
233,231,80985,1,0,0:0:0:0:
254,210,81360,1,8,0:0:0:0:
259,225,81547,1,0,0:0:0:0:
265,220,81922,1,0,0:0:0:0:
209,268,82110,1,8,0:0:0:0:
276,244,82485,1,8,0:0:0:0:
267,254,82672,1,0,0:0:0:0:
266,254,82860,1,8,0:0:0:0:
265,236,83235,1,8,0:0:0:0:
265,236,83422,1,0,0:0:0:0:
265,236,83610,1,8,0:0:0:0:
249,225,83985,1,8,0:0:0:0:
249,225,84172,1,0,0:0:0:0:
255,230,84360,1,8,0:0:0:0:
287,251,84547,1,8,0:0:0:0:
248,224,84735,1,8,0:0:0:0:
244,230,84922,1,0,0:0:0:0:
246,224,85110,1,8,0:0:0:0:
246,190,85485,5,0,0:0:0:0:
241,214,86235,1,8,0:0:0:0:
241,214,86985,1,4,0:0:0:0:
252,241,87360,1,8,0:0:0:0:
252,241,87547,1,0,0:0:0:0:
262,256,87735,1,8,0:0:0:0:
264,256,88485,1,12,0:0:0:0:
262,257,88860,1,8,0:0:0:0:
264,256,89047,1,0,0:0:0:0:
264,256,89235,1,0,0:0:0:0:
264,256,89422,1,8,0:0:0:0:
265,257,89610,1,8,0:0:0:0:
266,261,89985,1,0,0:0:0:0:
288,288,90547,1,0,0:0:0:0:
242,292,90735,1,0,0:0:0:0:
256,288,90922,1,8,0:0:0:0:
256,288,91110,1,8,0:0:0:0:
256,288,91485,1,0,0:0:0:0:
288,288,91860,1,8,0:0:0:0:
242,243,92047,1,8,0:0:0:0:
317,286,92235,1,0,0:0:0:0:
247,293,92422,5,8,0:0:0:0:
241,214,92985,1,4,0:0:0:0:
252,241,93360,1,8,0:0:0:0:
252,241,93547,1,0,0:0:0:0:
262,256,93735,1,8,0:0:0:0:
264,256,94485,1,12,0:0:0:0:
262,257,94860,1,8,0:0:0:0:
264,256,95047,1,0,0:0:0:0:
264,256,95235,1,0,0:0:0:0:
264,256,95422,1,8,0:0:0:0:
265,257,95610,1,8,0:0:0:0:
266,261,95985,1,0,0:0:0:0:
288,288,96547,1,0,0:0:0:0:
249,285,96735,1,0,0:0:0:0:
256,288,96922,1,8,0:0:0:0:
256,288,97110,1,8,0:0:0:0:
241,214,97485,5,4,0:0:0:0:
235,256,97860,1,0,0:0:0:0:
241,214,98047,1,8,0:0:0:0:
241,214,98422,1,0,0:0:0:0:
241,214,98610,1,8,0:0:0:0:
241,214,98797,1,8,0:0:0:0:
241,214,98985,1,4,0:0:0:0:
237,220,99735,1,0,0:0:0:0:
238,220,99922,1,0,0:0:0:0:
237,220,100110,1,8,0:0:0:0:
237,220,100485,1,8,0:0:0:0:
246,240,100766,5,0,0:0:0:0:
250,226,101047,5,8,0:0:0:0:
256,234,101235,1,8,0:0:0:0:
227,200,101516,1,8,0:0:0:0:
257,234,101797,1,8,0:0:0:0:
256,234,101985,1,0,0:0:0:0:
256,234,102547,1,8,0:0:0:0:
256,234,102735,1,0,0:0:0:0:
256,234,102922,1,8,0:0:0:0:
256,234,103110,1,8,0:0:0:0:
249,225,103485,5,8,0:0:0:0:
255,230,103672,1,0,0:0:0:0:
255,230,103860,1,8,0:0:0:0:
253,228,104047,1,8,0:0:0:0:
248,224,104235,1,8,0:0:0:0:
244,230,104422,1,0,0:0:0:0:
246,224,104610,1,8,0:0:0:0:
241,214,104985,1,4,0:0:0:0:
252,241,105360,1,8,0:0:0:0:
262,257,105547,1,0,0:0:0:0:
264,256,105735,1,8,0:0:0:0:
264,256,106485,1,12,0:0:0:0:
262,257,106860,1,8,0:0:0:0:
264,256,107047,1,0,0:0:0:0:
264,256,107235,1,0,0:0:0:0:
264,256,107422,1,8,0:0:0:0:
265,257,107610,1,8,0:0:0:0:
266,261,107985,1,0,0:0:0:0:
288,288,108547,1,8,0:0:0:0:
293,281,108735,1,0,0:0:0:0:
256,288,108922,1,8,0:0:0:0:
256,288,109110,1,8,0:0:0:0:
256,288,109485,1,0,0:0:0:0:
288,288,109860,1,8,0:0:0:0:
242,243,110047,1,0,0:0:0:0:
317,286,110235,1,0,0:0:0:0:
247,293,110422,5,8,0:0:0:0:
273,296,110985,1,4,0:0:0:0:
286,282,111453,1,8,0:0:0:0:
286,273,111641,1,0,0:0:0:0:
309,277,112110,5,8,0:0:0:0:
289,296,112297,1,8,0:0:0:0:
286,270,112485,1,0,0:0:0:0:
339,189,112672,1,8,0:0:0:0:
294,232,113047,1,8,0:0:0:0:
296,282,113235,1,0,0:0:0:0:
240,223,113516,1,8,0:0:0:0:
262,274,113985,1,0,0:0:0:0:
294,269,114735,1,0,0:0:0:0:
299,285,114922,1,8,0:0:0:0:
296,282,115110,1,8,0:0:0:0:
294,274,115297,1,0,0:0:0:0:
311,283,115672,5,0,0:0:0:0:
312,283,116047,1,8,0:0:0:0:
309,285,116235,1,0,0:0:0:0:
311,283,116422,1,8,0:0:0:0:
312,283,116985,1,0,0:0:0:0:
319,291,117172,1,0,0:0:0:0:
304,292,117547,1,0,0:0:0:0:
305,293,118110,1,8,0:0:0:0:
322,279,118297,1,0,0:0:0:0:
308,303,118860,1,8,0:0:0:0:
308,303,119047,1,0,0:0:0:0:
311,313,119797,1,8,0:0:0:0:
311,313,119985,1,0,0:0:0:0:
302,293,120172,1,0,0:0:0:0:
300,314,120735,1,8,0:0:0:0:
300,314,120922,1,0,0:0:0:0:
300,314,121110,1,8,0:0:0:0:
311,314,121485,1,0,0:0:0:0:
310,315,121860,1,8,0:0:0:0:
310,315,122047,1,0,0:0:0:0:
316,319,122235,1,0,0:0:0:0:
256,192,122680,12,0,122820,0:0:0:0:
