osu file format v14

[General]
AudioFilename: 09. Pavimento dei Sospiri.mp3
AudioLeadIn: 0
PreviewTime: 18563
Countdown: 0
SampleSet: Normal
StackLeniency: 0.7
Mode: 1
LetterboxInBreaks: 0
WidescreenStoryboard: 0

[Editor]
Bookmarks: 19739,38563,57386,76210,95033,113857,132680,151504,170327,189151,207974,226798,245621,264445,283268,302092,320916
DistanceSpacing: 1.6
BeatDivisor: 4
GridSize: 4
TimelineZoom: 1

[Metadata]
Title:Pavimento dei Sospiri
TitleUnicode:Pavimento dei Sospiri
Artist:taqumi
ArtistUnicode:taqumi
Creator:neonat
Version:Spirito
Source:
Tags:Lilium Records World Tour Nardoxyribonucleic 12BARRY21 Okoratu Okorin Irreversible -kevincela- Mazzerin Dino99 Glitch Hop Instrumental Electronic
BeatmapID:762026
BeatmapSetID:344998

[Difficulty]
HPDrainRate:5
CircleSize:4
OverallDifficulty:6
ApproachRate:9
SliderMultiplier:1.4
SliderTickRate:1

[Events]
//Background and Video events
0,0,"38843667.jpg",0,60
//Break Periods
//Storyboard Layer 0 (Background)
//Storyboard Layer 1 (Fail)
//Storyboard Layer 2 (Pass)
//Storyboard Layer 3 (Foreground)
//Storyboard Layer 4 (Overlay)
//Storyboard Sound Samples

[TimingPoints]
916,294.117647058824,4,1,0,60,1,0
916,-133.333333333333,4,1,0,60,0,0
19739,-90.9090909090909,4,1,0,100,0,1
56357,-95.2380952380952,4,1,0,100,0,1
56504,-99.009900990099,4,1,0,100,0,1
56651,-103.092783505155,4,1,0,100,0,1
56945,-106.382978723404,4,1,0,100,0,1
57092,-109.89010989011,4,1,0,100,0,1
57239,-113.636363636364,4,1,0,100,0,1
57386,-117.647058823529,4,1,0,100,0,0
66798,-100,4,1,0,100,0,0
71504,-95.2380952380952,4,1,0,100,0,0
72533,-90.9090909090909,4,1,0,100,0,0
73857,-86.9565217391304,4,1,0,100,0,0
75033,-83.3333333333333,4,1,0,100,0,0
75327,-86.9565217391304,4,1,0,100,0,0
75621,-90.9090909090909,4,1,0,100,0,0
75916,-95.2380952380952,4,1,0,100,0,0
76210,-100,4,1,0,100,0,0
151504,-90.9090909090909,4,1,0,100,0,1
187092,-92.5925925925926,4,1,0,100,0,1
187239,-94.3396226415094,4,1,0,100,0,1
187386,-96.1538461538461,4,1,0,100,0,1
187533,-98.0392156862745,4,1,0,100,0,1
187680,-100,4,1,0,100,0,1
187827,-103.092783505155,4,1,0,100,0,1
188121,-106.382978723404,4,1,0,100,0,1
188268,-109.89010989011,4,1,0,100,0,1
188710,-113.636363636364,4,1,0,100,0,1
188857,-117.647058823529,4,1,0,100,0,1
189151,-125,4,1,0,100,0,0
198563,-100,4,1,0,100,0,0
203268,-95.2380952380952,4,1,0,100,0,0
203857,-95.2380952380952,4,1,0,100,0,0
204445,-90.9090909090909,4,1,0,100,0,0
205033,-86.9565217391304,4,1,0,100,0,0
205621,-83.3333333333333,4,1,0,100,0,0
207386,-90.9090909090909,4,1,0,100,0,0
207680,-95.2380952380952,4,1,0,100,0,0
207974,-100,4,1,0,100,0,0
319347,-105.263157894737,4,1,0,100,0,0
320916,-117.647058823529,4,1,0,100,0,0
330327,-100,4,1,0,100,0,0
335033,-90.9090909090909,4,1,0,100,0,0
335621,-86.9565217391304,4,1,0,100,0,0
336210,-83.3333333333333,4,1,0,100,0,0
336798,-80,4,1,0,100,0,0
337386,-76.9230769230769,4,1,0,100,0,0
338857,-78.7401574803149,4,1,0,100,0,0
339151,-80,4,1,0,100,0,0
339445,-81.9672131147541,4,1,0,100,0,0
339739,-83.3333333333333,4,1,0,100,0,0

[Colours]
Combo1 : 253,219,140
Combo2 : 252,141,241
Combo3 : 249,165,81
Combo4 : 209,146,124

[HitObjects]
256,192,916,5,8,0:0:0:0:
256,192,1210,1,0,0:0:0:0:
256,192,1700,1,0,0:0:0:0:
256,192,1799,1,0,0:0:0:0:
256,192,1995,1,0,0:0:0:0:
256,192,2093,1,0,0:0:0:0:
256,192,2289,1,8,0:0:0:0:
256,192,2583,1,0,0:0:0:0:
256,192,2877,1,0,0:0:0:0:
256,192,2975,1,8,0:0:0:0:
256,192,3269,1,8,0:0:0:0:
256,192,3563,1,0,0:0:0:0:
256,192,4053,1,0,0:0:0:0:
256,192,4151,1,0,0:0:0:0:
256,192,4348,1,0,0:0:0:0:
256,192,4446,1,8,0:0:0:0:
256,192,4642,1,0,0:0:0:0:
256,192,4936,1,0,0:0:0:0:
256,192,5230,1,0,0:0:0:0:
256,192,5328,1,8,0:0:0:0:
256,192,5622,1,8,0:0:0:0:
256,192,5916,1,0,0:0:0:0:
256,192,6112,1,0,0:0:0:0:
256,192,6406,1,0,0:0:0:0:
256,192,6504,1,0,0:0:0:0:
256,192,6700,1,0,0:0:0:0:
256,192,6799,1,8,0:0:0:0:
256,192,6995,1,0,0:0:0:0:
256,192,7289,1,8,0:0:0:0:
256,192,7583,1,0,0:0:0:0:
256,192,7681,1,8,0:0:0:0:
256,192,7877,1,0,0:0:0:0:
256,192,7975,1,8,0:0:0:0:
256,192,8857,1,8,0:0:0:0:
256,192,9053,1,8,0:0:0:0:
256,192,9152,1,0,0:0:0:0:
256,192,9740,1,0,0:0:0:0:
256,192,10328,1,8,0:0:0:0:
256,192,10524,1,0,0:0:0:0:
256,192,10622,1,8,0:0:0:0:
256,192,10818,1,8,0:0:0:0:
256,192,11112,1,8,0:0:0:0:
256,192,11406,1,0,0:0:0:0:
256,192,11504,1,8,0:0:0:0:
256,192,11799,1,0,0:0:0:0:
256,192,12093,1,8,0:0:0:0:
256,192,12387,1,0,0:0:0:0:
256,192,12681,1,8,0:0:0:0:
256,192,12877,1,8,0:0:0:0:
256,192,12975,1,0,0:0:0:0:
256,192,13171,1,0,0:0:0:0:
256,192,13269,1,8,0:0:0:0:
256,192,13465,1,0,0:0:0:0:
256,192,13563,1,8,0:0:0:0:
256,192,13661,1,0,0:0:0:0:
256,192,13759,1,0,0:0:0:0:
256,192,13857,1,8,0:0:0:0:
256,192,14446,1,0,0:0:0:0:
256,192,15034,1,8,0:0:0:0:
256,192,15524,1,8,0:0:0:0:
256,192,15818,1,0,0:0:0:0:
256,192,15916,1,0,0:0:0:0:
256,192,16112,1,0,0:0:0:0:
256,192,16210,1,8,0:0:0:0:
256,192,16504,1,0,0:0:0:0:
256,192,16799,1,8,0:0:0:0:
256,192,16995,1,0,0:0:0:0:
256,192,17289,1,0,0:0:0:0:
256,192,17387,1,8,0:0:0:0:
256,192,17485,12,0,18465,0:0:0:0:
256,192,18563,5,8,0:0:0:0:
256,192,18857,1,0,0:0:0:0:
256,192,19151,1,8,0:0:0:0:
256,192,19740,5,4,0:0:0:0:
256,192,20034,1,0,0:0:0:0:
256,192,20328,1,8,0:0:0:0:
256,192,20769,1,0,0:0:0:0:
256,192,20916,1,0,0:0:0:0:
256,192,21210,1,0,0:0:0:0:
256,192,21504,1,8,0:0:0:0:
256,192,22093,1,0,0:0:0:0:
256,192,22387,1,0,0:0:0:0:
256,192,22681,1,8,0:0:0:0:
256,192,23122,1,0,0:0:0:0:
256,192,23269,1,0,0:0:0:0:
256,192,23563,1,0,0:0:0:0:
256,192,23710,1,0,0:0:0:0:
256,192,23857,1,8,0:0:0:0:
256,192,24446,1,0,0:0:0:0:
256,192,24740,1,0,0:0:0:0:
256,192,25034,1,8,0:0:0:0:
256,192,25475,1,0,0:0:0:0:
256,192,25622,1,0,0:0:0:0:
256,192,25916,1,0,0:0:0:0:
256,192,26210,1,8,0:0:0:0:
256,192,26799,1,0,0:0:0:0:
256,192,27093,1,0,0:0:0:0:
256,192,27387,1,8,0:0:0:0:
256,192,27828,1,0,0:0:0:0:
256,192,27975,1,0,0:0:0:0:
256,192,28269,1,0,0:0:0:0:
256,192,28416,1,0,0:0:0:0:
256,192,28563,1,8,0:0:0:0:
256,192,28857,1,8,0:0:0:0:
256,192,29151,1,0,0:0:0:0:
256,192,29446,1,0,0:0:0:0:
256,192,29740,1,8,0:0:0:0:
256,192,29887,1,8,0:0:0:0:
256,192,30034,1,0,0:0:0:0:
256,192,30181,1,8,0:0:0:0:
256,192,30328,1,0,0:0:0:0:
256,192,30622,1,0,0:0:0:0:
256,192,30916,1,8,0:0:0:0:
256,192,31504,1,0,0:0:0:0:
256,192,31798,1,0,0:0:0:0:
256,192,32092,1,8,0:0:0:0:
256,192,32240,1,0,0:0:0:0:
256,192,32387,1,8,0:0:0:0:
256,192,32533,1,8,0:0:0:0:
256,192,32680,1,0,0:0:0:0:
256,192,32974,1,0,0:0:0:0:
256,192,33121,1,0,0:0:0:0:
256,192,33268,1,8,0:0:0:0:
256,192,33857,1,0,0:0:0:0:
256,192,34151,1,0,0:0:0:0:
256,192,34445,1,8,0:0:0:0:
256,192,34593,1,8,0:0:0:0:
256,192,34740,1,0,0:0:0:0:
256,192,34886,1,8,0:0:0:0:
256,192,35033,1,0,0:0:0:0:
256,192,35327,1,0,0:0:0:0:
256,192,35621,1,8,0:0:0:0:
256,192,36210,1,0,0:0:0:0:
256,192,36504,1,0,0:0:0:0:
256,192,36798,1,8,0:0:0:0:
256,192,36946,1,0,0:0:0:0:
256,192,37093,1,8,0:0:0:0:
256,192,37240,1,8,0:0:0:0:
256,192,37386,1,0,0:0:0:0:
256,192,37680,1,0,0:0:0:0:
256,192,37827,1,0,0:0:0:0:
256,192,37974,1,8,0:0:0:0:
256,192,38122,1,0,0:0:0:0:
256,192,38269,1,8,0:0:0:0:
256,192,38416,1,0,0:0:0:0:
256,192,38563,1,4,0:0:0:0:
256,192,38857,1,0,0:0:0:0:
256,192,39151,1,8,0:0:0:0:
256,192,39299,1,8,0:0:0:0:
256,192,39446,1,8,0:0:0:0:
256,192,39593,1,0,0:0:0:0:
256,192,39887,1,8,0:0:0:0:
256,192,40034,1,0,0:0:0:0:
256,192,40328,1,8,0:0:0:0:
256,192,40475,1,8,0:0:0:0:
256,192,40622,1,0,0:0:0:0:
256,192,40916,1,0,0:0:0:0:
256,192,41210,1,0,0:0:0:0:
256,192,41504,1,8,0:0:0:0:
256,192,41651,1,8,0:0:0:0:
256,192,41799,1,0,0:0:0:0:
256,192,41946,1,8,0:0:0:0:
256,192,42240,1,8,0:0:0:0:
256,192,42387,1,0,0:0:0:0:
256,192,42533,1,0,0:0:0:0:
256,192,42681,1,0,0:0:0:0:
256,192,42754,1,8,0:0:0:0:
256,192,42828,1,0,0:0:0:0:
256,192,42975,1,8,0:0:0:0:
256,192,43122,1,8,0:0:0:0:
256,192,43269,1,0,0:0:0:0:
256,192,43563,1,0,0:0:0:0:
256,192,43857,1,8,0:0:0:0:
256,192,44004,1,8,0:0:0:0:
256,192,44151,1,8,0:0:0:0:
256,192,44299,1,0,0:0:0:0:
256,192,44593,1,8,0:0:0:0:
256,192,44740,1,0,0:0:0:0:
256,192,45034,1,8,0:0:0:0:
256,192,45181,1,0,0:0:0:0:
256,192,45328,1,8,0:0:0:0:
256,192,45475,1,8,0:0:0:0:
256,192,45622,1,0,0:0:0:0:
256,192,45916,5,0,0:0:0:0:
256,192,46210,1,8,0:0:0:0:
256,192,46357,1,8,0:0:0:0:
260,188,46504,1,0,0:0:0:0:
260,188,46651,1,8,0:0:0:0:
256,192,46946,1,8,0:0:0:0:
256,184,47093,1,0,0:0:0:0:
256,184,47240,1,0,0:0:0:0:
256,184,47313,1,0,0:0:0:0:
252,184,47387,1,8,0:0:0:0:
256,184,47534,1,8,0:0:0:0:
256,184,47681,1,0,0:0:0:0:
244,188,47828,1,0,0:0:0:0:
244,188,47975,1,0,0:0:0:0:
256,184,48269,1,0,0:0:0:0:
252,184,48563,1,8,0:0:0:0:
252,184,48710,1,8,0:0:0:0:
256,184,48857,1,8,0:0:0:0:
256,184,49004,1,0,0:0:0:0:
256,184,49299,1,8,0:0:0:0:
256,184,49446,1,0,0:0:0:0:
256,184,49593,1,0,0:0:0:0:
256,184,49740,1,8,0:0:0:0:
256,184,50034,1,8,0:0:0:0:
252,184,50181,1,0,0:0:0:0:
252,184,50328,1,0,0:0:0:0:
256,184,50622,1,0,0:0:0:0:
256,184,50916,1,8,0:0:0:0:
256,184,51063,1,8,0:0:0:0:
256,184,51210,1,0,0:0:0:0:
256,184,51357,1,8,0:0:0:0:
256,184,51651,1,8,0:0:0:0:
256,184,51799,1,0,0:0:0:0:
256,184,51946,1,0,0:0:0:0:
256,184,52093,1,0,0:0:0:0:
256,184,52166,1,8,0:0:0:0:
256,184,52240,1,0,0:0:0:0:
256,184,52387,1,8,0:0:0:0:
256,184,52534,1,8,0:0:0:0:
256,184,52681,1,0,0:0:0:0:
256,184,52975,1,0,0:0:0:0:
256,184,53269,1,8,0:0:0:0:
256,184,53416,1,8,0:0:0:0:
256,184,53563,1,8,0:0:0:0:
256,184,53710,1,0,0:0:0:0:
256,184,54004,1,8,0:0:0:0:
256,184,54151,1,0,0:0:0:0:
256,184,54299,1,0,0:0:0:0:
256,184,54446,1,8,0:0:0:0:
256,184,54740,1,8,0:0:0:0:
256,184,54887,1,0,0:0:0:0:
256,184,55034,1,8,0:0:0:0:
256,184,55181,1,0,0:0:0:0:
256,184,55328,1,0,0:0:0:0:
256,184,55475,1,0,0:0:0:0:
256,184,55622,1,8,0:0:0:0:
256,184,55769,1,8,0:0:0:0:
256,184,55916,1,8,0:0:0:0:
256,184,56063,1,0,0:0:0:0:
256,184,56357,1,8,0:0:0:0:
256,184,56504,1,0,0:0:0:0:
256,184,56651,1,0,0:0:0:0:
256,184,56724,1,0,0:0:0:0:
256,184,56799,1,8,0:0:0:0:
256,184,56946,1,0,0:0:0:0:
256,184,57093,1,8,0:0:0:0:
256,184,57240,1,0,0:0:0:0:
256,192,57387,5,12,0:0:0:0:
256,192,57681,1,0,0:0:0:0:
256,192,57975,1,8,0:0:0:0:
256,192,58122,1,8,0:0:0:0:
256,192,58269,1,8,0:0:0:0:
256,192,58416,1,0,0:0:0:0:
256,192,58710,1,8,0:0:0:0:
256,192,58857,1,0,0:0:0:0:
256,192,59151,1,8,0:0:0:0:
256,192,59446,1,0,0:0:0:0:
256,192,59593,1,0,0:0:0:0:
256,192,59740,1,8,0:0:0:0:
256,192,60034,1,0,0:0:0:0:
256,192,60181,1,0,0:0:0:0:
256,192,60328,1,8,0:0:0:0:
256,192,60475,1,8,0:0:0:0:
256,192,60622,1,8,0:0:0:0:
256,192,60769,1,0,0:0:0:0:
256,192,61063,1,8,0:0:0:0:
256,192,61210,1,0,0:0:0:0:
256,192,61357,1,0,0:0:0:0:
256,192,61504,1,8,0:0:0:0:
256,192,61799,1,0,0:0:0:0:
256,192,62093,1,8,0:0:0:0:
256,192,62387,1,0,0:0:0:0:
256,192,62681,1,8,0:0:0:0:
256,192,62828,1,8,0:0:0:0:
256,192,62975,1,8,0:0:0:0:
256,192,63122,1,0,0:0:0:0:
256,192,63416,1,8,0:0:0:0:
256,192,63563,1,0,0:0:0:0:
256,192,63710,1,0,0:0:0:0:
256,192,63857,1,8,0:0:0:0:
256,192,64152,1,0,0:0:0:0:
256,192,64299,1,0,0:0:0:0:
256,192,64446,1,8,0:0:0:0:
256,192,64740,1,0,0:0:0:0:
256,192,64887,1,0,0:0:0:0:
256,192,65034,1,8,0:0:0:0:
256,192,65181,1,8,0:0:0:0:
256,192,65328,1,8,0:0:0:0:
256,192,65475,1,0,0:0:0:0:
256,192,65769,1,8,0:0:0:0:
256,192,65916,1,0,0:0:0:0:
256,192,66063,1,0,0:0:0:0:
256,192,66210,1,8,0:0:0:0:
256,192,66357,1,0,0:0:0:0:
256,192,66504,1,0,0:0:0:0:
256,192,66799,1,12,0:0:0:0:
256,192,67093,1,0,0:0:0:0:
256,192,67387,1,8,0:0:0:0:
256,192,67534,1,8,0:0:0:0:
256,192,67681,1,8,0:0:0:0:
256,192,67828,1,0,0:0:0:0:
256,192,67901,1,0,0:0:0:0:
256,192,67975,1,0,0:0:0:0:
256,192,68122,1,8,0:0:0:0:
256,192,68269,1,0,0:0:0:0:
256,192,68563,1,8,0:0:0:0:
256,192,68857,1,0,0:0:0:0:
256,192,69004,1,0,0:0:0:0:
256,192,69078,1,0,0:0:0:0:
256,192,69151,1,8,0:0:0:0:
256,192,69446,1,0,0:0:0:0:
256,192,69593,1,0,0:0:0:0:
256,192,69740,1,8,0:0:0:0:
256,192,69887,1,8,0:0:0:0:
256,192,70034,1,0,0:0:0:0:
256,192,70181,1,8,0:0:0:0:
256,192,70254,1,8,0:0:0:0:
256,192,70328,1,0,0:0:0:0:
256,192,70475,1,8,0:0:0:0:
256,192,70622,1,0,0:0:0:0:
256,192,70916,1,8,0:0:0:0:
256,192,71210,1,0,0:0:0:0:
256,192,71357,1,0,0:0:0:0:
256,192,71504,1,8,0:0:0:0:
256,192,71651,1,0,0:0:0:0:
256,192,71799,1,0,0:0:0:0:
256,192,71946,1,0,0:0:0:0:
256,192,72093,1,8,0:0:0:0:
256,192,72240,1,8,0:0:0:0:
256,192,72387,1,8,0:0:0:0:
256,192,72534,1,0,0:0:0:0:
256,192,72607,1,0,0:0:0:0:
256,192,72681,1,8,0:0:0:0:
256,192,72828,1,8,0:0:0:0:
256,192,72975,1,0,0:0:0:0:
256,192,73121,1,0,0:0:0:0:
256,192,73269,1,8,0:0:0:0:
256,192,73416,1,8,0:0:0:0:
256,192,73563,1,0,0:0:0:0:
256,192,73710,1,8,0:0:0:0:
256,192,73857,1,0,0:0:0:0:
256,192,73931,1,0,0:0:0:0:
256,192,74004,1,0,0:0:0:0:
256,192,74077,1,0,0:0:0:0:
256,192,74151,1,8,0:0:0:0:
256,192,74225,1,0,0:0:0:0:
256,192,74299,1,0,0:0:0:0:
256,192,74372,1,0,0:0:0:0:
256,192,74446,1,8,0:0:0:0:
256,192,74519,1,0,0:0:0:0:
256,192,74593,1,8,0:0:0:0:
256,192,74666,1,0,0:0:0:0:
256,192,74739,1,8,0:0:0:0:
256,192,74813,1,0,0:0:0:0:
256,192,74887,1,8,0:0:0:0:
256,192,75034,1,4,0:0:0:0:
256,192,75327,1,4,0:0:0:0:
256,192,75621,1,12,0:0:0:0:
256,192,75916,1,12,0:0:0:0:
256,192,76210,5,4,0:0:0:0:
256,192,76504,1,0,0:0:0:0:
256,192,76799,1,8,0:0:0:0:
256,192,76946,1,8,0:0:0:0:
256,192,77093,1,0,0:0:0:0:
256,192,77240,1,8,0:0:0:0:
256,192,77534,1,8,0:0:0:0:
256,192,77681,1,8,0:0:0:0:
256,192,77828,1,0,0:0:0:0:
256,192,77975,1,8,0:0:0:0:
256,192,78122,1,8,0:0:0:0:
256,192,78269,1,0,0:0:0:0:
256,192,78563,1,0,0:0:0:0:
256,192,78857,1,0,0:0:0:0:
256,192,79151,1,8,0:0:0:0:
256,192,79299,1,8,0:0:0:0:
256,192,79446,1,0,0:0:0:0:
256,192,79593,1,8,0:0:0:0:
256,192,79887,1,8,0:0:0:0:
256,192,80034,1,8,0:0:0:0:
256,192,80181,1,0,0:0:0:0:
256,192,80328,1,8,0:0:0:0:
256,192,80475,1,0,0:0:0:0:
256,192,80622,1,8,0:0:0:0:
256,192,80769,1,8,0:0:0:0:
256,192,80916,1,0,0:0:0:0:
256,192,81210,1,0,0:0:0:0:
256,192,81504,1,8,0:0:0:0:
256,192,81651,1,8,0:0:0:0:
256,192,81799,1,0,0:0:0:0:
256,192,81946,1,8,0:0:0:0:
256,192,82240,1,8,0:0:0:0:
256,192,82387,1,8,0:0:0:0:
256,192,82534,1,0,0:0:0:0:
256,192,82681,1,8,0:0:0:0:
256,192,82828,1,8,0:0:0:0:
256,192,82975,1,0,0:0:0:0:
256,192,83269,1,0,0:0:0:0:
256,192,83563,1,0,0:0:0:0:
256,192,83857,1,8,0:0:0:0:
256,192,84004,1,8,0:0:0:0:
256,192,84151,1,0,0:0:0:0:
256,192,84299,1,8,0:0:0:0:
256,192,84593,1,0,0:0:0:0:
256,192,84740,1,0,0:0:0:0:
256,192,84887,1,8,0:0:0:0:
256,192,85034,1,8,0:0:0:0:
256,192,85181,1,0,0:0:0:0:
256,192,85328,1,8,0:0:0:0:
256,192,85475,1,0,0:0:0:0:
256,192,85622,1,0,0:0:0:0:
256,192,85916,1,0,0:0:0:0:
256,192,86063,1,0,0:0:0:0:
256,192,86137,1,0,0:0:0:0:
256,192,86211,1,8,0:0:0:0:
256,192,86358,1,8,0:0:0:0:
256,192,86505,1,0,0:0:0:0:
256,192,86652,1,8,0:0:0:0:
256,192,86946,1,8,0:0:0:0:
256,192,87093,1,8,0:0:0:0:
256,192,87240,1,0,0:0:0:0:
256,192,87387,1,8,0:0:0:0:
256,192,87534,1,8,0:0:0:0:
256,192,87681,1,0,0:0:0:0:
256,192,87975,1,0,0:0:0:0:
256,192,88269,1,0,0:0:0:0:
256,192,88416,1,0,0:0:0:0:
256,192,88489,1,0,0:0:0:0:
256,192,88563,1,8,0:0:0:0:
256,192,88711,1,8,0:0:0:0:
256,192,88858,1,0,0:0:0:0:
256,192,89005,1,8,0:0:0:0:
256,192,89299,1,8,0:0:0:0:
256,192,89446,1,8,0:0:0:0:
256,192,89519,1,8,0:0:0:0:
256,192,89593,1,0,0:0:0:0:
256,192,89740,1,8,0:0:0:0:
256,192,89887,1,0,0:0:0:0:
256,192,90034,1,8,0:0:0:0:
256,192,90181,1,8,0:0:0:0:
256,192,90328,1,0,0:0:0:0:
256,192,90622,1,0,0:0:0:0:
256,192,90769,1,0,0:0:0:0:
256,192,90843,1,0,0:0:0:0:
256,192,90916,1,8,0:0:0:0:
256,192,91063,1,8,0:0:0:0:
256,192,91211,1,0,0:0:0:0:
256,192,91358,1,8,0:0:0:0:
256,192,91652,1,8,0:0:0:0:
256,192,91799,1,8,0:0:0:0:
256,192,91946,1,0,0:0:0:0:
256,192,92093,1,8,0:0:0:0:
256,192,92240,1,8,0:0:0:0:
256,192,92387,1,0,0:0:0:0:
256,192,92681,1,0,0:0:0:0:
256,192,92975,1,0,0:0:0:0:
256,192,93122,1,0,0:0:0:0:
256,192,93269,1,8,0:0:0:0:
256,192,93416,1,8,0:0:0:0:
256,192,93563,1,0,0:0:0:0:
256,192,93711,1,8,0:0:0:0:
256,192,93857,1,8,0:0:0:0:
256,192,93931,1,8,0:0:0:0:
256,192,94004,1,0,0:0:0:0:
256,192,94078,1,0,0:0:0:0:
256,192,94151,1,0,0:0:0:0:
256,192,94299,1,8,0:0:0:0:
256,192,94446,1,8,0:0:0:0:
256,192,94593,1,0,0:0:0:0:
256,192,94666,1,0,0:0:0:0:
256,192,94740,1,8,0:0:0:0:
256,192,94887,1,0,0:0:0:0:
256,192,95034,1,4,0:0:0:0:
256,192,95328,1,0,0:0:0:0:
256,192,95475,1,0,0:0:0:0:
256,192,95549,1,0,0:0:0:0:
256,192,95622,1,8,0:0:0:0:
256,192,95769,1,8,0:0:0:0:
256,192,95916,1,0,0:0:0:0:
256,192,96063,1,8,0:0:0:0:
256,192,96357,1,8,0:0:0:0:
256,192,96504,1,8,0:0:0:0:
256,192,96651,1,0,0:0:0:0:
256,192,96799,1,0,0:0:0:0:
256,192,96946,1,8,0:0:0:0:
256,192,97093,1,0,0:0:0:0:
256,192,97387,1,0,0:0:0:0:
256,192,97681,1,0,0:0:0:0:
256,192,97827,1,0,0:0:0:0:
256,192,97975,1,8,0:0:0:0:
256,192,98122,1,8,0:0:0:0:
256,192,98269,1,0,0:0:0:0:
256,192,98416,1,8,0:0:0:0:
256,192,98710,1,8,0:0:0:0:
256,192,98857,1,8,0:0:0:0:
256,192,99004,1,0,0:0:0:0:
256,192,99151,1,8,0:0:0:0:
256,192,99299,1,8,0:0:0:0:
256,192,99446,1,0,0:0:0:0:
256,192,99593,1,0,0:0:0:0:
256,192,99740,1,0,0:0:0:0:
256,192,100034,1,0,0:0:0:0:
256,192,100181,1,0,0:0:0:0:
256,192,100254,1,0,0:0:0:0:
256,192,100328,1,8,0:0:0:0:
256,192,100475,1,8,0:0:0:0:
256,192,100622,1,0,0:0:0:0:
256,192,100769,1,8,0:0:0:0:
256,192,101063,1,8,0:0:0:0:
256,192,101210,1,8,0:0:0:0:
256,192,101357,1,0,0:0:0:0:
256,192,101504,1,0,0:0:0:0:
256,192,101651,1,8,0:0:0:0:
256,192,101799,1,0,0:0:0:0:
256,192,102093,1,0,0:0:0:0:
252,200,102387,1,0,0:0:0:0:
256,192,102533,1,0,0:0:0:0:
256,192,102681,1,8,0:0:0:0:
248,196,102828,1,8,0:0:0:0:
256,192,102975,1,0,0:0:0:0:
256,192,103122,1,8,0:0:0:0:
244,192,103416,1,0,0:0:0:0:
248,192,103490,1,0,0:0:0:0:
248,192,103563,1,0,0:0:0:0:
256,192,103710,1,0,0:0:0:0:
256,192,103857,1,8,0:0:0:0:
252,192,104004,1,0,0:0:0:0:
252,192,104151,1,8,0:0:0:0:
256,192,104299,1,0,0:0:0:0:
256,192,104446,1,0,0:0:0:0:
256,192,104740,1,0,0:0:0:0:
256,192,104887,1,0,0:0:0:0:
256,192,104960,1,0,0:0:0:0:
252,192,105034,1,8,0:0:0:0:
252,192,105181,1,8,0:0:0:0:
256,192,105328,1,0,0:0:0:0:
256,192,105475,1,8,0:0:0:0:
252,192,105769,1,8,0:0:0:0:
252,192,105916,1,8,0:0:0:0:
256,192,106063,1,0,0:0:0:0:
256,192,106210,1,0,0:0:0:0:
256,192,106357,1,8,0:0:0:0:
256,192,106504,1,0,0:0:0:0:
256,192,106799,1,0,0:0:0:0:
256,192,107093,1,0,0:0:0:0:
256,192,107240,1,0,0:0:0:0:
256,192,107313,1,0,0:0:0:0:
256,192,107387,1,8,0:0:0:0:
252,192,107534,1,8,0:0:0:0:
256,192,107681,1,0,0:0:0:0:
256,192,107828,1,8,0:0:0:0:
256,192,108122,1,8,0:0:0:0:
256,192,108269,1,8,0:0:0:0:
256,192,108416,1,0,0:0:0:0:
256,192,108563,1,8,0:0:0:0:
256,192,108710,1,8,0:0:0:0:
256,192,108784,1,8,0:0:0:0:
256,192,108857,1,0,0:0:0:0:
256,192,109004,1,0,0:0:0:0:
256,192,109151,1,0,0:0:0:0:
256,192,109446,1,0,0:0:0:0:
256,192,109593,1,0,0:0:0:0:
256,192,109666,1,0,0:0:0:0:
256,192,109740,1,8,0:0:0:0:
256,192,109887,1,8,0:0:0:0:
256,192,110034,1,0,0:0:0:0:
256,192,110181,1,8,0:0:0:0:
256,192,110328,1,0,0:0:0:0:
256,192,110475,1,8,0:0:0:0:
252,188,110622,1,8,0:0:0:0:
252,188,110769,1,0,0:0:0:0:
252,184,110843,1,0,0:0:0:0:
256,192,110916,1,8,0:0:0:0:
256,192,111063,1,8,0:0:0:0:
256,192,111210,1,0,0:0:0:0:
256,192,111357,1,0,0:0:0:0:
256,192,111504,1,4,0:0:0:0:
256,192,111994,1,0,0:0:0:0:
256,192,112288,1,8,0:0:0:0:
260,192,112386,1,0,0:0:0:0:
252,188,112582,1,0,0:0:0:0:
252,188,112680,1,8,0:0:0:0:
256,192,112975,1,8,0:0:0:0:
256,192,113170,1,0,0:0:0:0:
256,192,113269,1,0,0:0:0:0:
264,192,113563,1,8,0:0:0:0:
256,192,113857,5,4,0:0:0:0:
256,192,114151,1,0,0:0:0:0:
256,192,114446,1,8,0:0:0:0:
256,192,114642,1,0,0:0:0:0:
256,192,114740,1,0,0:0:0:0:
256,192,114936,1,0,0:0:0:0:
256,192,115034,1,8,0:0:0:0:
256,192,115230,1,8,0:0:0:0:
256,192,115524,1,0,0:0:0:0:
256,192,115622,1,8,0:0:0:0:
256,192,115818,1,0,0:0:0:0:
256,192,115916,1,8,0:0:0:0:
256,192,116210,1,0,0:0:0:0:
256,192,116504,1,0,0:0:0:0:
256,192,116799,1,8,0:0:0:0:
256,192,116995,1,0,0:0:0:0:
256,192,117093,1,0,0:0:0:0:
256,192,117289,1,0,0:0:0:0:
256,192,117387,1,8,0:0:0:0:
256,192,117583,1,0,0:0:0:0:
256,192,117877,1,0,0:0:0:0:
256,192,117975,1,8,0:0:0:0:
256,192,118171,1,0,0:0:0:0:
256,192,118269,1,8,0:0:0:0:
256,192,118563,1,8,0:0:0:0:
256,192,118857,1,0,0:0:0:0:
256,192,119151,1,8,0:0:0:0:
256,192,119348,1,0,0:0:0:0:
256,192,119446,1,0,0:0:0:0:
256,192,119642,1,0,0:0:0:0:
256,192,119740,1,8,0:0:0:0:
256,192,119936,1,0,0:0:0:0:
256,192,120230,1,0,0:0:0:0:
256,192,120328,1,8,0:0:0:0:
256,192,120524,1,0,0:0:0:0:
256,192,120622,1,8,0:0:0:0:
256,192,120818,1,0,0:0:0:0:
256,192,120916,1,8,0:0:0:0:
256,192,121210,1,0,0:0:0:0:
256,192,121504,1,8,0:0:0:0:
256,192,121700,1,0,0:0:0:0:
256,192,121799,1,8,0:0:0:0:
256,192,121995,1,8,0:0:0:0:
256,192,122093,1,0,0:0:0:0:
256,192,122387,1,0,0:0:0:0:
256,192,122681,1,8,0:0:0:0:
256,192,122877,1,8,0:0:0:0:
256,192,122975,1,0,0:0:0:0:
256,192,123171,1,8,0:0:0:0:
256,192,123269,1,0,0:0:0:0:
256,192,123465,1,0,0:0:0:0:
256,192,123563,1,8,0:0:0:0:
256,192,123759,1,8,0:0:0:0:
256,192,124053,1,8,0:0:0:0:
256,192,124151,1,0,0:0:0:0:
256,192,124348,1,0,0:0:0:0:
256,192,124446,1,8,0:0:0:0:
256,192,124740,1,0,0:0:0:0:
256,192,125034,1,8,0:0:0:0:
256,192,125328,1,0,0:0:0:0:
256,192,125524,1,0,0:0:0:0:
256,192,125622,1,0,0:0:0:0:
256,192,125916,1,0,0:0:0:0:
256,192,126210,1,8,0:0:0:0:
256,192,126406,1,0,0:0:0:0:
256,192,126504,1,8,0:0:0:0:
256,192,126602,1,0,0:0:0:0:
256,192,126700,1,0,0:0:0:0:
256,192,126799,1,8,0:0:0:0:
256,192,127093,1,0,0:0:0:0:
256,192,127387,1,8,0:0:0:0:
256,192,127681,1,0,0:0:0:0:
256,192,127877,1,0,0:0:0:0:
256,192,127975,1,0,0:0:0:0:
256,192,128269,1,0,0:0:0:0:
256,192,128563,1,8,0:0:0:0:
256,192,128759,1,0,0:0:0:0:
256,192,128857,1,8,0:0:0:0:
256,192,129053,1,0,0:0:0:0:
256,192,129151,1,8,0:0:0:0:
256,192,129446,1,0,0:0:0:0:
256,192,129740,1,8,0:0:0:0:
256,192,129936,1,8,0:0:0:0:
256,192,130230,1,0,0:0:0:0:
256,192,130328,1,8,0:0:0:0:
256,192,130622,1,0,0:0:0:0:
256,192,130916,1,8,0:0:0:0:
256,192,131112,1,0,0:0:0:0:
256,192,131210,1,8,0:0:0:0:
256,192,131406,1,8,0:0:0:0:
256,192,131504,1,0,0:0:0:0:
256,192,131799,1,0,0:0:0:0:
256,192,132093,1,8,0:0:0:0:
256,192,132289,1,8,0:0:0:0:
256,192,132387,1,0,0:0:0:0:
256,192,132583,1,0,0:0:0:0:
256,192,132681,5,12,0:0:0:0:
256,192,132975,1,0,0:0:0:0:
256,192,133269,1,8,0:0:0:0:
256,192,133465,1,0,0:0:0:0:
256,192,133564,1,0,0:0:0:0:
256,192,133760,1,8,0:0:0:0:
256,192,133858,1,0,0:0:0:0:
256,192,134054,1,8,0:0:0:0:
256,192,134348,1,0,0:0:0:0:
256,192,134642,1,0,0:0:0:0:
256,192,134740,1,8,0:0:0:0:
256,192,135034,1,8,0:0:0:0:
256,192,135328,1,0,0:0:0:0:
256,192,135622,1,8,0:0:0:0:
256,192,135818,1,0,0:0:0:0:
256,192,135916,1,0,0:0:0:0:
256,192,136113,1,0,0:0:0:0:
256,192,136211,1,8,0:0:0:0:
256,192,136407,1,0,0:0:0:0:
256,192,136701,1,0,0:0:0:0:
256,192,136995,1,0,0:0:0:0:
256,192,137093,1,8,0:0:0:0:
256,192,137289,1,0,0:0:0:0:
256,192,137387,1,8,0:0:0:0:
256,192,137681,1,0,0:0:0:0:
256,192,137975,1,8,0:0:0:0:
256,192,138171,1,0,0:0:0:0:
256,192,138269,1,0,0:0:0:0:
256,192,138465,1,0,0:0:0:0:
256,192,138564,1,8,0:0:0:0:
256,192,138760,1,0,0:0:0:0:
256,192,138857,1,0,0:0:0:0:
256,192,139054,1,8,0:0:0:0:
256,192,139348,1,0,0:0:0:0:
256,192,139446,1,8,0:0:0:0:
256,192,139642,1,0,0:0:0:0:
256,192,139740,1,8,0:0:0:0:
256,192,140034,1,0,0:0:0:0:
256,192,140328,1,8,0:0:0:0:
256,192,140524,1,0,0:0:0:0:
256,192,140622,1,8,0:0:0:0:
256,192,140818,1,0,0:0:0:0:
256,192,140917,1,8,0:0:0:0:
256,192,141211,1,8,0:0:0:0:
256,192,141308,1,0,0:0:0:0:
256,192,141406,1,0,0:0:0:0:
256,192,141505,1,8,0:0:0:0:
256,192,141700,1,0,0:0:0:0:
256,192,141799,1,8,0:0:0:0:
256,192,141995,1,8,0:0:0:0:
256,192,142093,1,0,0:0:0:0:
256,192,142289,1,0,0:0:0:0:
256,192,142387,1,8,0:0:0:0:
256,192,142583,1,8,0:0:0:0:
256,192,142877,1,8,0:0:0:0:
256,192,143171,1,0,0:0:0:0:
256,192,143269,1,8,0:0:0:0:
256,192,143564,1,0,0:0:0:0:
256,192,143858,1,0,0:0:0:0:
256,192,144053,1,0,0:0:0:0:
256,192,144152,1,8,0:0:0:0:
256,192,144446,1,8,0:0:0:0:
256,192,144642,1,8,0:0:0:0:
256,192,144740,1,0,0:0:0:0:
256,192,144936,1,0,0:0:0:0:
256,192,145034,1,8,0:0:0:0:
256,192,145230,1,0,0:0:0:0:
256,192,145328,1,8,0:0:0:0:
256,192,145426,1,0,0:0:0:0:
256,192,145524,1,0,0:0:0:0:
256,192,145622,1,8,0:0:0:0:
256,192,145916,1,0,0:0:0:0:
256,192,146211,1,8,0:0:0:0:
256,192,146406,1,8,0:0:0:0:
256,192,146504,1,0,0:0:0:0:
256,192,146799,1,8,0:0:0:0:
256,192,147093,1,8,0:0:0:0:
256,192,147289,1,0,0:0:0:0:
256,192,147387,1,0,0:0:0:0:
256,192,147583,1,0,0:0:0:0:
256,192,147681,1,8,0:0:0:0:
256,192,147877,1,0,0:0:0:0:
256,192,147975,1,8,0:0:0:0:
256,192,148269,1,0,0:0:0:0:
256,192,148564,1,0,0:0:0:0:
256,192,148760,1,8,0:0:0:0:
256,192,149054,1,0,0:0:0:0:
256,192,149152,1,8,0:0:0:0:
256,192,149250,12,0,150230,0:0:0:0:
256,192,150328,5,12,0:0:0:0:
256,192,150622,1,4,0:0:0:0:
256,192,150916,1,0,0:0:0:0:
256,192,151014,1,8,0:0:0:0:
256,192,151112,1,8,0:0:0:0:
256,192,151210,1,0,0:0:0:0:
256,192,151504,1,4,0:0:0:0:
256,192,151651,1,0,0:0:0:0:
256,192,151799,1,0,0:0:0:0:
256,192,151946,1,0,0:0:0:0:
256,192,152093,1,8,0:0:0:0:
256,192,152240,1,0,0:0:0:0:
256,192,152387,1,8,0:0:0:0:
256,192,152534,1,8,0:0:0:0:
256,192,152681,1,0,0:0:0:0:
256,192,152828,1,0,0:0:0:0:
256,192,152975,1,8,0:0:0:0:
256,192,153122,1,0,0:0:0:0:
256,192,153269,1,8,0:0:0:0:
256,192,153563,1,0,0:0:0:0:
256,192,153857,1,8,0:0:0:0:
256,192,154004,1,0,0:0:0:0:
256,192,154151,1,0,0:0:0:0:
256,192,154299,1,0,0:0:0:0:
256,192,154446,1,8,0:0:0:0:
256,192,154593,1,0,0:0:0:0:
256,192,154740,1,8,0:0:0:0:
256,192,154887,1,8,0:0:0:0:
256,192,155034,1,0,0:0:0:0:
252,196,155181,1,8,0:0:0:0:
252,196,155328,1,0,0:0:0:0:
256,192,155475,1,8,0:0:0:0:
256,192,155622,1,8,0:0:0:0:
256,192,155696,1,8,0:0:0:0:
256,192,155769,1,8,0:0:0:0:
256,192,155843,1,8,0:0:0:0:
256,192,155916,1,0,0:0:0:0:
256,192,156210,1,8,0:0:0:0:
260,192,156357,1,0,0:0:0:0:
260,192,156504,1,0,0:0:0:0:
260,192,156651,1,0,0:0:0:0:
256,192,156799,1,8,0:0:0:0:
260,192,156946,1,0,0:0:0:0:
260,192,157093,1,8,0:0:0:0:
260,192,157240,1,8,0:0:0:0:
260,192,157387,1,0,0:0:0:0:
268,200,157534,1,0,0:0:0:0:
264,200,157681,1,8,0:0:0:0:
264,200,157828,1,0,0:0:0:0:
264,200,157975,1,8,0:0:0:0:
260,192,158269,1,8,0:0:0:0:
264,192,158563,1,0,0:0:0:0:
268,200,158710,1,0,0:0:0:0:
260,192,158857,1,0,0:0:0:0:
260,192,159004,1,0,0:0:0:0:
260,192,159151,1,8,0:0:0:0:
264,188,159299,1,0,0:0:0:0:
264,188,159446,1,8,0:0:0:0:
264,192,159593,1,8,0:0:0:0:
264,192,159740,1,0,0:0:0:0:
264,188,159887,1,8,0:0:0:0:
264,188,160034,1,0,0:0:0:0:
264,192,160181,1,8,0:0:0:0:
264,192,160328,1,8,0:0:0:0:
264,192,160401,1,8,0:0:0:0:
264,192,160474,1,8,0:0:0:0:
260,192,160622,1,0,0:0:0:0:
260,192,160916,1,0,0:0:0:0:
264,192,161063,1,0,0:0:0:0:
264,188,161210,1,0,0:0:0:0:
256,192,161357,1,0,0:0:0:0:
256,192,161504,1,8,0:0:0:0:
256,192,161651,1,0,0:0:0:0:
256,192,161799,1,8,0:0:0:0:
256,192,161946,1,8,0:0:0:0:
256,192,162093,1,0,0:0:0:0:
260,192,162240,1,0,0:0:0:0:
260,192,162387,1,8,0:0:0:0:
260,192,162534,1,0,0:0:0:0:
260,192,162681,1,8,0:0:0:0:
256,192,162975,1,0,0:0:0:0:
256,192,163269,1,8,0:0:0:0:
256,192,163416,1,0,0:0:0:0:
256,192,163563,1,0,0:0:0:0:
256,192,163710,1,0,0:0:0:0:
256,192,163857,1,8,0:0:0:0:
252,192,164004,1,0,0:0:0:0:
252,192,164151,1,8,0:0:0:0:
252,192,164299,1,8,0:0:0:0:
252,192,164446,1,0,0:0:0:0:
256,192,164593,1,8,0:0:0:0:
256,192,164740,1,0,0:0:0:0:
256,192,164887,1,8,0:0:0:0:
256,192,165034,1,8,0:0:0:0:
256,192,165107,1,8,0:0:0:0:
256,192,165181,1,8,0:0:0:0:
256,192,165254,1,8,0:0:0:0:
256,192,165328,1,0,0:0:0:0:
256,192,165622,1,8,0:0:0:0:
252,192,165769,1,0,0:0:0:0:
252,192,165916,1,0,0:0:0:0:
252,192,166063,1,0,0:0:0:0:
252,192,166210,1,8,0:0:0:0:
256,192,166357,1,0,0:0:0:0:
256,192,166504,1,8,0:0:0:0:
256,192,166651,1,8,0:0:0:0:
256,192,166799,1,0,0:0:0:0:
256,192,166946,1,0,0:0:0:0:
256,192,167093,1,8,0:0:0:0:
256,192,167240,1,0,0:0:0:0:
256,192,167387,1,8,0:0:0:0:
252,192,167681,1,8,0:0:0:0:
252,192,167975,1,8,0:0:0:0:
248,192,168122,1,0,0:0:0:0:
248,192,168269,1,0,0:0:0:0:
256,192,168416,1,0,0:0:0:0:
256,192,168563,1,8,0:0:0:0:
256,192,168710,1,0,0:0:0:0:
256,192,168857,1,8,0:0:0:0:
256,192,169004,1,8,0:0:0:0:
256,192,169151,1,0,0:0:0:0:
252,192,169299,1,8,0:0:0:0:
252,192,169446,1,0,0:0:0:0:
252,192,169593,1,8,0:0:0:0:
252,192,169740,1,8,0:0:0:0:
252,192,169887,1,0,0:0:0:0:
252,192,170034,1,8,0:0:0:0:
248,192,170181,1,0,0:0:0:0:
256,192,170328,5,12,0:0:0:0:
256,192,170622,1,0,0:0:0:0:
256,192,170916,1,8,0:0:0:0:
256,192,171063,1,8,0:0:0:0:
256,192,171210,1,8,0:0:0:0:
256,192,171357,1,0,0:0:0:0:
256,192,171504,1,0,0:0:0:0:
256,192,171651,1,8,0:0:0:0:
256,192,171798,1,0,0:0:0:0:
256,192,172092,1,8,0:0:0:0:
256,192,172387,1,0,0:0:0:0:
256,192,172534,1,0,0:0:0:0:
256,192,172681,1,8,0:0:0:0:
256,192,172975,1,0,0:0:0:0:
256,192,173122,1,0,0:0:0:0:
256,192,173269,1,8,0:0:0:0:
256,192,173416,1,8,0:0:0:0:
256,192,173563,1,8,0:0:0:0:
256,192,173710,1,0,0:0:0:0:
256,192,173857,1,0,0:0:0:0:
256,192,174004,1,8,0:0:0:0:
256,192,174151,1,0,0:0:0:0:
256,192,174298,1,0,0:0:0:0:
256,192,174445,1,8,0:0:0:0:
256,192,174518,1,8,0:0:0:0:
256,192,174592,1,0,0:0:0:0:
256,192,174740,1,0,0:0:0:0:
256,192,174886,1,0,0:0:0:0:
256,192,175034,1,8,0:0:0:0:
256,192,175328,1,0,0:0:0:0:
256,192,175475,1,0,0:0:0:0:
256,192,175622,1,8,0:0:0:0:
256,192,175769,1,8,0:0:0:0:
256,192,175916,1,8,0:0:0:0:
256,192,176063,1,0,0:0:0:0:
256,192,176210,1,0,0:0:0:0:
256,192,176357,1,8,0:0:0:0:
256,192,176504,1,0,0:0:0:0:
256,192,176651,1,0,0:0:0:0:
256,192,176798,1,8,0:0:0:0:
256,192,177093,1,0,0:0:0:0:
256,192,177240,1,0,0:0:0:0:
256,192,177387,1,8,0:0:0:0:
256,192,177681,1,0,0:0:0:0:
256,192,177828,1,0,0:0:0:0:
256,192,177975,1,8,0:0:0:0:
256,192,178122,1,8,0:0:0:0:
256,192,178269,1,8,0:0:0:0:
256,192,178416,1,0,0:0:0:0:
256,192,178563,1,0,0:0:0:0:
256,192,178710,1,8,0:0:0:0:
256,192,178857,1,0,0:0:0:0:
256,192,179004,1,0,0:0:0:0:
256,192,179077,1,0,0:0:0:0:
256,192,179151,1,8,0:0:0:0:
256,192,179298,1,0,0:0:0:0:
256,192,179445,1,8,0:0:0:0:
256,192,179740,1,8,0:0:0:0:
256,192,180034,1,0,0:0:0:0:
256,192,180181,1,0,0:0:0:0:
256,192,180328,1,8,0:0:0:0:
256,192,180475,1,8,0:0:0:0:
256,192,180622,1,8,0:0:0:0:
256,192,180769,1,0,0:0:0:0:
256,192,180842,1,0,0:0:0:0:
256,192,180916,1,0,0:0:0:0:
256,192,181063,1,8,0:0:0:0:
256,192,181210,1,0,0:0:0:0:
256,192,181504,1,8,0:0:0:0:
256,192,181651,1,0,0:0:0:0:
256,192,181798,1,0,0:0:0:0:
256,192,181945,1,0,0:0:0:0:
256,192,182092,1,8,0:0:0:0:
256,192,182387,1,0,0:0:0:0:
256,192,182534,1,0,0:0:0:0:
256,192,182681,1,8,0:0:0:0:
256,192,182828,1,8,0:0:0:0:
256,192,182975,1,0,0:0:0:0:
256,192,183122,1,8,0:0:0:0:
256,192,183195,1,8,0:0:0:0:
256,192,183269,1,0,0:0:0:0:
256,192,183416,1,8,0:0:0:0:
256,192,183563,1,0,0:0:0:0:
256,192,183710,1,0,0:0:0:0:
256,192,183783,1,0,0:0:0:0:
256,192,183857,1,8,0:0:0:0:
256,192,184004,1,0,0:0:0:0:
256,192,184151,1,0,0:0:0:0:
256,192,184445,1,8,0:0:0:0:
256,192,184740,1,0,0:0:0:0:
256,192,184887,1,0,0:0:0:0:
256,192,185034,1,8,0:0:0:0:
256,192,185181,1,8,0:0:0:0:
256,192,185328,1,8,0:0:0:0:
256,192,185475,1,0,0:0:0:0:
256,192,185548,1,0,0:0:0:0:
256,192,185622,1,8,0:0:0:0:
256,192,185769,1,8,0:0:0:0:
256,192,185916,1,0,0:0:0:0:
256,192,186063,1,0,0:0:0:0:
256,192,186210,1,8,0:0:0:0:
256,192,186357,1,0,0:0:0:0:
256,192,186504,1,0,0:0:0:0:
256,192,186798,1,8,0:0:0:0:
256,192,187093,1,0,0:0:0:0:
256,192,187240,1,0,0:0:0:0:
256,192,187387,1,8,0:0:0:0:
256,192,187534,1,8,0:0:0:0:
256,192,187681,1,8,0:0:0:0:
256,192,187828,1,0,0:0:0:0:
256,192,187901,1,0,0:0:0:0:
256,192,187975,1,0,0:0:0:0:
256,192,188122,1,8,0:0:0:0:
256,192,188269,1,0,0:0:0:0:
256,192,188343,1,0,0:0:0:0:
256,192,188416,1,0,0:0:0:0:
256,192,188490,1,0,0:0:0:0:
256,192,188563,1,8,0:0:0:0:
256,192,188710,1,0,0:0:0:0:
256,192,188857,1,8,0:0:0:0:
256,196,189151,1,4,0:0:0:0:
256,192,189299,1,8,0:0:0:0:
256,192,189446,1,0,0:0:0:0:
256,192,189593,1,0,0:0:0:0:
248,192,189666,1,0,0:0:0:0:
256,192,189740,1,8,0:0:0:0:
256,192,189887,1,0,0:0:0:0:
256,188,190033,1,8,0:0:0:0:
256,192,190181,1,0,0:0:0:0:
256,192,190475,1,8,0:0:0:0:
256,192,190622,1,0,0:0:0:0:
256,196,190916,1,8,0:0:0:0:
256,192,191063,1,0,0:0:0:0:
256,192,191210,1,0,0:0:0:0:
256,192,191357,1,0,0:0:0:0:
256,192,191431,1,0,0:0:0:0:
252,196,191504,1,8,0:0:0:0:
256,192,191799,1,0,0:0:0:0:
256,192,192093,1,8,0:0:0:0:
256,192,192240,1,0,0:0:0:0:
256,192,192387,1,8,0:0:0:0:
256,196,192534,1,0,0:0:0:0:
256,192,192828,1,0,0:0:0:0:
256,192,192975,1,8,0:0:0:0:
256,192,193122,1,0,0:0:0:0:
256,192,193268,2,0,L|427:202,1,168
256,192,193857,1,0,0:0:0:0:
256,192,194004,1,8,0:0:0:0:
256,192,194151,1,0,0:0:0:0:
256,196,194299,1,8,0:0:0:0:
256,192,194446,1,8,0:0:0:0:
256,192,194740,1,0,0:0:0:0:
256,192,194887,1,8,0:0:0:0:
256,192,195181,1,8,0:0:0:0:
256,192,195328,1,8,0:0:0:0:
256,192,195622,1,8,0:0:0:0:
256,192,195769,1,0,0:0:0:0:
256,192,195916,1,0,0:0:0:0:
256,192,196063,1,8,0:0:0:0:
256,192,196357,1,8,0:0:0:0:
256,192,196504,1,8,0:0:0:0:
256,192,196799,1,0,0:0:0:0:
256,192,196946,1,8,0:0:0:0:
256,192,197240,1,8,0:0:0:0:
256,192,197387,1,0,0:0:0:0:
256,192,197680,1,8,0:0:0:0:
256,192,197975,1,0,0:0:0:0:
256,192,198269,1,0,0:0:0:0:
256,192,198563,1,12,0:0:0:0:
256,192,198710,1,0,0:0:0:0:
256,192,198857,1,8,0:0:0:0:
256,192,199004,1,0,0:0:0:0:
256,192,199151,1,8,0:0:0:0:
256,192,199299,1,8,0:0:0:0:
256,192,199446,1,8,0:0:0:0:
256,192,199593,1,0,0:0:0:0:
256,192,199740,1,8,0:0:0:0:
256,192,199887,1,0,0:0:0:0:
256,192,200034,1,8,0:0:0:0:
256,192,200181,1,8,0:0:0:0:
256,192,200328,1,0,0:0:0:0:
256,192,200622,1,0,0:0:0:0:
256,192,200916,1,8,0:0:0:0:
256,192,201063,1,0,0:0:0:0:
256,192,201210,1,0,0:0:0:0:
256,192,201357,1,0,0:0:0:0:
256,192,201504,1,8,0:0:0:0:
256,192,201651,1,8,0:0:0:0:
256,192,201799,1,8,0:0:0:0:
256,192,201946,1,0,0:0:0:0:
256,192,202093,1,8,0:0:0:0:
256,192,202240,1,8,0:0:0:0:
256,192,202387,1,0,0:0:0:0:
256,192,202534,1,8,0:0:0:0:
256,192,202681,1,8,0:0:0:0:
256,192,202975,1,0,0:0:0:0:
256,192,203269,1,8,0:0:0:0:
256,192,203416,1,0,0:0:0:0:
256,192,203563,1,0,0:0:0:0:
256,192,203710,1,0,0:0:0:0:
256,192,203857,1,8,0:0:0:0:
256,192,204004,1,0,0:0:0:0:
256,192,204151,1,8,0:0:0:0:
256,192,204299,1,8,0:0:0:0:
256,192,204446,1,0,0:0:0:0:
256,192,204593,1,0,0:0:0:0:
256,192,204740,1,0,0:0:0:0:
256,192,204887,1,0,0:0:0:0:
256,192,205034,1,8,0:0:0:0:
256,192,205181,1,0,0:0:0:0:
256,192,205328,1,8,0:0:0:0:
256,192,205475,1,8,0:0:0:0:
256,192,205622,1,8,0:0:0:0:
256,192,205696,1,0,0:0:0:0:
256,192,205769,1,0,0:0:0:0:
256,192,205843,1,0,0:0:0:0:
256,192,205916,1,8,0:0:0:0:
256,192,205990,1,0,0:0:0:0:
256,192,206063,1,0,0:0:0:0:
256,192,206137,1,0,0:0:0:0:
256,192,206210,1,8,0:0:0:0:
256,192,206284,1,0,0:0:0:0:
256,192,206357,1,8,0:0:0:0:
256,192,206431,1,0,0:0:0:0:
256,192,206504,1,0,0:0:0:0:
256,192,206578,1,0,0:0:0:0:
256,192,206651,1,8,0:0:0:0:
256,192,206725,1,0,0:0:0:0:
256,192,206799,1,8,0:0:0:0:
256,192,207387,5,8,0:0:0:0:
256,192,207681,1,0,0:0:0:0:
256,192,207975,5,4,0:0:0:0:
256,192,208416,1,0,0:0:0:0:
256,192,208563,1,8,0:0:0:0:
256,192,208857,1,0,0:0:0:0:
256,192,209299,1,0,0:0:0:0:
256,192,209446,1,0,0:0:0:0:
256,192,209740,1,8,0:0:0:0:
256,192,210034,1,0,0:0:0:0:
256,192,210328,1,0,0:0:0:0:
256,192,210769,1,0,0:0:0:0:
256,192,210916,1,8,0:0:0:0:
256,192,211210,1,0,0:0:0:0:
256,192,211651,1,0,0:0:0:0:
256,192,211799,1,0,0:0:0:0:
256,192,212093,1,8,0:0:0:0:
256,192,212387,1,8,0:0:0:0:
256,192,212681,1,0,0:0:0:0:
256,192,213122,1,0,0:0:0:0:
256,192,213269,1,8,0:0:0:0:
256,192,213563,1,0,0:0:0:0:
256,192,214004,1,0,0:0:0:0:
256,192,214151,1,0,0:0:0:0:
256,192,214446,1,8,0:0:0:0:
256,192,214740,1,0,0:0:0:0:
256,192,215034,1,0,0:0:0:0:
256,192,215475,1,0,0:0:0:0:
256,192,215622,1,8,0:0:0:0:
256,192,215916,1,0,0:0:0:0:
256,192,216357,1,0,0:0:0:0:
256,192,216504,1,0,0:0:0:0:
256,192,216799,1,8,0:0:0:0:
256,192,217093,1,8,0:0:0:0:
256,192,217387,1,0,0:0:0:0:
256,192,217828,1,0,0:0:0:0:
256,192,217975,1,8,0:0:0:0:
256,192,218269,1,0,0:0:0:0:
256,192,218711,1,0,0:0:0:0:
256,192,218858,1,0,0:0:0:0:
256,192,219152,1,8,0:0:0:0:
256,192,219446,1,0,0:0:0:0:
256,192,220034,1,0,0:0:0:0:
256,192,220181,1,0,0:0:0:0:
256,192,220328,1,8,0:0:0:0:
256,192,220622,1,0,0:0:0:0:
256,192,221063,1,0,0:0:0:0:
256,192,221211,1,0,0:0:0:0:
256,192,221505,1,8,0:0:0:0:
256,192,221799,1,8,0:0:0:0:
256,192,222093,1,0,0:0:0:0:
256,192,222534,1,0,0:0:0:0:
256,192,222681,1,8,0:0:0:0:
256,192,222975,1,0,0:0:0:0:
256,192,223416,1,0,0:0:0:0:
256,192,223563,1,0,0:0:0:0:
256,192,223858,1,8,0:0:0:0:
256,192,224152,1,0,0:0:0:0:
256,192,224740,1,0,0:0:0:0:
256,192,224887,1,0,0:0:0:0:
256,192,225034,1,8,0:0:0:0:
256,192,225328,1,0,0:0:0:0:
256,192,225769,1,0,0:0:0:0:
256,192,225916,1,0,0:0:0:0:
256,192,226063,1,8,0:0:0:0:
256,192,226211,1,8,0:0:0:0:
256,192,226357,1,0,0:0:0:0:
256,192,226505,1,8,0:0:0:0:
256,192,226651,1,0,0:0:0:0:
256,192,226799,1,4,0:0:0:0:
256,192,227240,1,0,0:0:0:0:
256,192,227387,1,8,0:0:0:0:
256,192,227681,1,8,0:0:0:0:
256,192,227754,1,8,0:0:0:0:
256,192,227828,1,8,0:0:0:0:
256,192,227901,1,8,0:0:0:0:
256,192,227975,1,8,0:0:0:0:
256,192,228122,1,0,0:0:0:0:
256,192,228269,1,0,0:0:0:0:
256,192,228563,1,8,0:0:0:0:
256,192,228857,1,0,0:0:0:0:
256,192,229151,1,0,0:0:0:0:
256,192,229593,1,0,0:0:0:0:
256,192,229740,1,8,0:0:0:0:
256,192,230034,1,8,0:0:0:0:
256,192,230107,1,0,0:0:0:0:
256,192,230181,1,0,0:0:0:0:
256,192,230254,1,0,0:0:0:0:
256,192,230328,1,8,0:0:0:0:
256,192,230475,1,0,0:0:0:0:
256,192,230622,1,0,0:0:0:0:
256,192,230916,1,8,0:0:0:0:
256,192,231210,1,0,0:0:0:0:
252,196,231504,1,0,0:0:0:0:
256,192,231946,1,0,0:0:0:0:
256,192,232093,1,8,0:0:0:0:
256,192,232387,1,0,0:0:0:0:
256,192,232460,1,0,0:0:0:0:
256,192,232534,1,0,0:0:0:0:
256,192,232607,1,0,0:0:0:0:
256,192,232681,1,8,0:0:0:0:
256,192,232828,1,0,0:0:0:0:
248,192,232975,1,0,0:0:0:0:
252,196,233269,1,8,0:0:0:0:
256,192,233563,1,0,0:0:0:0:
256,192,233857,1,0,0:0:0:0:
256,192,234151,1,8,0:0:0:0:
256,192,234299,1,0,0:0:0:0:
256,192,234446,1,8,0:0:0:0:
256,188,234740,1,8,0:0:0:0:
256,188,234813,1,0,0:0:0:0:
256,188,234887,1,0,0:0:0:0:
256,192,234960,1,0,0:0:0:0:
256,192,235034,1,8,0:0:0:0:
264,188,235181,1,0,0:0:0:0:
256,192,235328,1,0,0:0:0:0:
260,192,235622,1,8,0:0:0:0:
256,192,235916,1,0,0:0:0:0:
256,192,236210,1,0,0:0:0:0:
256,188,236504,1,0,0:0:0:0:
256,188,236651,1,0,0:0:0:0:
256,192,236799,1,8,0:0:0:0:
256,192,237093,1,0,0:0:0:0:
256,192,237166,1,0,0:0:0:0:
252,192,237240,1,8,0:0:0:0:
252,192,237387,1,8,0:0:0:0:
256,192,237534,1,0,0:0:0:0:
256,192,237681,1,0,0:0:0:0:
256,192,237975,1,8,0:0:0:0:
256,192,238269,1,0,0:0:0:0:
256,192,238563,1,0,0:0:0:0:
256,192,239004,1,0,0:0:0:0:
252,192,239151,1,8,0:0:0:0:
256,192,239446,1,0,0:0:0:0:
256,192,239519,1,8,0:0:0:0:
256,192,239593,1,0,0:0:0:0:
256,192,239666,1,0,0:0:0:0:
256,192,239740,1,8,0:0:0:0:
256,192,239887,1,0,0:0:0:0:
256,192,240034,1,0,0:0:0:0:
252,200,240328,1,8,0:0:0:0:
256,192,240622,1,8,0:0:0:0:
256,192,240916,1,0,0:0:0:0:
256,192,241210,1,8,0:0:0:0:
256,192,241357,1,0,0:0:0:0:
256,192,241504,1,8,0:0:0:0:
256,192,241799,1,8,0:0:0:0:
256,192,241872,1,0,0:0:0:0:
252,200,241946,1,0,0:0:0:0:
252,200,242019,1,0,0:0:0:0:
252,200,242093,1,8,0:0:0:0:
256,192,242240,1,0,0:0:0:0:
256,192,242387,1,0,0:0:0:0:
256,192,242681,1,8,0:0:0:0:
264,192,242975,1,0,0:0:0:0:
264,192,243122,1,8,0:0:0:0:
264,192,243269,1,0,0:0:0:0:
260,196,243563,1,8,0:0:0:0:
260,196,243710,1,0,0:0:0:0:
264,196,243857,1,8,0:0:0:0:
260,196,244151,1,8,0:0:0:0:
260,196,244225,1,8,0:0:0:0:
260,196,244299,1,0,0:0:0:0:
260,196,244446,1,8,0:0:0:0:
260,196,244593,1,0,0:0:0:0:
260,196,244740,1,0,0:0:0:0:
256,196,245034,5,8,0:0:0:0:
256,200,245328,1,0,0:0:0:0:
256,192,245622,5,4,0:0:0:0:
256,192,245916,1,0,0:0:0:0:
256,192,246210,1,8,0:0:0:0:
256,192,246357,1,8,0:0:0:0:
256,192,246504,1,0,0:0:0:0:
256,192,246651,1,8,0:0:0:0:
256,192,246946,1,8,0:0:0:0:
256,192,247093,1,8,0:0:0:0:
256,192,247240,1,0,0:0:0:0:
256,192,247387,1,0,0:0:0:0:
256,192,247534,1,8,0:0:0:0:
256,192,247681,1,0,0:0:0:0:
256,192,247975,1,0,0:0:0:0:
256,192,248269,1,8,0:0:0:0:
256,192,248563,1,8,0:0:0:0:
256,192,248710,1,8,0:0:0:0:
256,192,248857,1,0,0:0:0:0:
256,192,249004,1,8,0:0:0:0:
256,192,249299,1,0,0:0:0:0:
256,192,249446,1,8,0:0:0:0:
256,192,249740,1,0,0:0:0:0:
256,192,250034,1,0,0:0:0:0:
256,192,250327,1,0,0:0:0:0:
256,192,250621,1,8,0:0:0:0:
256,192,250916,1,8,0:0:0:0:
256,192,251063,1,8,0:0:0:0:
256,192,251210,1,0,0:0:0:0:
256,192,251357,1,8,0:0:0:0:
256,192,251651,1,8,0:0:0:0:
256,192,251799,1,8,0:0:0:0:
256,192,251946,1,0,0:0:0:0:
256,192,252093,1,0,0:0:0:0:
256,192,252240,1,8,0:0:0:0:
256,192,252387,1,0,0:0:0:0:
256,192,252681,1,8,0:0:0:0:
256,192,252975,1,0,0:0:0:0:
256,192,253269,1,8,0:0:0:0:
256,192,253416,1,8,0:0:0:0:
256,192,253563,1,0,0:0:0:0:
256,192,253710,1,8,0:0:0:0:
256,192,254004,1,0,0:0:0:0:
256,192,254078,1,0,0:0:0:0:
256,192,254151,1,8,0:0:0:0:
256,192,254298,1,0,0:0:0:0:
256,192,254445,1,8,0:0:0:0:
256,192,254592,1,0,0:0:0:0:
256,192,254739,1,8,0:0:0:0:
256,192,254886,1,0,0:0:0:0:
256,192,255034,1,4,0:0:0:0:
256,192,255327,5,0,0:0:0:0:
256,192,255622,1,8,0:0:0:0:
256,192,255769,1,8,0:0:0:0:
256,192,255916,1,0,0:0:0:0:
256,192,256063,1,8,0:0:0:0:
256,192,256210,1,0,0:0:0:0:
256,192,256358,1,8,0:0:0:0:
256,192,256505,1,8,0:0:0:0:
256,192,256652,1,0,0:0:0:0:
256,192,256799,1,0,0:0:0:0:
256,192,256946,1,8,0:0:0:0:
256,192,257093,1,0,0:0:0:0:
256,192,257387,1,0,0:0:0:0:
256,192,257681,1,8,0:0:0:0:
256,192,257975,1,8,0:0:0:0:
256,192,258122,1,8,0:0:0:0:
256,192,258269,1,0,0:0:0:0:
256,192,258416,1,8,0:0:0:0:
256,192,258711,1,0,0:0:0:0:
256,192,258858,1,8,0:0:0:0:
256,192,259152,1,0,0:0:0:0:
256,192,259446,1,8,0:0:0:0:
256,192,259740,1,0,0:0:0:0:
256,192,260034,1,0,0:0:0:0:
256,192,260181,1,0,0:0:0:0:
256,192,260254,1,0,0:0:0:0:
256,192,260328,1,8,0:0:0:0:
256,192,260475,1,8,0:0:0:0:
256,192,260622,1,0,0:0:0:0:
256,192,260769,1,8,0:0:0:0:
256,192,260916,1,0,0:0:0:0:
256,192,261063,1,8,0:0:0:0:
256,192,261211,1,8,0:0:0:0:
256,192,261358,1,0,0:0:0:0:
256,192,261505,1,0,0:0:0:0:
256,192,261652,1,8,0:0:0:0:
256,192,261799,1,0,0:0:0:0:
256,192,262093,1,8,0:0:0:0:
256,192,262387,1,0,0:0:0:0:
256,192,262681,1,8,0:0:0:0:
256,192,262828,1,8,0:0:0:0:
256,192,262975,1,0,0:0:0:0:
256,192,263122,1,8,0:0:0:0:
256,192,263268,2,0,L|96:160,3,140
256,192,264446,5,4,0:0:0:0:
256,192,264740,1,0,0:0:0:0:
256,192,264887,1,0,0:0:0:0:
256,192,264960,1,0,0:0:0:0:
256,192,265034,1,8,0:0:0:0:
256,192,265181,1,8,0:0:0:0:
256,192,265328,1,0,0:0:0:0:
256,192,265475,1,8,0:0:0:0:
256,192,265769,1,8,0:0:0:0:
256,192,265916,1,8,0:0:0:0:
256,192,266063,1,0,0:0:0:0:
256,192,266137,1,0,0:0:0:0:
256,192,266210,1,8,0:0:0:0:
256,192,266357,1,8,0:0:0:0:
256,192,266504,1,0,0:0:0:0:
256,192,266799,1,0,0:0:0:0:
256,192,267093,1,0,0:0:0:0:
256,192,267240,1,0,0:0:0:0:
256,192,267387,1,8,0:0:0:0:
256,192,267534,1,8,0:0:0:0:
256,192,267607,1,8,0:0:0:0:
256,192,267681,1,0,0:0:0:0:
256,192,267828,1,0,0:0:0:0:
256,192,268122,1,0,0:0:0:0:
256,192,268269,1,8,0:0:0:0:
256,192,268563,1,8,0:0:0:0:
256,192,268857,1,0,0:0:0:0:
256,192,269151,1,0,0:0:0:0:
256,192,269446,1,0,0:0:0:0:
256,192,269593,1,0,0:0:0:0:
256,192,269666,1,0,0:0:0:0:
256,192,269740,1,8,0:0:0:0:
256,192,269887,1,8,0:0:0:0:
256,192,270034,1,0,0:0:0:0:
256,192,270181,1,8,0:0:0:0:
256,192,270475,1,8,0:0:0:0:
256,192,270622,1,8,0:0:0:0:
256,192,270769,1,0,0:0:0:0:
256,192,270843,1,0,0:0:0:0:
256,192,270916,1,8,0:0:0:0:
256,192,271063,1,8,0:0:0:0:
256,192,271210,1,0,0:0:0:0:
256,192,271504,1,0,0:0:0:0:
256,192,271799,1,0,0:0:0:0:
256,192,271946,1,0,0:0:0:0:
256,192,272093,1,8,0:0:0:0:
256,192,272240,1,8,0:0:0:0:
256,192,272313,1,8,0:0:0:0:
256,192,272387,1,0,0:0:0:0:
256,192,272534,1,8,0:0:0:0:
256,192,272681,1,8,0:0:0:0:
256,192,272828,1,0,0:0:0:0:
256,192,272901,1,0,0:0:0:0:
256,192,272975,1,0,0:0:0:0:
256,192,273122,1,8,0:0:0:0:
256,192,273269,1,8,0:0:0:0:
256,192,273416,1,0,0:0:0:0:
256,192,273490,1,0,0:0:0:0:
256,192,273563,1,8,0:0:0:0:
256,192,273710,1,0,0:0:0:0:
256,192,273857,1,0,0:0:0:0:
256,192,274151,1,0,0:0:0:0:
256,192,274299,1,0,0:0:0:0:
256,192,274372,1,0,0:0:0:0:
256,192,274445,1,8,0:0:0:0:
256,192,274592,1,8,0:0:0:0:
256,192,274739,1,0,0:0:0:0:
256,192,274886,1,8,0:0:0:0:
256,192,274960,1,8,0:0:0:0:
256,192,275034,1,0,0:0:0:0:
256,192,275180,1,8,0:0:0:0:
256,192,275327,1,8,0:0:0:0:
256,192,275474,1,0,0:0:0:0:
256,192,275549,1,0,0:0:0:0:
256,192,275621,1,8,0:0:0:0:
256,192,275768,1,8,0:0:0:0:
256,192,275915,1,0,0:0:0:0:
256,192,276210,1,0,0:0:0:0:
256,192,276504,1,0,0:0:0:0:
256,192,276651,1,0,0:0:0:0:
256,192,276798,1,8,0:0:0:0:
256,192,276945,1,8,0:0:0:0:
256,192,277019,1,8,0:0:0:0:
256,192,277092,1,0,0:0:0:0:
256,192,277239,1,0,0:0:0:0:
256,192,277533,1,0,0:0:0:0:
256,192,277680,1,8,0:0:0:0:
256,192,277974,1,8,0:0:0:0:
256,192,278268,1,0,0:0:0:0:
256,192,278562,1,0,0:0:0:0:
256,192,278857,1,0,0:0:0:0:
256,192,279004,1,0,0:0:0:0:
256,192,279078,1,0,0:0:0:0:
256,192,279151,1,8,0:0:0:0:
256,192,279298,1,8,0:0:0:0:
256,192,279445,1,0,0:0:0:0:
256,192,279592,1,8,0:0:0:0:
256,192,279666,1,8,0:0:0:0:
256,192,279740,1,0,0:0:0:0:
256,192,279886,1,8,0:0:0:0:
256,192,280033,1,8,0:0:0:0:
256,192,280180,1,0,0:0:0:0:
256,192,280254,1,0,0:0:0:0:
256,192,280327,1,8,0:0:0:0:
256,192,280474,1,8,0:0:0:0:
256,192,280621,1,0,0:0:0:0:
256,192,280915,1,12,0:0:0:0:
256,192,281406,1,8,0:0:0:0:
256,192,281700,1,0,0:0:0:0:
256,192,281798,1,8,0:0:0:0:
256,192,281994,1,8,0:0:0:0:
256,192,282092,1,0,0:0:0:0:
256,192,282387,1,8,0:0:0:0:
256,192,282681,1,0,0:0:0:0:
256,192,282828,1,8,0:0:0:0:
256,192,282975,1,0,0:0:0:0:
256,192,283269,1,4,0:0:0:0:
256,192,283563,1,0,0:0:0:0:
256,192,283857,1,8,0:0:0:0:
256,192,284053,1,0,0:0:0:0:
256,192,284151,1,8,0:0:0:0:
256,200,284348,1,0,0:0:0:0:
256,192,284446,1,8,0:0:0:0:
256,192,284642,1,8,0:0:0:0:
256,192,284936,1,8,0:0:0:0:
256,192,285230,1,0,0:0:0:0:
256,192,285328,1,8,0:0:0:0:
256,192,285622,1,8,0:0:0:0:
256,192,285916,1,0,0:0:0:0:
256,192,286210,1,8,0:0:0:0:
248,192,286406,1,0,0:0:0:0:
256,192,286504,1,8,0:0:0:0:
256,192,286700,1,0,0:0:0:0:
256,192,286799,1,8,0:0:0:0:
256,192,286995,1,8,0:0:0:0:
256,192,287289,1,8,0:0:0:0:
256,192,287583,1,0,0:0:0:0:
256,192,287681,1,8,0:0:0:0:
256,192,287975,1,8,0:0:0:0:
256,192,288269,1,0,0:0:0:0:
256,192,288563,1,8,0:0:0:0:
260,184,288759,1,0,0:0:0:0:
256,192,288857,1,8,0:0:0:0:
256,192,289053,1,0,0:0:0:0:
256,192,289151,1,8,0:0:0:0:
256,192,289348,1,0,0:0:0:0:
256,192,289642,1,8,0:0:0:0:
256,192,289936,1,0,0:0:0:0:
256,192,290034,1,8,0:0:0:0:
256,192,290230,1,8,0:0:0:0:
256,192,290328,1,8,0:0:0:0:
256,192,290622,1,0,0:0:0:0:
256,192,290916,1,8,0:0:0:0:
256,196,291112,1,0,0:0:0:0:
256,196,291210,1,8,0:0:0:0:
256,192,291406,1,0,0:0:0:0:
256,192,291504,1,0,0:0:0:0:
256,192,291799,1,0,0:0:0:0:
256,192,292093,1,8,0:0:0:0:
256,192,292289,1,8,0:0:0:0:
248,192,292387,1,0,0:0:0:0:
256,192,292583,1,0,0:0:0:0:
256,192,292681,1,0,0:0:0:0:
256,196,292877,1,0,0:0:0:0:
256,196,292975,1,8,0:0:0:0:
248,192,293171,1,8,0:0:0:0:
244,200,293465,1,8,0:0:0:0:
248,196,293759,1,0,0:0:0:0:
248,196,293857,1,8,0:0:0:0:
256,192,294053,1,8,0:0:0:0:
248,192,294151,1,0,0:0:0:0:
248,200,294446,1,8,0:0:0:0:
240,196,294740,1,8,0:0:0:0:
244,200,295034,1,0,0:0:0:0:
240,196,295328,1,0,0:0:0:0:
240,200,295622,1,8,0:0:0:0:
240,192,295818,1,0,0:0:0:0:
240,192,295916,1,8,0:0:0:0:
236,192,296014,1,0,0:0:0:0:
236,192,296112,1,0,0:0:0:0:
236,192,296210,1,8,0:0:0:0:
240,196,296504,1,0,0:0:0:0:
244,200,296799,1,8,0:0:0:0:
240,200,297092,1,0,0:0:0:0:
240,200,297387,1,0,0:0:0:0:
244,200,297681,1,0,0:0:0:0:
240,196,297975,1,8,0:0:0:0:
252,196,298171,1,0,0:0:0:0:
252,196,298269,1,8,0:0:0:0:
252,196,298465,1,0,0:0:0:0:
252,196,298563,1,8,0:0:0:0:
248,196,298857,1,0,0:0:0:0:
252,196,299151,1,0,0:0:0:0:
252,192,299348,1,8,0:0:0:0:
248,192,299642,1,0,0:0:0:0:
248,192,299740,1,8,0:0:0:0:
252,196,300034,1,0,0:0:0:0:
252,196,300328,1,8,0:0:0:0:
248,196,300524,1,0,0:0:0:0:
248,196,300622,1,8,0:0:0:0:
252,196,300818,1,8,0:0:0:0:
252,196,300916,1,0,0:0:0:0:
256,200,301210,1,0,0:0:0:0:
248,200,301504,5,8,0:0:0:0:
248,200,301602,1,8,0:0:0:0:
248,200,301700,1,0,0:0:0:0:
248,200,301799,1,0,0:0:0:0:
256,192,302093,5,12,0:0:0:0:
256,192,302387,1,0,0:0:0:0:
256,192,302583,1,0,0:0:0:0:
256,192,302681,1,8,0:0:0:0:
256,192,302877,1,0,0:0:0:0:
256,192,302974,1,0,0:0:0:0:
256,192,303170,1,8,0:0:0:0:
256,192,303268,1,0,0:0:0:0:
256,192,303466,1,8,0:0:0:0:
256,192,303760,1,8,0:0:0:0:
256,192,304054,1,0,0:0:0:0:
256,192,304152,1,8,0:0:0:0:
256,192,304348,1,8,0:0:0:0:
256,192,304446,1,0,0:0:0:0:
256,192,304740,1,0,0:0:0:0:
256,192,305034,1,8,0:0:0:0:
256,192,305230,1,0,0:0:0:0:
256,192,305328,1,0,0:0:0:0:
256,192,305523,1,0,0:0:0:0:
256,192,305621,1,8,0:0:0:0:
256,192,305817,1,0,0:0:0:0:
256,192,306113,1,0,0:0:0:0:
256,192,306210,1,8,0:0:0:0:
256,192,306407,1,8,0:0:0:0:
256,192,306504,1,0,0:0:0:0:
256,192,306701,1,0,0:0:0:0:
256,192,306799,1,8,0:0:0:0:
256,192,307093,1,0,0:0:0:0:
256,192,307386,1,8,0:0:0:0:
256,192,307583,1,8,0:0:0:0:
256,192,307681,1,0,0:0:0:0:
256,192,307877,1,0,0:0:0:0:
256,192,307974,1,8,0:0:0:0:
256,192,308170,1,0,0:0:0:0:
256,192,308269,1,0,0:0:0:0:
256,192,308466,1,0,0:0:0:0:
256,192,308563,1,8,0:0:0:0:
256,192,308760,1,8,0:0:0:0:
256,192,308858,1,8,0:0:0:0:
256,192,309054,1,0,0:0:0:0:
256,192,309152,1,8,0:0:0:0:
256,192,309446,1,0,0:0:0:0:
256,192,309740,1,8,0:0:0:0:
256,192,309936,1,0,0:0:0:0:
256,192,310034,1,8,0:0:0:0:
256,192,310230,1,0,0:0:0:0:
256,192,310327,1,8,0:0:0:0:
256,192,310621,1,0,0:0:0:0:
256,192,310818,1,0,0:0:0:0:
256,192,310917,1,8,0:0:0:0:
256,192,311014,1,0,0:0:0:0:
256,192,311112,1,0,0:0:0:0:
256,192,311211,1,8,0:0:0:0:
256,192,311308,1,0,0:0:0:0:
256,192,311407,1,8,0:0:0:0:
256,192,311505,1,0,0:0:0:0:
256,192,311701,1,0,0:0:0:0:
256,192,311799,1,8,0:0:0:0:
256,192,311995,1,8,0:0:0:0:
256,192,312289,1,8,0:0:0:0:
256,192,312583,1,0,0:0:0:0:
256,192,312681,1,8,0:0:0:0:
256,192,312877,1,8,0:0:0:0:
256,192,312974,1,0,0:0:0:0:
256,192,313268,1,8,0:0:0:0:
256,192,313465,1,0,0:0:0:0:
256,192,313564,1,8,0:0:0:0:
256,192,313858,1,8,0:0:0:0:
256,192,314054,1,8,0:0:0:0:
256,192,314152,1,0,0:0:0:0:
256,192,314348,1,0,0:0:0:0:
256,192,314446,1,8,0:0:0:0:
256,192,314642,1,0,0:0:0:0:
256,192,314740,1,8,0:0:0:0:
256,192,314838,1,0,0:0:0:0:
256,192,314936,1,0,0:0:0:0:
256,192,315034,1,8,0:0:0:0:
256,192,315328,1,0,0:0:0:0:
256,192,315621,1,8,0:0:0:0:
256,192,315818,1,8,0:0:0:0:
256,192,315916,1,0,0:0:0:0:
256,192,316112,1,0,0:0:0:0:
256,192,316211,1,8,0:0:0:0:
256,192,316505,1,8,0:0:0:0:
256,192,316701,1,0,0:0:0:0:
256,192,316799,1,0,0:0:0:0:
256,192,316995,1,0,0:0:0:0:
256,192,317093,1,8,0:0:0:0:
256,192,317289,1,0,0:0:0:0:
256,192,317387,1,8,0:0:0:0:
256,192,317681,1,0,0:0:0:0:
256,192,317974,1,8,0:0:0:0:
256,192,318170,1,0,0:0:0:0:
256,192,318466,1,0,0:0:0:0:
256,192,318564,1,8,0:0:0:0:
256,192,319347,1,0,0:0:0:0:
256,192,319445,1,8,0:0:0:0:
256,196,319641,1,8,0:0:0:0:
256,192,319740,1,0,0:0:0:0:
256,192,320034,1,0,0:0:0:0:
256,192,320328,1,0,0:0:0:0:
256,192,320426,1,8,0:0:0:0:
256,192,320524,1,8,0:0:0:0:
256,192,320622,1,8,0:0:0:0:
256,192,320916,5,4,0:0:0:0:
256,192,321504,1,8,0:0:0:0:
256,192,321651,1,8,0:0:0:0:
256,192,321799,1,8,0:0:0:0:
256,192,321946,1,0,0:0:0:0:
256,192,322240,1,0,0:0:0:0:
256,192,322387,1,8,0:0:0:0:
256,192,322681,1,8,0:0:0:0:
256,192,323269,1,0,0:0:0:0:
256,192,323857,1,8,0:0:0:0:
256,192,324004,1,0,0:0:0:0:
256,192,324151,1,8,0:0:0:0:
256,192,324299,1,0,0:0:0:0:
256,192,324593,1,0,0:0:0:0:
256,192,324740,1,8,0:0:0:0:
256,192,325034,1,0,0:0:0:0:
256,192,325107,1,8,0:0:0:0:
256,192,325180,1,8,0:0:0:0:
256,192,325254,1,8,0:0:0:0:
256,192,325328,1,0,0:0:0:0:
256,192,325622,1,0,0:0:0:0:
256,192,326210,1,8,0:0:0:0:
256,192,326357,1,8,0:0:0:0:
256,192,326504,1,8,0:0:0:0:
256,192,326651,1,0,0:0:0:0:
256,192,326946,1,0,0:0:0:0:
256,192,327093,1,8,0:0:0:0:
256,192,327387,1,8,0:0:0:0:
256,192,327975,1,0,0:0:0:0:
256,192,328563,1,8,0:0:0:0:
256,192,328710,1,0,0:0:0:0:
256,192,328857,1,8,0:0:0:0:
256,192,329004,1,0,0:0:0:0:
256,192,329299,1,0,0:0:0:0:
256,192,329446,1,8,0:0:0:0:
256,192,329740,1,8,0:0:0:0:
256,192,330034,1,8,0:0:0:0:
256,192,330328,1,4,0:0:0:0:
256,192,330622,1,0,0:0:0:0:
256,192,330916,1,8,0:0:0:0:
256,192,331063,1,8,0:0:0:0:
256,192,331210,1,0,0:0:0:0:
256,192,331357,1,8,0:0:0:0:
256,192,331504,1,0,0:0:0:0:
256,192,331799,1,0,0:0:0:0:
256,192,332093,1,8,0:0:0:0:
256,192,332681,1,0,0:0:0:0:
256,192,332975,1,0,0:0:0:0:
256,192,333269,1,8,0:0:0:0:
256,192,333416,1,0,0:0:0:0:
256,192,333563,1,8,0:0:0:0:
256,192,333710,1,8,0:0:0:0:
256,192,333857,1,0,0:0:0:0:
256,192,334151,1,0,0:0:0:0:
256,192,334446,1,8,0:0:0:0:
256,192,334518,1,8,0:0:0:0:
256,192,334592,1,8,0:0:0:0:
256,192,334666,1,8,0:0:0:0:
256,192,334740,1,0,0:0:0:0:
256,192,335034,1,8,0:0:0:0:
256,192,335181,1,0,0:0:0:0:
256,192,335328,1,0,0:0:0:0:
256,192,335475,1,0,0:0:0:0:
256,192,335622,1,8,0:0:0:0:
256,192,335696,1,8,0:0:0:0:
256,192,335769,1,0,0:0:0:0:
256,192,335916,1,8,0:0:0:0:
256,192,336063,1,0,0:0:0:0:
256,192,336210,1,8,0:0:0:0:
256,192,336357,1,0,0:0:0:0:
256,192,336504,1,0,0:0:0:0:
256,192,336651,1,0,0:0:0:0:
256,192,336799,1,8,0:0:0:0:
256,192,336872,1,8,0:0:0:0:
256,192,336946,1,0,0:0:0:0:
256,192,337093,1,8,0:0:0:0:
256,192,337240,1,0,0:0:0:0:
256,192,337387,1,8,0:0:0:0:
256,192,337460,1,8,0:0:0:0:
256,192,337534,1,0,0:0:0:0:
256,192,337607,1,0,0:0:0:0:
256,192,337681,1,8,0:0:0:0:
256,192,337754,1,8,0:0:0:0:
256,192,337828,1,0,0:0:0:0:
256,192,337901,1,0,0:0:0:0:
256,192,337975,1,8,0:0:0:0:
256,192,338049,1,8,0:0:0:0:
256,192,338122,1,8,0:0:0:0:
256,192,338196,1,8,0:0:0:0:
256,192,338269,1,0,0:0:0:0:
256,192,338343,1,0,0:0:0:0:
256,192,338416,1,0,0:0:0:0:
256,192,338490,1,0,0:0:0:0:
256,192,338563,1,8,0:0:0:0:
256,192,338857,1,0,0:0:0:0:
256,192,339151,1,8,0:0:0:0:
256,192,339446,1,8,0:0:0:0:
256,192,339740,1,4,0:0:0:0:
