osu file format v14

[General]
AudioFilename: audio.mp3
AudioLeadIn: 0
PreviewTime: 77752
Countdown: 1
SampleSet: Soft
StackLeniency: 0.1
Mode: 0
LetterboxInBreaks: 0
WidescreenStoryboard: 0

[Editor]
Bookmarks: 17752,26324,34895,43467,52038,60610,77752,94895,112038
DistanceSpacing: 1.4
BeatDivisor: 6
GridSize: 4
TimelineZoom: 4.099998

[Metadata]
Title:Issen
TitleUnicode:Issen
Artist:tanso a.k.a. Moriya Masato
ArtistUnicode:tanso a.k.a. Moriya Masato
Creator:Sinch
Version:nitachi
Source:SOUND VOLTEX III GRAVITY WARS
Tags:sdvx glitch hop touhou
BeatmapID:1123182
BeatmapSetID:529730

[Difficulty]
HPDrainRate:7
CircleSize:3.8
OverallDifficulty:8
ApproachRate:9
SliderMultiplier:1.8
SliderTickRate:1

[Events]
//Background and Video events
0,0,"1522.jpg",0,0
//Break Periods
//Storyboard Layer 0 (Background)
//Storyboard Layer 1 (Fail)
//Storyboard Layer 2 (Pass)
//Storyboard Layer 3 (Foreground)
//Storyboard Sound Samples

[TimingPoints]
610,535.714285714286,4,2,24,70,1,0
7574,-90.9090909090909,4,2,24,70,0,0
8110,-83.3333333333333,4,2,24,70,0,0
8645,-76.9230769230769,4,2,24,70,0,0
9181,-100,4,2,24,70,0,0
17752,-62.5,4,2,24,70,0,0
17953,-62.5,4,2,24,5,0,0
18020,-62.5,4,2,24,70,0,0
18221,-62.5,4,2,24,5,0,0
18288,-62.5,4,2,24,70,0,0
18757,-62.5,4,2,24,5,0,0
18824,-76.9230769230769,4,2,24,70,0,0
19360,-50,4,2,24,70,0,0
19828,-50,4,2,24,5,0,0
19895,-62.5,4,2,24,70,0,0
20096,-62.5,4,2,24,5,0,0
20163,-62.5,4,2,24,70,0,0
20364,-62.5,4,2,24,5,0,0
20431,-62.5,4,2,24,70,0,0
20967,-76.9230769230769,4,2,24,70,0,0
22038,-62.5,4,2,24,70,0,0
22239,-62.5,4,2,24,5,0,0
22306,-62.5,4,2,24,70,0,0
22507,-62.5,4,2,24,5,0,0
22574,-62.5,4,2,24,70,0,0
23043,-62.5,4,2,24,5,0,0
23110,-76.9230769230769,4,2,24,70,0,0
23645,-50,4,2,24,70,0,0
24114,-50,4,2,24,5,0,0
24181,-62.5,4,2,24,70,0,0
24382,-62.5,4,2,24,5,0,0
24449,-62.5,4,2,24,70,0,0
24650,-62.5,4,2,24,5,0,0
24717,-62.5,4,2,24,70,0,0
25185,-62.5,4,2,24,5,0,0
25252,-62.5,4,2,24,70,0,0
26525,-62.5,4,2,24,5,0,0
26592,-62.5,4,2,24,70,0,0
26793,-62.5,4,2,24,5,0,0
26860,-62.5,4,2,24,70,0,0
27328,-62.5,4,2,24,5,0,0
27395,-76.9230769230769,4,2,24,70,0,0
27931,-76.9230769230769,4,2,24,50,0,0
28400,-76.9230769230769,4,2,24,5,0,0
28467,-62.5,4,2,24,70,0,0
28668,-62.5,4,2,24,5,0,0
28735,-62.5,4,2,24,70,0,0
28935,-62.5,4,2,24,5,0,0
29002,-62.5,4,2,24,70,0,0
29471,-62.5,4,2,24,5,0,0
29538,-76.9230769230769,4,2,24,70,0,0
30610,-62.5,4,2,24,70,0,0
30810,-62.5,4,2,24,5,0,0
30877,-62.5,4,2,24,70,0,0
31078,-62.5,4,2,24,5,0,0
31145,-62.5,4,2,24,70,0,0
31614,-62.5,4,2,24,5,0,0
31681,-76.9230769230769,4,2,24,70,0,0
32217,-76.9230769230769,4,2,24,50,0,0
32685,-76.9230769230769,4,2,24,5,0,0
32752,-62.5,4,2,24,70,0,0
32953,-62.5,4,2,24,5,0,0
33020,-62.5,4,2,24,70,0,0
33221,-62.5,4,2,24,5,0,0
33288,-62.5,4,2,24,70,0,0
33757,-62.5,4,2,24,5,0,0
33824,-62.5,4,2,24,70,0,0
34895,-83.3333333333333,4,2,0,70,0,0
60610,-62.5,4,2,24,70,0,0
60810,-62.5,4,2,24,5,0,0
60877,-62.5,4,2,24,70,0,0
61078,-62.5,4,2,24,5,0,0
61145,-62.5,4,2,24,70,0,0
61614,-62.5,4,2,24,5,0,0
61681,-76.9230769230769,4,2,24,70,0,0
62217,-50,4,2,24,70,0,0
62685,-50,4,2,24,5,0,0
62752,-62.5,4,2,24,70,0,0
62953,-62.5,4,2,24,5,0,0
63020,-62.5,4,2,24,70,0,0
63221,-62.5,4,2,24,5,0,0
63288,-62.5,4,2,24,70,0,0
63757,-62.5,4,2,24,5,0,0
63824,-76.9230769230769,4,2,24,70,0,0
64895,-62.5,4,2,24,70,0,0
65096,-62.5,4,2,24,5,0,0
65163,-62.5,4,2,24,70,0,0
65364,-62.5,4,2,24,5,0,0
65431,-62.5,4,2,24,70,0,0
65900,-62.5,4,2,24,5,0,0
65967,-76.9230769230769,4,2,24,70,0,0
66502,-76.9230769230769,4,2,24,50,0,0
66971,-76.9230769230769,4,2,24,5,0,0
67038,-62.5,4,2,24,70,0,0
67239,-62.5,4,2,24,5,0,0
67306,-62.5,4,2,24,70,0,0
67507,-62.5,4,2,24,5,0,0
67574,-62.5,4,2,24,70,0,0
68043,-62.5,4,2,24,5,0,0
68110,-62.5,4,2,24,70,0,0
69181,-125,4,2,24,50,0,0
69382,-125,4,2,24,5,0,0
69449,-76.9230769230769,4,2,24,60,0,0
69650,-76.9230769230769,4,2,24,5,0,0
69717,-50,4,2,24,70,0,0
70185,-50,4,2,24,5,0,0
70252,-76.9230769230769,4,2,24,70,0,0
70788,-50,4,2,24,70,0,0
71257,-50,4,2,24,5,0,0
71324,-62.5,4,2,24,70,0,0
71525,-62.5,4,2,24,5,0,0
71592,-62.5,4,2,24,70,0,0
71793,-62.5,4,2,24,5,0,0
71860,-62.5,4,2,24,70,0,0
72328,-62.5,4,2,24,5,0,0
72395,-76.9230769230769,4,2,24,70,0,0
73467,-62.5,4,2,24,70,0,0
73668,-62.5,4,2,24,5,0,0
73735,-62.5,4,2,24,70,0,0
73935,-62.5,4,2,24,5,0,0
74002,-62.5,4,2,24,70,0,0
74471,-62.5,4,2,24,5,0,0
74538,-76.9230769230769,4,2,24,70,0,0
75074,-76.9230769230769,4,2,24,50,0,0
75543,-76.9230769230769,4,2,24,5,0,0
75610,-62.5,4,2,24,70,0,0
75810,-62.5,4,2,24,5,0,0
75877,-62.5,4,2,24,70,0,0
76078,-62.5,4,2,24,5,0,0
76145,-62.5,4,2,24,70,0,0
76614,-62.5,4,2,24,5,0,0
76681,-62.5,4,2,24,70,0,0
77752,-66.6666666666667,4,2,24,70,0,0
85252,-50,4,2,24,70,0,0
85788,-66.6666666666667,4,2,24,70,0,0
93824,-50,4,2,24,70,0,0
94360,-66.6666666666667,4,2,24,70,0,0

[HitObjects]
96,92,610,6,0,L|185:98,1,90,6|0,0:0|0:0,0:0:0:0:
280,204,1145,2,0,L|190:197,1,90,8|0,0:0|0:0,0:0:0:0:
408,156,1681,1,2,0:0:0:0:
304,68,1949,5,0,0:0:0:0:
408,156,2127,1,2,0:0:0:0:
408,156,2217,2,0,P|412:185|406:214,1,60,8|0,0:0|0:0,0:0:0:0:
396,236,2485,1,0,0:0:0:0:
284,324,2663,5,0,0:0:0:0:
284,324,2752,2,0,L|194:336,1,90,2|0,0:0|0:0,0:0:0:0:
80,256,3288,2,0,L|169:243,1,90,8|0,0:0|0:0,0:0:0:0:
248,156,3735,5,2,0:0:0:0:
248,156,3824,1,2,0:0:0:0:
228,52,4002,1,8,0:0:0:0:
228,52,4092,1,2,0:0:0:0:
124,72,4270,1,2,0:0:0:0:
124,72,4360,1,8,0:0:0:0:
144,176,4628,5,8,0:0:0:0:
248,156,4806,1,2,0:0:0:0:
248,156,4895,2,0,L|337:149,1,90,2|0,0:0|0:0,0:0:0:0:
348,256,5431,2,0,L|258:262,1,90,8|0,0:0|0:0,0:0:0:0:
368,96,5967,1,2,0:0:0:0:
444,188,6235,5,0,0:0:0:0:
368,96,6413,1,2,0:0:0:0:
368,96,6502,2,0,L|288:104,1,60,8|0,0:0|0:0,0:0:0:0:
284,104,6770,1,0,0:0:0:0:
140,40,6949,5,0,0:0:0:0:
140,40,7038,2,0,L|128:129,1,90,2|0,0:0|0:0,0:0:0:0:
120,64,7574,6,0,L|108:162,1,99.0000030212403,8|0,0:0|0:0,0:0:0:0:
100,88,8110,6,0,L|88:195,1,107.999996704102,2|8,0:0|0:0,0:0:0:0:
80,112,8645,6,0,L|64:227,1,116.999994644165,8|8,0:0|0:0,0:0:0:0:
208,308,9092,5,8,0:0:0:0:
208,308,9181,2,0,L|120:288,1,90,2|0,0:0|0:0,0:0:0:0:
236,188,9717,2,0,L|323:207,1,90,10|0,0:0|0:0,0:0:0:0:
444,156,10252,1,2,0:0:0:0:
420,280,10520,5,0,0:0:0:0:
444,156,10699,1,2,0:0:0:0:
444,156,10788,2,0,L|419:101,1,60,8|0,0:0|0:0,0:0:0:0:
408,80,11056,1,0,0:0:0:0:
272,36,11235,5,0,0:0:0:0:
272,36,11324,2,0,L|197:86,1,90,2|0,0:0|0:0,0:0:0:0:
200,196,11860,2,0,L|281:235,1,90,8|0,0:0|0:0,0:0:0:0:
264,340,12395,5,2,0:0:0:0:
364,364,12574,1,8,0:0:0:0:
380,339,12663,2,0,P|390:311|391:282,1,60,2|2,0:0|0:0,0:0:0:0:
388,252,12931,1,8,0:0:0:0:
456,156,13110,1,8,0:0:0:0:
456,156,13199,2,0,L|396:153,1,60,2|2,0:0|0:0,0:0:0:0:
364,152,13467,5,2,0:0:0:0:
264,60,13735,1,0,0:0:0:0:
208,184,14002,1,8,0:0:0:0:
284,156,14270,5,0,0:0:0:0:
169,82,14538,1,6,0:0:0:0:
135,214,14805,1,0,0:0:0:0:
250,288,15074,1,8,0:0:0:0:
250,288,15342,1,0,0:0:0:0:
240,200,15610,5,4,0:0:0:0:
336,148,15877,1,0,0:0:0:0:
428,204,16145,1,0,0:0:0:0:
292,56,16413,1,0,0:0:0:0:
336,148,16592,5,2,0:0:0:0:
336,148,16681,2,0,B|347:175|347:175|343:204,1,60,2|8,0:0|0:0,0:0:0:0:
264,248,16949,2,0,B|252:220|252:220|256:191,1,60,2|2,0:0|0:0,0:0:0:0:
344,296,17217,1,12,0:0:0:0:
232,348,17395,1,8,0:0:0:0:
204,336,17485,2,0,L|144:330,1,60,6|2,0:0|0:0,0:0:0:0:
136,224,17752,6,0,B|168:216|168:216|180:232|192:204|204:220|204:220|236:210,1,108,6|0,0:0|0:0,0:0:0:0:
164,56,18020,2,0,B|132:64|132:64|120:48|108:76|96:60|96:60|63:69,1,108
156,140,18288,5,8,0:0:0:0:
184,136,18377,1,0,0:0:0:0:
212,132,18467,1,0,0:0:0:0:
236,128,18556,2,0,B|262:105|262:105|298:137|328:117,1,108
335,43,18824,6,0,P|342:80|328:116,1,77.9999964294435,2|0,0:0|0:0,0:0:0:0:
321,190,19092,2,0,P|313:152|327:116,1,77.9999964294435
440,124,19360,6,0,B|456:153|456:153|433:163|433:163|448:184|448:184|425:194|425:194|440:215|440:215|416:225|416:225|432:246|432:246|408:256|408:256|423:277|423:277|400:287|400:287|414:311|414:311|376:324,1,315,8|0,0:0|0:0,0:0:0:0:
320,244,19895,6,0,B|296:240|296:240|276:260|264:248|240:264|240:264|218:259,1,108,2|0,0:0|0:0,0:0:0:0:
100,188,20163,2,0,B|124:192|124:192|144:172|156:184|180:168|180:168|201:172,1,108
220,260,20431,5,8,0:0:0:0:
220,288,20520,1,0,0:0:0:0:
220,316,20610,1,0,0:0:0:0:
220,344,20699,2,0,B|260:352|260:352|296:336|296:336|323:340,1,108
397,345,20967,6,0,P|360:332|322:340,1,77.9999964294435,2|8,0:0|0:0,0:0:0:0:
322,340,21235,2,0,L|320:262,1,77.9999964294435,2|2,0:0|0:0,0:0:0:0:
320,164,21502,5,8,0:0:0:0:
448,164,21681,1,0,0:0:0:0:
448,164,21770,1,0,0:0:0:0:
320,164,21949,1,0,0:0:0:0:
320,164,22038,6,0,B|296:180|296:180|288:152|240:176|232:168|232:168|224:176,1,108,2|0,0:0|0:0,0:0:0:0:
156,316,22306,2,0,B|180:300|180:300|188:328|236:304|244:312|244:312|252:304,1,108
272,220,22574,5,8,0:0:0:0:
236,212,22663,1,0,0:0:0:0:
200,228,22752,1,0,0:0:0:0:
176,256,22842,2,0,B|160:224|160:224|168:184|157:152,1,108
100,76,23110,6,0,P|134:58|173:56,1,77.9999964294435,2|0,0:0|0:0,0:0:0:0:
230,133,23377,2,0,P|195:150|156:152,1,77.9999964294435
280,48,23645,6,0,B|308:52|324:32|324:32|344:52|372:40|372:40|384:64|416:64|416:64|416:96|444:108|444:108|424:136|448:160|448:160|416:196|440:228,1,315,8|0,0:0|0:0,0:0:0:0:
376,288,24181,6,0,B|332:279|348:295|348:295|313:288|286:295|286:295|286:298,1,108,2|0,0:0|0:0,0:0:0:0:
197,309,24449,2,0,B|240:317|224:301|224:301|259:308|286:301|286:301|286:298,1,108
272,208,24717,5,8,0:0:0:0:
268,168,24806,1,0,0:0:0:0:
264,128,24895,1,0,0:0:0:0:
260,88,24985,2,0,B|216:96|188:64|188:64|160:70,1,108
88,96,25252,5,2,0:0:0:0:
108,224,25431,1,8,0:0:0:0:
108,224,25520,1,2,0:0:0:0:
88,96,25699,1,2,0:0:0:0:
88,96,25788,1,8,0:0:0:0:
108,224,25967,1,2,0:0:0:0:
108,224,26056,1,8,0:0:0:0:
88,96,26235,1,2,0:0:0:0:
88,96,26324,6,0,B|117:99|117:99|137:79|157:91|177:75|177:75|193:83,1,108,2|0,0:0|0:0,0:0:0:0:
248,228,26592,2,0,B|218:224|218:224|198:244|178:232|158:248|158:248|142:240,1,108
188,156,26860,5,8,0:0:0:0:
216,152,26949,1,0,0:0:0:0:
244,148,27038,1,0,0:0:0:0:
272,144,27127,2,0,B|316:132|348:148|348:148|376:137,1,108
459,107,27395,6,0,P|464:146|452:183,1,77.9999964294435,2|0,0:0|0:0,0:0:0:0:
292,168,27663,2,0,P|287:129|299:92,1,77.9999964294435
376,137,27931,2,0,L|376:152,14,14.6249993305207,8|0|0|0|0|0|0|0|0|0|0|0|0|0|0,0:0|0:0|0:0|0:0|0:0|0:0|0:0|0:0|0:0|0:0|0:0|0:0|0:0|0:0|0:0,0:0:0:0:
376,137,28467,6,0,B|384:166|384:166|368:182|384:202|384:202|368:226|373:237,1,108,2|0,0:0|0:0,0:0:0:0:
268,292,28735,2,0,B|260:263|260:263|276:247|260:227|260:227|276:203|270:191,1,108
352,268,29002,5,8,0:0:0:0:
371,292,29092,1,0,0:0:0:0:
391,316,29181,1,0,0:0:0:0:
363,328,29270,2,0,B|332:337|332:337|291:320|258:338,1,108
186,347,29538,6,0,P|221:331|259:337,1,77.9999964294435,2|8,0:0|0:0,0:0:0:0:
157,274,29806,2,0,L|185:346,1,77.9999964294435,2|2,0:0|0:0,0:0:0:0:
236,264,30074,5,8,0:0:0:0:
80,284,30252,1,0,0:0:0:0:
80,284,30342,1,0,0:0:0:0:
236,264,30520,1,0,0:0:0:0:
236,264,30610,6,0,B|244:248|244:248|232:240|248:192|236:184|236:184|242:161,1,108,6|0,0:0|0:0,0:0:0:0:
124,136,30877,2,0,B|116:152|116:152|128:160|112:208|124:216|124:216|117:238,1,108
236,264,31145,5,8,0:0:0:0:
272,260,31235,1,0,0:0:0:0:
312,256,31324,1,0,0:0:0:0:
348,252,31413,2,0,B|363:225|363:225|339:189|362:152,1,108
384,76,31681,6,0,P|345:71|309:86,1,77.9999964294435,2|0,0:0|0:0,0:0:0:0:
416,212,31949,2,0,P|438:180|443:142,1,77.9999964294435
282,171,32217,2,0,L|288:192,14,14.6249993305207,8|0|0|0|0|0|0|0|0|0|0|0|0|0|0,0:0|0:0|0:0|0:0|0:0|0:0|0:0|0:0|0:0|0:0|0:0|0:0|0:0|0:0|0:0,0:0:0:0:
282,171,32752,6,0,B|260:179|248:160|248:160|224:135|224:135|196:151|184:119,1,108,2|0,0:0|0:0,0:0:0:0:
103,97,33020,2,0,B|124:88|137:108|137:108|160:132|160:132|188:116|200:148,1,108
152,216,33288,5,8,0:0:0:0:
136,252,33377,1,0,0:0:0:0:
120,288,33467,1,0,0:0:0:0:
104,324,33556,2,0,B|140:320|176:340|176:340|208:333,1,108
284,320,33824,5,2,0:0:0:0:
268,208,34003,1,8,0:0:0:0:
240,199,34092,1,2,0:0:0:0:
240,170,34181,1,2,0:0:0:0:
268,161,34271,1,2,0:0:0:0:
284,184,34360,1,12,0:0:0:0:
284,320,34538,1,2,0:0:0:0:
284,319,34627,2,0,P|327:300|375:298,1,96,12|8,0:0|0:0,0:0:0:0:
404,304,34895,5,6,0:0:0:0:
392,268,35431,1,2,0:0:0:0:
408,236,35967,5,2,0:0:0:0:
336,176,36145,1,2,0:0:0:0:
320,180,36235,1,2,0:0:0:0:
240,232,36413,1,2,0:0:0:0:
224,236,36502,2,0,L|153:252,1,71.9999978027344,2|0,0:0|0:0,0:0:0:0:
136,248,36770,2,0,L|67:225,1,71.9999978027344,2|0,0:0|0:0,0:0:0:0:
40,216,37038,5,2,0:0:0:0:
204,360,37485,1,2,0:0:0:0:
204,360,37574,1,2,0:0:0:0:
150,283,37752,1,2,0:0:0:0:
150,283,37842,1,2,0:0:0:0:
206,208,38020,5,2,0:0:0:0:
206,208,38110,1,2,0:0:0:0:
295,239,38288,1,2,0:0:0:0:
295,239,38377,1,2,0:0:0:0:
293,332,38556,1,2,0:0:0:0:
293,332,38645,1,2,0:0:0:0:
228,284,39181,5,2,0:0:0:0:
264,296,39717,1,2,0:0:0:0:
296,280,40252,5,2,0:0:0:0:
388,348,40431,1,2,0:0:0:0:
384,332,40520,1,2,0:0:0:0:
448,248,40699,1,2,0:0:0:0:
443,231,40788,2,0,P|406:194|354:193,1,107.999996704102,2|2,0:0|0:0,0:0:0:0:
396,108,41235,1,2,0:0:0:0:
383,95,41324,2,0,P|334:76|281:85,1,107.999996704102,2|0,0:0|0:0,0:0:0:0:
224,184,41770,5,2,0:0:0:0:
224,184,41860,1,2,0:0:0:0:
88,144,42038,1,2,0:0:0:0:
88,144,42127,1,2,0:0:0:0:
192,44,42306,1,2,0:0:0:0:
192,44,42395,1,2,0:0:0:0:
168,124,42931,5,6,0:0:0:0:
168,123,43467,6,0,P|220:110|273:115,1,107.999996704102,2|0,0:0|0:0,0:0:0:0:
400,176,44002,2,0,P|389:224|339:221,1,107.999996704102,2|0,0:0|0:0,0:0:0:0:
360,48,44538,2,0,P|363:83|348:116,1,71.9999978027344,2|2,0:0|0:0,0:0:0:0:
324,144,44806,2,0,P|320:179|335:212,1,71.9999978027344,2|2,0:0|0:0,0:0:0:0:
360,239,45074,6,0,P|327:281|275:293,1,107.999996704102,2|2,0:0|0:0,0:0:0:0:
276,196,45520,1,2,0:0:0:0:
276,196,45610,1,2,0:0:0:0:
92,328,46056,1,2,0:0:0:0:
92,328,46145,1,2,0:0:0:0:
36,227,46324,1,2,0:0:0:0:
36,227,46413,1,2,0:0:0:0:
114,142,46592,5,2,0:0:0:0:
114,142,46681,1,2,0:0:0:0:
219,191,46860,1,2,0:0:0:0:
219,191,46949,1,2,0:0:0:0:
205,306,47127,1,2,0:0:0:0:
205,306,47217,1,2,0:0:0:0:
132,239,47752,6,0,P|128:186|113:134,1,107.999996704102,2|0,0:0|0:0,0:0:0:0:
200,52,48288,2,0,P|248:75|301:77,1,107.999996704102,2|0,0:0|0:0,0:0:0:0:
232,179,48824,2,0,P|266:185|298:169,1,71.9999978027344,2|2,0:0|0:0,0:0:0:0:
328,148,49092,2,0,P|348:177|359:211,1,71.9999978027344,2|2,0:0|0:0,0:0:0:0:
356,248,49360,6,0,P|381:294|431:310,1,107.999996704102,2|2,0:0|0:0,0:0:0:0:
452,212,49806,1,2,0:0:0:0:
452,212,49895,1,2,0:0:0:0:
304,344,50342,1,2,0:0:0:0:
304,344,50431,1,2,0:0:0:0:
204,332,50610,1,2,0:0:0:0:
204,332,50699,1,2,0:0:0:0:
104,320,50877,5,2,0:0:0:0:
104,320,50967,2,0,L|89:213,1,107.999996704102,2|0,0:0|0:0,0:0:0:0:
180,80,51502,2,0,L|287:69,1,107.999996704102,2|0,0:0|0:0,0:0:0:0:
120,324,52038,6,0,L|105:217,1,107.999996704102,6|0,0:0|0:0,0:0:0:0:
303,73,52573,2,0,L|196:84,1,107.999996704102,2|0,0:0|0:0,0:0:0:0:
136,328,53110,6,0,L|121:221,1,107.999996704102,2|0,0:0|0:0,0:0:0:0:
212,88,53645,2,0,L|319:77,1,107.999996704102,2|0,0:0|0:0,0:0:0:0:
152,332,54181,6,0,L|137:225,1,107.999996704102,2|0,0:0|0:0,0:0:0:0:
335,81,54716,2,0,L|228:92,1,107.999996704102,2|0,0:0|0:0,0:0:0:0:
168,336,55252,6,0,L|153:229,1,107.999996704102,2|0,0:0|0:0,0:0:0:0:
244,96,55787,2,0,L|351:85,1,107.999996704102,2|0,0:0|0:0,0:0:0:0:
228,296,56325,6,0,L|222:242,1,53.9999983520508,2|0,0:0|0:0,0:0:0:0:
356,192,56592,2,0,L|361:245,1,53.9999983520508,2|0,0:0|0:0,0:0:0:0:
192,280,56860,6,0,L|186:226,1,53.9999983520508,2|0,0:0|0:0,0:0:0:0:
320,176,57127,2,0,L|325:229,1,53.9999983520508,2|0,0:0|0:0,0:0:0:0:
156,264,57396,6,0,L|150:210,1,53.9999983520508,2|0,0:0|0:0,0:0:0:0:
284,160,57663,2,0,L|289:213,1,53.9999983520508,2|0,0:0|0:0,0:0:0:0:
120,248,57932,6,0,L|114:194,1,53.9999983520508,2|0,0:0|0:0,0:0:0:0:
248,144,58199,2,0,L|253:197,1,53.9999983520508,2|0,0:0|0:0,0:0:0:0:
84,232,58467,5,2,0:0:0:0:
212,128,58645,1,2,0:0:0:0:
212,128,58735,1,2,0:0:0:0:
172,220,58913,5,2,0:0:0:0:
172,220,59002,1,2,0:0:0:0:
136,60,59181,1,2,0:0:0:0:
136,60,59270,1,2,0:0:0:0:
292,108,59449,1,2,0:0:0:0:
292,108,59538,6,0,L|285:189,1,80.9999975280763,8|0,2:3|0:0,0:0:0:0:
368,172,59806,2,0,L|375:91,1,80.9999975280763,8|0,2:3|0:0,0:0:0:0:
456,80,60074,5,2,0:0:0:0:
464,152,60163,1,2,0:0:0:0:
472,224,60252,1,2,0:0:0:0:
404,196,60342,1,2,0:0:0:0:
464,152,60431,1,2,0:0:0:0:
472,224,60520,1,2,0:0:0:0:
480,296,60610,6,0,B|436:285|436:285|435:271|435:271|388:258,1,108,2|0,0:0|0:0,0:0:0:0:
376,158,60877,2,0,B|387:201|387:201|376:209|376:209|387:256,1,108
296,340,61145,5,8,0:0:0:0:
271,311,61235,2,0,P|249:304|225:303,1,48
88,287,61413,2,0,P|84:336|133:339,1,108
142,210,61681,6,0,L|60:204,1,77.9999964294435,2|0,0:0|0:0,0:0:0:0:
64,204,61949,2,0,L|142:210,1,77.9999964294435
142,210,62217,6,0,B|148:172|132:140|132:140|116:128|116:128|128:108|128:108|104:80|104:80|140:92|140:92|152:76|152:76|168:88|168:88|204:64|249:77,1,315,8|0,0:0|0:0,0:0:0:0:
300,144,62752,6,0,B|296:136|296:136|332:108|320:48|320:48|296:32,1,108,2|0,0:0|0:0,0:0:0:0:
428,48,63020,2,0,B|425:49|425:49|413:109|449:137|449:137|445:145,1,108
372,200,63288,6,0,L|380:248,2,48,8|0|0,0:0|0:0|0:0,0:0:0:0:
440,291,63556,2,0,P|394:319|342:311,1,108
196,352,63824,6,0,P|224:326|262:324,1,77.9999964294435,2|8,0:0|0:0,0:0:0:0:
262,324,64092,2,0,L|269:246,1,77.9999964294435,2|2,0:0|0:0,0:0:0:0:
276,164,64360,5,8,0:0:0:0:
262,324,64538,1,0,0:0:0:0:
262,324,64627,1,0,0:0:0:0:
276,164,64806,1,0,0:0:0:0:
276,164,64895,6,0,B|256:156|256:156|232:152|232:176|204:172|204:172|176:160,1,108,2|0,0:0|0:0,0:0:0:0:
129,71,65163,2,0,B|132:92|132:92|140:115|161:103|171:129|171:129|175:159,1,108
140,236,65431,5,8,0:0:0:0:
104,252,65520,1,0,0:0:0:0:
64,256,65610,1,0,0:0:0:0:
28,248,65699,2,0,P|58:291|57:344,1,108
139,236,65967,6,0,P|178:234|212:252,1,77.9999964294435,2|0,0:0|0:0,0:0:0:0:
212,252,66235,2,0,P|241:227|279:218,1,77.9999964294435
340,292,66502,2,0,L|340:306,14,14.6249993305207,8|0|0|0|0|0|0|0|0|0|0|0|0|0|0,0:0|0:0|0:0|0:0|0:0|0:0|0:0|0:0|0:0|0:0|0:0|0:0|0:0|0:0|0:0,0:0:0:0:
340,292,67038,6,0,B|336:260|336:260|348:260|340:216|340:216|352:216|351:193,1,108,2|0,0:0|0:0,0:0:0:0:
464,144,67306,2,0,B|468:176|468:176|456:176|464:220|464:220|452:220|452:242,1,108
428,332,67574,6,0,L|475:325,2,48,8|0|0,0:0|0:0|0:0,0:0:0:0:
336,340,67842,2,0,B|352:308|332:276|332:276|343:237,1,108
360,148,68110,5,2,0:0:0:0:
216,96,68288,1,8,0:0:0:0:
216,96,68377,1,2,0:0:0:0:
360,148,68556,1,2,0:0:0:0:
360,148,68645,1,8,0:0:0:0:
216,96,68824,1,8,0:0:0:0:
216,96,68913,1,2,0:0:0:0:
360,148,69092,1,2,0:0:0:0:
360,148,69181,6,0,L|306:157,1,54,2|0,0:0|0:0,0:0:0:0:
224,143,69449,6,0,P|257:153|227:170,1,87.749995983124
152,164,69717,6,0,P|266:240|316:112,1,315,8|0,0:0|0:0,0:0:0:0:
240,80,70252,6,0,B|228:120|228:120|243:152,1,77.9999964294435,2|0,0:0|0:0,0:0:0:0:
392,148,70520,2,0,B|404:108|404:108|388:75,1,77.9999964294435
310,41,70788,6,0,B|272:64|284:104|284:104|248:104|264:120|264:120|224:132|216:112|216:112|208:132|176:124|176:124|184:104|152:116|152:116|152:72|113:72,1,315,8|0,0:0|0:0,0:0:0:0:
40,130,71324,6,0,B|40:156|40:156|72:160|56:188|56:188|80:208|69:216,1,108,2|0,0:0|0:0,0:0:0:0:
40,302,71592,2,0,B|40:276|40:276|72:272|56:244|56:244|80:224|69:215,1,108
168,216,71860,5,8,0:0:0:0:
196,216,71949,2,0,P|219:221|238:235,1,48
276,332,72127,2,0,B|296:312|296:312|336:336|336:336|367:327,1,108
452,268,72395,6,0,P|480:236|484:200,1,77.9999964294435,2|8,0:0|0:0,0:0:0:0:
452,135,72663,2,0,P|480:167|484:203,1,77.9999964294435,2|2,0:0|0:0,0:0:0:0:
392,200,72931,5,8,0:0:0:0:
256,284,73110,1,0,0:0:0:0:
256,284,73199,1,0,0:0:0:0:
392,200,73377,1,0,0:0:0:0:
392,200,73467,6,0,B|357:196|357:196|346:216|335:190|324:209|324:209|291:203,1,108,2|0,0:0|0:0,0:0:0:0:
208,72,73735,2,0,B|242:75|242:75|253:55|264:81|275:62|275:62|308:68,1,108
292,160,74002,5,8,0:0:0:0:
256,176,74092,1,0,0:0:0:0:
216,176,74181,1,0,0:0:0:0:
180,159,74270,2,0,P|171:107|137:66,1,108
48,119,74538,6,0,P|47:158|72:186,1,77.9999964294435,2|0,0:0|0:0,0:0:0:0:
72,186,74806,2,0,P|47:158|48:119,1,77.9999964294435
140,124,75074,2,0,L|154:120,14,14.6249993305207,8|0|0|0|0|0|0|0|0|0|0|0|0|0|0,0:0|0:0|0:0|0:0|0:0|0:0|0:0|0:0|0:0|0:0|0:0|0:0|0:0|0:0|0:0,0:0:0:0:
140,124,75610,6,0,B|145:157|145:157|124:168|156:176|140:220|140:220|142:226,1,108,2|0,0:0|0:0,0:0:0:0:
292,228,75877,2,0,B|286:194|286:194|308:184|276:176|292:132|292:132|289:125,1,108
216,160,76145,5,8,0:0:0:0:
216,200,76235,1,0,0:0:0:0:
216,240,76324,1,0,0:0:0:0:
216,280,76413,2,0,B|240:280|268:264|268:264|288:292|310:291,1,108
252,356,76681,5,2,0:0:0:0:
96,312,76860,1,8,0:0:0:0:
96,312,76949,1,2,0:0:0:0:
252,356,77127,1,2,0:0:0:0:
252,356,77217,5,12,0:0:0:0:
196,256,77395,5,12,0:0:0:0:
96,312,77574,5,12,0:0:0:0:
44,200,77752,6,0,L|132:180,1,90.0000034332277,6|0,0:0|0:0,0:0:0:0:
232,84,78020,2,0,P|215:43|173:32,1,90.0000034332277
204,212,78288,2,0,B|236:228|236:228|264:208|304:216|304:216|323:196,1,135.000005149842,8|0,0:0|0:0,0:0:0:0:
472,128,78735,5,0,0:0:0:0:
472,128,78824,1,2,0:0:0:0:
288,28,79002,1,0,0:0:0:0:
268,108,79091,2,0,P|306:130|350:131,1,90.0000034332277
456,64,79360,2,0,B|464:100|440:152|457:198,1,135.000005149842,8|0,0:0|0:0,0:0:0:0:
320,240,79806,5,0,0:0:0:0:
320,240,79895,2,0,B|264:256|264:256|292:270,1,90.0000034332277,2|0,0:0|0:0,0:0:0:0:
428,312,80163,2,0,L|412:223,1,90.0000034332277
312,164,80431,1,8,0:0:0:0:
384,196,80520,1,0,0:0:0:0:
420,124,80610,1,0,0:0:0:0:
452,52,80699,2,0,B|383:59|383:59|399:75,1,90.0000034332277
244,112,80967,6,0,B|312:119|312:119|296:135,1,90.0000034332277,2|8,0:0|0:0,0:0:0:0:
148,88,81235,2,0,B|120:25|120:25|141:30,1,90.0000034332277,2|0,0:0|0:0,0:0:0:0:
176,184,81502,2,0,B|135:239|135:239|129:218,1,90.0000034332277,8|0,0:0|0:0,0:0:0:0:
129,218,81770,1,2,0:0:0:0:
129,218,81949,5,2,0:0:0:0:
129,218,82038,2,0,B|148:264|148:264|187:274,1,90.0000034332277,2|0,0:0|0:0,0:0:0:0:
304,332,82306,2,0,P|260:326|223:351,1,90.0000034332277
104,312,82574,2,0,B|128:216|128:216|162:206,1,135.000005149842,8|0,0:0|0:0,0:0:0:0:
304,332,83020,5,0,0:0:0:0:
304,332,83110,1,2,0:0:0:0:
104,312,83288,1,0,0:0:0:0:
124,232,83377,2,0,B|140:176|140:176|108:171,1,90.0000034332277
20,176,83645,2,0,B|108:176|108:176|119:130,1,135.000005149842,8|0,0:0|0:0,0:0:0:0:
276,56,84092,5,0,0:0:0:0:
276,56,84181,2,0,B|256:118|256:118|241:98,1,90.0000034332277,2|0,0:0|0:0,0:0:0:0:
216,208,84449,2,0,B|235:270|235:270|250:250,1,90.0000034332277
296,348,84717,1,8,0:0:0:0:
376,332,84806,1,0,0:0:0:0:
356,252,84895,1,0,0:0:0:0:
436,236,84985,2,0,B|448:188|448:188|434:149,1,90.0000034332277
280,60,85252,6,0,B|264:64|264:64|260:92|236:108|236:108|236:136|236:136|223:154,1,120,2|8,0:0|0:0,0:0:0:0:
166,248,85520,2,0,B|181:243|181:243|186:216|210:200|210:200|210:172|210:172|222:153,1,120,2|0,0:0|0:0,0:0:0:0:
300,185,85788,6,0,P|266:158|222:153,1,90.0000034332277,8|0,0:0|0:0,0:0:0:0:
143,120,86056,2,0,P|177:147|221:152,1,90.0000034332277,8|8,0:0|0:0,0:0:0:0:
280,60,86324,6,0,B|308:48|308:48|336:68|364:64,1,90.0000034332277,2|0,0:0|0:0,0:0:0:0:
476,168,86592,2,0,L|386:174,1,90.0000034332277
279,303,86860,2,0,P|341:313|364:255,1,135.000005149842,8|0,0:0|0:0,0:0:0:0:
260,168,87306,5,0,0:0:0:0:
260,168,87395,1,2,0:0:0:0:
456,144,87574,1,0,0:0:0:0:
387,188,87663,2,0,P|344:200|300:196,1,90.0000034332277
183,87,87931,2,0,P|199:151|164:207,1,135.000005149842,8|0,0:0|0:0,0:0:0:0:
20,168,88377,5,0,0:0:0:0:
20,168,88467,2,0,L|148:160,1,90.0000034332277,2|0,0:0|0:0,0:0:0:0:
168,272,88735,2,0,L|257:266,1,90.0000034332277
248,100,89002,1,8,0:0:0:0:
328,96,89092,1,0,0:0:0:0:
408,92,89181,1,0,0:0:0:0:
488,88,89270,2,0,L|476:177,1,90.0000034332277
360,316,89538,6,0,B|368:244|368:244|351:251,1,90.0000034332277,2|8,0:0|0:0,0:0:0:0:
360,136,89806,2,0,B|293:165|293:165|307:175,1,90.0000034332277,2|0,0:0|0:0,0:0:0:0:
205,227,90074,2,0,B|263:269|263:269|265:252,1,90.0000034332277,8|0,0:0|0:0,0:0:0:0:
265,252,90342,1,2,0:0:0:0:
265,252,90520,5,2,0:0:0:0:
265,252,90610,2,0,P|252:209|257:165,1,90.0000034332277,2|0,0:0|0:0,0:0:0:0:
308,48,90877,2,0,L|220:68,1,90.0000034332277
76,144,91145,2,0,B|149:116|141:180|204:156,1,135.000005149842,8|0,0:0|0:0,0:0:0:0:
368,104,91592,5,0,0:0:0:0:
368,104,91682,1,2,0:0:0:0:
408,276,91860,1,0,0:0:0:0:
455,211,91949,2,0,P|414:196|371:205,1,90.0000034332277
275,332,92217,2,0,P|297:270|259:218,1,135.000005149842,8|0,0:0|0:0,0:0:0:0:
104,300,92663,5,2,0:0:0:0:
104,300,92752,2,0,P|132:269|170:288,1,90.0000034332277,6|2,0:0|0:0,0:0:0:0:
275,332,93020,2,0,P|295:292|288:248,1,90.0000034332277,2|2,0:0|0:0,0:0:0:0:
192,164,93288,1,12,0:0:0:0:
272,172,93377,1,0,0:0:0:0:
340,128,93467,1,8,0:0:0:0:
356,48,93556,2,0,L|370:136,1,90.0000034332277,2|2,0:0|0:0,0:0:0:0:
324,272,93824,6,0,B|324:248|324:248|288:236|304:228|256:212|256:212|254:193,1,120,6|2,0:0|0:0,0:0:0:0:
176,140,94092,1,6,0:0:0:0:
176,140,94181,1,2,0:0:0:0:
176,140,94270,1,2,0:0:0:0:
263,105,94360,6,0,P|266:149|254:192,1,90.0000034332277,12|0,0:0|0:0,0:0:0:0:
246,280,94627,2,0,P|242:235|254:192,1,90.0000034332277,12|0,0:0|0:0,0:0:0:0:
404,128,94895,6,0,P|415:171|409:215,1,90.0000034332277,6|0,0:0|0:0,0:0:0:0:
253,192,95163,2,0,P|241:148|247:104,1,90.0000034332277
320,248,95431,2,0,P|331:291|325:335,1,90.0000034332277,8|0,0:0|0:0,0:0:0:0:
169,312,95699,2,0,P|157:268|163:224,1,90.0000034332277
240,356,95967,5,2,0:0:0:0:
248,216,96145,1,0,0:0:0:0:
220,208,96235,1,0,0:0:0:0:
180,72,96413,1,0,0:0:0:0:
135,67,96502,2,0,P|93:79|67:115,1,90.0000034332277,8|0,0:0|0:0,0:0:0:0:
80,196,96770,2,0,P|87:153|66:114,1,90.0000034332277
66,114,97038,6,0,L|155:121,1,90.0000034332277,2|0,0:0|0:0,0:0:0:0:
248,204,97306,2,0,L|267:116,1,90.0000034332277
408,128,97574,1,8,0:0:0:0:
248,204,97752,1,0,0:0:0:0:
192,144,97842,1,0,0:0:0:0:
272,320,98020,5,0,0:0:0:0:
228,364,98110,1,2,0:0:0:0:
380,300,98288,1,8,0:0:0:0:
380,256,98378,1,2,0:0:0:0:
440,136,98556,1,2,0:0:0:0:
460,156,98645,2,0,B|444:96|444:96|417:103,1,90.0000034332277,8|2,0:0|0:0,0:0:0:0:
296,64,98913,2,0,B|312:124|312:124|338:116,1,90.0000034332277,2|2,0:0|0:0,0:0:0:0:
283,224,99181,6,0,P|245:245|200:246,1,90.0000034332277,2|0,0:0|0:0,0:0:0:0:
108,192,99449,2,0,P|63:193|31:223,1,90.0000034332277
251,97,99717,2,0,P|228:135|190:158,1,90.0000034332277,8|0,0:0|0:0,0:0:0:0:
82,157,99985,2,0,P|44:180|30:222,1,90.0000034332277
56,300,100252,5,2,0:0:0:0:
204,324,100431,1,0,0:0:0:0:
228,316,100520,1,0,0:0:0:0:
280,188,100699,1,0,0:0:0:0:
324,176,100788,2,0,B|384:156|384:156|377:181,1,90.0000034332277,8|0,0:0|0:0,0:0:0:0:
356,252,101056,6,0,L|363:341,1,90.0000034332277
472,240,101324,2,0,L|464:150,1,90.0000034332277,2|0,0:0|0:0,0:0:0:0:
360,72,101592,2,0,L|271:90,1,90.0000034332277
232,160,101860,2,0,L|240:204,1,45.0000017166138,8|0,0:0|0:0,0:0:0:0:
324,240,102038,1,0,0:0:0:0:
374,160,102127,2,0,L|358:64,1,90.0000034332277
280,48,102395,5,2,0:0:0:0:
324,240,102574,1,8,0:0:0:0:
336,280,102663,2,0,P|293:266|248:268,1,90.0000034332277,2|2,0:0|0:0,0:0:0:0:
212,284,102931,1,8,0:0:0:0:
212,284,103199,5,8,0:0:0:0:
212,284,103377,1,8,0:0:0:0:
211,284,103467,2,0,P|210:239|187:201,1,90.0000034332277,2|0,0:0|0:0,0:0:0:0:
84,148,103735,2,0,P|71:190|77:235,1,90.0000034332277
284,216,104002,2,0,P|282:171|259:133,1,90.0000034332277,8|0,0:0|0:0,0:0:0:0:
156,79,104270,2,0,P|143:121|149:166,1,90.0000034332277
348,140,104538,5,2,0:0:0:0:
184,75,104717,1,0,0:0:0:0:
156,79,104806,1,0,0:0:0:0:
104,204,104985,1,0,0:0:0:0:
64,224,105074,2,0,L|91:309,1,90.0000034332277,8|0,0:0|0:0,0:0:0:0:
178,333,105342,2,0,L|91:309,1,90.0000034332277
91,309,105610,6,0,P|114:271|153:249,1,90.0000034332277,2|0,0:0|0:0,0:0:0:0:
268,248,105877,2,0,P|306:270|329:308,1,90.0000034332277
216,352,106145,1,8,0:0:0:0:
208,172,106324,1,0,0:0:0:0:
140,132,106413,1,0,0:0:0:0:
300,64,106592,5,0,0:0:0:0:
308,128,106681,1,2,0:0:0:0:
420,184,106860,1,8,0:0:0:0:
435,142,106949,1,2,0:0:0:0:
428,304,107127,1,2,0:0:0:0:
404,312,107217,2,0,B|343:315|343:315|334:342,1,90.0000034332277,8|2,0:0|0:0,0:0:0:0:
184,312,107485,2,0,B|245:315|245:315|253:342,1,90.0000034332277,2|2,0:0|0:0,0:0:0:0:
253,342,107752,6,0,L|249:252,1,90.0000034332277,2|0,0:0|0:0,0:0:0:0:
351,98,108020,2,0,L|356:188,1,90.0000034332277
156,188,108288,2,0,L|161:98,1,90.0000034332277,8|0,0:0|0:0,0:0:0:0:
249,252,108556,2,0,L|253:342,1,90.0000034332277
244,168,108824,5,2,0:0:0:0:
120,248,109002,1,0,0:0:0:0:
120,220,109092,1,0,0:0:0:0:
217,88,109270,1,0,0:0:0:0:
260,108,109360,2,0,P|303:119|346:108,1,90.0000034332277,8|0,0:0|0:0,0:0:0:0:
472,80,109627,6,0,B|460:144|460:144|435:137,1,90.0000034332277
304,172,109895,1,2,0:0:0:0:
276,332,110074,1,2,0:0:0:0:
276,332,110163,1,2,0:0:0:0:
112,304,110342,5,2,0:0:0:0:
100,264,110431,2,0,P|96:241|97:219,1,45.0000017166138,8|2,0:0|0:0,0:0:0:0:
104,60,110610,1,2,0:0:0:0:
64,128,110699,2,0,P|106:140|147:124,1,90.0000034332277,2|2,0:0|0:0,0:0:0:0:
272,55,110967,6,0,P|316:53|357:70,1,90.0000034332277,2|2,0:0|0:0,0:0:0:0:
376,248,111235,1,2,0:0:0:0:
300,296,111324,1,2,0:0:0:0:
212,312,111413,1,2,0:0:0:0:
124,292,111502,1,14,0:0:0:0:
212,128,111770,6,0,P|235:156|244:120,1,90.0000034332277,12|6,0:0|0:0,0:0:0:0:
