osu file format v14

[General]
AudioFilename: 10+A+Loving+Channel.mp3
AudioLeadIn: 0
PreviewTime: 263969
Countdown: 1
SampleSet: Normal
StackLeniency: 0.7
Mode: 0
LetterboxInBreaks: 1
WidescreenStoryboard: 1

[Editor]
Bookmarks: 312,55169,82597,93054,110026,164883,170369,175854,197797,219740,264997,308883
DistanceSpacing: 1
BeatDivisor: 4
GridSize: 4
TimelineZoom: 2.3

[Metadata]
Title:A Loving Channel
TitleUnicode:A Loving Channel
Artist:tamame
ArtistUnicode:tamame
Creator:Secretpipe
Version:A Lovely Day
Source:
Tags:MDR UN MARATHON
BeatmapID:760580
BeatmapSetID:344258

[Difficulty]
HPDrainRate:7
CircleSize:4
OverallDifficulty:7
ApproachRate:9
SliderMultiplier:1.7
SliderTickRate:1

[Events]
//Background and Video events
0,0,"bg!!!.jpg",0,0
//Break Periods
//Storyboard Layer 0 (Background)
//Storyboard Layer 1 (Fail)
//Storyboard Layer 2 (Pass)
//Storyboard Layer 3 (Foreground)
//Storyboard Layer 4 (Overlay)
//Storyboard Sound Samples

[TimingPoints]
312,342.857142857143,4,1,0,50,1,0
312,-142.857142857143,4,1,0,50,0,0
22254,-125,4,1,0,50,0,0
44026,-111.111111111111,4,1,0,50,0,0
49683,-100,4,1,0,50,0,0
52083,-133.333333333333,4,1,0,50,0,0
52426,-100,4,1,0,50,0,0
131969,-133.333333333333,4,1,0,50,0,0
142940,-100,4,1,0,50,0,0
164883,-111.111111111111,4,1,0,50,0,0
170026,-166.666666666666,4,1,0,50,0,0
174826,-111.111111111111,4,1,0,50,0,0
175854,-90.9090909090909,4,1,0,50,0,1
197797,-250,4,1,0,50,0,0

[Colours]
Combo1 : 255,62,86
Combo2 : 255,81,255
Combo3 : 165,74,255
Combo4 : 253,197,102
Combo5 : 129,100,244

[HitObjects]
104,252,312,6,0,P|168:240|244:248,1,118.999996368408
302,262,826,1,0,0:0:0:0:
321,268,912,1,0,0:0:0:0:
341,264,997,2,0,L|378:254,2,29.7499990921021
453,193,1340,2,0,L|496:198,2,29.7499990921021
324,92,1683,6,0,P|272:80|189:88,1,118.999996368408
117,111,2197,1,0,0:0:0:0:
107,129,2283,1,0,0:0:0:0:
109,149,2369,2,0,L|123:198,2,29.7499990921021
67,303,2712,2,0,L|79:237,1,59.4999981842042
185,312,3054,6,0,P|247:303|306:316,1,118.999996368408
385,342,3569,1,0,0:0:0:0:
385,342,3654,1,0,0:0:0:0:
385,342,3740,2,0,P|387:305|383:260,1,59.4999981842042
316,173,4083,2,0,P|313:210|316:232,1,59.4999981842042
369,98,4426,6,0,P|319:84|243:109,1,118.999996368408
154,141,4940,1,0,0:0:0:0:
146,121,5026,1,0,0:0:0:0:
144,100,5112,1,0,0:0:0:0:
143,79,5197,1,0,0:0:0:0:
149,58,5283,1,0,0:0:0:0:
216,186,5454,2,0,L|210:215,2,29.7499990921021
60,344,5797,6,0,P|124:348|200:336,1,118.999996368408
278,306,6312,1,0,0:0:0:0:
278,306,6397,1,0,0:0:0:0:
278,306,6483,2,0,P|314:302|362:306,1,59.4999981842042
200,248,6826,2,0,P|170:248|140:244,1,59.4999981842042
288,185,7169,6,0,P|352:173|412:189,1,118.999996368408
504,264,7683,1,0,0:0:0:0:
504,264,7769,1,0,0:0:0:0:
504,264,7854,2,0,L|496:184,1,59.4999981842042
352,280,8197,2,0,L|344:360,1,59.4999981842042
216,184,8540,6,0,P|208:124|240:68,1,118.999996368408
348,148,9054,1,0,0:0:0:0:
348,148,9140,1,0,0:0:0:0:
348,148,9226,2,0,L|303:145,2,29.7499990921021
430,203,9569,2,0,L|489:196,1,59.4999981842042
356,271,9912,6,0,P|304:295|224:271,1,118.999996368408
156,248,10426,1,0,0:0:0:0:
156,248,10512,1,0,0:0:0:0:
156,248,10597,2,0,P|148:220|152:176,1,59.4999981842042
228,100,10940,2,0,P|228:129|220:158,1,59.4999981842042
59,54,11283,5,0,0:0:0:0:
353,127,11969,1,0,0:0:0:0:
456,340,12654,1,0,0:0:0:0:
220,312,13340,1,0,0:0:0:0:
348,128,14026,6,0,P|408:112|476:136,1,118.999996368408
331,333,14712,2,0,P|272:337|219:311,1,118.999996368408
128,91,15397,2,0,L|122:225,1,118.999996368408
308,59,16083,2,0,L|316:182,1,118.999996368408
331,333,16769,5,0,0:0:0:0:
302,326,16854,1,0,0:0:0:0:
272,322,16940,1,0,0:0:0:0:
242,323,17026,1,0,0:0:0:0:
214,330,17111,1,0,0:0:0:0:
185,337,17197,1,0,0:0:0:0:
155,337,17283,1,0,0:0:0:0:
126,333,17369,1,0,0:0:0:0:
97,326,17454,6,0,L|89:366,2,29.7499990921021
75,226,17797,2,0,L|83:186,2,29.7499990921021
175,238,18140,5,0,0:0:0:0:
204,232,18225,1,0,0:0:0:0:
234,228,18311,1,0,0:0:0:0:
263,228,18397,1,0,0:0:0:0:
292,235,18482,1,0,0:0:0:0:
321,243,18568,1,0,0:0:0:0:
351,243,18654,1,0,0:0:0:0:
380,239,18740,1,0,0:0:0:0:
409,231,18826,6,0,L|417:270,2,29.7499990921021
446,135,19169,2,0,L|459:85,2,29.7499990921021
345,145,19512,5,0,0:0:0:0:
277,99,19683,1,0,0:0:0:0:
293,23,19855,1,0,0:0:0:0:
356,68,20026,1,0,0:0:0:0:
111,154,20197,5,0,0:0:0:0:
179,108,20368,1,0,0:0:0:0:
163,32,20540,1,0,0:0:0:0:
100,77,20711,1,0,0:0:0:0:
234,178,20883,5,0,0:0:0:0:
246,204,20968,1,0,0:0:0:0:
250,233,21054,1,0,0:0:0:0:
244,262,21140,1,0,0:0:0:0:
231,289,21226,2,0,L|309:296,1,59.4999981842042
121,357,21569,5,0,0:0:0:0:
133,337,21654,2,0,L|138:289,1,29.7499990921021
165,209,21826,1,0,0:0:0:0:
146,224,21912,2,0,P|106:232|53:215,1,89.2499972763062
60,219,22254,6,0,L|55:121,1,68
83,70,22597,1,0,0:0:0:0:
171,123,22769,2,0,P|204:128|309:100,1,136
405,51,23283,1,0,0:0:0:0:
405,51,23626,6,0,P|412:96|406:136,1,68
389,197,23969,1,0,0:0:0:0:
389,197,24140,2,0,P|380:268|404:332,1,136
480,252,24654,1,0,0:0:0:0:
152,338,24997,6,0,L|147:245,1,68
79,194,25340,1,0,0:0:0:0:
79,194,25512,2,0,P|146:169|213:190,1,136
312,261,26026,1,0,0:0:0:0:
312,261,26369,6,0,P|352:266|397:258,1,68
459,223,26712,1,0,0:0:0:0:
459,223,26883,2,0,P|468:156|452:84,1,136
333,25,27397,1,0,0:0:0:0:
165,31,27740,5,0,0:0:0:0:
114,95,27912,1,0,0:0:0:0:
162,160,28083,1,0,0:0:0:0:
210,225,28254,2,0,P|221:295|193:362,1,136
105,284,28769,1,0,0:0:0:0:
105,284,29112,6,0,P|68:279|24:281,1,68
210,225,29454,1,0,0:0:0:0:
198,354,29626,2,0,P|264:366|357:338,1,136
459,307,30140,1,0,0:0:0:0:
401,103,30483,6,0,L|396:192,1,68
329,238,30826,1,0,0:0:0:0:
301,147,30997,2,0,L|304:79,2,68
210,225,31512,1,0,0:0:0:0:
210,225,31854,6,0,P|176:228|126:218,1,68
68,109,32197,2,0,P|101:104|135:107,1,68
301,147,32540,1,0,0:0:0:0:
258,66,32712,1,0,0:0:0:0:
396,200,32883,2,0,P|387:248|404:312,1,102
397,299,33226,6,0,L|302:308,1,68
202,300,33569,1,0,0:0:0:0:
284,242,33740,2,0,P|306:196|291:113,1,136
185,29,34254,1,0,0:0:0:0:
89,234,34597,6,0,P|83:203|89:153,1,68
171,275,34940,1,0,0:0:0:0:
171,275,35112,2,0,P|102:315|35:298,1,136
208,193,35626,1,0,0:0:0:0:
208,193,35969,6,0,P|240:188|288:193,1,68
372,222,36312,1,0,0:0:0:0:
372,222,36483,2,0,P|434:239|508:204,1,136
430,137,36997,1,0,0:0:0:0:
232,329,37340,6,0,P|196:336|145:331,2,68
297,280,37854,2,0,L|296:126,1,136
269,30,38369,1,0,0:0:0:0:
269,30,38712,6,0,P|230:23|183:31,1,68
87,43,39054,1,0,0:0:0:0:
146,99,39226,2,0,P|158:171|129:232,1,136
43,153,39740,1,0,0:0:0:0:
196,274,40083,6,0,P|231:280|277:268,1,68
394,239,40426,1,0,0:0:0:0:
394,239,40597,2,0,P|455:257|493:318,1,136
375,354,41112,1,0,0:0:0:0:
447,163,41454,5,0,0:0:0:0:
404,93,41626,1,0,0:0:0:0:
337,46,41797,1,0,0:0:0:0:
257,67,41969,2,0,P|200:81|117:57,1,136
18,20,42483,1,0,0:0:0:0:
180,318,42826,6,0,P|141:325|104:323,2,68
291,283,43340,2,0,P|335:278|400:284,1,102
413,294,43683,1,0,0:0:0:0:
232,354,43854,1,0,0:0:0:0:
168,230,44026,5,0,0:0:0:0:
250,103,44198,2,0,P|252:141|238:176,1,76.4999976654053
164,52,44540,1,0,0:0:0:0:
46,111,44712,1,0,0:0:0:0:
46,111,44797,1,0,0:0:0:0:
46,111,44883,2,0,P|29:150|47:198,1,76.4999976654053
176,264,45226,2,0,P|181:222|166:188,1,76.4999976654053
120,336,45569,5,0,0:0:0:0:
264,284,45740,1,0,0:0:0:0:
90,236,45912,1,0,0:0:0:0:
227,359,46083,2,0,P|265:365|328:345,1,76.4999976654053
464,271,46426,1,0,0:0:0:0:
367,90,46597,1,0,0:0:0:0:
267,149,46769,5,0,0:0:0:0:
267,149,46854,1,0,0:0:0:0:
267,149,46940,2,0,P|227:139|173:147,1,76.4999976654053
367,90,47283,2,0,P|387:54|388:-2,1,76.4999976654053
396,209,47626,2,0,P|407:245|432:274,1,76.4999976654053
489,131,47969,1,0,0:0:0:0:
301,33,48140,5,0,0:0:0:0:
214,97,48312,2,0,P|174:87|126:94,1,76.4999976654053
264,251,48654,2,0,P|276:215|276:176,1,76.4999976654053
77,163,48997,2,0,P|77:201|89:237,1,76.4999976654053
155,375,49340,1,0,0:0:0:0:
58,322,49512,1,0,0:0:0:0:
251,338,49683,6,0,P|296:342|358:328,1,85
459,305,50026,1,0,0:0:0:0:
356,243,50197,1,0,0:0:0:0:
339,204,50282,1,0,0:0:0:0:
338,161,50368,1,0,0:0:0:0:
357,122,50454,1,0,0:0:0:0:
390,96,50539,1,0,0:0:0:0:
509,179,50712,2,0,P|462:190|409:172,1,85
177,166,51054,6,0,P|224:172|266:151,1,85
106,288,51397,1,0,0:0:0:0:
187,37,51569,1,0,0:0:0:0:
187,37,51654,1,0,0:0:0:0:
187,37,51740,2,0,P|148:28|90:38,1,85
267,164,52083,6,0,L|274:53,1,95.6250036478044
273,68,52426,6,0,P|342:49|426:64,1,127.5
424,65,52769,1,0,0:0:0:0:
352,279,52940,1,0,0:0:0:0:
352,279,53026,1,0,0:0:0:0:
352,279,53112,2,0,L|359:184,1,85
181,251,53454,2,0,L|174:335,1,85
267,164,53797,6,0,L|219:174,1,42.5
104,129,53969,2,0,L|165:138,1,42.5
49,188,54140,1,0,0:0:0:0:
263,274,54312,1,0,0:0:0:0:
455,103,54483,5,0,0:0:0:0:
452,153,54568,1,0,0:0:0:0:
450,204,54654,1,0,0:0:0:0:
448,255,54740,1,0,0:0:0:0:
446,307,54826,5,0,0:0:0:0:
368,56,54997,5,0,0:0:0:0:
168,172,55169,6,0,P|176:248|172:352,1,170
48,224,55683,1,0,0:0:0:0:
48,224,55769,1,0,0:0:0:0:
48,224,55854,2,0,P|40:160|40:112,1,85
160,60,56197,1,0,0:0:0:0:
56,32,56369,1,0,0:0:0:0:
168,172,56540,6,0,P|240:188|312:128,1,170
415,48,57054,1,0,0:0:0:0:
412,69,57139,1,0,0:0:0:0:
409,90,57225,1,0,0:0:0:0:
298,115,57397,1,0,0:0:0:0:
484,216,57569,2,0,P|504:168|500:116,1,85
367,211,57912,5,0,0:0:0:0:
404,321,58083,2,0,L|492:317,1,85
265,267,58426,1,0,0:0:0:0:
265,267,58512,1,0,0:0:0:0:
265,267,58597,2,0,L|169:259,1,85
104,200,58940,1,0,0:0:0:0:
126,338,59112,1,0,0:0:0:0:
30,157,59283,6,0,P|94:113|174:149,1,170
315,264,59797,2,0,P|328:210|330:177,1,85
270,63,60140,1,0,0:0:0:0:
380,96,60312,1,0,0:0:0:0:
232,171,60483,1,0,0:0:0:0:
458,198,60654,6,0,P|440:280|432:374,1,170
273,340,61169,2,0,P|221:363|123:308,1,170
212,263,61683,1,0,0:0:0:0:
87,145,61854,1,0,0:0:0:0:
87,145,61940,1,0,0:0:0:0:
87,145,62026,6,0,L|92:240,1,85
1,171,62369,1,0,0:0:0:0:
174,181,62540,2,0,P|213:117|151:17,1,170
314,89,63054,2,0,L|430:81,1,85
284,195,63397,5,0,0:0:0:0:
372,263,63569,1,0,0:0:0:0:
372,263,63654,1,0,0:0:0:0:
372,263,63740,2,0,P|396:311|401:356,1,85
264,294,64083,1,0,0:0:0:0:
177,196,64254,1,0,0:0:0:0:
177,196,64339,1,0,0:0:0:0:
177,196,64425,2,0,P|153:244|148:289,1,85
299,180,64769,6,0,L|288:7,1,170
462,85,65283,2,0,L|451:183,1,85
412,353,65626,1,0,0:0:0:0:
484,261,65797,1,0,0:0:0:0:
299,181,65969,1,0,0:0:0:0:
299,181,66054,1,0,0:0:0:0:
299,181,66140,5,0,0:0:0:0:
334,283,66312,1,0,0:0:0:0:
170,339,66483,2,0,P|125:348|75:337,1,85
32,194,66826,1,0,0:0:0:0:
126,254,66997,1,0,0:0:0:0:
32,194,67169,2,0,P|17:153|20:98,1,85
193,51,67512,5,0,0:0:0:0:
106,133,67683,1,0,0:0:0:0:
220,168,67854,2,0,L|226:262,1,85
309,372,68197,1,0,0:0:0:0:
316,229,68369,1,0,0:0:0:0:
218,343,68540,1,0,0:0:0:0:
372,304,68712,1,0,0:0:0:0:
225,252,68883,6,0,P|136:244|33:242,1,170
8,112,69397,2,0,P|72:108|120:100,1,85
148,24,69740,1,0,0:0:0:0:
212,148,69912,2,0,P|260:156|296:156,1,85
432,68,70254,6,0,P|408:124|440:240,1,170
320,284,70769,1,0,0:0:0:0:
320,284,70854,1,0,0:0:0:0:
320,284,70940,2,0,P|288:332|280:360,1,85
176,240,71283,2,0,P|128:232|80:236,1,85
264,128,71626,6,0,P|276:84|276:36,2,85
184,68,72140,1,0,0:0:0:0:
260,228,72312,1,0,0:0:0:0:
260,228,72483,1,0,0:0:0:0:
160,168,72654,2,0,P|116:176|68:172,1,85
212,328,72997,6,0,P|256:336|304:332,1,85
376,204,73340,1,0,0:0:0:0:
400,312,73512,1,0,0:0:0:0:
376,204,73683,2,0,P|368:152|368:108,1,85
244,16,74026,2,0,P|252:68|252:112,1,85
96,224,74369,6,0,P|172:204|248:256,1,170
308,356,74883,1,0,0:0:0:0:
308,356,74969,1,0,0:0:0:0:
308,356,75054,2,0,L|408:352,1,85
512,184,75397,2,0,L|428:176,1,85
360,76,75740,6,0,P|372:152|372:252,1,170
176,208,76254,2,0,P|172:160|172:100,1,85
272,168,76597,1,0,0:0:0:0:
264,272,76769,2,0,P|268:316|268:364,1,85
172,316,77112,5,0,0:0:0:0:
352,332,77283,1,0,0:0:0:0:
172,316,77454,2,0,P|128:320|80:324,1,85
4,176,77797,2,0,P|48:172|96:168,1,85
124,24,78140,1,0,0:0:0:0:
176,104,78312,1,0,0:0:0:0:
320,4,78483,5,0,0:0:0:0:
272,96,78654,1,0,0:0:0:0:
384,88,78826,2,0,P|396:128|400:184,1,85
312,320,79169,1,0,0:0:0:0:
320,192,79340,1,0,0:0:0:0:
400,264,79512,1,0,0:0:0:0:
232,248,79683,1,0,0:0:0:0:
232,248,79769,1,0,0:0:0:0:
232,248,79854,6,0,P|180:268|80:216,1,170
140,76,80369,1,0,0:0:0:0:
164,172,80540,1,0,0:0:0:0:
232,28,80712,1,0,0:0:0:0:
64,148,80883,6,0,P|60:204|64:240,1,85
256,160,81226,1,0,0:0:0:0:
144,288,81397,2,0,P|152:340|152:372,1,85
264,280,81740,1,0,0:0:0:0:
356,208,81912,2,0,P|400:196|456:196,1,85
328,80,82254,2,0,P|285:77|244:66,1,85
112,24,82597,5,0,0:0:0:0:
94,56,82682,1,0,0:0:0:0:
88,93,82768,1,0,0:0:0:0:
92,130,82854,1,0,0:0:0:0:
100,166,82939,1,0,0:0:0:0:
107,203,83025,1,0,0:0:0:0:
109,240,83111,1,0,0:0:0:0:
103,276,83197,1,0,0:0:0:0:
88,310,83283,6,0,L|32:324,1,42.5
184,360,83454,2,0,L|236:364,1,42.5
236,244,83626,2,0,L|192:248,1,42.5
324,308,83797,2,0,L|368:312,1,42.5
332,200,83969,6,0,L|324:140,3,42.5
456,136,84312,2,0,L|464:88,3,42.5
356,44,84654,2,0,L|352:-4,3,42.5
228,96,84997,2,0,L|224:140,3,42.5
236,244,85340,5,0,0:0:0:0:
332,200,85512,1,0,0:0:0:0:
320,300,85683,1,0,0:0:0:0:
248,152,85854,1,0,0:0:0:0:
404,256,86026,5,0,0:0:0:0:
232,336,86197,1,0,0:0:0:0:
332,104,86369,1,0,0:0:0:0:
156,188,86540,1,0,0:0:0:0:
424,160,86712,6,0,L|516:148,1,85
456,336,87054,1,0,0:0:0:0:
404,256,87226,1,0,0:0:0:0:
232,336,87397,1,0,0:0:0:0:
192,320,87482,1,0,0:0:0:0:
150,319,87568,1,0,0:0:0:0:
109,331,87654,1,0,0:0:0:0:
75,356,87740,2,0,P|67:307|64:268,1,85
168,88,88083,6,0,P|176:136|179:176,1,85
77,146,88426,1,0,0:0:0:0:
277,107,88597,1,0,0:0:0:0:
293,91,88683,1,0,0:0:0:0:
308,76,88769,2,0,L|372:67,1,42.5
437,11,88940,1,0,0:0:0:0:
465,176,89112,1,0,0:0:0:0:
509,79,89283,1,0,0:0:0:0:
362,156,89454,6,0,P|341:239|352:326,1,170
215,178,89969,1,0,0:0:0:0:
215,178,90054,1,0,0:0:0:0:
215,178,90140,2,0,P|222:228|240:268,1,85
140,317,90483,2,0,P|180:358|204:369,1,85
215,178,90826,6,0,B|93:208|166:152|13:191,1,170
164,106,91340,1,0,0:0:0:0:
91,252,91512,1,0,0:0:0:0:
91,252,91683,1,0,0:0:0:0:
80,58,91854,1,0,0:0:0:0:
300,116,92026,6,0,P|311:168|311:202,1,85
215,178,92369,1,0,0:0:0:0:
288,352,92540,2,0,P|335:353|374:336,1,85
440,285,92797,1,0,0:0:0:0:
440,285,92883,2,0,P|454:330|463:371,1,85
331,169,93226,2,0,P|317:214|308:255,1,85
135,350,93569,6,0,P|135:275|111:170,1,170
45,57,94083,1,0,0:0:0:0:
83,73,94168,1,0,0:0:0:0:
126,74,94254,1,0,0:0:0:0:
166,60,94340,1,0,0:0:0:0:
198,33,94425,1,0,0:0:0:0:
306,73,94597,2,0,P|292:122|289:199,1,127.5
298,205,94940,6,0,L|402:199,1,85
272,343,95283,2,0,L|366:352,1,85
241,117,95626,2,0,L|157:122,1,85
215,268,95969,2,0,L|131:260,1,85
7,171,96312,6,0,P|82:119|166:160,1,170
318,219,96826,1,0,0:0:0:0:
313,239,96911,1,0,0:0:0:0:
309,260,96997,1,0,0:0:0:0:
333,114,97169,1,0,0:0:0:0:
428,170,97340,1,0,0:0:0:0:
234,350,97512,6,0,P|218:290|215:246,1,85
392,266,97854,1,0,0:0:0:0:
166,166,98026,2,0,P|180:118|196:85,1,85
420,84,98369,1,0,0:0:0:0:
329,22,98541,1,0,0:0:0:0:
341,203,98712,1,0,0:0:0:0:
472,173,98883,1,0,0:0:0:0:
472,173,98969,1,0,0:0:0:0:
472,173,99054,6,0,P|502:239|481:338,1,170
302,358,99569,1,0,0:0:0:0:
285,344,99654,1,0,0:0:0:0:
267,331,99740,2,0,L|272:274,1,42.5
341,203,99912,1,0,0:0:0:0:
241,90,100083,2,0,P|232:151|242:204,1,85
160,284,100426,6,0,P|91:236|5:265,1,170
71,334,100940,1,0,0:0:0:0:
139,192,101112,2,0,P|136:138|126:90,1,85
356,9,101454,2,0,P|349:50|347:93,1,85
467,215,101797,5,0,0:0:0:0:
450,114,101969,1,0,0:0:0:0:
381,266,102140,2,0,P|382:313|390:354,1,85
261,188,102483,2,0,P|262:141|270:100,1,85
358,154,102826,1,0,0:0:0:0:
234,280,102997,6,0,P|164:295|83:214,1,170
139,151,103512,1,0,0:0:0:0:
85,52,103683,1,0,0:0:0:0:
127,57,103768,1,0,0:0:0:0:
168,50,103854,1,0,0:0:0:0:
209,41,103940,1,0,0:0:0:0:
251,46,104025,1,0,0:0:0:0:
358,154,104197,2,0,P|369:100|362:47,1,85
249,175,104540,5,0,0:0:0:0:
241,213,104625,1,0,0:0:0:0:
249,250,104711,1,0,0:0:0:0:
270,282,104797,1,0,0:0:0:0:
303,302,104882,1,0,0:0:0:0:
341,308,104968,1,0,0:0:0:0:
378,297,105054,1,0,0:0:0:0:
408,273,105140,1,0,0:0:0:0:
426,239,105226,6,0,L|420:187,3,42.5
481,121,105569,2,0,L|487:68,3,42.5
389,38,105912,5,0,0:0:0:0:
355,52,105997,1,0,0:0:0:0:
320,58,106083,1,0,0:0:0:0:
284,53,106169,1,0,0:0:0:0:
250,40,106254,1,0,0:0:0:0:
216,28,106340,1,0,0:0:0:0:
181,24,106426,1,0,0:0:0:0:
145,28,106512,1,0,0:0:0:0:
110,38,106597,6,0,L|96:88,1,42.5
186,167,106769,2,0,L|181:124,1,42.5
87,177,106940,2,0,L|73:227,1,42.5
163,307,107112,2,0,L|158:264,1,42.5
266,214,107283,5,0,0:0:0:0:
251,306,107454,1,0,0:0:0:0:
343,273,107626,1,0,0:0:0:0:
266,214,107797,1,0,0:0:0:0:
324,365,107969,5,0,0:0:0:0:
324,365,108140,1,0,0:0:0:0:
437,255,108312,1,0,0:0:0:0:
437,255,108483,1,0,0:0:0:0:
287,108,108654,5,0,0:0:0:0:
410,114,108826,1,0,0:0:0:0:
403,134,108911,1,0,0:0:0:0:
397,154,108997,1,0,0:0:0:0:
343,18,109169,1,0,0:0:0:0:
180,150,109340,5,0,0:0:0:0:
183,181,109425,1,0,0:0:0:0:
187,213,109511,1,0,0:0:0:0:
190,245,109597,1,0,0:0:0:0:
194,276,109682,1,0,0:0:0:0:
285,202,109854,1,0,0:0:0:0:
72,167,110026,6,0,L|82:255,1,85
90,335,110369,1,0,0:0:0:0:
240,149,110540,2,0,L|152:159,1,85
72,167,110883,1,0,0:0:0:0:
194,276,111054,2,0,L|282:286,1,85
290,80,111397,6,0,L|237:151,1,85
411,261,111740,1,0,0:0:0:0:
351,171,111912,1,0,0:0:0:0:
363,357,112083,1,0,0:0:0:0:
411,261,112255,1,0,0:0:0:0:
237,270,112426,2,0,L|148:272,1,85
152,111,112769,6,0,L|237:114,1,85
100,192,113112,2,0,L|8:192,1,85
69,75,113454,1,0,0:0:0:0:
152,272,113626,1,0,0:0:0:0:
152,111,113797,1,0,0:0:0:0:
69,309,113969,6,0,L|-30:351,1,85
100,192,114312,1,0,0:0:0:0:
204,352,114483,2,0,L|308:376,1,85
332,146,114826,1,0,0:0:0:0:
249,165,114997,1,0,0:0:0:0:
363,289,115169,1,0,0:0:0:0:
389,208,115340,1,0,0:0:0:0:
223,246,115512,6,0,P|200:282|205:346,1,85
306,228,115854,1,0,0:0:0:0:
166,184,116026,2,0,L|66:207,1,85
280,308,116369,1,0,0:0:0:0:
249,165,116540,2,0,P|229:127|171:99,1,85
223,246,116883,5,0,0:0:0:0:
332,146,117054,1,0,0:0:0:0:
332,146,117140,1,0,0:0:0:0:
332,146,117226,1,0,0:0:0:0:
166,184,117397,2,0,L|66:207,1,85
108,121,117740,1,0,0:0:0:0:
141,266,117912,2,0,L|164:366,1,85
306,228,118254,5,0,0:0:0:0:
166,184,118426,1,0,0:0:0:0:
280,308,118597,1,0,0:0:0:0:
249,165,118769,1,0,0:0:0:0:
141,266,118940,1,0,0:0:0:0:
191,102,119112,1,0,0:0:0:0:
306,228,119283,1,0,0:0:0:0:
357,65,119454,6,0,P|332:21|289:0,1,85
191,102,119797,1,0,0:0:0:0:
331,145,119969,1,0,0:0:0:0:
274,83,120140,1,0,0:0:0:0:
223,246,120312,1,0,0:0:0:0:
249,165,120483,1,0,0:0:0:0:
280,308,120654,2,0,P|332:308|376:277,1,85
166,184,120997,6,0,L|51:210,1,85
108,121,121340,1,0,0:0:0:0:
249,165,121512,2,0,L|364:191,1,85
274,83,121854,1,0,0:0:0:0:
223,246,122026,2,0,L|197:361,1,85
108,121,122369,6,0,P|162:99|198:105,1,85
330,142,122712,2,0,P|283:106|271:72,1,85
437,42,123054,1,0,0:0:0:0:
412,122,123226,1,0,0:0:0:0:
355,61,123397,1,0,0:0:0:0:
355,323,123740,5,0,0:0:0:0:
329,241,123912,1,0,0:0:0:0:
224,291,124083,1,0,0:0:0:0:
250,209,124255,1,0,0:0:0:0:
145,259,124426,1,0,0:0:0:0:
119,177,124598,1,0,0:0:0:0:
60,240,124769,1,0,0:0:0:0:
203,196,124940,6,0,P|231:253|216:302,1,85
145,259,125283,1,0,0:0:0:0:
177,114,125454,1,0,0:0:0:0:
119,177,125626,1,0,0:0:0:0:
119,177,125712,1,0,0:0:0:0:
119,177,125797,1,0,0:0:0:0:
93,95,125969,1,0,0:0:0:0:
203,196,126140,2,0,L|303:217,1,85
269,46,126483,6,0,L|232:86,3,42.5
320,171,126826,2,0,L|306:130,3,42.5
187,154,127169,2,0,L|228:162,3,42.5
153,75,127512,2,0,L|99:86,3,42.5
136,223,127854,5,0,0:0:0:0:
272,163,128026,1,0,0:0:0:0:
102,145,128197,1,0,0:0:0:0:
171,301,128369,1,0,0:0:0:0:
187,154,128540,1,0,0:0:0:0:
85,292,128712,1,0,0:0:0:0:
255,311,128883,1,0,0:0:0:0:
136,223,129054,1,0,0:0:0:0:
204,378,129226,5,0,0:0:0:0:
229,384,129311,1,0,0:0:0:0:
256,386,129397,1,0,0:0:0:0:
282,382,129483,1,0,0:0:0:0:
307,372,129568,1,0,0:0:0:0:
329,358,129654,1,0,0:0:0:0:
348,339,129740,1,0,0:0:0:0:
362,317,129826,1,0,0:0:0:0:
372,292,129912,5,0,0:0:0:0:
371,265,129997,1,0,0:0:0:0:
364,240,130083,1,0,0:0:0:0:
349,218,130169,1,0,0:0:0:0:
330,199,130254,1,0,0:0:0:0:
310,182,130340,1,0,0:0:0:0:
292,162,130426,1,0,0:0:0:0:
279,139,130512,1,0,0:0:0:0:
272,113,130597,5,0,0:0:0:0:
123,197,130769,1,0,0:0:0:0:
270,282,130940,1,0,0:0:0:0:
197,155,131112,1,0,0:0:0:0:
195,324,131283,1,0,0:0:0:0:
215,347,131368,1,0,0:0:0:0:
243,363,131454,1,0,0:0:0:0:
274,368,131540,1,0,0:0:0:0:
306,362,131625,1,0,0:0:0:0:
270,282,131797,1,0,0:0:0:0:
120,366,131969,6,0,L|30:357,2,63.7500024318696
122,281,132483,1,0,0:0:0:0:
196,240,132654,2,0,L|266:201,2,63.7500024318696
124,197,133169,1,0,0:0:0:0:
52,154,133340,6,0,P|40:197|48:233,2,63.7500024318696
126,114,133854,1,0,0:0:0:0:
200,74,134026,2,0,P|212:31|204:-5,2,63.7500024318696
196,157,134540,1,0,0:0:0:0:
124,197,134712,6,0,L|113:284,1,63.7500024318696
196,240,135054,2,0,L|203:303,1,63.7500024318696
288,174,135397,2,0,L|281:238,1,63.7500024318696
361,218,135740,2,0,L|372:305,1,63.7500024318696
453,152,136083,6,0,B|443:188|443:188|458:284,1,127.500004863739
475,360,136597,1,0,0:0:0:0:
394,335,136769,2,0,B|353:323|353:323|251:342,1,127.500004863739
186,354,137283,1,0,0:0:0:0:
130,289,137454,6,0,P|136:239|160:206,1,63.7500024318696
214,273,137798,1,0,0:0:0:0:
298,257,137969,2,0,L|428:230,1,127.500004863739
378,158,138483,2,0,L|304:173,1,63.7500024318696
332,83,138826,6,0,L|395:71,1,63.7500024318696
478,53,139169,1,0,0:0:0:0:
452,133,139340,2,0,L|479:265,1,127.500004863739
501,339,139854,2,0,P|456:338|422:319,1,63.7500024318696
390,260,140197,6,0,B|360:288|360:288|252:290,1,127.500004863739
229,216,140712,1,0,0:0:0:0:
184,141,140883,2,0,P|214:128|244:129,1,63.7500024318696
287,52,141226,2,0,P|312:71|327:98,1,63.7500024318696
388,158,141569,6,0,P|351:208|365:280,1,127.500004863739
432,313,142083,1,0,0:0:0:0:
434,229,142255,1,0,0:0:0:0:
358,353,142426,1,0,0:0:0:0:
505,272,142597,1,0,0:0:0:0:
359,270,142769,1,0,0:0:0:0:
503,354,142940,5,0,0:0:0:0:
342,87,143283,1,0,0:0:0:0:
388,158,143454,1,0,0:0:0:0:
464,6,143626,1,0,0:0:0:0:
426,82,143797,1,0,0:0:0:0:
296,16,143969,2,0,P|265:52|259:91,1,85
379,11,144312,5,0,0:0:0:0:
80,190,144654,1,0,0:0:0:0:
172,266,144826,1,0,0:0:0:0:
164,181,144997,1,0,0:0:0:0:
88,274,145169,1,0,0:0:0:0:
115,112,145340,2,0,P|159:95|214:112,1,85
136,342,145683,5,0,0:0:0:0:
388,158,146026,1,0,0:0:0:0:
306,181,146197,1,0,0:0:0:0:
366,240,146369,1,0,0:0:0:0:
328,99,146540,1,0,0:0:0:0:
284,263,146712,2,0,P|307:300|350:325,1,85
470,135,147054,5,0,0:0:0:0:
186,63,147397,1,0,0:0:0:0:
246,122,147569,1,0,0:0:0:0:
267,40,147740,1,0,0:0:0:0:
164,144,147912,1,0,0:0:0:0:
284,263,148083,1,0,0:0:0:0:
246,122,148254,1,0,0:0:0:0:
202,285,148426,6,0,P|238:332|293:350,1,85
224,203,148769,1,0,0:0:0:0:
119,306,148940,2,0,L|24:330,1,85
141,224,149283,1,0,0:0:0:0:
284,263,149454,2,0,L|379:287,1,85
366,100,149797,6,0,L|284:121,1,85
375,192,150140,1,0,0:0:0:0:
413,57,150312,2,0,L|330:77,1,85
375,192,150654,1,0,0:0:0:0:
459,13,150826,2,0,L|376:33,1,85
210,33,151169,6,0,L|293:54,1,85
150,93,151512,2,0,P|128:53|131:0,1,85
233,116,151854,2,0,L|212:198,1,85
52,149,152197,2,0,P|94:149|132:168,1,85
190,280,152540,6,0,P|232:280|269:261,1,85
337,160,152883,1,0,0:0:0:0:
253,177,153054,1,0,0:0:0:0:
354,244,153226,1,0,0:0:0:0:
280,95,153397,1,0,0:0:0:0:
269,261,153569,2,0,P|300:311|328:326,1,85
418,187,153912,6,0,L|529:167,1,85
280,95,154254,2,0,L|391:115,1,85
169,194,154597,1,0,0:0:0:0:
253,177,154768,1,0,0:0:0:0:
113,129,154940,2,0,P|88:164|85:206,1,85
221,256,155283,6,0,P|203:217|168:194,1,85
194,335,155626,1,0,0:0:0:0:
304,239,155797,1,0,0:0:0:0:
138,273,155969,1,0,0:0:0:0:
277,319,156140,1,0,0:0:0:0:
111,352,156312,1,0,0:0:0:0:
221,256,156483,1,0,0:0:0:0:
360,303,156654,6,0,L|440:330,1,85
349,145,156997,1,0,0:0:0:0:
349,145,157169,2,0,L|387:222,1,85
452,26,157511,1,0,0:0:0:0:
452,26,157683,2,0,L|424:106,1,85
274,185,158026,6,0,P|265:139|295:79,1,85
349,145,158369,1,0,0:0:0:0:
189,160,158540,2,0,L|99:168,1,85
139,89,158883,1,0,0:0:0:0:
154,238,159054,2,0,L|161:322,1,85
350,322,159397,6,0,L|358:238,1,85
266,100,159740,2,0,L|273:184,1,85
335,51,160083,1,0,0:0:0:0:
258,15,160254,1,0,0:0:0:0:
342,135,160426,1,0,3:0:0:0:
411,86,160597,1,0,3:0:0:0:
349,219,160769,6,0,L|356:303,1,85
189,333,161112,1,0,0:0:0:0:
217,252,161283,1,0,0:0:0:0:
356,303,161454,1,0,0:0:0:0:
272,318,161626,1,0,0:0:0:0:
342,135,161797,2,0,P|402:154|429:193,1,85
273,184,162140,6,0,L|147:192,1,85
217,28,162483,2,0,L|265:99,1,85
109,153,162826,1,0,0:0:0:0:
146,76,162997,1,0,0:0:0:0:
146,229,163169,2,0,L|145:331,1,85
287,191,163512,6,0,P|250:170|208:170,1,85
228,251,163854,1,0,0:0:0:0:
367,209,164026,2,0,P|366:166|345:130,1,85
228,251,164368,1,0,0:0:0:0:
391,289,164540,2,0,P|426:267|448:230,1,85
228,251,164883,6,0,L|211:151,1,76.4999976654053
117,340,165226,1,0,0:0:0:0:
63,261,165397,2,0,L|74:174,1,76.4999976654053
141,32,165740,1,0,0:0:0:0:
289,179,165912,6,0,P|252:185|200:166,2,76.4999976654053
426,119,166426,1,0,0:0:0:0:
426,119,166512,1,0,0:0:0:0:
426,119,166597,2,0,P|389:113|337:132,1,76.4999976654053
196,235,166940,1,0,0:0:0:0:
196,235,167112,1,0,0:0:0:0:
104,45,167283,2,0,L|100:135,1,76.4999976654053
28,318,167626,6,0,P|70:298|149:323,1,114.749996498108
173,337,167969,1,0,0:0:0:0:
109,215,168140,2,0,P|93:184|93:135,1,76.4999976654053
340,287,168483,1,0,0:0:0:0:
412,108,168654,2,0,L|404:231,1,114.749996498108
426,263,168997,1,0,0:0:0:0:
304,62,169169,2,0,L|319:140,1,76.4999976654053
159,318,169512,1,0,0:0:0:0:
224,218,169683,1,0,0:0:0:0:
294,333,169854,1,0,0:0:0:0:
83,206,170026,6,0,L|93:129,1,76.4999976654053
107,97,170369,5,0,0:0:0:0:
138,112,170454,1,0,0:0:0:0:
173,112,170540,1,0,0:0:0:0:
208,104,170626,1,0,0:0:0:0:
236,82,170712,2,0,L|226:49,3,25.4999992218018
185,193,171054,2,0,L|179:228,3,25.4999992218018
308,149,171397,2,0,L|346:139,3,25.4999992218018
117,90,171740,6,0,L|92:86,3,25.4999992218018
45,209,172083,2,0,L|38:181,3,25.4999992218018
127,310,172426,2,0,L|135:275,3,25.4999992218018
227,146,172769,2,0,L|235:171,3,25.4999992218018
359,224,173112,6,0,L|394:215,1,25.4999992218018
265,276,173283,2,0,L|230:272,1,25.4999992218018
362,333,173454,2,0,L|390:336,1,25.4999992218018
257,177,173626,2,0,L|222:181,1,25.4999992218018
452,270,173797,1,0,0:0:0:0:
361,35,173969,1,0,0:0:0:0:
265,276,174140,1,0,0:0:0:0:
472,120,174312,1,0,0:0:0:0:
194,42,174483,5,0,0:0:0:0:
265,276,174654,1,0,0:0:0:0:
284,246,174740,1,0,0:0:0:0:
284,210,174826,2,0,L|276:163,1,38.2499988327027
291,132,174997,1,0,0:0:0:0:
18,236,175169,5,0,0:0:0:0:
59,275,175254,1,0,0:0:0:0:
115,284,175340,1,0,0:0:0:0:
171,273,175426,1,0,0:0:0:0:
204,225,175512,2,0,L|180:99,1,114.749996498108
188,101,175854,6,0,P|273:61|353:116,1,187.000005706787
398,186,176369,2,0,P|451:197|498:179,1,93.5000028533936
267,157,176712,1,0,0:0:0:0:
443,101,176883,1,0,0:0:0:0:
423,289,177054,1,0,0:0:0:0:
423,289,177140,1,0,0:0:0:0:
423,289,177226,6,0,B|317:265|347:322|241:299,1,187.000005706787
287,208,177740,1,0,0:0:0:0:
149,269,177912,1,0,0:0:0:0:
375,380,178084,1,0,0:0:0:0:
355,142,178254,1,0,0:0:0:0:
436,90,178426,1,0,0:0:0:0:
436,90,178512,1,0,0:0:0:0:
436,90,178597,6,0,P|357:46|277:86,1,187.000005706787
354,190,179112,1,0,0:0:0:0:
354,190,179197,1,0,0:0:0:0:
353,189,179283,2,0,L|355:142,1,46.7500014266968
512,149,179454,2,0,L|509:195,1,46.7500014266968
425,292,179626,2,0,L|428:246,1,46.7500014266968
436,90,179797,6,0,B|330:66|360:123|254:100,1,187.000005706787
75,138,180312,2,0,P|119:149|164:137,1,93.5000028533936
127,3,180569,1,0,0:0:0:0:
122,6,180654,2,0,L|120:53,1,46.7500014266968
103,243,180826,2,0,L|100:289,1,46.7500014266968
96,384,180997,1,0,0:0:0:0:
189,348,181169,1,0,0:0:0:0:
189,348,181255,1,0,0:0:0:0:
189,347,181340,6,0,P|267:303|347:342,1,187.000005706787
441,321,181854,1,0,0:0:0:0:
449,299,181939,1,0,0:0:0:0:
452,276,182025,1,0,0:0:0:0:
449,253,182111,1,0,0:0:0:0:
440,231,182196,1,0,0:0:0:0:
496,87,182369,2,0,B|427:72|427:72|359:89,1,140.25000428009
349,82,182712,6,0,P|304:70|259:82,1,93.5000028533936
192,150,182969,1,0,0:0:0:0:
192,150,183054,2,0,P|147:161|102:149,1,93.5000028533936
17,105,183312,1,0,0:0:0:0:
17,105,183397,2,0,P|6:150|18:195,1,93.5000028533936
101,251,183655,1,0,0:0:0:0:
101,251,183740,2,0,P|112:296|100:341,1,93.5000028533936
4,362,183997,1,0,0:0:0:0:
4,362,184083,6,0,B|110:338|80:395|186:372,1,187.000005706787
263,311,184597,1,0,0:0:0:0:
263,311,184683,1,0,0:0:0:0:
263,311,184769,2,0,L|266:265,1,46.7500014266968
272,168,184940,2,0,L|275:122,1,46.7500014266968
281,25,185112,1,0,0:0:0:0:
185,211,185283,6,0,B|79:235|109:178|3:201,1,187.000005706787
140,121,185797,1,0,0:0:0:0:
55,299,185969,1,0,0:0:0:0:
55,299,186054,1,0,0:0:0:0:
55,299,186140,5,0,0:0:0:0:
321,316,186312,1,0,0:0:0:0:
140,121,186483,1,0,0:0:0:0:
406,138,186655,1,0,0:0:0:0:
321,316,186826,6,0,P|236:356|156:301,1,187.000005706787
111,231,187341,2,0,P|58:220|11:238,1,93.5000028533936
242,260,187684,1,0,0:0:0:0:
66,316,187855,1,0,0:0:0:0:
86,128,188026,1,0,0:0:0:0:
86,128,188112,1,0,0:0:0:0:
86,128,188198,6,0,B|192:152|162:95|268:118,1,187.000005706787
222,209,188712,1,0,0:0:0:0:
360,148,188884,1,0,0:0:0:0:
134,37,189054,1,0,0:0:0:0:
154,275,189226,1,0,0:0:0:0:
73,327,189398,1,0,0:0:0:0:
73,327,189484,1,0,0:0:0:0:
73,327,189569,6,0,P|152:371|232:331,1,187.000005706787
332,361,190084,1,0,0:0:0:0:
332,361,190169,1,0,0:0:0:0:
331,360,190255,2,0,L|333:313,1,46.7500014266968
336,216,190426,2,0,L|339:170,1,46.7500014266968
343,73,190597,1,0,0:0:0:0:
76,128,190769,6,0,B|182:152|152:95|258:118,1,187.000005706787
122,38,191283,1,0,0:0:0:0:
222,215,191454,1,0,0:0:0:0:
222,215,191540,1,0,0:0:0:0:
222,215,191626,1,0,0:0:0:0:
353,128,191797,1,0,0:0:0:0:
76,128,191969,1,0,0:0:0:0:
122,38,192140,1,0,0:0:0:0:
121,214,192312,5,0,0:0:0:0:
121,231,192397,1,0,0:0:0:0:
121,249,192483,1,0,0:0:0:0:
122,266,192569,1,0,0:0:0:0:
122,284,192654,1,0,0:0:0:0:
122,301,192740,1,0,0:0:0:0:
123,319,192826,1,0,0:0:0:0:
123,336,192912,1,0,0:0:0:0:
123,354,192997,2,0,L|169:357,3,46.7500014266968
259,324,193340,2,0,L|305:327,3,46.7500014266968
393,286,193683,5,0,0:0:0:0:
437,299,193768,1,0,0:0:0:0:
480,285,193854,1,0,0:0:0:0:
508,248,193940,1,0,0:0:0:0:
509,202,194025,1,0,0:0:0:0:
484,164,194111,1,0,0:0:0:0:
441,147,194197,1,0,0:0:0:0:
397,157,194283,1,0,0:0:0:0:
366,192,194369,1,0,0:0:0:0:
332,223,194454,1,0,0:0:0:0:
289,242,194540,1,0,0:0:0:0:
243,245,194626,1,0,0:0:0:0:
198,234,194711,1,0,0:0:0:0:
159,208,194797,1,0,0:0:0:0:
131,171,194883,1,0,0:0:0:0:
117,126,194969,1,0,0:0:0:0:
118,80,195054,6,0,L|164:77,3,46.7500014266968
235,11,195397,2,0,L|281:8,3,46.7500014266968
344,79,195740,2,0,L|390:76,3,46.7500014266968
461,10,196083,2,0,L|507:7,3,46.7500014266968
507,104,196426,5,0,0:0:0:0:
503,150,196511,1,0,0:0:0:0:
500,197,196597,1,0,0:0:0:0:
497,243,196683,1,0,0:0:0:0:
494,290,196769,2,0,L|491:336,1,46.7500014266968
374,308,196940,5,0,0:0:0:0:
377,261,197025,1,0,0:0:0:0:
380,214,197111,1,0,0:0:0:0:
383,168,197197,1,0,0:0:0:0:
387,122,197283,2,0,L|390:76,1,46.7500014266968
272,10,197454,5,0,0:0:0:0:
227,24,197540,1,0,0:0:0:0:
227,71,197626,1,0,0:0:0:0:
272,85,197712,1,0,0:0:0:0:
299,47,197797,1,0,0:0:0:0:
