osu file format v14

[General]
AudioFilename: audio.mp3
AudioLeadIn: 0
PreviewTime: 196241
Countdown: 0
SampleSet: None
StackLeniency: 0.2
Mode: 0
LetterboxInBreaks: 0
WidescreenStoryboard: 0

[Editor]
Bookmarks: 1417,24003,46591,57885,69181,80476,86122,91770,97417,103064,114358,125653,136947,148241,159535,165181,170829,197653,206123,211769,217417,223063,228711,234358,240005,251300
DistanceSpacing: 0.1
BeatDivisor: 8
GridSize: 4
TimelineZoom: 1.9

[Metadata]
Title:CRAZY TWISTSTEP
TitleUnicode:CRAZY TWISTSTEP
Artist:taku Inoue & banvox
ArtistUnicode:taku Inoue & banvox
Creator:Drimm
Version:CRAZY ULTRA
Source:
Tags:pa's lam system
BeatmapID:3476730
BeatmapSetID:1701560

[Difficulty]
HPDrainRate:4
CircleSize:4.3
OverallDifficulty:9
ApproachRate:9.6
SliderMultiplier:2
SliderTickRate:1

[Events]
//Background and Video events
0,0,"what.jpg",0,0
//Break Periods
//Storyboard Layer 0 (Background)
//Storyboard Layer 1 (Fail)
//Storyboard Layer 2 (Pass)
//Storyboard Layer 3 (Foreground)
//Storyboard Layer 4 (Overlay)
//Storyboard Sound Samples

[TimingPoints]
5,352.941176470588,4,2,1,70,1,0
24004,-200,4,2,1,30,0,0
25769,-200,4,2,1,5,0,0
25946,-200,4,2,1,30,0,0
27181,-200,4,2,1,5,0,0
27357,-200,4,2,1,30,0,0
28593,-200,4,2,1,5,0,0
28769,-200,4,2,1,30,0,0
32475,-400,4,2,1,30,0,0
32828,-400,4,2,1,5,0,0
33887,-400,4,2,1,30,0,0
35299,-200,4,2,1,30,0,0
37063,-200,4,2,1,5,0,0
37240,-200,4,2,1,30,0,0
38475,-200,4,2,1,5,0,0
38652,-200,4,2,1,30,0,0
39887,-200,4,2,1,5,0,0
40063,-200,4,2,1,30,0,0
43769,-400,4,2,1,30,0,0
44122,-400,4,2,1,5,0,0
45181,-400,4,2,1,30,0,0
46593,-100,4,2,1,45,0,0
48710,-80,4,2,1,45,0,0
49416,-100,4,2,1,45,0,0
50828,-133.333333333333,4,2,1,45,0,0
52240,-100,4,2,1,45,0,0
54357,-133.333333333333,4,2,1,45,0,0
55063,-100,4,2,1,45,0,0
57534,-57.1428571428571,4,2,1,50,0,0
67593,-57.1428571428571,4,2,1,5,0,0
67769,-100,4,2,1,50,0,0
69181,-57.1428571428571,4,2,1,50,0,0
80122,-50,4,2,1,70,0,0
80475,-50,4,2,1,70,0,1
81181,-200,4,2,1,70,0,1
84710,-66.6666666666667,4,2,1,70,0,1
86122,-80,4,2,1,70,0,1
86652,-33.3333333333333,4,2,1,70,0,1
86828,-80,4,2,1,70,0,1
87357,-33.3333333333333,4,2,1,70,0,1
87534,-80,4,2,1,70,0,1
88063,-33.3333333333333,4,2,1,70,0,1
88240,-80,4,2,1,70,0,1
88769,-33.3333333333333,4,2,1,70,0,1
88946,-80,4,2,1,70,0,1
89475,-33.3333333333333,4,2,1,70,0,1
89652,-80,4,2,1,70,0,1
90181,-33.3333333333333,4,2,1,70,0,1
90357,-66.6666666666667,4,2,1,70,0,1
91769,-40,4,2,1,70,0,1
96710,-25,4,2,1,70,0,1
97416,-66.6666666666667,4,2,1,70,0,1
100240,-50,4,2,1,70,0,1
101652,-133.333333333333,4,2,1,70,0,1
103063,-80,4,2,1,70,0,1
104299,-57.1428571428571,4,2,1,70,0,1
104828,-80,4,2,1,70,0,1
105534,-50,4,2,1,70,0,1
105710,-57.1428571428571,4,2,1,70,0,1
106063,-80,4,2,1,70,0,1
106946,-54.054054054054,4,2,1,70,0,1
107122,-57.1428571428571,4,2,1,70,0,1
107475,-80,4,2,1,70,0,1
108534,-57.1428571428571,4,2,1,70,0,1
109416,-50,4,2,1,70,0,1
110122,-44.4444444444445,4,2,1,70,0,1
110828,-40,4,2,1,70,0,1
112946,-66.6666666666667,4,2,1,70,0,1
114357,-200,4,2,1,30,0,0
114710,-200,4,2,1,5,0,0
115769,-200,4,2,1,30,0,0
116122,-200,4,2,1,5,0,0
116475,-200,4,2,1,30,0,0
116828,-200,4,2,1,5,0,0
117181,-200,4,2,1,30,0,0
117534,-200,4,2,1,5,0,0
118593,-200,4,2,1,30,0,0
118946,-200,4,2,1,5,0,0
119299,-200,4,2,1,30,0,0
119652,-200,4,2,1,5,0,0
120004,-100,4,2,1,30,0,0
120357,-100,4,2,1,5,0,0
121416,-100,4,2,1,30,0,0
121769,-100,4,2,1,5,0,0
122122,-100,4,2,1,30,0,0
122475,-100,4,2,1,5,0,0
122828,-100,4,2,1,30,0,0
123181,-100,4,2,1,5,0,0
124240,-200,4,2,1,45,0,0
125652,-57.1428571428571,4,2,1,45,0,0
132534,-100,4,2,1,45,0,0
133063,-57.1428571428571,4,2,1,45,0,0
136240,-80,4,2,1,45,0,0
136593,-40,4,2,1,45,0,0
136946,-57.1428571428571,4,2,1,50,0,0
146828,-66.6666666666667,4,2,1,70,0,0
147887,-66.6666666666667,4,2,1,60,0,0
148240,-57.1428571428571,4,2,1,70,0,1
151063,-44.4444444444445,4,2,1,70,0,1
153887,-57.1428571428571,4,2,1,70,0,1
156710,-44.4444444444445,4,2,1,70,0,1
159534,-36.3636363636364,4,2,1,70,0,1
163769,-100,4,2,1,70,0,1
164475,-100,4,2,1,45,0,1
165181,-50,4,2,1,70,0,1
168004,-40,4,2,1,70,0,1
169063,-50,4,2,1,70,0,1
169769,-66.6666666666667,4,2,1,70,0,1
169946,-40,4,2,1,70,0,1
170828,-100,4,2,1,30,0,0
182122,-66.6666666666667,4,2,1,40,0,0
190593,-133.333333333333,4,2,1,30,0,0
190681,-133.333333333333,4,2,1,15,0,0
192004,-133.333333333333,4,2,1,45,0,0
192357,-133.333333333333,4,2,1,5,0,0
192710,-79.9999999999999,4,2,1,45,0,0
193063,-79.9999999999999,4,2,1,5,0,0
193416,-79.9999999999999,4,2,1,45,0,0
194475,-200,4,2,1,70,0,0
194828,-100,4,2,1,70,0,0
195181,-66.6666666666667,4,2,1,70,0,0
195534,-50,4,2,1,70,0,0
195887,-40,4,2,1,70,0,0
196946,-50,4,2,1,70,0,0
197652,-40,4,2,1,70,0,1
199063,-50,4,2,1,70,0,1
200475,-40,4,2,1,70,0,1
201887,-66.6666666666667,4,2,1,70,0,1
203299,-50,4,2,1,70,0,1
204710,-50,4,2,1,70,0,1
206122,-57.1428571428571,4,2,1,70,0,1
206828,-40.8163265306122,4,2,1,70,0,1
207181,-57.1428571428571,4,2,1,70,0,1
207534,-100,4,2,1,70,0,1
208240,-40.8163265306122,4,2,1,70,0,1
208593,-57.1428571428571,4,2,1,70,0,1
209652,-40.8163265306122,4,2,1,70,0,1
210181,-100,4,2,1,70,0,1
210887,-40.8163265306122,4,2,1,70,0,1
211416,-55.8659217877095,4,2,1,70,0,1
211769,-33.3333333333333,4,2,1,70,0,1
216004,-57.1428571428571,4,2,1,70,0,1
217416,-50,4,2,1,70,0,1
217681,-50,4,2,1,35,0,1
217769,-50,4,2,1,70,0,1
219093,-50,4,2,1,35,0,1
219181,-50,4,2,1,70,0,1
220504,-50,4,2,1,35,0,1
220593,-50,4,2,1,70,0,1
221916,-50,4,2,1,35,0,1
222004,-50,4,2,1,70,0,1
222357,-25,4,2,1,70,0,1
223063,-100,4,2,1,70,0,1
223240,-100,4,2,1,50,0,0
228710,-40,4,2,1,70,0,1
231534,-33.3333333333333,4,2,1,70,0,1
233210,-40,4,2,1,70,0,1
233652,-50,4,2,1,70,0,1
234004,-66.6666666666667,4,2,1,70,0,1
234357,-40,4,2,1,70,0,1
235063,-28.5714285714286,4,2,1,70,0,1
235240,-40,4,2,1,70,0,1
236475,-28.5714285714286,4,2,1,70,0,1
236652,-40,4,2,1,70,0,1
237181,-33.3333333333333,4,2,1,70,0,1
237887,-28.5714285714286,4,2,1,70,0,1
238593,-25,4,2,1,70,0,1
240004,-400,4,2,1,40,0,0
241769,-400,4,2,1,5,0,0
242122,-400,4,2,1,40,0,0
242475,-400,4,2,1,5,0,0
242828,-400,4,2,1,40,0,0
243181,-400,4,2,1,5,0,0
244240,-400,4,2,1,40,0,0
244593,-400,4,2,1,5,0,0
244946,-400,4,2,1,40,0,0
245299,-400,4,2,1,5,0,0
245652,-400,4,2,1,40,0,0
246004,-400,4,2,1,5,0,0
247063,-400,4,2,1,40,0,0
247416,-400,4,2,1,5,0,0
247769,-400,4,2,1,40,0,0
248122,-400,4,2,1,5,0,0
248475,-400,4,2,1,40,0,0
248828,-400,4,2,1,5,0,0
249710,-400,4,2,1,40,0,0
249887,-66.6666666666667,4,2,1,55,0,0
251299,-66.6666666666667,4,1,2,65,0,0

[Colours]
Combo1 : 61,227,13
Combo2 : 135,248,140
Combo3 : 33,250,190

[HitObjects]
415,29,24004,6,0,L|408:103,1,75,10|0,0:3|3:0,0:0:0:0:
396,179,24357,2,0,L|389:253,1,75,0|0,0:0|3:0,0:0:0:0:
428,43,24710,6,0,L|423:92,1,50,0|0,0:0|3:0,0:0:0:0:
381,190,24975,2,0,L|375:250,1,50,0|0,0:0|3:0,0:0:0:0:
377,329,25240,1,0,0:0:0:0:
297,262,25416,6,0,L|308:137,1,125,2|0,0:0|3:0,0:0:0:0:
255,64,25946,2,0,L|255:40,1,25,0|0,0:0|3:0,0:0:0:0:
82,43,26122,6,0,L|87:92,1,50,2|0,0:0|3:0,0:0:0:0:
129,190,26387,2,0,L|135:250,1,50,0|0,0:0|3:0,0:0:0:0:
133,329,26652,1,0,0:0:0:0:
213,262,26828,6,0,L|201:137,1,125,2|0,0:0|3:0,0:0:0:0:
255,64,27357,2,0,L|255:40,1,25,0|0,0:0|3:0,0:0:0:0:
309,138,27534,6,0,L|313:187,1,50,0|0,0:0|3:0,0:0:0:0:
459,150,27799,2,0,L|454:100,1,50,0|0,0:0|3:0,0:0:0:0:
372,80,28063,1,0,0:0:0:0:
309,138,28240,2,0,L|297:262,1,125,2|0,0:0|3:0,0:0:0:0:
213,262,28769,6,0,L|216:286,1,25,0|0,0:0|3:0,0:0:0:0:
169,348,28946,2,0,L|145:351,1,25,2|0,0:0|3:0,0:0:0:0:
57,187,29122,5,0,0:0:0:0:
115,109,29299,1,0,0:0:0:0:
192,167,29475,1,0,0:0:0:0:
255,64,29652,6,0,L|255:40,1,25,2|0,0:0|3:0,0:0:0:0:
453,187,30887,5,0,0:0:0:0:
395,109,31064,1,2,0:0:0:0:
297,262,31328,6,0,L|294:286,1,25,0|0,0:0|3:0,0:0:0:0:
318,167,31593,5,0,0:0:0:0:
376,244,31769,1,2,0:0:0:0:
453,187,31946,1,0,0:0:0:0:
469,51,32122,1,0,0:0:0:0:
255,384,32475,6,0,B|241:372|241:372|228:223|228:223|235:205,1,187.5,2|0,0:0|3:0,0:0:0:0:
304,225,33887,2,0,P|307:207|306:186,1,37.5,2|0,0:0|3:0,0:0:0:0:
300,175,34240,2,0,P|297:157|298:136,1,37.5,0|0,0:0|3:0,0:0:0:0:
212,137,34593,2,0,P|213:156|210:175,1,37.5,2|0,0:0|3:0,0:0:0:0:
203,187,34946,2,0,P|202:206|206:225,1,37.5,0|0,0:0|3:0,0:0:0:0:
48,35,35299,6,0,L|55:109,1,75,10|0,0:3|3:0,0:0:0:0:
114,179,35652,2,0,L|121:253,1,75,0|0,0:0|3:0,0:0:0:0:
131,329,36005,6,0,L|82:334,1,50,0|0,0:0|3:0,0:0:0:0:
64,184,36269,2,0,L|113:179,1,50,0|0,0:0|3:0,0:0:0:0:
45,261,36535,1,0,0:0:0:0:
213,262,36711,6,0,L|202:137,1,125,2|0,0:0|3:0,0:0:0:0:
255,64,37241,2,0,L|255:40,1,25,0|0,0:0|3:0,0:0:0:0:
381,329,37416,6,0,L|430:334,1,50,2|0,0:0|3:0,0:0:0:0:
448,184,37681,2,0,L|399:179,1,50,0|0,0:0|3:0,0:0:0:0:
467,261,37946,1,0,0:0:0:0:
297,262,38123,6,0,L|309:137,1,125,2|0,0:0|3:0,0:0:0:0:
255,64,38652,2,0,L|255:40,1,25,0|0,0:0|3:0,0:0:0:0:
176,85,38829,6,0,L|172:36,1,50,0|0,0:0|3:0,0:0:0:0:
114,150,39093,2,0,L|110:199,1,50,0|0,0:0|3:0,0:0:0:0:
88,63,39358,1,0,0:0:0:0:
202,172,39534,2,0,L|214:296,1,125,2|0,0:0|3:0,0:0:0:0:
297,262,40064,6,0,L|294:286,1,25,0|0,0:0|3:0,0:0:0:0:
341,348,40241,2,0,L|365:351,1,25,2|0,0:0|3:0,0:0:0:0:
453,187,40417,5,0,0:0:0:0:
395,109,40594,1,0,0:0:0:0:
318,167,40770,1,0,0:0:0:0:
255,64,40947,6,0,L|255:40,1,25,2|0,0:0|3:0,0:0:0:0:
57,187,42182,5,0,0:0:0:0:
213,262,42357,2,0,L|215:285,1,25,2|0,0:0|3:0,0:0:0:0:
115,109,42887,5,0,0:0:0:0:
169,347,43063,2,0,L|145:349,1,25,2|0,0:0|3:0,0:0:0:0:
192,167,43328,5,0,0:0:0:0:
84,303,43593,6,0,L|81:279,1,25,0|0,0:0|3:0,0:0:0:0:
282,384,43769,6,0,B|295:372|295:372|291:344|299:315|302:306|305:300|315:264|308:223|308:223|301:205,1,187.5,2|0,0:0|3:0,0:0:0:0:
255,152,45181,2,0,P|250:134|249:113,1,37.5,2|0,0:0|3:0,0:0:0:0:
254,101,45534,2,0,P|255:82|252:61,1,37.5,2|0,0:0|3:0,0:0:0:0:
332,110,45887,2,0,P|327:92|326:71,1,37.5,2|0,0:0|3:0,0:0:0:0:
331,59,46240,2,0,P|332:40|329:19,1,37.5,2|0,0:0|3:0,0:0:0:0:
185,88,46593,6,0,L|135:83,1,50,10|0,0:3|3:0,0:0:0:0:
274,305,46946,6,0,P|281:285|295:259,1,50,8|0,0:0|3:0,0:0:0:0:
76,132,47122,2,0,L|71:181,1,50,0|0,0:0|3:0,0:0:0:0:
375,364,47475,6,0,P|354:367|325:368,1,50,0|0,0:0|3:0,0:0:0:0:
120,241,47652,2,0,L|169:245,1,50,8|0,0:0|3:0,0:0:0:0:
407,292,47828,6,0,P|394:270|378:251,1,50,0|0,0:0|3:0,0:0:0:0:
295,260,48004,2,0,P|282:281|274:305,1,50,10|0,0:3|3:0,0:0:0:0:
320,369,48181,2,0,P|344:368|369:364,1,50,0|0,0:0|3:0,0:0:0:0:
257,149,48357,5,8,0:0:0:0:
245,148,48446,1,0,0:0:0:0:
233,147,48534,2,0,L|229:197,1,50,0|0,0:0|3:0,0:0:0:0:
377,376,48710,6,0,P|346:381|315:381,1,62.5,2|0,0:0|3:0,0:0:0:0:
260,305,48887,2,0,P|270:275|286:248,1,62.5,8|0,0:3|3:0,0:0:0:0:
380,240,49063,2,0,P|400:263|415:290,1,62.5,8|0,0:0|3:0,0:0:0:0:
206,195,49240,5,0,0:0:0:0:
218,196,49329,1,0,0:0:0:0:
229,197,49417,2,0,L|233:147,1,50,10|0,0:3|3:0,0:0:0:0:
120,241,49769,6,0,L|124:290,1,50,8|0,0:0|3:0,0:0:0:0:
3,152,49946,2,0,L|-1:102,1,50,0|0,0:0|3:0,0:0:0:0:
134,89,50299,6,0,L|138:138,1,50,8|0,0:3|3:0,0:0:0:0:
47,298,50475,2,0,L|42:248,1,50,8|0,0:0|3:0,0:0:0:0:
120,241,50652,2,0,L|124:290,1,50,0|0,0:0|3:0,0:0:0:0:
185,337,50828,6,0,P|240:343|291:315,1,112.500004291535,10|0,0:3|3:0,0:0:0:0:
337,261,51181,2,0,P|385:235|441:241,1,112.500004291535,10|0,0:0|3:0,0:0:0:0:
252,179,51534,2,0,P|307:185|358:157,1,112.500004291535,2|0,0:0|3:0,0:0:0:0:
403,102,51887,2,0,P|451:76|507:82,1,112.500004291535,10|0,0:0|3:0,0:0:0:0:
452,249,52240,6,0,L|456:298,1,50,10|0,0:3|3:0,0:0:0:0:
142,224,52593,6,0,L|191:228,1,50,8|0,0:0|3:0,0:0:0:0:
331,287,52769,2,0,L|380:282,1,50,0|0,0:0|3:0,0:0:0:0:
180,103,53122,6,0,L|175:152,1,50,8|0,0:3|3:0,0:0:0:0:
255,271,53299,2,0,L|259:320,1,50,8|0,0:0|3:0,0:0:0:0:
164,27,53475,6,0,L|213:31,1,50,0|0,0:0|3:0,0:0:0:0:
192,228,53652,2,0,L|143:224,1,50,10|0,0:3|3:0,0:0:0:0:
180,103,53828,2,0,L|175:152,1,50,0|0,0:0|3:0,0:0:0:0:
237,323,54004,5,8,0:0:0:0:
249,322,54093,1,0,0:0:0:0:
260,321,54181,2,0,L|255:271,1,50,0|0,0:0|3:0,0:0:0:0:
432,116,54357,6,0,L|428:73,1,37.5000014305115,2|0,0:0|3:0,0:0:0:0:
259,96,54534,2,0,L|262:138,1,37.5000014305115,8|0,0:3|3:0,0:0:0:0:
364,103,54710,2,0,L|321:107,1,37.5000014305115,8|0,0:0|3:0,0:0:0:0:
279,269,54887,5,0,0:0:0:0:
267,270,54976,1,0,0:0:0:0:
255,271,55064,2,0,L|260:321,1,50,10|0,0:3|3:0,0:0:0:0:
73,371,55416,6,0,P|43:372|23:365,1,50,8|0,0:0|3:0,0:0:0:0:
0,190,55593,2,0,P|15:214|19:235,1,50,0|0,0:0|3:0,0:0:0:0:
89,260,55946,6,0,P|75:285|59:299,1,50,8|0,3:0|3:0,0:0:0:0:
28,122,56122,2,0,P|42:122|52:119,2,25,8|0|0,0:0|0:0|0:0,0:0:0:0:
116,157,56299,2,0,P|123:144|125:134,2,25
350,56,56475,5,2,0:2:0:0:
281,62,56652,1,2,0:2:0:0:
287,131,56828,1,2,0:2:0:0:
356,125,57004,1,2,0:2:0:0:
175,4,57181,6,0,P|160:3|150:6,2,25,2|2|2,0:0|0:0|0:0,0:0:0:0:
190,98,57357,2,0,P|183:85|175:78,2,25,2|2|2,0:0|0:0|0:0,0:0:0:0:
447,89,57534,6,0,B|462:122|455:155|452:160|449:165|443:204|455:232|455:232|478:289|577:217|473:154|420:219,1,262.500002503395,12|0,0:0|3:0,0:0:0:0:
404,290,57887,6,0,L|142:267,1,262.500002503395,10|0,0:3|3:0,0:0:0:0:
177,347,58240,2,0,L|350:362,1,175.00000166893,8|0,0:0|0:0,0:0:0:0:
366,168,58593,6,0,L|374:81,1,87.500000834465,0|0,0:0|3:0,0:0:0:0:
300,30,58769,1,8,0:3:0:0:
300,30,58857,1,0,0:0:0:0:
292,117,58946,2,0,L|300:30,1,87.500000834465,8|0,0:0|3:0,0:0:0:0:
210,160,59122,2,0,L|218:73,1,87.500000834465,0|0,0:0|3:0,0:0:0:0:
52,80,59299,6,0,L|67:254,2,175.00000166893,10|0|8,0:3|0:0|0:0,0:0:0:0:
47,5,59740,1,0,0:0:0:0:
47,5,59828,1,0,0:0:0:0:
218,73,60004,6,0,L|210:160,1,87.500000834465,2|0,0:0|3:0,0:0:0:0:
285,205,60181,1,8,0:3:0:0:
285,205,60269,1,0,0:0:0:0:
292,117,60357,2,0,L|285:205,1,87.500000834465,8|0,0:0|3:0,0:0:0:0:
374,81,60533,2,0,L|366:168,1,87.500000834465,0|0,0:0|3:0,0:0:0:0:
438,324,60710,6,0,L|176:347,1,262.500002503395,10|0,0:3|3:0,0:0:0:0:
96,380,61063,2,0,L|112:206,1,175.00000166893,8|0,0:0|0:0,0:0:0:0:
181,75,61416,6,0,P|188:117|172:158,1,87.500000834465,0|0,0:0|3:0,0:0:0:0:
112,205,61593,1,8,0:3:0:0:
112,205,61681,1,0,0:0:0:0:
104,293,61769,2,0,L|112:206,1,87.500000834465,8|0,0:0|3:0,0:0:0:0:
62,144,61946,2,0,P|55:102|71:62,1,87.500000834465,0|0,0:0|3:0,0:0:0:0:
312,23,62122,6,0,B|399:15|399:15|403:18|403:18|487:11,1,175.00000166893,10|0,0:3|0:0,0:0:0:0:
238,29,62475,1,8,0:0:0:0:
463,99,62652,5,0,0:0:0:0:
389,93,62828,1,2,0:0:0:0:
360,162,63004,1,8,0:3:0:0:
419,211,63181,5,8,0:0:0:0:
419,211,63269,1,0,0:0:0:0:
480,172,63357,1,0,0:0:0:0:
319,347,63534,6,0,P|228:261|104:291,1,262.500002503395,10|0,0:3|3:0,0:0:0:0:
39,251,63887,2,0,P|30:293|42:335,1,87.500000834465,8|0,0:0|3:0,0:0:0:0:
332,341,64063,6,0,P|281:271|199:243,1,175.00000166893
123,367,64416,1,8,0:3:0:0:
112,366,64504,1,0,0:0:0:0:
42,335,64593,2,0,P|30:293|40:251,1,87.500000834465,8|0,0:0|3:0,0:0:0:0:
142,118,64769,2,0,P|184:128|215:158,1,87.500000834465,0|0,0:0|3:0,0:0:0:0:
318,211,64946,6,0,B|324:128|324:128|321:124|321:124|329:37,2,175.00000166893,10|0|8,0:3|0:0|0:0,0:0:0:0:
279,312,65387,1,0,0:0:0:0:
279,312,65475,2,0,P|248:343|207:356,1,87.500000834465,0|0,0:0|3:0,0:0:0:0:
309,199,65652,6,0,B|316:111,1,87.500000834465,2|0,0:0|3:0,0:0:0:0:
446,59,65828,1,8,0:3:0:0:
446,59,65916,1,0,0:0:0:0:
358,52,66004,2,0,B|445:59,1,87.500000834465,8|0,0:0|3:0,0:0:0:0:
504,101,66181,2,0,B|496:188,1,87.500000834465,0|0,0:0|3:0,0:0:0:0:
455,247,66357,2,0,B|367:239,1,87.500000834465,10|0,0:3|3:0,0:0:0:0:
256,192,66490,12,0,67593,0:0:0:0:
365,384,67769,6,0,P|377:310|374:235,1,150,2|0,0:0|3:0,0:0:0:0:
314,176,68122,2,0,P|301:102|304:27,1,150,2|0,0:0|3:0,0:0:0:0:
315,27,68475,2,0,P|313:102|326:176,1,150,2|0,0:0|3:0,0:0:0:0:
386,235,68828,2,0,P|388:310|376:384,1,150,2|0,0:0|3:0,0:0:0:0:
154,291,69181,6,0,P|110:292|67:283,1,87.500000834465,10|0,0:0|3:0,0:0:0:0:
465,144,69534,6,0,B|500:119|500:119|509:76,1,87.500000834465,8|0,0:0|3:0,0:0:0:0:
474,11,69711,2,0,B|434:-7|434:-7|393:5,1,87.500000834465,8|0,0:0|3:0,0:0:0:0:
354,69,69887,2,0,B|357:112|357:112|389:141,1,87.500000834465,8|0,0:0|3:0,0:0:0:0:
393,322,70152,6,0,L|386:235,1,87.500000834465,8|0,0:0|3:0,0:0:0:0:
72,203,70415,2,0,P|56:162|52:118,1,87.500000834465,8|0,0:0|3:0,0:0:0:0:
130,97,70592,2,0,P|164:70|204:52,1,87.500000834465,10|0,0:0|3:0,0:0:0:0:
509,76,70946,6,0,B|500:119|500:119|465:144,1,87.500000834465,8|0,0:0|3:0,0:0:0:0:
393,5,71123,2,0,B|434:-7|434:-7|474:11,1,87.500000834465,8|0,0:0|3:0,0:0:0:0:
389,141,71299,2,0,B|357:112|357:112|354:69,1,87.500000834465,10|0,0:0|3:0,0:0:0:0:
473,227,71563,6,0,L|386:235,1,87.500000834465,8|0,0:0|3:0,0:0:0:0:
248,119,71827,2,0,P|284:143|313:175,1,87.500000834465,8|0,0:0|3:0,0:0:0:0:
263,239,72004,2,0,P|251:280|229:318,1,87.500000834465,10|0,0:0|3:0,0:0:0:0:
354,69,72357,6,0,B|357:112|357:112|389:141,1,87.500000834465,8|0,0:0|3:0,0:0:0:0:
465,144,72534,2,0,B|500:119|500:119|509:76,1,87.500000834465,8|0,0:0|3:0,0:0:0:0:
474,11,72710,2,0,B|434:-7|434:-7|393:5,1,87.500000834465,8|0,0:0|3:0,0:0:0:0:
473,227,72975,6,0,L|480:314,1,87.500000834465,8|0,0:0|3:0,0:0:0:0:
154,291,73240,2,0,P|110:292|67:283,1,87.500000834465,8|0,0:0|3:0,0:0:0:0:
72,203,73416,2,0,P|56:162|52:118,1,87.500000834465,10|0,0:0|3:0,0:0:0:0:
389,141,73769,6,0,B|357:112|357:112|354:69,1,87.500000834465,8|0,0:0|3:0,0:0:0:0:
509,76,73946,2,0,B|500:119|500:119|465:144,1,87.500000834465,8|0,0:0|3:0,0:0:0:0:
393,5,74122,2,0,B|434:-7|434:-7|474:11,1,87.500000834465,10|0,0:0|3:0,0:0:0:0:
480,314,74387,6,0,L|392:321,1,87.500000834465,8|0,0:0|3:0,0:0:0:0:
130,97,74652,2,0,P|164:70|204:52,1,87.500000834465,8|0,0:0|3:0,0:0:0:0:
248,119,74828,6,0,P|284:143|313:175,1,87.500000834465,10|0,0:0|3:0,0:0:0:0:
154,291,75004,2,0,P|110:292|67:283,1,87.500000834465,8|0,0:0|3:0,0:0:0:0:
130,97,75181,2,0,P|164:70|204:52,1,87.500000834465,8|0,0:0|3:0,0:0:0:0:
263,239,75357,2,0,P|251:280|229:318,1,87.500000834465,8|0,0:0|3:0,0:0:0:0:
61,194,75534,6,0,P|49:152|46:108,1,87.500000834465,8|0,0:0|3:0,0:0:0:0:
261,119,75710,2,0,P|296:146|323:180,1,87.500000834465,8|0,0:0|3:0,0:0:0:0:
142,298,75886,2,0,P|98:297|56:285,1,87.500000834465,8|0,0:0|3:0,0:0:0:0:
134,83,76063,2,0,P|171:59|211:43,1,87.500000834465,8|0,0:0|3:0,0:0:0:0:
269,267,76240,6,0,P|251:306|225:342,1,87.500000834465,8|0,0:0|3:0,0:0:0:0:
49,184,76417,2,0,P|41:141|41:97,1,87.500000834465,8|0,0:0|3:0,0:0:0:0:
277,121,76593,2,0,P|309:150|334:186,1,87.500000834465,8|0,0:0|3:0,0:0:0:0:
129,306,76769,2,0,P|85:301|44:287,1,87.500000834465,8|0,0:0|3:0,0:0:0:0:
141,70,76946,2,0,P|179:48|220:35,1,87.500000834465,8|0,0:0|3:0,0:0:0:0:
271,283,77122,6,0,P|250:322|222:355,1,87.500000834465,8|0,0:0|3:0,0:0:0:0:
38,171,77299,2,0,P|33:128|36:84,1,87.500000834465,8|0,0:0|3:0,0:0:0:0:
293,124,77475,2,0,P|323:156|346:193,1,87.500000834465,8|0,0:0|3:0,0:0:0:0:
178,202,77651,5,8,0:0:0:0:
162,199,77739,1,8,0:0:0:0:
165,183,77828,1,8,0:0:0:0:
181,186,77916,1,8,0:0:0:0:
177,208,78004,5,8,0:0:0:0:
156,198,78092,1,8,0:0:0:0:
166,177,78181,1,8,0:0:0:0:
187,187,78269,1,8,0:0:0:0:
174,218,78357,5,8,0:0:0:0:
146,195,78445,1,8,0:0:0:0:
169,167,78534,1,8,0:0:0:0:
197,190,78622,1,8,0:0:0:0:
165,230,78710,5,8,0:0:0:0:
134,186,78798,1,8,0:0:0:0:
178,155,78887,1,8,0:0:0:0:
209,199,78975,1,8,0:0:0:0:
173,192,79063,5,12,0:0:0:0:
474,11,79328,5,8,0:0:0:0:
444,72,79416,1,8,0:0:0:0:
406,16,79504,1,8,0:0:0:0:
376,78,79593,1,8,0:0:0:0:
338,22,79681,1,8,0:0:0:0:
281,60,79769,5,8,0:3:0:0:
272,43,79858,1,8,0:3:0:0:
262,58,79946,1,8,0:3:0:0:
5,143,80122,6,0,B|-10:118|-2:98|-2:98|-11:94|-11:94|-1:97|-1:97|11:67|54:62|54:62|139:55|139:55|138:44|138:44|139:55|139:55|194:50,1,300,2|0,0:0|3:0,0:0:0:0:
503,143,80475,6,0,B|439:192|362:153|354:148|345:140|288:100|218:152,1,300,8|0,0:3|3:0,0:0:0:0:
503,143,80828,2,0,B|439:192|362:153|354:148|345:140|288:100|218:152,1,300,8|0,0:3|3:0,0:0:0:0:
121,195,81181,6,0,L|119:171,1,25,10|0,0:3|0:0,0:0:0:0:
132,210,81357,2,0,L|108:205,1,25,2|0,0:0|0:0,0:0:0:0:
207,313,81534,5,10,0:3:0:0:
151,307,81622,1,2,0:0:0:0:
97,316,81710,1,2,0:0:0:0:
43,302,81799,1,2,0:0:0:0:
148,203,81887,6,0,L|136:225,1,25,10|0,0:3|0:0,0:0:0:0:
147,184,82063,2,0,L|164:203,1,25,2|0,0:0|0:0,0:0:0:0:
43,302,82241,5,10,0:3:0:0:
34,248,82329,1,2,0:0:0:0:
7,199,82417,1,2,0:0:0:0:
5,143,82505,1,2,0:0:0:0:
130,181,82593,6,0,L|153:171,1,25,10|0,0:3|0:0,0:0:0:0:
121,195,82769,2,0,L|119:171,1,25,2|0,0:0|0:0,0:0:0:0:
5,143,82947,5,10,0:3:0:0:
53,118,83035,1,2,0:0:0:0:
91,78,83123,1,2,0:0:0:0:
145,58,83211,1,2,0:0:0:0:
132,210,83299,6,0,L|108:205,1,25,10|0,0:3|0:0,0:0:0:0:
148,203,83476,2,0,L|136:225,1,25,2|0,0:0|0:0,0:0:0:0:
145,58,83652,5,10,0:3:0:0:
183,94,83740,1,2,0:0:0:0:
233,118,83828,1,2,0:0:0:0:
267,161,83916,1,2,0:0:0:0:
147,184,84004,6,0,L|164:203,1,25,10|0,0:3|0:0,0:0:0:0:
130,181,84181,2,0,L|153:171,1,25,2|0,0:0|0:0,0:0:0:0:
267,161,84358,5,10,0:3:0:0:
245,208,84446,1,2,0:0:0:0:
238,264,84534,1,2,0:0:0:0:
207,313,84622,1,2,0:0:0:0:
419,384,84710,6,0,P|500:318|460:222,1,225.000008583069,10|0,0:3|3:0,0:0:0:0:
393,256,85063,2,0,P|359:156|446:97,1,225.000008583069,10|0,0:3|3:0,0:0:0:0:
224,384,85416,2,0,P|305:318|265:222,1,225.000008583069,10|0,0:3|3:0,0:0:0:0:
248,95,85769,2,0,P|163:155|197:255,1,225.000008583069,10|0,0:0|3:0,0:0:0:0:
493,3,86122,6,0,B|506:4|513:14|513:14|488:29|470:12|467:11|463:8|439:3|414:7,1,125,8|0,0:3|3:0,0:0:0:0:
324,33,86387,2,0,B|337:31|344:21|344:21|319:6|301:23|298:24|294:27|270:33|246:28,1,125,8|0,0:3|3:0,0:0:0:0:
298,142,86652,6,0,B|292:122|292:122|319:129|319:129|299:179|299:179|294:182|294:182|285:222,1,150.000005722046,8|0,0:3|3:0,0:0:0:0:
512,340,86828,6,0,B|511:353|501:360|501:360|486:335|503:317|504:314|507:310|512:286|506:252,1,125,8|0,0:0|3:0,0:0:0:0:
482,171,87093,2,0,B|484:184|494:191|494:191|509:166|492:148|491:145|488:141|482:117|488:83,1,125,8|0,0:3|3:0,0:0:0:0:
300,235,87357,6,0,B|285:250|285:250|278:223|278:223|331:215|331:215|336:218|336:218|376:205,1,150.000005722046,8|0,0:3|3:0,0:0:0:0:
156,22,87534,6,0,B|157:9|167:2|167:2|182:27|165:45|164:48|161:52|156:76|162:110,1,125,8|0,0:3|3:0,0:0:0:0:
186,191,87798,2,0,B|184:178|174:171|174:171|159:196|176:214|177:217|180:221|186:245|180:279,1,125,8|0,0:3|3:0,0:0:0:0:
379,186,88063,6,0,B|399:190|399:190|379:210|379:210|346:168|346:168|346:162|346:162|315:134,1,150.000005722046,8|0,0:3|3:0,0:0:0:0:
175,359,88240,6,0,B|162:358|155:348|155:348|180:333|198:350|201:351|205:354|229:359|263:353,1,125,8|0,0:0|3:0,0:0:0:0:
344,329,88504,2,0,B|331:331|324:341|324:341|349:356|367:339|370:338|374:335|398:329|432:335,1,125,8|0,0:3|3:0,0:0:0:0:
298,142,88769,6,0,B|292:122|292:122|319:129|319:129|299:179|299:179|294:182|294:182|285:222,1,150.000005722046,8|0,0:3|3:0,0:0:0:0:
512,340,88946,6,0,B|511:353|501:360|501:360|486:335|503:317|504:314|507:310|512:286|506:252,1,125,8|0,0:3|3:0,0:0:0:0:
482,171,89211,2,0,B|484:184|494:191|494:191|509:166|492:148|491:145|488:141|482:117|488:83,1,125,8|0,0:3|3:0,0:0:0:0:
300,235,89475,6,0,B|285:250|285:250|278:223|278:223|331:215|331:215|336:218|336:218|376:205,1,150.000005722046,8|0,0:3|3:0,0:0:0:0:
493,3,89652,6,0,B|506:4|513:14|513:14|488:29|470:12|467:11|463:8|439:3|414:7,1,125,8|0,0:0|3:0,0:0:0:0:
324,33,89917,2,0,B|337:31|344:21|344:21|319:6|301:23|298:24|294:27|270:33|246:28,1,125,8|0,0:3|3:0,0:0:0:0:
379,186,90181,6,0,B|399:190|399:190|379:210|379:210|346:168|346:168|346:162|346:162|315:134,1,150.000005722046,8|0,0:3|3:0,0:0:0:0:
14,9,90357,6,0,P|95:74|56:172,1,225.000008583069,10|0,0:3|3:0,0:0:0:0:
124,215,90710,2,0,P|84:312|166:378,1,225.000008583069,2|0,0:0|3:0,0:0:0:0:
198,178,91063,2,0,P|237:80|155:15,1,225.000008583069,10|0,0:0|3:0,0:0:0:0:
308,384,91416,2,0,P|226:318|266:221,1,225.000008583069,10|0,0:0|3:0,0:0:0:0:
496,128,91769,6,0,P|520:73|502:14,1,125,8|0,0:3|3:0,0:0:0:0:
365,164,91946,5,0,0:0:0:0:
349,163,92034,1,0,0:0:0:0:
348,179,92122,1,0,0:0:0:0:
364,180,92210,1,0,0:0:0:0:
365,164,92299,1,0,0:0:0:0:
349,163,92387,1,0,0:0:0:0:
266,224,92474,6,0,L|276:99,1,125,8|0,0:0|3:0,0:0:0:0:
277,99,92651,2,0,L|152:88,1,125,0|0,0:0|3:0,0:0:0:0:
153,88,92827,2,0,L|142:212,1,125,0|0,0:0|3:0,0:0:0:0:
142,213,93004,2,0,L|266:223,1,125,0|0,0:0|3:0,0:0:0:0:
509,2,93181,6,0,P|449:7|407:52,1,125,8|0,0:3|3:0,0:0:0:0:
387,349,93357,2,0,P|327:344|285:299,1,125,0|0,0:0|3:0,0:0:0:0:
232,17,93534,5,0,0:0:0:0:
216,16,93622,1,0,0:0:0:0:
217,0,93710,1,0,0:0:0:0:
233,1,93798,1,0,0:0:0:0:
277,99,93886,6,0,L|152:88,1,125,8|0,0:0|3:0,0:0:0:0:
152,88,94063,2,0,L|141:213,1,125,0|0,0:0|3:0,0:0:0:0:
141,212,94239,2,0,L|265:223,1,125,8|0,0:3|3:0,0:0:0:0:
266,223,94416,2,0,L|277:99,1,125,0|0,0:0|3:0,0:0:0:0:
393,53,94593,6,0,P|428:101|487:115,1,125,8|0,0:3|3:0,0:0:0:0:
379,235,94769,2,0,P|344:284|284:298,1,125,0|0,0:0|3:0,0:0:0:0:
70,133,94946,5,0,0:0:0:0:
69,149,95034,1,0,0:0:0:0:
53,148,95122,1,0,0:0:0:0:
54,132,95210,1,0,0:0:0:0:
152,88,95298,6,0,L|141:213,1,125,8|0,0:0|3:0,0:0:0:0:
141,213,95475,2,0,L|266:224,1,125,0|0,0:0|3:0,0:0:0:0:
265,224,95651,2,0,L|276:100,1,125,0|0,0:0|3:0,0:0:0:0:
276,99,95828,2,0,L|152:88,1,125,0|0,0:0|3:0,0:0:0:0:
474,157,96004,6,0,L|485:281,1,125,10|0,0:3|3:0,0:0:0:0:
431,371,96181,1,2,0:0:0:0:
349,168,96269,2,0,L|474:157,1,125,2|0,0:3|3:0,0:0:0:0:
431,371,96446,1,2,0:0:0:0:
360,293,96534,2,0,L|349:168,1,125,2|0,0:0|3:0,0:0:0:0:
152,88,96710,6,0,B|174:50|136:-7|51:70|131:100|131:100|138:176|138:176|126:177|126:177|138:176|138:176|143:232|143:232|155:231|155:231|143:232|143:232|148:293,1,400,6|0,0:0|3:0,0:0:0:0:
147,291,97063,2,0,B|143:232|143:232|155:231|155:231|143:232|143:232|138:176|138:176|126:177|126:177|138:176|138:176|131:100|131:100|51:70|136:-7|174:50|152:88,1,400,2|0,0:0|3:0,0:0:0:0:
235,79,97416,6,0,P|235:42|221:8,1,75.0000028610231,8|0,0:3|3:0,0:0:0:0:
22,48,97593,2,0,P|22:85|37:120,1,75.0000028610231,2|0,0:0|3:0,0:0:0:0:
225,328,97769,6,0,B|239:156|239:156|238:185|249:208,1,225.000008583069,8|0,0:3|3:0,0:0:0:0:
455,300,98122,6,0,L|449:226,1,75.0000028610231,8|0,0:3|3:0,0:0:0:0:
322,165,98299,1,2,0:0:0:0:
322,165,98387,1,10,0:3:0:0:
397,160,98475,2,0,L|322:166,1,75.0000028610231,0|0,0:0|3:0,0:0:0:0:
428,11,98652,2,0,L|434:86,1,75.0000028610231,8|0,0:3|3:0,0:0:0:0:
370,378,98828,6,0,L|376:304,1,75.0000028610231,8|0,0:3|3:0,0:0:0:0:
242,132,99004,2,0,L|248:206,1,75.0000028610231,2|0,0:0|3:0,0:0:0:0:
168,297,99181,6,0,P|141:209|85:282,1,225.000008583069,8|0,0:3|3:0,0:0:0:0:
261,213,99534,6,0,L|255:139,1,75.0000028610231,8|0,0:3|3:0,0:0:0:0:
382,371,99710,1,2,0:0:0:0:
382,371,99799,1,10,0:3:0:0:
389,297,99887,2,0,L|383:371,1,75.0000028610231,0|0,0:0|3:0,0:0:0:0:
512,241,100063,2,0,L|438:235,1,75.0000028610231,8|0,0:3|3:0,0:0:0:0:
236,62,100240,6,0,P|295:70|326:106,1,100,8|0,0:3|3:0,0:0:0:0:
469,71,100416,2,0,P|432:118|385:126,1,100,2|0,0:0|3:0,0:0:0:0:
119,142,100593,6,0,B|61:202|-2:92|76:48|137:98|175:126|179:132|183:138|216:152|254:138,1,300,8|0,0:3|3:0,0:0:0:0:
469,71,100946,6,0,P|432:118|385:126,1,100,8|0,0:3|3:0,0:0:0:0:
331,175,101122,1,2,0:0:0:0:
331,175,101210,1,2,0:0:0:0:
344,268,101298,2,0,P|321:212|337:168,1,100,8|0,0:3|3:0,0:0:0:0:
236,62,101475,2,0,P|295:70|326:106,1,100,0|0,0:0|3:0,0:0:0:0:
309,383,101652,6,0,P|253:386|209:352,1,112.500004291535,10|0,0:3|3:0,0:0:0:0:
164,288,102004,2,0,P|119:254|64:257,1,112.500004291535,2|0,0:3|3:0,0:0:0:0:
244,200,102357,2,0,P|188:203|144:169,1,112.500004291535,10|0,0:3|3:0,0:0:0:0:
99,105,102710,2,0,P|54:71|0:74,1,112.500004291535,10|0,0:3|3:0,0:0:0:0:
212,128,103063,6,0,P|241:109|273:100,1,62.5,8|0,0:3|3:0,0:0:0:0:
240,25,103240,1,0,0:0:0:0:
240,25,103328,1,0,0:0:0:0:
240,25,103416,2,0,P|273:22|305:30,1,62.5,8|0,0:3|3:0,0:0:0:0:
427,208,103593,1,0,0:0:0:0:
427,208,103681,1,0,0:0:0:0:
427,208,103769,6,0,L|364:213,1,62.5,8|0,0:3|3:0,0:0:0:0:
158,235,103946,1,0,0:0:0:0:
158,235,104034,1,8,0:3:0:0:
292,222,104122,2,0,L|229:227,1,62.5,8|0,0:0|3:0,0:0:0:0:
101,20,104299,6,0,L|13:27,1,87.500000834465,10|0,0:3|3:0,0:0:0:0:
9,38,104475,2,0,L|97:31,1,87.500000834465,10|0,0:3|3:0,0:0:0:0:
69,284,104652,5,0,0:0:0:0:
69,284,104740,1,0,0:0:0:0:
69,284,104828,2,0,P|55:256|51:225,1,62.5,8|0,0:3|3:0,0:0:0:0:
152,347,105004,1,0,0:0:0:0:
152,347,105092,1,0,0:0:0:0:
152,347,105181,6,0,P|182:342|210:329,1,62.5,8|0,0:3|3:0,0:0:0:0:
365,133,105357,2,0,P|395:137|423:150,1,62.5,0|8,0:0|0:3,0:0:0:0:
285,178,105534,2,0,L|293:78,1,100,8|0,0:0|0:0,0:0:0:0:
0,35,105710,6,0,L|7:122,1,87.500000834465,10|0,0:3|3:0,0:0:0:0:
18,126,105886,2,0,L|11:39,1,87.500000834465,10|0,0:3|3:0,0:0:0:0:
205,223,106063,5,0,0:0:0:0:
205,223,106152,1,0,0:0:0:0:
205,223,106240,2,0,L|200:160,1,62.5,8|0,0:3|3:0,0:0:0:0:
468,37,106416,1,0,0:0:0:0:
468,37,106504,1,0,0:0:0:0:
388,39,106593,6,0,L|325:44,1,62.5,8|0,0:3|3:0,0:0:0:0:
505,169,106769,2,0,L|510:106,1,62.5,0|8,0:0|0:3,0:0:0:0:
249,51,106946,2,0,L|156:58,1,92.4999996471405,8|0,0:0|3:0,0:0:0:0:
15,136,107122,6,0,L|102:128,1,87.500000834465,10|0,0:3|3:0,0:0:0:0:
106,117,107298,2,0,L|19:125,1,87.500000834465,10|0,0:3|3:0,0:0:0:0:
277,336,107475,5,0,0:0:0:0:
277,336,107563,1,0,0:0:0:0:
277,335,107652,2,0,P|284:305|282:274,1,62.5,8|0,0:3|3:0,0:0:0:0:
205,223,107828,5,0,0:0:0:0:
205,223,107916,1,0,0:0:0:0:
204,223,108005,2,0,B|170:215|151:235|148:237|145:240|121:254|79:242,1,125,8|0,0:3|3:0,0:0:0:0:
357,221,108269,1,8,0:3:0:0:
357,221,108357,2,0,P|334:199|306:185,1,62.5,8|0,0:0|3:0,0:0:0:0:
117,122,108534,6,0,L|109:34,1,87.500000834465,10|0,0:3|3:0,0:0:0:0:
98,30,108710,2,0,L|106:118,1,87.500000834465,10|0,0:3|3:0,0:0:0:0:
94,350,108887,2,0,L|182:342,1,87.500000834465,8|0,0:3|3:0,0:0:0:0:
414,354,109063,2,0,L|406:266,1,87.500000834465,8|0,0:3|3:0,0:0:0:0:
418,34,109240,2,0,L|330:42,1,87.500000834465,8|0,0:3|3:0,0:0:0:0:
126,132,109416,6,0,P|117:83|109:34,1,100,8|0,0:3|3:0,0:0:0:0:
315,62,109593,2,0,P|364:53|414:45,1,100,8|8,0:3|3:3,0:0:0:0:
385,251,109769,2,0,P|394:300|403:350,1,100,8|0,0:0|3:0,0:0:0:0:
196,321,109946,2,0,P|147:330|98:339,1,100,8|0,0:3|3:0,0:0:0:0:
120,38,110122,6,0,P|131:99|154:148,1,112.500004291535,8|0,0:3|3:0,0:0:0:0:
102,328,110299,2,0,P|163:316|212:293,1,112.500004291535,8|0,0:3|3:0,0:0:0:0:
392,346,110475,2,0,P|380:284|357:235,1,112.500004291535,8|0,0:3|3:0,0:0:0:0:
410,56,110652,2,0,P|348:67|299:90,1,112.500004291535,8|0,0:3|3:0,0:0:0:0:
130,41,110828,6,0,P|146:101|188:147,1,125,8|0,0:3|3:0,0:0:0:0:
380,341,111004,2,0,P|364:281|323:236,1,125,8|8,0:3|3:3,0:0:0:0:
405,66,111181,2,0,P|345:82|300:124,1,125,8|0,0:0|3:0,0:0:0:0:
105,317,111357,2,0,P|165:300|211:259,1,125,8|0,0:3|3:0,0:0:0:0:
252,189,111534,5,8,0:3:0:0:
258,188,111622,1,8,0:3:0:0:
260,194,111711,1,8,0:3:0:0:
253,195,111799,1,8,0:3:0:0:
251,186,111887,5,8,0:3:0:0:
261,187,111975,1,8,0:3:0:0:
261,197,112064,1,8,0:3:0:0:
250,196,112152,1,8,0:3:0:0:
250,182,112240,5,8,0:3:0:0:
265,186,112328,1,8,0:3:0:0:
261,201,112417,1,8,0:3:0:0:
246,197,112505,1,8,0:3:0:0:
252,176,112593,5,8,0:3:0:0:
271,188,112681,1,8,0:3:0:0:
259,207,112770,1,8,0:3:0:0:
240,195,112858,1,8,0:3:0:0:
158,293,112946,6,0,P|242:361|350:345,1,225.000008583069,10|0,0:0|3:0,0:0:0:0:
320,259,113299,2,0,P|404:190|512:206,1,225.000008583069,2|0,0:0|3:0,0:0:0:0:
63,138,113652,2,0,P|147:206|255:190,1,225.000008583069,2|0,0:0|3:0,0:0:0:0:
417,51,114004,2,0,P|309:34|225:104,1,225.000008583069,6|0,0:0|3:0,0:0:0:0:
356,373,114357,6,0,B|405:387|453:362|461:316|461:316|467:320|467:320|470:290|461:264|434:245|434:245|440:242|440:242|410:215|365:208|331:233|317:265,1,375,2|0,0:0|3:0,0:0:0:0:
264,360,115769,2,0,B|176:352|176:352|172:355|172:355|90:348,1,175,2|0,0:0|3:0,0:0:0:0:
78,274,116475,2,0,B|159:281|159:281|164:277|164:277|251:285,1,175,2|0,0:0|3:0,0:0:0:0:
321,258,117181,6,0,B|356:294|410:296|440:261|440:261|443:267|443:267|461:243|466:216|452:186|452:186|459:186|459:186|446:148|411:119|369:124|340:141,1,375,2|0,0:0|3:0,0:0:0:0:
290,191,118593,2,0,B|255:155|215:162|210:163|204:165|170:174|128:141,1,175,2|0,0:0|3:0,0:0:0:0:
83,39,119299,2,0,B|124:76|159:62|165:60|170:60|210:53|248:87,1,175,2|0,0:0|3:0,0:0:0:0:
386,183,120004,6,0,B|318:306|315:418|385:437|493:441|619:229|311:168|278:326|271:331|265:335|179:376|158:359|158:359|163:352|163:352|125:366|60:375|17:317,1,750,2|0,0:0|3:0,0:0:0:0:
0,258,121416,2,0,P|-23:160|109:237,1,350,2|0,0:0|3:0,0:0:0:0:
194,143,122122,2,0,P|247:14|115:59,1,350,2|0,0:0|3:0,0:0:0:0:
386,183,122828,6,0,B|265:255|207:351|258:402|349:459|564:339|328:132|220:252|212:253|205:254|110:246|100:221|100:221|108:217|108:217|68:210|7:186|0:114,1,750,2|0,0:0|3:0,0:0:0:0:
218,1,124240,2,0,P|220:39|214:76,1,75,2|0,0:0|3:0,0:0:0:0:
205,84,124593,2,0,P|203:122|209:159,1,75,2|0,0:0|3:0,0:0:0:0:
303,159,124946,2,0,P|308:125|306:85,1,75,2|0,0:0|3:0,0:0:0:0:
297,76,125299,2,0,P|291:42|293:2,1,75,2|0,0:0|3:0,0:0:0:0:
123,94,125652,6,0,B|91:71|44:84|44:84|95:46|162:46|214:75,1,262.500002503395,10|0,0:3|3:0,0:0:0:0:
93,333,126004,2,0,L|77:157,1,175.00000166893,8|0,0:0|0:0,0:0:0:0:
303,159,126357,6,0,L|340:238,1,87.500000834465,0|0,0:0|3:0,0:0:0:0:
290,314,126534,1,8,0:3:0:0:
290,314,126622,1,0,0:0:0:0:
378,322,126710,2,0,L|290:314,1,87.500000834465,8|0,0:0|3:0,0:0:0:0:
199,306,126887,2,0,L|249:233,1,87.500000834465,0|0,0:0|3:0,0:0:0:0:
473,73,127063,6,0,B|448:118|467:157|471:162|476:167|489:195|477:243,2,175.00000166893,10|0|8,0:3|0:0|0:0,0:0:0:0:
496,0,127504,1,0,0:0:0:0:
496,0,127593,1,0,0:0:0:0:
249,233,127769,6,0,L|199:306,1,87.500000834465,10|0,0:3|3:0,0:0:0:0:
303,159,127946,1,0,0:0:0:0:
303,159,128034,1,0,0:0:0:0:
340,238,128122,2,0,L|303:159,1,87.500000834465,8|0,0:0|3:0,0:0:0:0:
290,314,128299,2,0,L|378:322,1,87.500000834465,0|0,0:0|3:0,0:0:0:0:
116,72,128475,6,0,L|91:333,1,262.500002503395,10|0,0:3|3:0,0:0:0:0:
273,96,128828,6,0,P|280:54|264:13,1,87.500000834465,8|0,0:0|3:0,0:0:0:0:
115,72,129005,1,0,0:0:0:0:
115,72,129093,1,0,0:0:0:0:
203,64,129181,2,0,L|116:72,1,87.500000834465,0|0,0:0|3:0,0:0:0:0:
46,37,129358,2,0,P|39:79|55:119,1,87.500000834465,8|0,0:3|3:0,0:0:0:0:
249,233,129534,6,0,L|423:216,1,175.00000166893,8|0,0:0|0:0,0:0:0:0:
174,241,129887,1,2,0:0:0:0:
431,130,130063,2,0,L|423:217,1,87.500000834465,0|0,0:0|3:0,0:0:0:0:
165,229,130240,1,8,0:0:0:0:
458,348,130416,5,0,0:0:0:0:
367,268,130592,1,2,0:0:0:0:
487,279,130769,1,8,0:3:0:0:
384,341,130945,5,8,0:0:0:0:
384,341,131033,1,0,0:0:0:0:
432,229,131122,1,0,0:0:0:0:
293,345,131299,6,0,P|202:259|78:289,1,262.500002503395,10|0,0:3|3:0,0:0:0:0:
13,249,131652,2,0,P|4:291|16:333,1,87.500000834465,8|0,0:0|3:0,0:0:0:0:
306,339,131828,6,0,P|255:269|173:241,1,175.00000166893
97,365,132181,1,8,0:3:0:0:
86,364,132269,1,0,0:0:0:0:
16,333,132358,2,0,P|4:291|14:249,1,87.500000834465,8|0,0:0|3:0,0:0:0:0:
260,18,132534,6,0,L|264:67,1,50,0|0,0:0|3:0,0:0:0:0:
334,95,132710,2,0,L|338:144,1,50,10|0,0:3|3:0,0:0:0:0:
301,210,132887,2,0,L|305:259,1,50,0|0,0:0|3:0,0:0:0:0:
48,171,133063,5,8,0:0:0:0:
54,161,133151,1,0,0:0:0:0:
116,116,133240,2,0,P|158:126|189:156,1,87.500000834465,0|0,0:0|3:0,0:0:0:0:
181,355,133416,6,0,P|223:343|253:312,1,87.500000834465,2|0,0:0|3:0,0:0:0:0:
115,115,133593,1,8,0:3:0:0:
115,115,133681,1,0,0:0:0:0:
189,156,133769,2,0,P|158:126|116:116,1,87.500000834465,8|0,0:0|3:0,0:0:0:0:
13,249,133946,2,0,P|4:291|16:333,1,87.500000834465,0|0,0:0|3:0,0:0:0:0:
374,268,134122,6,0,B|414:227|414:227|377:172|280:168|232:231,1,262.500002503395,10|0,0:3|3:0,0:0:0:0:
224,243,134475,1,8,0:0:0:0:
475,275,134652,2,0,P|491:235|484:192,1,87.500000834465,0|0,0:0|3:0,0:0:0:0:
429,138,134828,1,0,0:0:0:0:
474,275,135004,1,8,0:3:0:0:
474,275,135093,1,0,0:0:0:0:
484,192,135181,6,0,P|491:235|475:275,1,87.500000834465,8|0,0:0|3:0,0:0:0:0:
429,138,135357,2,0,P|412:98|419:55,1,87.500000834465,0|0,0:0|3:0,0:0:0:0:
176,180,135534,5,2,0:0:0:0:
293,81,135711,1,2,0:0:0:0:
185,72,135887,1,2,0:0:0:0:
284,189,136063,1,2,0:0:0:0:
224,243,136240,6,0,L|221:274,2,31.25,2|2|2,0:0|0:0|0:0,0:0:0:0:
213,351,136416,2,0,L|210:382,2,31.25,2|2|2,0:0|0:0|0:0,0:0:0:0:
185,72,136593,6,0,P|45:113|176:179,1,375,12|0,0:0|3:0,0:0:0:0:
381,35,136946,6,0,L|468:42,1,87.500000834465,10|0,0:0|3:0,0:0:0:0:
373,122,137299,2,0,L|381:35,1,87.500000834465,8|0,0:0|3:0,0:0:0:0:
124,121,137652,6,0,B|72:171|72:171|92:164,1,87.500000834465,8|0,0:0|3:0,0:0:0:0:
287,222,137916,2,0,B|269:152|269:152|265:173,1,87.500000834465,8|0,0:0|3:0,0:0:0:0:
118,312,138181,2,0,B|187:332|187:332|171:318,1,87.500000834465,8|0,0:0|3:0,0:0:0:0:
468,43,138357,6,0,L|460:130,1,87.500000834465,10|0,0:0|3:0,0:0:0:0:
176,218,138534,1,0,0:0:0:0:
373,122,138710,2,0,L|460:130,1,87.500000834465,8|0,0:0|3:0,0:0:0:0:
176,218,138887,1,0,0:0:0:0:
150,110,139063,6,0,B|87:145|87:145|108:144,1,87.500000834465,10|0,0:0|3:0,0:0:0:0:
282,250,139327,2,0,B|283:178|283:178|273:197,1,87.500000834465,8|0,0:0|3:0,0:0:0:0:
95,293,139592,2,0,B|157:330|157:330|145:313,1,87.500000834465,8|0,0:0|3:0,0:0:0:0:
460,130,139769,6,0,L|373:137,1,87.500000834465,10|0,0:0|3:0,0:0:0:0:
468,217,140122,2,0,L|460:130,1,87.500000834465,8|0,0:0|3:0,0:0:0:0:
179,107,140475,6,0,B|109:125|109:125|130:129,1,87.500000834465,8|0,0:0|3:0,0:0:0:0:
270,276,140739,2,0,B|289:207|289:207|275:223,1,87.500000834465,8|0,0:0|3:0,0:0:0:0:
78,270,141004,2,0,B|128:322|128:322|121:301,1,87.500000834465,8|0,0:0|3:0,0:0:0:0:
373,138,141180,6,0,L|381:225,1,87.500000834465,10|0,0:0|3:0,0:0:0:0:
468,217,141446,1,0,0:0:0:0:
468,217,141533,2,0,L|381:225,1,87.500000834465,8|0,0:0|3:0,0:0:0:0:
176,218,141710,1,0,0:0:0:0:
208,112,141887,6,0,B|136:111|136:111|155:120,1,87.500000834465,10|0,0:0|3:0,0:0:0:0:
251,299,142151,2,0,B|288:236|288:236|271:248,1,87.500000834465,8|0,0:0|3:0,0:0:0:0:
68,243,142416,2,0,B|103:306|103:306|102:285,1,87.500000834465,8|0,0:0|3:0,0:0:0:0:
102,290,142593,6,0,B|103:306|103:306|68:243,1,87.500000834465,10|0,0:0|3:0,0:0:0:0:
149,117,142769,2,0,B|136:111|136:111|208:112,1,87.500000834465,8|0,0:0|3:0,0:0:0:0:
276,245,142946,2,0,B|288:236|288:236|251:299,1,87.500000834465,8|0,0:0|3:0,0:0:0:0:
176,218,143122,1,8,0:0:0:0:
176,218,143210,1,0,0:0:0:0:
88,290,143299,6,0,B|88:307|88:307|56:235,1,87.500000834465,8|0,0:0|3:0,0:0:0:0:
156,105,143475,2,0,B|142:97|142:97|221:105,1,87.500000834465,8|0,0:0|3:0,0:0:0:0:
283,257,143652,2,0,B|297:249|297:249|251:314,1,87.500000834465,8|0,0:0|3:0,0:0:0:0:
73,289,143828,6,0,B|71:307|71:307|62:259|42:225,1,87.500000834465,8|0,0:0|3:0,0:0:0:0:
330,148,144004,1,10,0:0:0:0:
165,93,144181,6,0,B|150:82|150:82|188:95|236:99,1,87.500000834465,8|0,0:0|3:0,0:0:0:0:
159,384,144357,1,8,0:0:0:0:
176,218,144534,5,8,0:0:0:0:
176,218,144622,1,0,0:0:0:0:
289,271,144710,2,0,B|306:264|306:264|272:291|249:330,1,87.500000834465,10|0,0:0|3:0,0:0:0:0:
43,246,144887,2,0,B|26:239|26:239|60:266|83:305,1,87.500000834465,8|0,0:0|3:0,0:0:0:0:
159,384,145063,5,8,0:0:0:0:
159,384,145152,1,0,0:0:0:0:
176,218,145240,1,8,0:0:0:0:
181,205,145416,5,10,0:0:0:0:
190,223,145504,1,8,0:0:0:0:
172,232,145593,1,8,0:0:0:0:
163,214,145681,1,8,0:0:0:0:
187,201,145769,5,8,0:0:0:0:
194,229,145857,1,8,0:0:0:0:
166,236,145946,1,8,0:0:0:0:
159,208,146034,1,8,0:0:0:0:
200,196,146122,5,8,0:0:0:0:
199,241,146210,1,8,0:0:0:0:
154,241,146299,1,8,0:0:0:0:
154,195,146387,1,8,0:0:0:0:
218,195,146475,5,8,0:0:0:0:
200,260,146563,1,8,0:0:0:0:
135,242,146652,1,8,0:0:0:0:
153,177,146740,1,8,0:0:0:0:
176,218,146828,6,0,P|278:253|355:179,1,225.000008583069,10|0,0:0|3:0,0:0:0:0:
299,122,147181,2,0,P|376:48|477:82,1,225.000008583069,2|0,0:0|3:0,0:0:0:0:
0,137,147534,2,0,P|101:171|178:97,1,225.000008583069,2|0,0:0|3:0,0:0:0:0:
300,0,147887,2,0,P|199:-33|122:40,1,225.000008583069,6|0,0:0|3:0,0:0:0:0:
187,220,148240,6,0,L|179:307,1,87.500000834465,8|0,0:3|3:0,0:0:0:0:
7,379,148416,2,0,L|0:291,1,87.500000834465,2|0,0:0|3:0,0:0:0:0:
122,40,148593,6,0,B|100:263|100:263|89:234|73:214,1,262.500002503395,8|0,0:3|3:0,0:0:0:0:
39,36,148946,6,0,P|85:27|126:43,1,87.500000834465,8|0,0:3|3:0,0:0:0:0:
279,104,149122,1,2,0:0:0:0:
279,104,149210,1,10,0:3:0:0:
196,109,149299,2,0,P|242:118|283:101,1,87.500000834465,0|0,0:0|3:0,0:0:0:0:
122,40,149475,2,0,P|81:26|39:36,1,87.500000834465,8|0,0:3|3:0,0:0:0:0:
364,139,149652,6,0,L|356:51,1,87.500000834465,8|0,0:3|3:0,0:0:0:0:
157,291,149828,2,0,L|244:283,1,87.500000834465,2|0,0:0|3:0,0:0:0:0:
420,306,150004,6,0,P|374:215|343:316,1,262.500002503395,8|0,0:3|3:0,0:0:0:0:
235,271,150357,6,0,L|147:278,1,87.500000834465,8|0,0:3|3:0,0:0:0:0:
369,42,150534,1,2,0:0:0:0:
369,42,150622,1,10,0:3:0:0:
377,130,150710,2,0,L|369:42,1,87.500000834465,0|0,0:0|3:0,0:0:0:0:
455,0,150887,2,0,L|462:87,1,87.500000834465,8|0,0:3|3:0,0:0:0:0:
81,339,151063,6,0,P|57:288|72:227,1,112.500004291535,8|0,0:3|3:0,0:0:0:0:
16,174,151240,2,0,P|48:127|108:110,1,112.500004291535,2|0,0:0|3:0,0:0:0:0:
402,350,151416,6,0,B|450:398|523:301|434:253|372:311|366:316|361:320|306:349|273:344|273:344|289:311|280:276,1,337.500012874604,8|0,0:3|3:0,0:0:0:0:
314,164,151769,6,0,P|324:109|301:60,1,112.500004291535,8|0,0:3|3:0,0:0:0:0:
126,34,151946,1,2,0:0:0:0:
126,34,152034,1,10,0:3:0:0:
223,75,152122,2,0,P|181:39|126:35,1,112.500004291535,0|0,0:0|3:0,0:0:0:0:
67,234,152299,2,0,P|57:289|81:339,1,112.500004291535,8|0,0:3|3:0,0:0:0:0:
283,289,152475,6,0,P|335:270|389:9,1,337.500012874604,10|0,0:3|3:0,0:0:0:0:
52,100,152828,2,0,P|104:118|158:380,1,337.500012874604,10|0,0:3|3:0,0:0:0:0:
293,299,153181,2,0,P|350:276|407:11,1,337.500012874604,10|0,0:3|3:0,0:0:0:0:
62,90,153534,2,0,P|119:113|176:378,1,337.500012874604,10|0,0:3|3:0,0:0:0:0:
270,377,153887,6,0,L|358:385,1,87.500000834465,8|0,0:3|3:0,0:0:0:0:
349,163,154063,1,2,0:0:0:0:
349,163,154152,1,2,0:0:0:0:
293,299,154240,6,0,B|279:252|302:209|337:190|337:190|283:167|304:62|412:161|321:173,1,262.500002503395,8|0,0:3|3:0,0:0:0:0:
426,375,154593,6,0,L|338:367,1,87.500000834465,8|0,0:3|3:0,0:0:0:0:
231,177,154769,1,2,0:0:0:0:
231,177,154857,1,10,0:3:0:0:
144,185,154946,2,0,L|232:177,1,87.500000834465,0|0,0:0|3:0,0:0:0:0:
358,354,155122,2,0,L|446:362,1,87.500000834465,8|0,0:3|3:0,0:0:0:0:
342,41,155299,6,0,P|308:68|294:108,1,87.500000834465,8|0,0:3|3:0,0:0:0:0:
438,279,155475,1,2,0:0:0:0:
438,279,155564,1,2,0:0:0:0:
348,162,155652,6,0,B|395:173|421:214|420:254|420:254|467:219|547:290|408:334|443:249,1,262.500002503395,8|0,0:3|3:0,0:0:0:0:
243,166,156004,6,0,P|214:133|207:90,1,87.500000834465,8|0,0:3|3:0,0:0:0:0:
342,41,156181,1,2,0:0:0:0:
342,41,156269,1,10,0:3:0:0:
294,108,156357,2,0,P|308:68|342:41,1,87.500000834465,0|0,0:0|3:0,0:0:0:0:
407,83,156534,2,0,P|449:74|489:90,1,87.500000834465,8|0,0:3|3:0,0:0:0:0:
438,278,156710,6,0,L|325:267,1,112.500004291535,8|0,0:3|3:0,0:0:0:0:
241,278,156887,1,2,0:0:0:0:
241,278,156975,1,2,0:0:0:0:
449,268,157063,6,0,B|183:241|183:241|209:247|230:261|246:285,1,337.500012874604,8|0,0:3|3:0,0:0:0:0:
176,325,157416,6,0,L|63:335,1,112.500004291535,8|0,0:3|3:0,0:0:0:0:
55,173,157593,1,2,0:0:0:0:
55,173,157681,1,10,0:3:0:0:
168,163,157769,2,0,L|55:173,1,112.500004291535,0|0,0:0|3:0,0:0:0:0:
47,11,157946,2,0,L|160:1,1,112.500004291535,8|0,0:3|3:0,0:0:0:0:
296,0,158122,6,0,P|246:168|336:304,1,337.500012874604,10|0,0:3|3:0,0:0:0:0:
436,370,158475,2,0,P|413:195|523:75,1,337.500012874604,10|0,0:3|3:0,0:0:0:0:
277,3,158828,2,0,P|234:162|314:306,1,337.500012874604,10|0,0:3|3:0,0:0:0:0:
417,363,159181,2,0,P|399:199|501:70,1,337.500012874604,10|0,0:3|3:0,0:0:0:0:
299,313,159534,6,0,P|247:355|181:349,1,137.500001311302,8|0,0:3|3:0,0:0:0:0:
90,254,159710,2,0,P|47:201|53:135,1,137.500001311302,0|0,0:0|3:0,0:0:0:0:
183,327,159887,2,0,P|116:320|73:268,1,137.500001311302,0|0,0:0|3:0,0:0:0:0:
75,136,160063,2,0,P|81:69|133:26,1,137.500001311302,0|0,0:0|3:0,0:0:0:0:
317,321,160240,6,0,P|369:278|376:212,1,137.500001311302,8|0,0:0|3:0,0:0:0:0:
396,213,160416,2,0,P|402:147|360:95,1,137.500001311302,0|0,0:0|3:0,0:0:0:0:
374,82,160593,2,0,P|331:30|265:24,1,137.500001311302,0|0,0:0|3:0,0:0:0:0:
265,4,160769,2,0,P|199:-1|147:41,1,137.500001311302,0|0,0:0|3:0,0:0:0:0:
180,348,160946,6,0,P|246:355|299:313,1,137.500001311302,8|0,0:3|3:0,0:0:0:0:
132,26,161122,2,0,P|80:69|75:136,1,137.500001311302,0|0,0:0|3:0,0:0:0:0:
269,211,161299,5,0,0:0:0:0:
184,148,161387,1,0,0:0:0:0:
258,137,161475,1,0,0:0:0:0:
195,222,161563,1,0,0:0:0:0:
396,213,161652,6,0,P|402:147|360:95,1,137.500001311302,8|0,0:0|3:0,0:0:0:0:
146,42,161828,2,0,P|198:0|265:4,1,137.500001311302,0|0,0:0|3:0,0:0:0:0:
374,82,162004,2,0,P|331:30|265:24,1,137.500001311302,8|0,0:3|3:0,0:0:0:0:
74,135,162181,2,0,P|80:69|132:26,1,137.500001311302,0|0,0:0|3:0,0:0:0:0:
375,211,162357,6,0,P|368:278|317:321,1,137.500001311302,8|0,0:3|3:0,0:0:0:0:
90,254,162534,2,0,P|47:201|53:135,1,137.500001311302,0|0,0:0|3:0,0:0:0:0:
267,146,162711,5,0,0:0:0:0:
185,212,162799,1,0,0:0:0:0:
259,220,162887,1,0,0:0:0:0:
193,138,162974,1,0,0:0:0:0:
374,82,163063,6,0,P|331:30|265:24,1,137.500001311302,8|0,0:0|3:0,0:0:0:0:
265,4,163240,2,0,P|198:0|146:42,1,137.500001311302,0|0,0:0|3:0,0:0:0:0:
52,135,163416,2,0,P|47:202|90:254,1,137.500001311302,0|0,0:0|3:0,0:0:0:0:
73,268,163593,2,0,P|116:320|183:327,1,137.500001311302,0|0,0:0|3:0,0:0:0:0:
451,383,163769,6,0,P|489:320|490:246,1,150,10|0,0:3|3:0,0:0:0:0:
460,175,164122,2,0,P|461:100|499:37,1,150,2|0,0:0|3:0,0:0:0:0:
402,226,164475,2,0,P|400:300|362:363,1,150,10|0,0:0|3:0,0:0:0:0:
410,17,164828,2,0,P|371:80|370:154,1,150,10|0,0:0|3:0,0:0:0:0:
328,219,165181,6,0,P|281:201|233:211,1,100,8|0,0:3|3:0,0:0:0:0:
52,300,165357,2,0,P|100:309|147:293,1,100,2|0,0:0|3:0,0:0:0:0:
77,0,165534,6,0,B|82:59|82:59|98:58|98:58|82:59|82:59|86:111|86:111|70:112|70:112|86:111|86:111|97:235,1,300,8|0,0:3|3:0,0:0:0:0:
52,311,165887,6,0,P|100:320|146:303,1,100,8|0,0:3|3:0,0:0:0:0:
327,208,166063,1,2,0:0:0:0:
327,208,166152,1,10,0:3:0:0:
233,201,166240,2,0,P|281:191|327:208,1,100,0|0,0:0|3:0,0:0:0:0:
321,364,166416,2,0,P|272:373|226:356,1,100,8|0,0:3|3:0,0:0:0:0:
377,133,166593,6,0,P|409:169|418:218,1,100,8|0,0:3|3:0,0:0:0:0:
146,210,166769,2,0,P|154:161|187:124,1,100,2|0,0:0|3:0,0:0:0:0:
418,12,166946,6,0,P|287:72|159:4,1,300,8|0,0:3|3:3,0:0:0:0:
97,50,167299,6,0,P|74:94|79:143,1,100,8|0,0:3|3:0,0:0:0:0:
327,208,167475,1,2,0:0:0:0:
327,208,167564,1,10,0:3:0:0:
233,201,167652,2,0,P|279:217|327:208,1,100,0|0,0:0|3:0,0:0:0:0:
377,133,167828,2,0,P|425:123|471:140,1,100,8|0,0:3|3:0,0:0:0:0:
430,329,168004,6,0,L|419:204,1,125,8|0,0:3|3:0,0:0:0:0:
276,15,168181,2,0,L|286:139,1,125,2|0,0:0|3:0,0:0:0:0:
348,334,168357,6,0,B|246:249|174:325|166:327|157:329|95:397|0:333,1,375,8|0,0:3|3:0,0:0:0:0:
19,246,168710,5,8,0:3:0:0:
89,217,168799,1,0,0:0:0:0:
135,156,168887,1,0,0:0:0:0:
144,80,168975,1,8,0:3:0:0:
115,10,169063,2,0,P|90:5|65:6,2,50
210,42,169240,2,0,P|227:24|249:12,2,50,8|0|0,0:3|0:0|0:0,0:0:0:0:
9,106,169416,5,8,0:3:0:0:
164,226,169593,1,0,0:0:0:0:
239,185,169769,6,0,L|235:141,3,37.5000014305115,8|0|0|0,0:3|0:0|0:0|0:0,0:0:0:0:
234,197,169946,2,0,B|259:177|289:182|295:183|301:186|322:198|361:180,1,125,2|0,0:0|3:0,0:0:0:0:
443,73,170122,5,8,0:3:0:0:
410,240,170299,1,0,0:0:0:0:
321,114,170475,2,0,B|338:318|338:318|343:390|233:385|245:281|326:284,1,375,12|0,0:0|3:0,0:0:0:0:
485,225,170828,6,0,L|493:125,1,100,2|0,0:3|0:0,0:0:0:0:
419,141,171181,2,0,L|410:240,1,100
477,299,171534,1,0,0:0:0:0:
402,314,171887,5,0,0:0:0:0:
402,314,172063,1,0,0:0:0:0:
419,141,172240,2,0,L|410:240,1,100,2|0,0:0|0:0,0:0:0:0:
477,299,172593,1,0,0:0:0:0:
18,125,173652,6,0,L|27:225,1,100,2|0,0:0|0:0,0:0:0:0:
101,240,174005,2,0,L|93:141,1,100
35,299,174358,1,0,0:0:0:0:
108,314,174711,5,0,0:0:0:0:
108,314,174887,1,0,0:0:0:0:
101,240,175064,2,0,L|93:141,1,100,2|0,0:0|0:0,0:0:0:0:
18,125,175417,1,0,0:0:0:0:
332,55,176475,6,0,P|373:28|422:30,1,100,2|0,0:0|0:0,0:0:0:0:
453,151,176828,2,0,P|411:177|362:175,1,100
493,76,177181,1,0,0:0:0:0:
295,128,177534,5,0,0:0:0:0:
295,128,177710,1,0,0:0:0:0:
332,55,177887,2,0,P|373:28|422:30,1,100,2|0,0:0|0:0,0:0:0:0:
493,76,178240,1,0,0:0:0:0:
180,55,179299,6,0,P|138:28|89:30,1,100,2|0,0:0|0:0,0:0:0:0:
149,175,179652,2,0,P|100:177|59:150,1,100
19,76,180005,1,0,0:0:0:0:
217,128,180358,5,0,0:0:0:0:
217,128,180534,1,0,0:0:0:0:
89,30,180711,2,0,P|138:28|180:55,1,100,2|0,0:0|0:0,0:0:0:0:
19,76,181064,1,0,0:0:0:0:
312,324,182122,6,0,L|298:174,1,150.000005722046,2|0,0:0|0:0,0:0:0:0:
461,310,182475,2,0,L|312:324,1,150.000005722046
292,97,182828,1,0,0:0:0:0:
455,229,183181,5,0,0:0:0:0:
455,229,183357,1,0,0:0:0:0:
312,324,183710,2,0,L|298:174,1,150.000005722046
213,174,184946,6,0,L|200:324,1,150.000005722046,2|0,0:0|0:0,0:0:0:0:
50,310,185299,2,0,L|200:324,1,150.000005722046
220,97,185652,1,0,0:0:0:0:
57,229,186005,5,0,0:0:0:0:
57,229,186181,1,0,0:0:0:0:
200,324,186357,2,0,L|213:174,1,150.000005722046,2|0,0:0|0:0,0:0:0:0:
50,310,186710,1,0,0:0:0:0:
325,150,187769,5,2,0:0:0:0:
421,138,187946,1,0,0:0:0:0:
313,54,188122,1,0,0:0:0:0:
409,42,188299,1,0,0:0:0:0:
368,354,188475,2,0,L|381:204,1,150.000005722046
313,54,188828,5,0,0:0:0:0:
421,138,189004,1,0,0:0:0:0:
325,150,189181,1,2,0:0:0:0:
409,42,189357,1,0,0:0:0:0:
381,204,189534,2,0,L|368:354,2,150.000005722046,0|0|2,0:0|0:0|0:0,0:0:0:0:
131,204,190063,5,0,0:0:0:0:
145,353,190239,1,0,0:0:0:0:
131,204,190416,1,0,0:0:0:0:
202,85,190593,6,0,P|200:66|200:47,3,37.5000014305115,10|8|8|8,0:0|0:0|0:0|0:0,0:0:0:0:
311,47,190946,2,0,P|311:66|310:85,3,37.5000014305115,8|8|8|8,0:0|0:0|0:0|0:0,0:0:0:0:
212,97,191299,2,0,P|213:115|213:134,3,37.5000014305115,8|8|8|8,0:0|0:0|0:0|0:0,0:0:0:0:
298,134,191652,2,0,P|298:115|300:97,3,37.5000014305115,8|8|8|8,0:0|0:0|0:0|0:0,0:0:0:0:
149,369,192004,6,0,L|411:345,1,262.500010013581,2|0,0:0|3:0,0:0:0:0:
488,254,192710,2,0,L|52:292,1,437.5,2|0,0:0|3:0,0:0:0:0:
256,192,193416,5,0,0:0:0:0:
268,201,194475,6,0,P|252:177|252:205,1,75,0|0,0:0|3:0,0:0:0:0:
323,258,194828,6,0,P|339:276|362:286,1,50,8|0,0:0|3:0,0:0:0:0:
189,126,195004,2,0,P|173:108|150:98,1,50,8|0,0:0|3:0,0:0:0:0:
347,263,195181,2,0,P|382:271|419:263,1,75.0000028610231,8|0,0:0|3:0,0:0:0:0:
165,121,195357,2,0,P|129:112|92:120,1,75.0000028610231,8|0,0:0|3:0,0:0:0:0:
370,255,195534,2,0,P|413:232|444:193,1,100,8|0,0:0|3:0,0:0:0:0:
142,129,195710,2,0,P|98:151|67:190,1,100,8|0,0:0|3:0,0:0:0:0:
385,236,195887,2,0,P|409:179|407:117,1,125,8|0,0:0|3:0,0:0:0:0:
127,148,196063,2,0,P|102:204|104:266,1,125,8|0,0:0|3:0,0:0:0:0:
358,60,196240,5,8,0:0:0:0:
319,23,196328,1,8,0:0:0:0:
281,61,196417,1,8,0:0:0:0:
319,99,196505,1,8,0:0:0:0:
373,45,196593,5,8,0:0:0:0:
304,6,196681,1,8,0:0:0:0:
264,75,196770,1,8,0:0:0:0:
333,115,196858,1,8,0:0:0:0:
328,69,196946,5,8,0:3:0:0:
319,52,197035,1,8,0:3:0:0:
309,67,197123,1,8,0:3:0:0:
0,160,197299,6,0,B|-15:135|-7:115|-7:115|-16:111|-16:111|-6:114|-6:114|6:84|49:79|49:79|134:72|134:72|133:61|133:61|134:72|134:72|189:67,1,300,2|0,0:0|3:0,0:0:0:0:
402,174,197652,6,0,P|355:314|284:184,1,375,8|0,0:3|3:0,0:0:0:0:
402,174,198004,2,0,P|355:314|284:184,1,375,8|0,0:3|3:0,0:0:0:0:
323,113,198357,5,10,0:3:0:0:
272,83,198446,1,2,0:0:0:0:
213,82,198534,1,2,0:0:0:0:
162,111,198622,1,2,0:0:0:0:
323,105,198710,5,10,0:3:0:0:
273,76,198799,1,2,0:0:0:0:
214,75,198887,1,2,0:0:0:0:
162,104,198975,1,2,0:0:0:0:
238,182,199063,6,0,P|93:180|6:64,1,300,10|0,0:3|3:0,0:0:0:0:
158,384,199416,2,0,P|244:267|389:266,1,300,10|0,0:3|3:0,0:0:0:0:
240,171,199769,2,0,P|95:172|13:53,1,300,10|0,0:3|3:0,0:0:0:0:
149,380,200122,2,0,P|235:262|380:254,1,300,10|0,0:3|3:0,0:0:0:0:
487,384,200475,6,0,L|465:134,1,250,8|0,0:3|3:0,0:0:0:0:
405,43,200740,5,0,0:0:0:0:
405,43,200828,2,0,P|359:1|286:10,1,125,8|0,0:3|3:0,0:0:0:0:
266,96,201004,2,0,P|310:137|371:136,1,125,0|0,0:0|3:0,0:0:0:0:
144,60,201181,5,10,0:3:0:0:
102,100,201270,1,2,0:0:0:0:
87,156,201358,1,2,0:0:0:0:
101,213,201446,1,2,0:0:0:0:
137,57,201534,5,10,0:3:0:0:
96,97,201623,1,2,0:0:0:0:
80,153,201711,1,2,0:0:0:0:
94,210,201799,1,2,0:0:0:0:
197,248,201887,6,0,L|190:173,1,75.0000028610231,10|0,0:3|0:0,0:0:0:0:
206,162,202063,2,0,L|212:236,1,75.0000028610231,2|0,0:0|0:0,0:0:0:0:
197,248,202240,2,0,L|190:173,1,75.0000028610231,10|0,0:3|0:0,0:0:0:0:
206,162,202416,2,0,L|212:236,1,75.0000028610231,2|0,0:0|0:0,0:0:0:0:
258,369,202593,5,10,0:3:0:0:
298,329,202682,1,2,0:0:0:0:
313,273,202770,1,2,0:0:0:0:
300,217,202858,1,2,0:0:0:0:
264,371,202946,5,10,0:3:0:0:
305,331,203035,1,2,0:0:0:0:
321,276,203123,1,2,0:0:0:0:
306,220,203211,1,2,0:0:0:0:
214,159,203299,6,0,L|206:259,1,100,10|0,0:3|0:0,0:0:0:0:
191,248,203475,2,0,L|200:149,1,100,2|0,0:0|0:0,0:0:0:0:
214,159,203652,2,0,L|206:259,1,100,10|0,0:3|0:0,0:0:0:0:
191,248,203828,2,0,L|200:149,1,100,2|0,0:0|0:0,0:0:0:0:
197,47,204004,5,10,0:3:0:0:
257,32,204092,1,2,0:0:0:0:
317,48,204180,1,2,0:0:0:0:
360,92,204269,1,2,0:0:0:0:
397,238,204357,5,10,0:3:0:0:
427,269,204446,1,2,0:0:0:0:
469,280,204534,1,2,0:0:0:0:
511,270,204622,1,2,0:0:0:0:
474,181,204710,6,0,P|333:182|265:311,1,300,10|0,0:3|3:0,0:0:0:0:
242,148,205063,2,0,P|101:147|33:18,1,300,10|0,0:3|3:0,0:0:0:0:
474,190,205416,2,0,P|332:192|274:322,1,300,10|0,0:3|3:0,0:0:0:0:
242,137,205769,2,0,P|147:156|66:103,1,200,10|0,0:3|0:0,0:0:0:0:
250,49,206122,6,0,L|243:137,1,87.500000834465,8|0,0:3|3:0,0:0:0:0:
141,289,206299,5,0,0:0:0:0:
274,321,206387,1,0,0:0:0:0:
102,355,206475,1,0,0:0:0:0:
287,328,206563,1,0,0:0:0:0:
64,288,206652,6,0,P|57:245|56:202,1,87.500000834465,0|0,0:0|3:0,0:0:0:0:
337,140,206828,2,0,P|335:201|324:261,1,122.500001168251,8|0,0:0|3:0,0:0:0:0:
341,250,207181,6,0,P|348:206|349:163,1,87.500000834465,0|0,0:0|3:0,0:0:0:0:
250,49,207357,1,0,0:0:0:0:
393,22,207446,1,0,0:0:0:0:
256,171,207534,6,0,L|206:166,1,50,8|0,0:3|3:0,0:0:0:0:
249,181,207710,2,0,L|199:176,1,50,0|0,0:0|3:0,0:0:0:0:
242,191,207887,2,0,L|192:186,1,50,0|0,0:0|3:0,0:0:0:0:
321,35,208063,5,0,0:0:0:0:
441,77,208152,1,0,0:0:0:0:
235,201,208240,2,0,L|112:190,1,122.500001168251,8|0,0:0|3:0,0:0:0:0:
280,271,208593,6,0,P|267:229|234:201,1,87.500000834465,8|0,0:3|3:0,0:0:0:0:
425,193,208769,2,0,P|395:224|388:267,1,87.500000834465,0|0,0:0|3:0,0:0:0:0:
284,106,208946,2,0,P|326:115|366:100,1,87.500000834465,8|0,0:3|3:0,0:0:0:0:
202,278,209122,5,0,0:0:0:0:
331,188,209210,1,0,0:0:0:0:
351,341,209299,2,0,P|394:351|434:336,1,87.500000834465,0|0,0:0|3:0,0:0:0:0:
425,193,209475,2,0,P|395:224|388:267,1,87.500000834465,0|0,0:0|3:0,0:0:0:0:
511,366,209652,2,0,P|511:306|471:261,1,122.500001168251,8|0,0:0|3:0,0:0:0:0:
234,206,210004,5,0,0:0:0:0:
124,287,210093,1,0,0:0:0:0:
83,103,210181,6,0,L|132:107,1,50,0|0,0:0|3:0,0:0:0:0:
90,93,210357,2,0,L|139:97,1,50,8|0,0:3|3:0,0:0:0:0:
97,83,210534,2,0,L|146:87,1,50,0|0,0:0|3:0,0:0:0:0:
202,278,210710,5,0,0:0:0:0:
46,296,210799,1,0,0:0:0:0:
104,73,210887,2,0,L|227:84,1,122.500001168251,0|0,0:0|3:0,0:0:0:0:
442,0,211063,6,0,B|354:84|419:162|425:168|430:175|479:253|395:338,1,367.500003504753,0|0,0:0|3:0,0:0:0:0:
397,337,211416,2,0,B|293:346|293:346|254:361|254:361|129:372,1,268.500003687286,0|0,0:0|3:0,0:0:0:0:
133,372,211769,6,0,L|119:220,1,150.000005722046,8|0,0:3|0:0,0:0:0:0:
121,14,211946,5,0,0:0:0:0:
172,18,212034,1,0,0:0:0:0:
168,70,212122,1,0,0:0:0:0:
116,65,212210,1,0,0:0:0:0:
21,25,212299,6,0,L|34:174,1,150.000005722046
133,372,212475,2,0,P|205:356|252:300,1,150.000005722046,8|0,0:0|3:0,0:0:0:0:
393,276,212652,5,0,0:0:0:0:
341,271,212740,1,0,0:0:0:0:
337,323,212828,1,0,0:0:0:0:
388,327,212916,1,0,0:0:0:0:
488,307,213004,6,0,L|501:158,1,150.000005722046,0|0,0:0|3:0,0:0:0:0:
507,46,213181,2,0,P|436:65|393:125,1,150.000005722046,8|0,0:3|3:0,0:0:0:0:
246,190,213357,5,0,0:0:0:0:
242,138,213445,1,0,0:0:0:0:
293,134,213533,1,0,0:0:0:0:
298,185,213621,1,0,0:0:0:0:
165,163,213710,6,0,L|152:14,1,150.000005722046,0|0,0:0|3:0,0:0:0:0:
378,150,213887,2,0,L|365:299,1,150.000005722046,8|0,0:0|3:0,0:0:0:0:
76,76,214063,5,0,0:0:0:0:
25,80,214151,1,0,0:0:0:0:
20,29,214239,1,8,0:3:0:0:
72,24,214327,1,0,0:0:0:0:
152,14,214416,2,0,L|165:163,1,150.000005722046,0|0,0:0|3:0,0:0:0:0:
78,280,214593,5,8,0:3:0:0:
79,265,214681,1,0,0:0:0:0:
80,250,214769,1,0,0:0:0:0:
82,235,214857,1,0,0:0:0:0:
173,264,214946,5,0,0:0:0:0:
174,279,215034,1,0,0:0:0:0:
175,294,215122,1,0,0:0:0:0:
177,309,215210,1,0,0:0:0:0:
84,219,215299,5,8,0:0:0:0:
122,179,215387,1,0,0:0:0:0:
175,165,215475,1,0,0:0:0:0:
228,182,215563,1,0,0:0:0:0:
264,225,215652,5,0,0:0:0:0:
345,282,215740,1,0,0:0:0:0:
440,254,215828,1,0,0:0:0:0:
478,161,215916,1,0,0:0:0:0:
428,75,216004,6,0,P|344:26|190:74,1,262.500002503395,10|0,0:0|3:0,0:0:0:0:
264,225,216357,2,0,P|177:318|50:320,1,262.500002503395,2|0,0:0|3:0,0:0:0:0:
426,85,216710,2,0,P|337:33|190:88,1,262.500002503395,10|0,0:3|3:0,0:0:0:0:
45,309,217063,2,0,P|173:311|258:216,1,262.500002503395,6|0,0:0|3:0,0:0:0:0:
341,141,217416,6,0,L|349:240,1,100,8|0,0:3|3:0,0:0:0:0:
304,313,217593,5,0,0:0:0:0:
406,330,217681,1,8,0:3:0:0:
296,322,217769,1,8,0:3:0:0:
398,339,217857,1,0,0:0:0:0:
494,302,217946,6,0,L|485:202,1,100,0|0,0:0|3:0,0:0:0:0:
341,141,218122,2,0,L|349:240,1,100,8|0,0:3|3:0,0:0:0:0:
497,187,218299,2,0,L|488:87,1,100,0|0,0:0|3:0,0:0:0:0:
196,77,218475,2,0,L|222:375,1,300,8|0,0:3|3:0,0:0:0:0:
122,366,218828,6,0,L|222:375,1,100,8|0,0:3|3:0,0:0:0:0:
203,220,219004,5,0,0:0:0:0:
101,237,219092,1,8,0:3:0:0:
211,229,219180,1,8,0:3:0:0:
109,246,219268,1,0,0:0:0:0:
13,208,219357,6,0,P|26:161|22:111,1,100,0|0,0:0|3:0,0:0:0:0:
138,22,219533,2,0,P|121:71|130:121,1,100,8|0,0:3|3:0,0:0:0:0:
41,100,219710,2,0,P|33:51|7:9,1,100,0|0,0:0|3:0,0:0:0:0:
365,21,219887,2,0,P|356:137|281:48,1,300,8|0,0:3|3:0,0:0:0:0:
362,8,220240,6,0,P|312:10|271:37,1,100,8|0,0:3|3:0,0:0:0:0:
319,224,220416,5,0,0:0:0:0:
421,207,220504,1,8,0:3:0:0:
311,215,220592,1,8,0:3:0:0:
413,198,220680,1,0,0:0:0:0:
509,235,220769,6,0,L|500:335,1,100,0|0,0:0|3:0,0:0:0:0:
221,305,220946,2,0,L|230:205,1,100,8|0,0:3|3:0,0:0:0:0:
506,142,221122,2,0,L|497:242,1,100,0|0,0:0|3:0,0:0:0:0:
243,214,221299,2,0,L|252:114,1,100,8|0,0:3|3:0,0:0:0:0:
388,8,221475,2,0,L|379:108,1,100,0|0,0:0|3:0,0:0:0:0:
412,328,221652,2,0,L|312:319,1,100,8|0,0:3|3:0,0:0:0:0:
35,134,221828,5,0,0:0:0:0:
18,236,221916,1,8,0:3:0:0:
26,126,222004,1,8,0:3:0:0:
9,228,222092,1,0,0:0:0:0:
46,324,222181,6,0,P|95:330|143:316,1,100,0|0,0:0|3:0,0:0:0:0:
265,88,222357,6,0,B|321:34|279:-67|135:9|248:102|248:102|257:197|257:197|242:198|242:198|257:197|257:197|262:253|262:253|279:251|279:251|262:253|262:253|272:377,1,600,8|0,0:0|3:0,0:0:0:0:
272,377,222710,2,0,B|262:253|262:253|279:251|279:251|262:253|262:253|257:197|257:197|242:198|242:198|257:197|257:197|248:102|248:102|135:9|279:-67|321:34|265:88,1,600,8|0,0:0|3:0,0:0:0:0:
265,88,223062,1,4,0:0:0:0:
425,33,223240,5,0,0:0:0:0:
422,52,223328,1,0,0:0:0:0:
419,71,223416,1,8,0:3:0:0:
485,142,223593,5,0,0:0:0:0:
482,161,223681,1,0,0:0:0:0:
479,180,223769,2,0,L|454:177,4,25,10|2|2|2|2,0:3|0:0|0:0|0:0|0:0,0:0:0:0:
424,248,224034,5,0,0:0:0:0:
421,267,224122,1,8,0:3:0:0:
220,119,224299,5,8,0:3:0:0:
329,154,224475,1,8,0:3:0:0:
106,57,224652,5,0,0:0:0:0:
103,38,224740,1,0,0:0:0:0:
100,19,224828,1,8,0:3:0:0:
37,142,225004,5,0,0:0:0:0:
56,139,225092,1,0,0:0:0:0:
75,136,225180,1,8,0:3:0:0:
77,257,225357,5,0,0:0:0:0:
74,238,225445,1,0,0:0:0:0:
71,219,225533,1,8,0:3:0:0:
294,263,225710,5,8,0:3:0:0:
185,228,225887,1,8,0:3:0:0:
485,142,226063,5,0,0:0:0:0:
482,123,226151,1,0,0:0:0:0:
479,104,226239,1,8,0:3:0:0:
444,247,226416,5,0,0:0:0:0:
441,228,226504,1,0,0:0:0:0:
438,209,226592,1,8,0:3:0:0:
403,352,226769,5,0,0:0:0:0:
400,333,226857,1,0,0:0:0:0:
397,314,226945,1,8,0:3:0:0:
487,20,227122,5,0,0:0:0:0:
468,23,227210,1,0,0:0:0:0:
449,25,227299,6,0,P|378:49|322:99,1,150,10|0,0:3|3:0,0:0:0:0:
260,165,227652,2,0,P|189:141|133:91,1,150,10|0,0:3|3:0,0:0:0:0:
333,236,228004,2,0,P|262:259|206:309,1,150,10|0,0:3|3:0,0:0:0:0:
16,301,228357,2,0,P|72:351|143:375,1,150,10|0,0:0|3:0,0:0:0:0:
128,286,228710,6,0,L|117:161,1,125,8|0,0:3|3:0,0:0:0:0:
73,82,228887,2,0,L|197:71,1,125,2|0,0:0|3:0,0:0:0:0:
443,30,229063,6,0,B|414:346|414:346|413:309|400:290,1,375,8|0,0:3|3:0,0:0:0:0:
287,151,229416,6,0,L|277:27,1,125,8|0,0:3|3:0,0:0:0:0:
73,82,229593,1,2,0:0:0:0:
73,82,229681,1,10,0:3:0:0:
197,71,229769,2,0,L|73:82,1,125,0|0,0:0|3:0,0:0:0:0:
117,161,229946,2,0,L|128:286,1,125,8|0,0:3|3:0,0:0:0:0:
331,230,230122,6,0,L|207:241,1,125,8|0,0:3|3:0,0:0:0:0:
4,275,230299,2,0,L|128:285,1,125,2|0,0:0|3:0,0:0:0:0:
512,356,230475,6,0,B|196:327|196:327|233:326|251:313,1,375,8|0,0:3|3:0,0:0:0:0:
207,241,230828,6,0,L|331:230,1,125,8|0,0:3|3:0,0:0:0:0:
4,185,231004,1,2,0:0:0:0:
4,185,231093,1,10,0:3:0:0:
129,196,231181,2,0,L|4:185,1,125,0|0,0:0|3:0,0:0:0:0:
207,151,231357,2,0,L|331:140,1,125,8|0,0:3|3:0,0:0:0:0:
22,49,231534,6,0,P|-12:113|4:185,1,150.000005722046,8|0,0:3|3:0,0:0:0:0:
99,302,231710,2,0,P|172:299|226:249,1,150.000005722046,2|0,0:0|3:0,0:0:0:0:
505,223,231887,6,0,B|580:143|642:240|590:285|522:274|522:274|454:258|420:238|415:234|411:229|366:204|304:230,1,450.000017166138,8|0,0:3|3:0,0:0:0:0:
226,249,232240,6,0,P|172:299|98:301,1,150.000005722046,8|0,0:3|3:0,0:0:0:0:
284,108,232416,1,2,0:0:0:0:
284,108,232504,1,10,0:3:0:0:
175,25,232593,2,0,P|245:46|284:108,1,150.000005722046,0|0,0:0|3:0,0:0:0:0:
4,185,232769,2,0,P|-12:113|22:49,1,150.000005722046,8|0,0:3|3:0,0:0:0:0:
107,83,232946,6,0,L|133:381,1,300.000011444092,8|0,0:3|3:0,0:0:0:0:
13,302,233210,1,0,0:0:0:0:
13,302,233299,2,0,L|23:177,1,125,8|0,0:3|3:0,0:0:0:0:
301,85,233475,1,0,0:0:0:0:
301,85,233563,1,0,0:0:0:0:
301,85,233652,2,0,L|327:383,1,300,8|0,0:3|3:0,0:0:0:0:
409,350,234004,6,0,L|483:355,1,75.0000028610231,2|0,0:0|3:0,0:0:0:0:
475,271,234181,2,0,L|400:265,1,75.0000028610231,2|0,0:0|3:0,0:0:0:0:
205,352,234357,6,0,L|194:227,1,125,8|0,0:3|3:0,0:0:0:0:
73,242,234534,1,2,0:0:0:0:
73,242,234622,2,0,L|62:117,1,125,8|0,0:3|3:0,0:0:0:0:
157,152,234799,1,2,0:0:0:0:
157,152,234887,2,0,L|146:27,1,125,8|0,0:3|3:0,0:0:0:0:
475,271,235063,6,0,L|300:286,1,175.00000166893,8|0,0:0|3:0,0:0:0:0:
73,242,235240,5,2,0:0:0:0:
73,242,235328,2,0,L|62:117,1,125,8|0,0:3|3:0,0:0:0:0:
157,152,235505,1,2,0:0:0:0:
157,152,235593,2,0,L|146:27,1,125,8|0,0:3|3:0,0:0:0:0:
365,4,235769,6,0,L|354:128,1,125,8|0,0:3|3:0,0:0:0:0:
279,165,235946,1,2,0:0:0:0:
279,165,236034,2,0,L|268:289,1,125,8|0,0:3|3:0,0:0:0:0:
406,245,236211,1,2,0:0:0:0:
406,245,236299,2,0,L|395:369,1,125,8|0,0:3|3:0,0:0:0:0:
108,34,236475,6,0,L|282:49,1,175.00000166893,8|0,0:0|3:0,0:0:0:0:
279,165,236652,5,2,0:0:0:0:
279,165,236740,2,0,L|268:289,1,125,8|0,0:3|3:0,0:0:0:0:
406,245,236917,1,2,0:0:0:0:
406,245,237005,2,0,L|395:369,1,125,8|0,0:3|3:0,0:0:0:0:
142,384,237181,6,0,L|128:234,1,150.000005722046,8|0,0:3|3:0,0:0:0:0:
480,212,237357,1,2,0:0:0:0:
480,212,237446,2,0,L|493:62,1,150.000005722046,8|0,0:3|3:0,0:0:0:0:
364,161,237622,1,2,0:0:0:0:
364,161,237710,2,0,L|377:11,1,150.000005722046,8|0,0:3|3:0,0:0:0:0:
40,307,237887,6,0,L|55:132,1,175.00000166893,8|0,0:0|3:0,0:0:0:0:
272,95,238063,1,2,0:0:0:0:
272,95,238151,2,0,L|287:269,1,175.00000166893,8|0,0:3|3:0,0:0:0:0:
152,21,238328,1,2,0:0:0:0:
152,21,238416,2,0,L|167:195,1,175.00000166893,8|0,0:3|3:0,0:0:0:0:
472,307,238593,6,0,L|489:107,1,200,8|0,0:3|3:0,0:0:0:0:
411,24,238769,1,2,0:0:0:0:
411,24,238857,2,0,L|393:223,1,200,8|0,0:3|3:0,0:0:0:0:
94,373,239034,1,2,0:0:0:0:
94,373,239122,2,0,L|76:173,1,200,8|0,0:3|3:0,0:0:0:0:
247,88,239299,6,0,B|191:34|233:-67|377:9|264:102|264:102|255:197|255:197|270:198|270:198|255:197|255:197|250:253|250:253|233:251|233:251|250:253|250:253|240:377,1,600,8|0,0:0|3:0,0:0:0:0:
240,377,239652,2,0,B|250:253|250:253|233:251|233:251|250:253|250:253|255:197|255:197|270:198|270:198|255:197|255:197|264:102|264:102|377:9|233:-67|191:34|247:88,1,600,8|0,0:0|3:0,0:0:0:0:
247,88,240004,1,10,0:3:0:0:
358,3,241416,6,0,L|445:10,1,87.5,2|0,0:0|3:0,0:0:0:0:
396,87,242122,2,0,L|452:154,1,87.5,2|0,0:0|3:0,0:0:0:0:
363,174,242828,2,0,L|346:360,1,187.5,2|0,0:0|3:0,0:0:0:0:
267,351,244240,6,0,L|179:358,1,87.5,2|0,0:0|3:0,0:0:0:0:
83,266,244946,2,0,L|170:273,1,87.5,2|0,0:0|3:0,0:0:0:0:
260,264,245652,2,0,L|243:77,1,187.5,2|0,0:0|3:0,0:0:0:0:
358,3,247063,6,0,L|445:10,1,87.5,2|0,0:0|3:0,0:0:0:0:
396,87,247769,2,0,L|452:154,1,87.5,2|0,0:0|3:0,0:0:0:0:
363,174,248475,2,0,L|348:335,1,162.5,2|0,0:0|3:0,0:0:0:0:
430,346,249710,5,0,0:0:0:0:
89,287,249887,2,0,P|35:237|28:158,1,150.000005722046,2|0,0:0|3:0,0:0:0:0:
198,75,250152,2,0,P|139:119|122:190,1,150.000005722046,0|0,0:0|3:0,0:0:0:0:
441,334,250416,5,0,0:0:0:0:
223,171,250593,2,0,P|329:157|391:245,1,225.000008583069,2|0,0:0|3:0,0:0:0:0:
452,322,250946,2,0,P|474:249|439:140,1,187.500007152558,0|0,0:0|3:0,0:0:0:0:
348,6,251299,5,0,0:0:0:0:
