osu file format v14

[General]
AudioFilename: audio.mp3
AudioLeadIn: 0
PreviewTime: 29555
Countdown: 0
SampleSet: Soft
StackLeniency: 0.6
Mode: 0
LetterboxInBreaks: 0
WidescreenStoryboard: 0

[Editor]
DistanceSpacing: 1
BeatDivisor: 4
GridSize: 4
TimelineZoom: 1.6

[Metadata]
Title:IN THE DEEP@DIVINE ROAD
TitleUnicode:深奏神路
Artist:takoyaki_o
ArtistUnicode:takoyaki_o
Creator:Strategas
Version:xChorse's Hard
Source:四女神オンライン CYBER DIMENSION NEPTUNE
Tags:xchorse niyuji Cyberdimension Neptunia 4 Goddesses Online ost idea factory compile heart electronic instrumental shinsou shinro
BeatmapID:1716946
BeatmapSetID:809243

[Difficulty]
HPDrainRate:3.5
CircleSize:3.5
OverallDifficulty:5
ApproachRate:7.4
SliderMultiplier:1.6
SliderTickRate:1

[Events]
//Background and Video events
0,0,"hardv2.jpg",0,0
//Break Periods
2,2327,7716
2,9184,14574
2,57184,66431
//Storyboard Layer 0 (Background)
//Storyboard Layer 1 (Fail)
//Storyboard Layer 2 (Pass)
//Storyboard Layer 3 (Foreground)
//Storyboard Layer 4 (Overlay)
//Storyboard Sound Samples

[TimingPoints]
413,428.571428571429,4,2,25,50,1,0
1698,-100,4,2,25,50,0,0
2127,-200,4,2,25,70,0,0
2341,-100,4,2,25,55,0,0
15841,-100,4,2,25,60,0,0
16269,-100,4,2,25,30,0,0
16484,-100,4,2,25,60,0,0
16698,-100,4,2,25,30,0,0
16805,-100,4,2,25,60,0,0
17127,-100,4,2,25,30,0,0
17341,-100,4,2,25,60,0,0
17555,-100,4,2,25,35,0,0
17662,-100,4,2,25,60,0,0
17984,-100,4,2,25,35,0,0
18091,-100,4,2,25,60,0,0
18412,-100,4,2,25,35,0,0
18519,-100,4,2,25,60,0,0
18841,-100,4,2,25,35,0,0
18948,-100,4,2,25,60,0,0
19269,-100,4,2,25,40,0,0
19377,-100,4,2,25,60,0,0
19698,-100,4,2,25,40,0,0
19805,-100,4,2,25,60,0,0
20127,-100,4,2,25,40,0,0
20234,-100,4,2,25,60,0,0
20555,-100,4,2,25,40,0,0
20662,-100,4,2,25,60,0,0
20984,-100,4,2,25,40,0,0
21091,-100,4,2,25,60,0,0
21841,-100,4,2,25,40,0,0
21948,-100,4,2,25,60,0,0
22698,-100,4,2,25,45,0,0
22805,-100,4,2,25,60,0,0
23127,-100,4,2,25,45,0,0
23234,-100,4,2,25,60,0,0
23555,-100,4,2,25,45,0,0
23662,-100,4,2,25,60,0,0
23984,-100,4,2,25,45,0,0
24091,-100,4,2,25,60,0,0
24412,-100,4,2,25,50,0,0
24519,-100,4,2,25,60,0,0
24841,-100,4,2,25,50,0,0
24948,-100,4,2,25,60,0,0
25269,-100,4,2,25,50,0,0
25377,-100,4,2,25,60,0,0
25698,-100,4,2,25,50,0,0
25912,-100,4,2,25,60,0,0
29552,-100,4,2,26,65,0,0
42841,-100,4,2,27,65,0,0
43269,-100,4,2,26,15,0,0
43484,-100,4,2,26,45,0,0
43698,-100,4,2,26,65,0,0
44127,-100,4,2,26,65,0,0
50341,-100,4,2,26,45,0,0
50555,-100,4,2,26,65,0,0
50984,-100,4,2,26,65,0,0
52269,-100,4,2,26,65,0,0
52698,-100,4,2,26,65,0,0
53983,-100,4,2,26,65,0,0
54412,-100,4,2,26,65,0,0
54841,-100,4,2,26,65,0,0
56984,-100,4,2,26,45,0,0
70698,-133.333333333333,4,2,26,50,0,0
77555,-100,4,2,26,50,0,0
79269,-80,4,2,26,50,0,0
82698,-133.333333333333,4,2,26,50,0,0
83877,-100,4,2,26,10,0,0
83984,-100,4,2,26,50,0,0
84413,-100,4,2,26,75,0,1
84627,-100,4,2,26,75,0,1
87412,-100,4,2,26,45,0,1
87841,-100,4,2,26,75,0,1
90841,-100,4,2,26,75,0,1
91269,-100,4,2,26,75,0,1
94698,-100,4,2,26,75,0,1
98127,-100,4,2,26,75,0,1
104984,-100,4,2,26,75,0,1
110127,-100,4,2,26,75,0,1
110984,-100,4,2,26,80,0,1
111841,-100,4,2,26,80,0,1
123841,-100,4,2,26,70,0,1
125555,-100,4,2,26,80,0,0

[Colours]
Combo1 : 249,223,174
Combo2 : 237,186,204

[HitObjects]
105,352,1698,5,2,0:0:0:0:
105,264,1913,1,2,0:0:0:0:
181,308,2127,1,6,0:0:0:0:
181,308,8555,5,2,3:2:0:0:
257,264,8770,1,2,3:2:0:0:
181,220,8984,1,2,3:2:0:0:
181,220,15413,5,2,3:2:0:0:
105,264,15627,1,2,3:2:0:0:
105,176,15841,1,6,3:2:0:0:
181,220,16055,2,0,L|193:276,2,40,2|0|2,0:0|3:0|3:0,0:0:0:0:
225,144,16484,1,2,3:2:0:0:
301,188,16698,2,0,L|325:300,1,80,2|2,0:3|3:2,0:0:0:0:
405,277,17127,2,0,L|388:198,1,80,2|2,0:3|0:0,0:0:0:0:
349,119,17555,6,0,P|296:104|244:127,1,80,2|2,3:0|0:0,0:0:0:0:
210,46,17984,2,0,P|170:50|133:35,1,80,2|2,3:0|3:2,0:0:0:0:
70,98,18413,2,0,L|86:176,1,80,2|2,0:3|3:2,0:0:0:0:
141,245,18841,1,2,3:0:0:0:
172,162,19055,1,2,3:2:0:0:
246,321,19484,6,0,L|258:377,2,40,2|0|2,0:0|3:0|3:0,0:0:0:0:
307,258,19913,1,2,3:2:0:0:
395,260,20127,2,0,P|415:221|409:167,1,80,2|2,0:3|3:2,0:0:0:0:
358,118,20555,2,0,L|279:101,1,80,2|2,3:0|0:0,0:0:0:0:
248,183,20984,6,0,L|326:199,1,80,2|2,3:0|0:0,0:0:0:0:
415,185,21413,1,2,3:0:0:0:
445,103,21627,1,2,3:2:0:0:
358,118,21841,2,0,L|279:101,1,80,2|2,0:3|3:2,0:0:0:0:
248,183,22270,5,2,3:2:0:0:
172,139,22484,1,2,3:2:0:0:
172,227,22698,1,2,3:0:0:0:
96,183,22913,2,0,L|87:143,2,40,2|0|2,0:0|3:0|3:0,0:0:0:0:
172,227,23341,1,2,3:2:0:0:
125,301,23555,2,0,L|149:413,1,80,2|2,0:3|3:2,0:0:0:0:
233,383,23984,2,0,L|217:305,1,80,2|2,0:3|0:0,0:0:0:0:
274,238,24413,6,0,P|327:253|379:230,1,80,2|2,3:0|0:0,0:0:0:0:
401,176,24841,2,0,P|364:161|324:165,1,80,2|2,3:0|3:2,0:0:0:0:
238,150,25270,2,0,L|221:71,1,80,2|2,0:3|3:2,0:0:0:0:
133,63,25698,1,2,3:0:0:0:
85,137,25913,1,2,3:2:0:0:
155,190,26127,1,2,3:0:0:0:
107,264,26341,6,0,L|119:320,2,40,2|0|2,0:0|3:0|3:0,0:0:0:0:
155,190,26770,1,2,3:2:0:0:
228,238,26984,2,0,P|267:242|304:227,1,80,2|2,0:3|3:2,0:0:0:0:
353,300,27413,2,0,P|389:285|429:289,1,80,2|2,3:0|0:0,0:0:0:0:
477,215,27841,6,0,L|460:136,1,80,2|2,3:0|0:0,0:0:0:0:
384,91,28270,1,2,0:0:0:0:
341,168,28484,1,2,3:2:0:0:
259,133,28698,2,0,P|258:110|247:77,3,40,4|4|2|4,0:3|0:3|3:2|3:0,0:0:0:0:
222,62,29127,2,0,B|184:52|184:52|117:68,1,80,8|4,0:0|0:3,0:0:0:0:
79,120,29555,5,4,3:2:0:0:
121,197,29770,2,0,B|136:224|136:224|120:308,1,80,2|8,0:0|0:0,0:0:0:0:
126,272,30091,1,0,0:0:0:0:
126,272,30198,1,2,0:0:0:0:
197,333,30413,2,0,B|246:340|278:319|278:319|258:295|233:293,1,120,0|0,3:0|0:0,0:0:0:0:
249,297,30841,2,0,P|246:255|245:184,1,80,8|2,0:0|0:0,0:0:0:0:
304,152,31270,5,0,3:0:0:0:
241,89,31484,2,0,B|214:74|214:74|130:90,1,80,2|10,0:0|0:0,0:0:0:0:
166,83,31805,1,0,0:0:0:0:
166,83,31913,1,2,0:0:0:0:
130,170,32127,2,0,B|123:219|143:251|143:251|167:231|169:206,1,120,0|0,3:0|0:0,0:0:0:0:
165,222,32555,1,8,0:0:0:0:
238,172,32770,1,2,0:0:0:0:
279,250,32984,5,0,3:0:0:0:
353,203,33198,2,0,B|368:176|368:176|352:92,1,80,2|10,0:0|0:0,0:0:0:0:
359,128,33520,1,0,0:0:0:0:
359,128,33627,1,2,0:0:0:0:
316,51,33841,2,0,P|257:69|180:37,1,120,0|0,3:0|0:0,0:0:0:0:
187,41,34270,2,0,P|185:80|181:120,1,80,8|2,0:0|0:0,0:0:0:0:
113,177,34698,5,0,3:0:0:0:
169,245,34913,2,0,P|179:279|168:347,1,80,2|10,0:0|0:0,0:0:0:0:
177,343,35234,2,0,P|209:365|248:375,1,80,0|0,0:0|0:0,0:0:0:0:
267,374,35555,2,0,P|305:364|338:341,1,80,0|2,3:0|0:0,0:0:0:0:
339,322,35877,1,0,0:0:0:0:
339,322,35984,2,0,P|336:282|346:243,1,80,8|2,0:0|0:0,0:0:0:0:
392,169,36413,5,0,3:0:0:0:
332,104,36627,2,0,B|305:119|305:119|221:103,1,80,2|10,0:0|0:0,0:0:0:0:
257,109,36948,1,0,0:0:0:0:
257,109,37055,1,2,0:0:0:0:
183,61,37270,2,0,B|190:110|169:142|169:142|145:122|143:97,1,120,0|0,3:0|0:0,0:0:0:0:
147,113,37698,2,0,P|105:110|34:109,1,80,8|0,0:0|0:0,0:0:0:0:
22,184,38127,5,0,3:0:0:0:
67,259,38341,2,0,B|94:274|94:274|178:258,1,80,2|8,0:0|0:0,0:0:0:0:
142,265,38663,1,0,0:0:0:0:
142,265,38770,1,2,0:0:0:0:
218,319,38984,2,0,B|267:326|299:306|299:306|279:282|254:280,1,120,0|0,3:0|0:0,0:0:0:0:
270,284,39413,1,8,0:0:0:0:
313,207,39627,1,2,0:0:0:0:
391,247,39841,5,0,3:0:0:0:
465,200,40055,2,0,B|480:173|480:173|464:89,1,80,2|8,0:0|0:0,0:0:0:0:
471,125,40377,1,0,0:0:0:0:
471,125,40484,1,2,0:0:0:0:
410,60,40698,2,0,P|351:42|274:74,1,120,0|0,3:0|0:0,0:0:0:0:
281,70,41127,2,0,P|285:109|287:149,1,80,8|2,0:0|0:0,0:0:0:0:
244,235,41555,5,0,3:0:0:0:
159,212,41770,2,0,P|125:182|59:178,1,80,2|10,0:0|0:0,0:0:0:0:
56,200,42091,2,0,P|47:244|76:303,1,80,0|0,0:0|0:0,0:0:0:0:
98,296,42413,2,0,P|140:281|177:226,1,80,0|2,3:0|0:0,0:0:0:0:
159,212,42734,1,0,0:0:0:0:
159,212,42841,2,0,P|193:182|259:178,1,80,8|0,0:1|0:0,0:0:0:0:
359,333,43484,5,2,0:0:0:0:
359,333,43591,1,0,0:0:0:0:
359,333,43698,2,0,P|368:294|358:255,1,80,12|2,0:0|0:0,0:0:0:0:
283,209,44127,2,0,B|234:202|202:223|202:223|222:247|247:249,1,120,0|0,3:0|0:0,0:0:0:0:
231,245,44555,2,0,P|234:287|235:358,1,80,8|0,0:0|0:0,0:0:0:0:
160,370,44984,5,0,3:0:0:0:
98,306,45198,2,0,B|71:291|71:291|-13:307,1,80,2|8,0:0|0:0,0:0:0:0:
23,300,45520,1,0,0:0:0:0:
23,300,45627,1,2,0:0:0:0:
8,213,45841,2,0,B|1:164|21:132|21:132|45:152|47:177,1,120,0|0,3:0|0:0,0:0:0:0:
43,161,46270,1,8,0:0:0:0:
112,224,46484,1,2,0:0:0:0:
185,174,46698,5,0,3:0:0:0:
246,236,46913,2,0,B|273:251|273:251|357:235,1,80,2|8,0:0|0:0,0:0:0:0:
321,242,47234,1,0,0:0:0:0:
321,242,47341,1,2,0:0:0:0:
383,179,47555,2,0,P|365:120|397:43,1,120,0|0,3:0|0:0,0:0:0:0:
390,48,47984,2,0,P|351:46|311:42,1,80,8|2,0:0|0:0,0:0:0:0:
234,86,48413,5,0,3:0:0:0:
148,67,48627,2,0,P|138:101|149:169,1,80,2|8,0:0|0:0,0:0:0:0:
140,165,48948,2,0,P|108:187|69:197,1,80,0|0,0:0|0:0,0:0:0:0:
50,205,49270,2,0,P|40:239|51:307,1,80,0|2,3:0|0:0,0:0:0:0:
51,301,49591,1,0,0:0:0:0:
51,301,49698,2,0,P|83:323|122:333,1,80,8|2,0:0|0:0,0:0:0:0:
242,162,50341,5,2,0:0:0:0:
242,162,50448,1,0,0:0:0:0:
241,161,50555,2,0,P|283:149|343:179,1,80,12|2,0:0|0:0,0:0:0:0:
402,217,50984,2,0,B|409:266|388:298|388:298|364:278|362:253,1,120,0|0,3:0|0:0,0:0:0:0:
366,269,51413,2,0,P|324:266|253:265,1,80,8|2,0:0|0:0,0:0:0:0:
212,325,51841,5,0,3:0:0:0:
141,260,52055,1,2,0:0:0:0:
141,260,52163,1,0,0:0:0:0:
140,261,52270,2,0,P|128:219|158:159,1,80,12|2,0:0|0:0,0:0:0:0:
220,137,52698,2,0,B|269:130|301:150|301:150|281:174|256:176,1,120,0|0,3:0|0:0,0:0:0:0:
272,172,53127,1,8,0:0:0:0:
286,265,53341,1,2,0:0:0:0:
212,325,53555,5,0,3:0:0:0:
139,262,53770,1,2,0:0:0:0:
139,262,53877,1,0,0:0:0:0:
140,261,53984,2,0,P|98:249|38:279,1,80,12|2,0:0|0:0,0:0:0:0:
82,162,54413,2,0,P|100:103|68:26,1,120,0|0,3:0|0:0,0:0:0:0:
81,28,54841,2,0,P|120:26|160:21,1,80,12|0,0:0|0:0,0:0:0:0:
224,93,55270,5,4,3:2:0:0:
293,27,55484,1,2,0:0:0:0:
315,119,55698,1,12,0:0:0:0:
246,185,55913,1,2,0:0:0:0:
337,211,56127,1,4,3:1:0:0:
315,119,56341,1,2,0:0:0:0:
406,145,56555,6,0,B|437:146|437:146|471:142,2,53.3333333333333,8|0|0,0:0|3:0|3:0,0:0:0:0:
400,133,56984,5,6,0:0:0:0:
256,192,67270,12,0,70698,3:0:0:0:
259,148,71127,5,0,0:0:0:0:
259,148,71555,2,0,P|261:211|243:294,1,120.000004577637,2|0,0:0|0:0,0:0:0:0:
317,326,72413,2,0,P|370:292|451:266,1,120.000004577637,2|0,0:0|0:0,0:0:0:0:
442,186,73270,2,0,P|386:156|323:99,1,120.000004577637,2|0,0:0|0:0,0:0:0:0:
199,122,74127,5,2,0:0:0:0:
118,97,74555,1,0,0:0:0:0:
71,166,74984,2,0,B|71:190|83:213|83:213|71:237|71:237|86:263|89:296,1,120.000004577637,2|0,0:0|0:0,0:0:0:0:
165,305,75841,2,0,B|185:293|199:271|199:271|226:269|226:269|241:243|268:224,1,120.000004577637,2|2,0:0|0:0,0:0:0:0:
238,154,76698,2,0,B|217:142|191:140|191:140|176:118|176:118|146:118|116:104,1,120.000004577637,2|2,0:0|0:0,0:0:0:0:
83,213,77555,6,0,B|104:250|104:250|96:302,1,80,2|0,0:0|0:0,0:0:0:0:
180,318,77984,2,0,B|201:281|201:281|250:262,1,80,2|0,0:0|0:0,0:0:0:0:
222,181,78413,2,0,B|179:180|179:180|138:147,1,80,2|0,0:0|0:0,0:0:0:0:
210,92,78841,2,0,L|289:75,1,80,2|0,0:0|0:0,0:0:0:0:
364,121,79270,6,0,B|372:137|356:145|364:141|356:137|372:145|372:153|368:161|360:161|356:153|372:153|382:193|359:226,1,100,2|0,0:0|0:0,0:0:0:0:
386,324,79698,2,0,B|368:322|369:305|368:314|376:309|361:318|354:314|349:307|353:300|362:301|354:314|314:303|297:267,1,100,2|0,0:0|0:0,0:0:0:0:
200,241,80127,2,0,B|209:226|224:235|217:231|217:239|216:222|223:218|232:217|236:224|231:231|223:218|253:189|293:192,1,100,2|0,0:0|0:0,0:0:0:0:
364,121,80555,2,0,L|341:18,1,100,2|0,0:0|0:0,0:0:0:0:
264,67,80984,5,2,0:0:0:0:
192,12,81198,1,2,0:0:0:0:
181,102,81413,1,2,0:0:0:0:
253,157,81627,1,2,0:0:0:0:
170,192,81841,1,2,0:0:0:0:
98,137,82055,1,2,0:0:0:0:
15,172,82270,1,2,0:0:0:0:
87,227,82484,1,2,0:0:0:0:
170,192,82698,6,0,B|214:171|258:192|258:192|259:217|259:217|277:225|277:225|295:272|338:298|408:284|422:237,1,300.000011444092,0|0,3:0|0:0,0:0:0:0:
493,192,83984,1,2,0:0:0:0:
493,192,84091,1,2,0:0:0:0:
356,118,84413,6,0,P|361:157|355:197,1,80,4|2,3:2|0:0,0:0:0:0:
262,222,84841,2,0,P|256:261|262:301,1,80,8|2,0:0|0:0,0:0:0:0:
168,326,85270,2,0,P|116:307|36:323,1,120,0|0,3:0|0:0,0:0:0:0:
52,314,85698,1,8,0:0:0:0:
17,233,85913,1,2,0:0:0:0:
17,233,86020,1,8,0:3:0:0:
17,233,86127,6,0,P|22:193|17:153,1,80,0|2,3:2|0:0,0:0:0:0:
11,69,86555,2,0,B|45:65|72:83|72:83|103:99|152:78,1,120,8|0,0:0|0:0,0:0:0:0:
126,87,86984,2,0,L|115:181,1,80,0|2,3:0|0:0,0:0:0:0:
121,254,87413,1,0,0:0:0:0:
214,241,87627,5,2,0:0:0:0:
214,241,87734,1,2,0:0:0:0:
214,241,87841,2,0,L|225:147,1,80,0|0,3:0|0:0,0:0:0:0:
260,81,88270,2,0,P|299:86|339:81,1,80,8|2,0:0|0:0,0:0:0:0:
417,120,88698,2,0,P|398:172|414:252,1,120,0|0,3:0|0:0,0:0:0:0:
405,236,89127,1,8,0:0:0:0:
354,308,89341,1,2,0:0:0:0:
354,308,89448,1,8,0:3:0:0:
354,308,89555,6,0,P|314:302|274:307,1,80,0|0,3:2|0:0,0:0:0:0:
188,288,89984,2,0,B|190:269|205:249|205:249|188:232|188:232|193:203|186:160,1,120,0|0,3:0|0:0,0:0:0:0:
188,179,90413,2,0,P|130:211|56:209,1,120,0|0,3:0|0:0,0:0:0:0:
77,213,90841,1,8,0:0:0:0:
107,120,91055,1,2,0:0:0:0:
107,120,91163,1,0,0:0:0:0:
107,120,91270,6,0,P|112:80|107:40,1,80,0|2,3:2|0:0,0:0:0:0:
191,18,91698,2,0,P|223:42|260:58,1,80,8|2,0:0|0:0,0:0:0:0:
237,141,92127,2,0,P|199:156|131:237,1,120,0|0,3:0|0:0,0:0:0:0:
143,210,92555,1,8,0:0:0:0:
176,301,92770,1,2,0:0:0:0:
176,301,92877,1,8,0:3:0:0:
176,301,92984,6,0,P|216:307|256:302,1,80,0|2,3:2|0:0,0:0:0:0:
341,315,93413,2,0,B|345:281|326:254|326:254|313:219|331:174,1,120,0|0,3:0|0:0,0:0:0:0:
323,199,93841,2,0,P|381:206|398:198,1,80,0|2,3:0|0:0,0:0:0:0:
486,197,94270,1,8,0:0:0:0:
493,117,94484,1,2,0:0:0:0:
493,117,94591,1,2,0:0:0:0:
493,117,94698,6,0,P|499:77|494:37,1,80,6|0,3:2|0:0,0:0:0:0:
407,21,95127,2,0,P|374:45|337:61,1,80,8|2,0:0|0:0,0:0:0:0:
296,138,95555,2,0,P|255:93|202:67,1,120,0|0,3:0|0:0,0:0:0:0:
202,67,95984,2,0,P|146:86|87:79,1,120,10|2,0:0|0:0,0:0:0:0:
87,79,96413,1,0,3:2:0:0:
76,166,96627,6,0,B|74:185|59:205|59:205|76:222|76:222|71:251|78:294,1,120,2|2,0:0|0:0,0:0:0:0:
186,345,97270,2,0,B|184:326|169:306|169:306|186:289|186:289|181:260|188:217,1,120,2|2,3:2|0:0,0:0:0:0:
186,236,97698,2,0,P|244:243|289:225,1,80,8|2,0:0|0:0,0:0:0:0:
331,180,98127,6,0,P|336:140|331:101,1,80,4|2,3:2|0:0,0:0:0:0:
423,75,98555,2,0,P|417:114|423:154,1,80,8|0,0:0|0:0,0:0:0:0:
475,231,98984,2,0,P|420:240|359:294,1,120,0|0,3:0|0:0,0:0:0:0:
369,278,99413,1,8,0:0:0:0:
276,302,99627,1,2,0:0:0:0:
276,302,99734,1,8,0:3:0:0:
276,302,99841,6,0,P|281:262|276:222,1,80,0|0,3:2|0:0,0:0:0:0:
270,138,100270,2,0,B|304:134|331:153|331:153|362:169|411:148,1,120,8|0,0:0|0:0,0:0:0:0:
385,156,100698,2,0,P|399:117|436:86,1,80,0|2,3:0|0:0,0:0:0:0:
509,43,101127,1,0,0:0:0:0:
508,146,101341,5,2,0:0:0:0:
508,146,101448,1,2,0:0:0:0:
508,146,101555,2,0,L|501:235,1,80,0|0,3:0|0:0,0:0:0:0:
411,261,101984,2,0,P|371:266|331:261,1,80,8|0,0:0|0:0,0:0:0:0:
253,201,102413,2,0,P|234:149|250:69,1,120,0|0,3:0|0:0,0:0:0:0:
241,85,102841,1,8,0:0:0:0:
150,33,103055,1,2,0:0:0:0:
150,33,103163,1,8,0:3:0:0:
150,33,103270,6,0,P|110:27|70:32,1,80,0|0,3:0|0:0,0:0:0:0:
26,128,103698,2,0,B|28:147|43:167|43:167|26:184|26:184|31:213|24:256,1,120,0|0,3:0|0:0,0:0:0:0:
27,237,104127,2,0,P|83:216|142:223,1,120,0|0,3:0|0:0,0:0:0:0:
142,223,104555,1,8,0:0:0:0:
221,285,104770,1,2,0:0:0:0:
221,285,104877,1,0,0:0:0:0:
221,285,104984,6,0,P|226:325|221:365,1,80,0|2,3:2|0:0,0:0:0:0:
310,329,105413,2,0,P|341:305|378:289,1,80,8|2,0:0|0:0,0:0:0:0:
457,234,105841,2,0,P|419:219|351:138,1,120,0|0,3:0|0:0,0:0:0:0:
363,164,106270,1,8,0:0:0:0:
362,68,106484,1,2,0:0:0:0:
362,68,106591,1,8,0:3:0:0:
362,68,106698,6,0,P|322:62|282:67,1,80,0|0,3:2|0:0,0:0:0:0:
197,54,107127,2,0,B|193:88|212:115|212:115|225:150|207:195,1,120,0|0,3:0|0:0,0:0:0:0:
214,169,107555,2,0,P|158:189|121:181,1,80,0|2,3:0|0:0,0:0:0:0:
56,155,107984,1,8,0:0:0:0:
23,241,108198,1,2,0:0:0:0:
23,241,108305,1,2,0:0:0:0:
23,241,108413,6,0,P|29:281|24:321,1,80,0|0,3:0|0:0,0:0:0:0:
118,339,108841,2,0,P|154:322|186:299,1,80,8|0,0:0|0:0,0:0:0:0:
239,219,109270,2,0,P|280:264|333:290,1,120,0|0,3:0|0:0,0:0:0:0:
333,290,109698,2,0,P|389:271|448:278,1,120,8|0,0:0|0:0,0:0:0:0:
448,278,110127,1,0,3:2:0:0:
459,191,110341,6,0,B|461:172|476:152|476:152|459:135|459:135|464:106|457:63,1,120,2|0,0:0|0:0,0:0:0:0:
333,181,110984,2,0,B|331:200|316:220|316:220|333:237|333:237|328:266|333:290,1,120,0|0,3:0|0:0,0:0:0:0:
334,317,111413,1,8,0:0:0:0:
261,366,111627,1,8,0:0:0:0:
175,343,111841,6,0,B|138:322|138:322|86:330,1,80,12|2,0:0|0:0,0:0:0:0:
61,249,112270,2,0,B|82:212|82:212|74:160,1,80,8|2,0:0|0:0,0:0:0:0:
154,136,112698,2,0,B|191:156|191:156|243:148,1,80,8|2,0:0|0:0,0:0:0:0:
267,229,113127,2,0,B|246:266|246:266|254:318,1,80,8|2,0:0|0:0,0:0:0:0:
329,343,113555,6,0,B|366:322|366:322|418:330,1,80,8|2,0:0|0:0,0:0:0:0:
443,249,113984,2,0,B|422:212|422:212|430:160,1,80,8|2,0:0|0:0,0:0:0:0:
350,136,114413,2,0,B|312:156|312:156|261:148,1,80,8|2,0:0|0:0,0:0:0:0:
237,229,114841,2,0,P|239:251|238:277,3,40,8|2|2|2,0:0|0:0|0:0|0:0,0:0:0:0:
205,297,115270,6,0,L|126:280,1,80,8|2,0:0|0:0,0:0:0:0:
89,200,115698,2,0,L|106:121,1,80,8|2,0:0|0:0,0:0:0:0:
186,84,116127,2,0,L|265:101,1,80,8|2,0:0|0:0,0:0:0:0:
302,181,116555,2,0,L|285:260,1,80,8|2,0:0|0:0,0:0:0:0:
322,339,116984,6,0,L|401:356,1,80,8|2,0:0|0:0,0:0:0:0:
481,319,117413,2,0,L|498:240,1,80,8|2,0:0|0:0,0:0:0:0:
461,160,117841,2,0,L|382:143,1,80,8|0,0:0|0:0,0:0:0:0:
302,180,118270,2,0,L|285:259,1,80,0|2,3:0|0:0,0:0:0:0:
213,313,118698,5,12,0:0:0:0:
202,223,118913,1,0,3:0:0:0:
285,258,119127,1,8,3:2:0:0:
274,168,119341,1,0,3:0:0:0:
191,133,119555,1,8,3:2:0:0:
119,188,119770,1,0,3:0:0:0:
36,153,119984,1,8,3:2:0:0:
108,98,120198,1,0,3:0:0:0:
119,188,120413,6,0,L|102:267,1,80,8|0,3:2|3:0,0:0:0:0:
185,302,120841,2,0,L|202:223,1,80,8|0,3:2|3:0,0:0:0:0:
274,168,121270,2,0,P|305:191|342:207,1,80,8|0,3:2|3:0,0:0:0:0:
430,200,121698,2,0,P|459:187|485:168,3,40,8|2|2|2,3:2|0:0|3:2|0:0,0:0:0:0:
476,140,122127,5,4,3:2:0:0:
256,192,122234,12,4,125555,0:0:0:0:
